  0
SECTION
  2
HEADER
  9
$ACADVER
  1
AC1015
  9
$ACADMAINTVER
 70
     6
  9
$DWGCODEPAGE
  3
ANSI_932
  9
$INSBASE
 10
0.0
 20
0.0
 30
0.0
  9
$EXTMIN
 10
0.0
 20
0.0
 30
0.0
  9
$EXTMAX
 10
297.0
 20
210.0
 30
0.0
  9
$LIMMIN
 10
0.0
 20
0.0
  9
$LIMMAX
 10
12.0
 20
9.0
  9
$ORTHOMODE
 70
     0
  9
$REGENMODE
 70
     1
  9
$FILLMODE
 70
     1
  9
$QTEXTMODE
 70
     0
  9
$MIRRTEXT
 70
     1
  9
$LTSCALE
 40
3.63743
  9
$ATTMODE
 70
     1
  9
$TEXTSIZE
 40
3.2
  9
$TRACEWID
 40
1.0
  9
$TEXTSTYLE
  7
Standard
  9
$CLAYER
  8
0
  9
$CELTYPE
  6
ByLayer
  9
$CECOLOR
 62
   256
  9
$CELTSCALE
 40
1.0
  9
$DISPSILH
 70
     0
  9
$DIMSCALE
 40
1.0
  9
$DIMASZ
 40
2.5
  9
$DIMEXO
 40
0.625
  9
$DIMDLI
 40
3.75
  9
$DIMRND
 40
0.0
  9
$DIMDLE
 40
0.0
  9
$DIMEXE
 40
1.25
  9
$DIMTP
 40
0.0
  9
$DIMTM
 40
0.0
  9
$DIMTXT
 40
2.5
  9
$DIMCEN
 40
0.09
  9
$DIMTSZ
 40
0.0
  9
$DIMTOL
 70
     0
  9
$DIMLIM
 70
     0
  9
$DIMTIH
 70
     0
  9
$DIMTOH
 70
     0
  9
$DIMSE1
 70
     0
  9
$DIMSE2
 70
     0
  9
$DIMTAD
 70
     0
  9
$DIMZIN
 70
     8
  9
$DIMBLK
  1

  9
$DIMASO
 70
     1
  9
$DIMSHO
 70
     0
  9
$DIMPOST
  1

  9
$DIMAPOST
  1

  9
$DIMALT
 70
     0
  9
$DIMALTD
 70
     3
  9
$DIMALTF
 40
0.03937
  9
$DIMLFAC
 40
1.0
  9
$DIMTOFL
 70
     1
  9
$DIMTVP
 40
0.0
  9
$DIMTIX
 70
     0
  9
$DIMSOXD
 70
     0
  9
$DIMSAH
 70
     0
  9
$DIMBLK1
  1

  9
$DIMBLK2
  1

  9
$DIMSTYLE
  2
ISO-25
  9
$DIMCLRD
 70
     0
  9
$DIMCLRE
 70
     0
  9
$DIMCLRT
 70
     0
  9
$DIMTFAC
 40
1.0
  9
$DIMGAP
 40
0.625
  9
$DIMJUST
 70
     0
  9
$DIMSD1
 70
     0
  9
$DIMSD2
 70
     0
  9
$DIMTOLJ
 70
     0
  9
$DIMTZIN
 70
     8
  9
$DIMALTZ
 70
     0
  9
$DIMALTTZ
 70
     0
  9
$DIMUPT
 70
     0
  9
$DIMDEC
 70
     2
  9
$DIMTDEC
 70
     2
  9
$DIMALTU
 70
     2
  9
$DIMALTTD
 70
     3
  9
$DIMTXSTY
  7
Standard
  9
$DIMAUNIT
 70
     0
  9
$DIMADEC
 70
     0
  9
$DIMALTRND
 40
0.0
  9
$DIMAZIN
 70
     0
  9
$DIMDSEP
 70
    44
  9
$DIMATFIT
 70
     3
  9
$DIMFRAC
 70
     0
  9
$DIMLDRBLK
  1

  9
$DIMLUNIT
 70
     2
  9
$DIMLWD
 70
    -2
  9
$DIMLWE
 70
    -2
  9
$DIMTMOVE
 70
     0
  9
$LUNITS
 70
     2
  9
$LUPREC
 70
     4
  9
$SKETCHINC
 40
1.0
  9
$FILLETRAD
 40
0.0
  9
$AUNITS
 70
     0
  9
$AUPREC
 70
     0
  9
$MENU
  1
.
  9
$ELEVATION
 40
0.0
  9
$PELEVATION
 40
0.0
  9
$THICKNESS
 40
0.0
  9
$LIMCHECK
 70
     0
  9
$CHAMFERA
 40
10.0
  9
$CHAMFERB
 40
10.0
  9
$CHAMFERC
 40
20.0
  9
$CHAMFERD
 40
0.0
  9
$SKPOLY
 70
     0
  9
$TDCREATE
 40
2455975.450587917
  9
$TDUCREATE
 40
2455975.075587917
  9
$TDUPDATE
 40
2455975.450587928
  9
$TDUUPDATE
 40
2455975.075587928
  9
$TDINDWG
 40
0.0000000116
  9
$TDUSRTIMER
 40
0.0000000116
  9
$USRTIMER
 70
     1
  9
$ANGBASE
 50
0.0
  9
$ANGDIR
 70
     0
  9
$PDMODE
 70
     0
  9
$PDSIZE
 40
0.0
  9
$PLINEWID
 40
0.0
  9
$SPLFRAME
 70
     0
  9
$SPLINETYPE
 70
     6
  9
$SPLINESEGS
 70
     8
  9
$HANDSEED
  5
73F
  9
$SURFTAB1
 70
     6
  9
$SURFTAB2
 70
     6
  9
$SURFTYPE
 70
     6
  9
$SURFU
 70
     6
  9
$SURFV
 70
     6
  9
$UCSBASE
  2

  9
$UCSNAME
  2

  9
$UCSORG
 10
0.0
 20
0.0
 30
0.0
  9
$UCSXDIR
 10
1.0
 20
0.0
 30
0.0
  9
$UCSYDIR
 10
0.0
 20
1.0
 30
0.0
  9
$UCSORTHOREF
  2

  9
$UCSORTHOVIEW
 70
     0
  9
$UCSORGTOP
 10
0.0
 20
0.0
 30
0.0
  9
$UCSORGBOTTOM
 10
0.0
 20
0.0
 30
0.0
  9
$UCSORGLEFT
 10
0.0
 20
0.0
 30
0.0
  9
$UCSORGRIGHT
 10
0.0
 20
0.0
 30
0.0
  9
$UCSORGFRONT
 10
0.0
 20
0.0
 30
0.0
  9
$UCSORGBACK
 10
0.0
 20
0.0
 30
0.0
  9
$PUCSBASE
  2

  9
$PUCSNAME
  2

  9
$PUCSORG
 10
0.0
 20
0.0
 30
0.0
  9
$PUCSXDIR
 10
1.0
 20
0.0
 30
0.0
  9
$PUCSYDIR
 10
0.0
 20
1.0
 30
0.0
  9
$PUCSORTHOREF
  2

  9
$PUCSORTHOVIEW
 70
     0
  9
$PUCSORGTOP
 10
0.0
 20
0.0
 30
0.0
  9
$PUCSORGBOTTOM
 10
0.0
 20
0.0
 30
0.0
  9
$PUCSORGLEFT
 10
0.0
 20
0.0
 30
0.0
  9
$PUCSORGRIGHT
 10
0.0
 20
0.0
 30
0.0
  9
$PUCSORGFRONT
 10
0.0
 20
0.0
 30
0.0
  9
$PUCSORGBACK
 10
0.0
 20
0.0
 30
0.0
  9
$USERI1
 70
     0
  9
$USERI2
 70
     0
  9
$USERI3
 70
     0
  9
$USERI4
 70
     0
  9
$USERI5
 70
     0
  9
$USERR1
 40
0.0
  9
$USERR2
 40
0.0
  9
$USERR3
 40
0.0
  9
$USERR4
 40
0.0
  9
$USERR5
 40
0.0
  9
$WORLDVIEW
 70
     1
  9
$SHADEDGE
 70
     3
  9
$SHADEDIF
 70
    70
  9
$TILEMODE
 70
     1
  9
$MAXACTVP
 70
    64
  9
$PINSBASE
 10
0.0
 20
0.0
 30
0.0
  9
$PLIMCHECK
 70
     0
  9
$PEXTMIN
 10
1.000000E+20
 20
1.000000E+20
 30
0.0
  9
$PEXTMAX
 10
-1.000000E+20
 20
-1.000000E+20
 30
0.0
  9
$PLIMMIN
 10
0.0
 20
0.0
  9
$PLIMMAX
 10
12.0
 20
9.0
  9
$UNITMODE
 70
     0
  9
$VISRETAIN
 70
     1
  9
$PLINEGEN
 70
     0
  9
$PSLTSCALE
 70
     1
  9
$TREEDEPTH
 70
  3020
  9
$CMLSTYLE
  2
Standard
  9
$CMLJUST
 70
     0
  9
$CMLSCALE
 40
20.0
  9
$PROXYGRAPHICS
 70
     1
  9
$MEASUREMENT
 70
     1
  9
$CELWEIGHT
370
    -1
  9
$ENDCAPS
280
     0
  9
$JOINSTYLE
280
     0
  9
$LWDISPLAY
290
     0
  9
$INSUNITS
 70
     4
  9
$HYPERLINKBASE
  1

  9
$STYLESHEET
  1

  9
$XEDIT
290
     1
  9
$CEPSNTYPE
380
     0
  9
$PSTYLEMODE
290
     1
  9
$FINGERPRINTGUID
  2
{9E0566F4-1CEB-442A-9669-76BDA4900A31}
  9
$VERSIONGUID
  2
{FAEB1C32-E019-11D5-929B-00C0DF256EC4}
  9
$EXTNAMES
290
     1
  9
$PSVPSCALE
 40
0.0
  9
$OLESTARTUP
290
     0
  0
ENDSEC
  0
SECTION
  2
CLASSES
  0
CLASS
  1
ACDBDICTIONARYWDFLT
  2
AcDbDictionaryWithDefault
  3
ObjectDBX Classes
 90
        0
280
     0
281
     0
  0
CLASS
  1
VISUALSTYLE
  2
AcDbVisualStyle
  3
ObjectDBX Classes
 90
     4095
280
     0
281
     0
  0
CLASS
  1
SCALE
  2
AcDbScale
  3
ObjectDBX Classes
 90
     1153
280
     0
281
     0
  0
CLASS
  1
DICTIONARYVAR
  2
AcDbDictionaryVar
  3
ObjectDBX Classes
 90
        0
280
     0
281
     0
  0
CLASS
  1
ACDBPLACEHOLDER
  2
AcDbPlaceHolder
  3
ObjectDBX Classes
 90
        0
280
     0
281
     0
  0
CLASS
  1
LAYOUT
  2
AcDbLayout
  3
ObjectDBX Classes
 90
        0
280
     0
281
     0
  0
ENDSEC
  0
SECTION
  2
TABLES
  0
TABLE
  2
VPORT
  5
8
330
0
100
AcDbSymbolTable
 70
     1
  0
VPORT
  5
29
330
8
100
AcDbSymbolTableRecord
100
AcDbViewportTableRecord
  2
*Active
 70
     0
 10
0.0
 20
0.0
 11
1.0
 21
1.0
 12
148.5
 22
105.0
 13
0.0
 23
0.0
 14
1.0
 24
1.0
 15
0.0
 25
0.0
 16
0.0
 26
0.0
 36
1.0
 17
0.0
 27
0.0
 37
0.0
 40
212.1
 41
1.691288
 42
50.0
 43
0.0
 44
0.0
 50
0.0
 51
0.0
 71
     0
 72
  1000
 73
     1
 74
     3
 75
     0
 76
     0
 77
     0
 78
     0
281
     0
 65
     1
110
0.0
120
0.0
130
0.0
111
1.0
121
0.0
131
0.0
112
0.0
122
1.0
132
0.0
 79
     0
146
0.0
  0
ENDTAB
  0
TABLE
  2
LTYPE
  5
5
330
0
100
AcDbSymbolTable
 70
     5
  0
LTYPE
  5
14
330
5
100
AcDbSymbolTableRecord
100
AcDbLinetypeTableRecord
  2
ByBlock
 70
     0
  3

 72
    65
 73
     0
 40
0.0
  0
LTYPE
  5
15
330
5
100
AcDbSymbolTableRecord
100
AcDbLinetypeTableRecord
  2
ByLayer
 70
     0
  3

 72
    65
 73
     0
 40
0.0
  0
LTYPE
  5
16
330
5
100
AcDbSymbolTableRecord
100
AcDbLinetypeTableRecord
  2
Continuous
 70
     0
  3
Solid line
 72
    65
 73
     0
 40
0.0
  0
LTYPE
  5
3B
330
5
100
AcDbSymbolTableRecord
100
AcDbLinetypeTableRecord
  2
DASHED
 70
     0
  3
DASHED
 72
    83
 73
     2
 40
0.75
 49
0.5
 74
     0
 49
-0.25
 74
     0
  0
LTYPE
  5
3C
330
5
100
AcDbSymbolTableRecord
100
AcDbLinetypeTableRecord
  2
HIDDEN
 70
     0
  3
HIDDEN
 72
    83
 73
     2
 40
0.375
 49
0.25
 74
     0
 49
-0.125
 74
     0
  0
LTYPE
  5
3D
330
5
100
AcDbSymbolTableRecord
100
AcDbLinetypeTableRecord
  2
CENTER
 70
     0
  3
CENTER
 72
    83
 73
     4
 40
2.0
 49
1.25
 74
     0
 49
-0.25
 74
     0
 49
0.25
 74
     0
 49
-0.25
 74
     0
  0
LTYPE
  5
3E
330
5
100
AcDbSymbolTableRecord
100
AcDbLinetypeTableRecord
  2
PHANTOM
 70
     0
  3
PHANTOM
 72
    83
 73
     6
 40
2.5
 49
1.25
 74
     0
 49
-0.25
 74
     0
 49
0.25
 74
     0
 49
-0.25
 74
     0
 49
0.25
 74
     0
 49
-0.25
 74
     0
  0
ENDTAB
  0
TABLE
  2
LAYER
  5
2
330
0
100
AcDbSymbolTable
 70
     6
  0
LAYER
  5
10
330
2
100
AcDbSymbolTableRecord
100
AcDbLayerTableRecord
  2
0
 70
     0
 62
     7
  6
Continuous
370
    -3
390
F
  0
LAYER
  5
3F
330
2
100
AcDbSymbolTableRecord
100
AcDbLayerTableRecord
  2
001
 70
     0
 62
     7
  6
Continuous
370
    -3
390
F
  0
LAYER
  5
40
330
2
100
AcDbSymbolTableRecord
100
AcDbLayerTableRecord
  2
003
 70
     0
 62
     7
  6
Continuous
370
    -3
390
F
  0
LAYER
  5
41
330
2
100
AcDbSymbolTableRecord
100
AcDbLayerTableRecord
  2
005
 70
     0
 62
     7
  6
Continuous
370
    -3
390
F
  0
LAYER
  5
42
330
2
100
AcDbSymbolTableRecord
100
AcDbLayerTableRecord
  2
008
 70
     0
 62
     7
  6
Continuous
370
    -3
390
F
  0
LAYER
  5
43
330
2
100
AcDbSymbolTableRecord
100
AcDbLayerTableRecord
  2
013
 70
     0
 62
     7
  6
Continuous
370
    -3
390
F
  0
ENDTAB
  0
TABLE
  2
STYLE
  5
3
330
0
100
AcDbSymbolTable
 70
     2
  0
STYLE
  5
11
330
3
100
AcDbSymbolTableRecord
100
AcDbTextStyleTableRecord
  2
Standard
 70
     0
 40
0.0
 41
1.0
 50
0.0
 71
     0
 42
0.2
  3
TXT
  4
BIGFONT
  0
STYLE
  5
44
330
3
100
AcDbSymbolTableRecord
100
AcDbTextStyleTableRecord
  2
TATEGAKI
 70
     4
 40
1.0
 41
1.0
 50
0.0
 71
     0
 42
0.2
  3
TXT
  4
BIGFONT
  0
ENDTAB
  0
TABLE
  2
VIEW
  5
6
330
0
100
AcDbSymbolTable
 70
     0
  0
ENDTAB
  0
TABLE
  2
UCS
  5
7
330
0
100
AcDbSymbolTable
 70
     0
  0
ENDTAB
  0
TABLE
  2
APPID
  5
9
330
0
100
AcDbSymbolTable
 70
     1
  0
APPID
  5
12
330
9
100
AcDbSymbolTableRecord
100
AcDbRegAppTableRecord
  2
ACAD
 70
     0
  0
ENDTAB
  0
TABLE
  2
DIMSTYLE
  5
A
330
0
100
AcDbSymbolTable
 70
     2
100
AcDbDimStyleTable
  0
DIMSTYLE
105
27
330
A
100
AcDbSymbolTableRecord
100
AcDbDimStyleTableRecord
  2
ISO-25
 70
     0
 41
2.5
 42
0.625
 43
3.75
 44
1.25
 73
     0
 74
     0
 77
     1
 78
     8
140
2.5
141
2.5
143
0.03937
147
0.625
171
     3
172
     1
271
     2
272
     2
274
     3
278
    44
283
     0
284
     8
340
11
  0
DIMSTYLE
105
45
102
{ACAD_REACTORS
330
18F
330
190
330
191
330
192
330
193
330
194
330
195
330
196
330
197
330
198
330
199
330
19A
330
19B
330
19C
102
}
330
A
100
AcDbSymbolTableRecord
100
AcDbDimStyleTableRecord
  2
Standard
 70
     0
 41
3.5
 42
0.0
 44
1.5
 73
     0
 74
     0
 77
     1
 78
     8
 79
     2
140
4.0
146
0.8
147
1.0
172
     1
179
     3
271
     3
340
11
  0
ENDTAB
  0
TABLE
  2
BLOCK_RECORD
  5
1
330
0
100
AcDbSymbolTable
 70
    16
  0
BLOCK_RECORD
  5
1F
330
1
100
AcDbSymbolTableRecord
100
AcDbBlockTableRecord
  2
*Model_Space
340
22
  0
BLOCK_RECORD
  5
1B
330
1
100
AcDbSymbolTableRecord
100
AcDbBlockTableRecord
  2
*Paper_Space
340
1E
  0
BLOCK_RECORD
  5
23
330
1
100
AcDbSymbolTableRecord
100
AcDbBlockTableRecord
  2
*Paper_Space0
340
26
  0
BLOCK_RECORD
  5
46
330
1
100
AcDbSymbolTableRecord
100
AcDbBlockTableRecord
  2
13462_KCAD_FINI-1
340
0
102
{BLKREFS
331
18E
102
}
  0
BLOCK_RECORD
  5
52
330
1
100
AcDbSymbolTableRecord
100
AcDbBlockTableRecord
  2
*D2
340
0
  0
BLOCK_RECORD
  5
88
330
1
100
AcDbSymbolTableRecord
100
AcDbBlockTableRecord
  2
*D3
340
0
  0
BLOCK_RECORD
  5
9C
330
1
100
AcDbSymbolTableRecord
100
AcDbBlockTableRecord
  2
*D4
340
0
  0
BLOCK_RECORD
  5
B0
330
1
100
AcDbSymbolTableRecord
100
AcDbBlockTableRecord
  2
*D5
340
0
  0
BLOCK_RECORD
  5
C4
330
1
100
AcDbSymbolTableRecord
100
AcDbBlockTableRecord
  2
*D6
340
0
  0
BLOCK_RECORD
  5
D8
330
1
100
AcDbSymbolTableRecord
100
AcDbBlockTableRecord
  2
*D7
340
0
  0
BLOCK_RECORD
  5
EE
330
1
100
AcDbSymbolTableRecord
100
AcDbBlockTableRecord
  2
*D8
340
0
  0
BLOCK_RECORD
  5
101
330
1
100
AcDbSymbolTableRecord
100
AcDbBlockTableRecord
  2
*D9
340
0
  0
BLOCK_RECORD
  5
115
330
1
100
AcDbSymbolTableRecord
100
AcDbBlockTableRecord
  2
*D10
340
0
  0
BLOCK_RECORD
  5
12B
330
1
100
AcDbSymbolTableRecord
100
AcDbBlockTableRecord
  2
*D11
340
0
  0
BLOCK_RECORD
  5
13F
330
1
100
AcDbSymbolTableRecord
100
AcDbBlockTableRecord
  2
*D12
340
0
  0
BLOCK_RECORD
  5
153
330
1
100
AcDbSymbolTableRecord
100
AcDbBlockTableRecord
  2
*D13
340
0
  0
BLOCK_RECORD
  5
167
330
1
100
AcDbSymbolTableRecord
100
AcDbBlockTableRecord
  2
*D14
340
0
  0
BLOCK_RECORD
  5
17A
330
1
100
AcDbSymbolTableRecord
100
AcDbBlockTableRecord
  2
*D15
340
0
  0
ENDTAB
  0
ENDSEC
  0
SECTION
  2
BLOCKS
  0
BLOCK
  5
20
330
1F
100
AcDbEntity
  8
0
100
AcDbBlockBegin
  2
*Model_Space
 70
     0
 10
0.0
 20
0.0
 30
0.0
  3
*Model_Space
  1

  0
ENDBLK
  5
21
330
1F
100
AcDbEntity
  8
0
100
AcDbBlockEnd
  0
BLOCK
  5
1C
330
1B
100
AcDbEntity
 67
     1
  8
0
100
AcDbBlockBegin
  2
*Paper_Space
 70
     0
 10
0.0
 20
0.0
 30
0.0
  3
*Paper_Space
  1

  0
ENDBLK
  5
1D
330
1B
100
AcDbEntity
 67
     1
  8
0
100
AcDbBlockEnd
  0
BLOCK
  5
24
330
23
100
AcDbEntity
  8
0
100
AcDbBlockBegin
  2
*Paper_Space0
 70
     0
 10
0.0
 20
0.0
 30
0.0
  3
*Paper_Space0
  1

  0
ENDBLK
  5
25
330
23
100
AcDbEntity
  8
0
100
AcDbBlockEnd
  0
BLOCK
  5
47
330
46
100
AcDbEntity
  8
0
100
AcDbBlockBegin
  2
13462_KCAD_FINI-1
 70
     0
 10
0.0
 20
0.0
 30
0.0
  3
13462_KCAD_FINI-1
  1

  0
LINE
  5
49
330
46
100
AcDbEntity
  8
001
 62
   134
370
     9
100
AcDbLine
 10
203.304958
 20
27.033632
 30
0.0
 11
205.152479
 21
30.233632
 31
0.0
  0
LINE
  5
4A
330
46
100
AcDbEntity
  8
001
 62
   134
370
     9
100
AcDbLine
 10
205.152479
 20
30.233632
 30
0.0
 11
201.457437
 21
30.233632
 31
0.0
  0
LINE
  5
4B
330
46
100
AcDbEntity
  8
001
 62
   134
370
     9
100
AcDbLine
 10
201.457437
 20
30.233632
 30
0.0
 11
203.304958
 21
27.033632
 31
0.0
  0
LINE
  5
4C
330
46
100
AcDbEntity
  8
001
 62
   134
370
     9
100
AcDbLine
 10
207.0
 20
27.033632
 30
0.0
 11
208.847521
 21
30.233632
 31
0.0
  0
LINE
  5
4D
330
46
100
AcDbEntity
  8
001
 62
   134
370
     9
100
AcDbLine
 10
208.847521
 20
30.233632
 30
0.0
 11
205.152479
 21
30.233632
 31
0.0
  0
LINE
  5
4E
330
46
100
AcDbEntity
  8
001
 62
   134
370
     9
100
AcDbLine
 10
205.152479
 20
30.233632
 30
0.0
 11
207.0
 21
27.033632
 31
0.0
  0
LINE
  5
4F
330
46
100
AcDbEntity
  8
001
 62
   134
370
     9
100
AcDbLine
 10
210.695042
 20
27.033632
 30
0.0
 11
212.542563
 21
30.233632
 31
0.0
  0
LINE
  5
50
330
46
100
AcDbEntity
  8
001
 62
   134
370
     9
100
AcDbLine
 10
212.542563
 20
30.233632
 30
0.0
 11
208.847521
 21
30.233632
 31
0.0
  0
LINE
  5
51
330
46
100
AcDbEntity
  8
001
 62
   134
370
     9
100
AcDbLine
 10
208.847521
 20
30.233632
 30
0.0
 11
210.695042
 21
27.033632
 31
0.0
  0
ENDBLK
  5
48
330
46
100
AcDbEntity
  8
0
100
AcDbBlockEnd
  0
BLOCK
  5
53
330
52
100
AcDbEntity
  8
0
100
AcDbBlockBegin
  2
*D2
 70
     1
 10
0.0
 20
0.0
 30
0.0
  3
*D2
  1

  0
LINE
  5
55
330
52
100
AcDbEntity
  8
001
370
     9
100
AcDbLine
 10
118.567867
 20
123.645929
 30
0.0
 11
103.192588
 21
123.645929
 31
0.0
  0
LINE
  5
56
330
52
100
AcDbEntity
  8
001
370
     9
100
AcDbLine
 10
117.067867
 20
109.145929
 30
0.0
 11
103.192588
 21
109.145929
 31
0.0
  0
LINE
  5
57
330
52
100
AcDbEntity
  8
001
370
     9
100
AcDbLine
 10
104.692588
 20
123.645929
 30
0.0
 11
104.692588
 21
109.145929
 31
0.0
  0
POLYLINE
  5
58
330
52
100
AcDbEntity
  8
001
370
     9
100
AcDb2dPolyline
 66
     1
 10
0.0
 20
0.0
 30
0.0
  0
VERTEX
  5
5A
330
58
100
AcDbEntity
  8
001
370
     9
100
AcDbVertex
100
AcDb2dVertex
 10
103.754766
 20
120.145929
 30
0.0
  0
VERTEX
  5
5B
330
58
100
AcDbEntity
  8
001
370
     9
100
AcDbVertex
100
AcDb2dVertex
 10
104.692588
 20
123.645929
 30
0.0
  0
VERTEX
  5
5C
330
58
100
AcDbEntity
  8
001
370
     9
100
AcDbVertex
100
AcDb2dVertex
 10
105.630411
 20
120.145929
 30
0.0
  0
SEQEND
  5
59
330
58
100
AcDbEntity
  8
001
370
     9
  0
POLYLINE
  5
5D
330
52
100
AcDbEntity
  8
001
370
     9
100
AcDb2dPolyline
 66
     1
 10
0.0
 20
0.0
 30
0.0
  0
VERTEX
  5
5F
330
5D
100
AcDbEntity
  8
001
370
     9
100
AcDbVertex
100
AcDb2dVertex
 10
105.630411
 20
112.645929
 30
0.0
  0
VERTEX
  5
60
330
5D
100
AcDbEntity
  8
001
370
     9
100
AcDbVertex
100
AcDb2dVertex
 10
104.692588
 20
109.145929
 30
0.0
  0
VERTEX
  5
61
330
5D
100
AcDbEntity
  8
001
370
     9
100
AcDbVertex
100
AcDb2dVertex
 10
103.754766
 20
112.645929
 30
0.0
  0
SEQEND
  5
5E
330
5D
100
AcDbEntity
  8
001
370
     9
  0
TEXT
  5
62
330
52
100
AcDbEntity
  8
001
370
    30
100
AcDbText
 10
103.692588
 20
110.469396
 30
0.0
 40
3.0
  1
１４．５
 50
90.000003
 41
0.823167
100
AcDbText
  0
POINT
  5
85
330
52
100
AcDbEntity
  8
001
370
     9
100
AcDbPoint
 10
118.567867
 20
123.645929
 30
0.0
  0
POINT
  5
86
330
52
100
AcDbEntity
  8
001
370
     9
100
AcDbPoint
 10
117.067867
 20
109.145929
 30
0.0
  0
POINT
  5
87
330
52
100
AcDbEntity
  8
001
370
     9
100
AcDbPoint
 10
104.692588
 20
109.145929
 30
0.0
  0
ENDBLK
  5
54
330
52
100
AcDbEntity
  8
0
100
AcDbBlockEnd
  0
BLOCK
  5
89
330
88
100
AcDbEntity
  8
0
100
AcDbBlockBegin
  2
*D3
 70
     1
 10
0.0
 20
0.0
 30
0.0
  3
*D3
  1

  0
LINE
  5
8B
330
88
100
AcDbEntity
  8
001
370
     9
100
AcDbLine
 10
92.837867
 20
109.145929
 30
0.0
 11
80.425968
 21
109.145929
 31
0.0
  0
LINE
  5
8C
330
88
100
AcDbEntity
  8
001
370
     9
100
AcDbLine
 10
92.837867
 20
93.145929
 30
0.0
 11
80.425968
 21
93.145929
 31
0.0
  0
LINE
  5
8D
330
88
100
AcDbEntity
  8
001
370
     9
100
AcDbLine
 10
81.925968
 20
109.145929
 30
0.0
 11
81.925968
 21
93.145929
 31
0.0
  0
POLYLINE
  5
8E
330
88
100
AcDbEntity
  8
001
370
     9
100
AcDb2dPolyline
 66
     1
 10
0.0
 20
0.0
 30
0.0
  0
VERTEX
  5
90
330
8E
100
AcDbEntity
  8
001
370
     9
100
AcDbVertex
100
AcDb2dVertex
 10
80.988145
 20
105.645929
 30
0.0
  0
VERTEX
  5
91
330
8E
100
AcDbEntity
  8
001
370
     9
100
AcDbVertex
100
AcDb2dVertex
 10
81.925968
 20
109.145929
 30
0.0
  0
VERTEX
  5
92
330
8E
100
AcDbEntity
  8
001
370
     9
100
AcDbVertex
100
AcDb2dVertex
 10
82.86379
 20
105.645929
 30
0.0
  0
SEQEND
  5
8F
330
8E
100
AcDbEntity
  8
001
370
     9
  0
POLYLINE
  5
93
330
88
100
AcDbEntity
  8
001
370
     9
100
AcDb2dPolyline
 66
     1
 10
0.0
 20
0.0
 30
0.0
  0
VERTEX
  5
95
330
93
100
AcDbEntity
  8
001
370
     9
100
AcDbVertex
100
AcDb2dVertex
 10
82.86379
 20
96.645929
 30
0.0
  0
VERTEX
  5
96
330
93
100
AcDbEntity
  8
001
370
     9
100
AcDbVertex
100
AcDb2dVertex
 10
81.925968
 20
93.145929
 30
0.0
  0
VERTEX
  5
97
330
93
100
AcDbEntity
  8
001
370
     9
100
AcDbVertex
100
AcDb2dVertex
 10
80.988145
 20
96.645929
 30
0.0
  0
SEQEND
  5
94
330
93
100
AcDbEntity
  8
001
370
     9
  0
TEXT
  5
98
330
88
100
AcDbEntity
  8
001
370
    30
100
AcDbText
 10
80.925968
 20
96.631537
 30
0.0
 40
3.0
  1
%%c１６
 50
90.000003
 41
0.885175
100
AcDbText
  0
POINT
  5
99
330
88
100
AcDbEntity
  8
001
370
     9
100
AcDbPoint
 10
92.837867
 20
109.145929
 30
0.0
  0
POINT
  5
9A
330
88
100
AcDbEntity
  8
001
370
     9
100
AcDbPoint
 10
92.837867
 20
93.145929
 30
0.0
  0
POINT
  5
9B
330
88
100
AcDbEntity
  8
001
370
     9
100
AcDbPoint
 10
81.925968
 20
93.145929
 30
0.0
  0
ENDBLK
  5
8A
330
88
100
AcDbEntity
  8
0
100
AcDbBlockEnd
  0
BLOCK
  5
9D
330
9C
100
AcDbEntity
  8
0
100
AcDbBlockBegin
  2
*D4
 70
     1
 10
0.0
 20
0.0
 30
0.0
  3
*D4
  1

  0
LINE
  5
9F
330
9C
100
AcDbEntity
  8
001
370
     9
100
AcDbLine
 10
187.057867
 20
113.845929
 30
0.0
 11
202.075625
 21
113.845929
 31
0.0
  0
LINE
  5
A0
330
9C
100
AcDbEntity
  8
001
370
     9
100
AcDbLine
 10
187.057867
 20
88.445929
 30
0.0
 11
202.075625
 21
88.445929
 31
0.0
  0
LINE
  5
A1
330
9C
100
AcDbEntity
  8
001
370
     9
100
AcDbLine
 10
200.575625
 20
113.845929
 30
0.0
 11
200.575625
 21
88.445929
 31
0.0
  0
POLYLINE
  5
A2
330
9C
100
AcDbEntity
  8
001
370
     9
100
AcDb2dPolyline
 66
     1
 10
0.0
 20
0.0
 30
0.0
  0
VERTEX
  5
A4
330
A2
100
AcDbEntity
  8
001
370
     9
100
AcDbVertex
100
AcDb2dVertex
 10
199.637803
 20
110.345929
 30
0.0
  0
VERTEX
  5
A5
330
A2
100
AcDbEntity
  8
001
370
     9
100
AcDbVertex
100
AcDb2dVertex
 10
200.575625
 20
113.845929
 30
0.0
  0
VERTEX
  5
A6
330
A2
100
AcDbEntity
  8
001
370
     9
100
AcDbVertex
100
AcDb2dVertex
 10
201.513447
 20
110.345929
 30
0.0
  0
SEQEND
  5
A3
330
A2
100
AcDbEntity
  8
001
370
     9
  0
POLYLINE
  5
A7
330
9C
100
AcDbEntity
  8
001
370
     9
100
AcDb2dPolyline
 66
     1
 10
0.0
 20
0.0
 30
0.0
  0
VERTEX
  5
A9
330
A7
100
AcDbEntity
  8
001
370
     9
100
AcDbVertex
100
AcDb2dVertex
 10
201.513447
 20
91.945929
 30
0.0
  0
VERTEX
  5
AA
330
A7
100
AcDbEntity
  8
001
370
     9
100
AcDbVertex
100
AcDb2dVertex
 10
200.575625
 20
88.445929
 30
0.0
  0
VERTEX
  5
AB
330
A7
100
AcDbEntity
  8
001
370
     9
100
AcDbVertex
100
AcDb2dVertex
 10
199.637803
 20
91.945929
 30
0.0
  0
SEQEND
  5
A8
330
A7
100
AcDbEntity
  8
001
370
     9
  0
TEXT
  5
AC
330
9C
100
AcDbEntity
  8
001
370
    30
100
AcDbText
 10
199.575625
 20
93.549597
 30
0.0
 40
3.0
  1
Ｃマウント
 50
90.000003
 41
0.844037
100
AcDbText
  0
POINT
  5
AD
330
9C
100
AcDbEntity
  8
001
370
     9
100
AcDbPoint
 10
187.057867
 20
113.845929
 30
0.0
  0
POINT
  5
AE
330
9C
100
AcDbEntity
  8
001
370
     9
100
AcDbPoint
 10
187.057867
 20
88.445929
 30
0.0
  0
POINT
  5
AF
330
9C
100
AcDbEntity
  8
001
370
     9
100
AcDbPoint
 10
200.575625
 20
88.445929
 30
0.0
  0
ENDBLK
  5
9E
330
9C
100
AcDbEntity
  8
0
100
AcDbBlockEnd
  0
BLOCK
  5
B1
330
B0
100
AcDbEntity
  8
0
100
AcDbBlockBegin
  2
*D5
 70
     1
 10
0.0
 20
0.0
 30
0.0
  3
*D5
  1

  0
LINE
  5
B3
330
B0
100
AcDbEntity
  8
001
370
     9
100
AcDbLine
 10
129.067867
 20
123.645929
 30
0.0
 11
129.067867
 21
130.289552
 31
0.0
  0
LINE
  5
B4
330
B0
100
AcDbEntity
  8
001
370
     9
100
AcDbLine
 10
121.067867
 20
123.645929
 30
0.0
 11
121.067867
 21
130.289552
 31
0.0
  0
LINE
  5
B5
330
B0
100
AcDbEntity
  8
001
370
     9
100
AcDbLine
 10
129.067867
 20
128.789552
 30
0.0
 11
121.067867
 21
128.789552
 31
0.0
  0
POLYLINE
  5
B6
330
B0
100
AcDbEntity
  8
001
370
     9
100
AcDb2dPolyline
 66
     1
 10
0.0
 20
0.0
 30
0.0
  0
VERTEX
  5
B8
330
B6
100
AcDbEntity
  8
001
370
     9
100
AcDbVertex
100
AcDb2dVertex
 10
125.567867
 20
129.727374
 30
0.0
  0
VERTEX
  5
B9
330
B6
100
AcDbEntity
  8
001
370
     9
100
AcDbVertex
100
AcDb2dVertex
 10
129.067867
 20
128.789552
 30
0.0
  0
VERTEX
  5
BA
330
B6
100
AcDbEntity
  8
001
370
     9
100
AcDbVertex
100
AcDb2dVertex
 10
125.567867
 20
127.85173
 30
0.0
  0
SEQEND
  5
B7
330
B6
100
AcDbEntity
  8
001
370
     9
  0
POLYLINE
  5
BB
330
B0
100
AcDbEntity
  8
001
370
     9
100
AcDb2dPolyline
 66
     1
 10
0.0
 20
0.0
 30
0.0
  0
VERTEX
  5
BD
330
BB
100
AcDbEntity
  8
001
370
     9
100
AcDbVertex
100
AcDb2dVertex
 10
124.567867
 20
127.85173
 30
0.0
  0
VERTEX
  5
BE
330
BB
100
AcDbEntity
  8
001
370
     9
100
AcDbVertex
100
AcDb2dVertex
 10
121.067867
 20
128.789552
 30
0.0
  0
VERTEX
  5
BF
330
BB
100
AcDbEntity
  8
001
370
     9
100
AcDbVertex
100
AcDb2dVertex
 10
124.567867
 20
129.727374
 30
0.0
  0
SEQEND
  5
BC
330
BB
100
AcDbEntity
  8
001
370
     9
  0
TEXT
  5
C0
330
B0
100
AcDbEntity
  8
001
370
    30
100
AcDbText
 10
122.045308
 20
129.789552
 30
0.0
 40
3.0
  1
%%c８
 41
0.915927
100
AcDbText
  0
POINT
  5
C1
330
B0
100
AcDbEntity
  8
001
370
     9
100
AcDbPoint
 10
129.067867
 20
123.645929
 30
0.0
  0
POINT
  5
C2
330
B0
100
AcDbEntity
  8
001
370
     9
100
AcDbPoint
 10
121.067867
 20
123.645929
 30
0.0
  0
POINT
  5
C3
330
B0
100
AcDbEntity
  8
001
370
     9
100
AcDbPoint
 10
121.067867
 20
128.789552
 30
0.0
  0
ENDBLK
  5
B2
330
B0
100
AcDbEntity
  8
0
100
AcDbBlockEnd
  0
BLOCK
  5
C5
330
C4
100
AcDbEntity
  8
0
100
AcDbBlockBegin
  2
*D6
 70
     1
 10
0.0
 20
0.0
 30
0.0
  3
*D6
  1

  0
LINE
  5
C7
330
C4
100
AcDbEntity
  8
001
370
     9
100
AcDbLine
 10
125.067867
 20
88.511322
 30
0.0
 11
125.067867
 21
77.322753
 31
0.0
  0
LINE
  5
C8
330
C4
100
AcDbEntity
  8
001
370
     9
100
AcDbLine
 10
92.537867
 20
93.445929
 30
0.0
 11
92.537867
 21
77.322753
 31
0.0
  0
LINE
  5
C9
330
C4
100
AcDbEntity
  8
001
370
     9
100
AcDbLine
 10
125.067867
 20
78.822753
 30
0.0
 11
92.537867
 21
78.822753
 31
0.0
  0
POLYLINE
  5
CA
330
C4
100
AcDbEntity
  8
001
370
     9
100
AcDb2dPolyline
 66
     1
 10
0.0
 20
0.0
 30
0.0
  0
VERTEX
  5
CC
330
CA
100
AcDbEntity
  8
001
370
     9
100
AcDbVertex
100
AcDb2dVertex
 10
121.567867
 20
79.760575
 30
0.0
  0
VERTEX
  5
CD
330
CA
100
AcDbEntity
  8
001
370
     9
100
AcDbVertex
100
AcDb2dVertex
 10
125.067867
 20
78.822753
 30
0.0
  0
VERTEX
  5
CE
330
CA
100
AcDbEntity
  8
001
370
     9
100
AcDbVertex
100
AcDb2dVertex
 10
121.567867
 20
77.884931
 30
0.0
  0
SEQEND
  5
CB
330
CA
100
AcDbEntity
  8
001
370
     9
  0
POLYLINE
  5
CF
330
C4
100
AcDbEntity
  8
001
370
     9
100
AcDb2dPolyline
 66
     1
 10
0.0
 20
0.0
 30
0.0
  0
VERTEX
  5
D1
330
CF
100
AcDbEntity
  8
001
370
     9
100
AcDbVertex
100
AcDb2dVertex
 10
96.037867
 20
77.884931
 30
0.0
  0
VERTEX
  5
D2
330
CF
100
AcDbEntity
  8
001
370
     9
100
AcDbVertex
100
AcDb2dVertex
 10
92.537867
 20
78.822753
 30
0.0
  0
VERTEX
  5
D3
330
CF
100
AcDbEntity
  8
001
370
     9
100
AcDbVertex
100
AcDb2dVertex
 10
96.037867
 20
79.760575
 30
0.0
  0
SEQEND
  5
D0
330
CF
100
AcDbEntity
  8
001
370
     9
  0
TEXT
  5
D4
330
C4
100
AcDbEntity
  8
001
370
    30
100
AcDbText
 10
101.455224
 20
79.822753
 30
0.0
 40
3.0
  1
３２．５３
 41
0.816405
100
AcDbText
  0
POINT
  5
D5
330
C4
100
AcDbEntity
  8
001
370
     9
100
AcDbPoint
 10
125.067867
 20
88.511322
 30
0.0
  0
POINT
  5
D6
330
C4
100
AcDbEntity
  8
001
370
     9
100
AcDbPoint
 10
92.537867
 20
93.445929
 30
0.0
  0
POINT
  5
D7
330
C4
100
AcDbEntity
  8
001
370
     9
100
AcDbPoint
 10
92.537867
 20
78.822753
 30
0.0
  0
ENDBLK
  5
C6
330
C4
100
AcDbEntity
  8
0
100
AcDbBlockEnd
  0
BLOCK
  5
D9
330
D8
100
AcDbEntity
  8
0
100
AcDbBlockBegin
  2
*D7
 70
     1
 10
0.0
 20
0.0
 30
0.0
  3
*D7
  1

  0
LINE
  5
DB
330
D8
100
AcDbEntity
  8
001
370
     9
100
AcDbLine
 10
125.067867
 20
88.511322
 30
0.0
 11
125.067867
 21
77.322753
 31
0.0
  0
LINE
  5
DC
330
D8
100
AcDbEntity
  8
001
370
     9
100
AcDbLine
 10
133.067867
 20
92.445929
 30
0.0
 11
133.067867
 21
77.322753
 31
0.0
  0
LINE
  5
DD
330
D8
100
AcDbEntity
  8
001
370
     9
100
AcDbLine
 10
125.067867
 20
78.822753
 30
0.0
 11
133.067867
 21
78.822753
 31
0.0
  0
POLYLINE
  5
DE
330
D8
100
AcDbEntity
  8
001
370
     9
100
AcDb2dPolyline
 66
     1
 10
0.0
 20
0.0
 30
0.0
  0
VERTEX
  5
E0
330
DE
100
AcDbEntity
  8
001
370
     9
100
AcDbVertex
100
AcDb2dVertex
 10
121.567867
 20
79.760575
 30
0.0
  0
VERTEX
  5
E1
330
DE
100
AcDbEntity
  8
001
370
     9
100
AcDbVertex
100
AcDb2dVertex
 10
125.067867
 20
78.822753
 30
0.0
  0
VERTEX
  5
E2
330
DE
100
AcDbEntity
  8
001
370
     9
100
AcDbVertex
100
AcDb2dVertex
 10
121.567867
 20
77.884931
 30
0.0
  0
SEQEND
  5
DF
330
DE
100
AcDbEntity
  8
001
370
     9
  0
POLYLINE
  5
E3
330
D8
100
AcDbEntity
  8
001
370
     9
100
AcDb2dPolyline
 66
     1
 10
0.0
 20
0.0
 30
0.0
  0
VERTEX
  5
E5
330
E3
100
AcDbEntity
  8
001
370
     9
100
AcDbVertex
100
AcDb2dVertex
 10
136.567867
 20
77.884931
 30
0.0
  0
VERTEX
  5
E6
330
E3
100
AcDbEntity
  8
001
370
     9
100
AcDbVertex
100
AcDb2dVertex
 10
133.067867
 20
78.822753
 30
0.0
  0
VERTEX
  5
E7
330
E3
100
AcDbEntity
  8
001
370
     9
100
AcDbVertex
100
AcDb2dVertex
 10
136.567867
 20
79.760575
 30
0.0
  0
SEQEND
  5
E4
330
E3
100
AcDbEntity
  8
001
370
     9
  0
TEXT
  5
E8
330
D8
100
AcDbEntity
  8
001
370
    30
100
AcDbText
 10
127.598339
 20
79.822753
 30
0.0
 40
3.0
  1
８
 41
0.816405
100
AcDbText
  0
POINT
  5
E9
330
D8
100
AcDbEntity
  8
001
370
     9
100
AcDbPoint
 10
125.067867
 20
88.511322
 30
0.0
  0
POINT
  5
EA
330
D8
100
AcDbEntity
  8
001
370
     9
100
AcDbPoint
 10
133.067867
 20
92.445929
 30
0.0
  0
POINT
  5
EB
330
D8
100
AcDbEntity
  8
001
370
     9
100
AcDbPoint
 10
133.067867
 20
78.822753
 30
0.0
  0
LINE
  5
EC
330
D8
100
AcDbEntity
  8
001
370
     9
100
AcDbLine
 10
125.067867
 20
78.822753
 30
0.0
 11
120.567867
 21
78.822753
 31
0.0
  0
LINE
  5
ED
330
D8
100
AcDbEntity
  8
001
370
     9
100
AcDbLine
 10
133.067867
 20
78.822753
 30
0.0
 11
137.567867
 21
78.822753
 31
0.0
  0
ENDBLK
  5
DA
330
D8
100
AcDbEntity
  8
0
100
AcDbBlockEnd
  0
BLOCK
  5
EF
330
EE
100
AcDbEntity
  8
0
100
AcDbBlockBegin
  2
*D8
 70
     1
 10
0.0
 20
0.0
 30
0.0
  3
*D8
  1

  0
LINE
  5
F1
330
EE
100
AcDbEntity
  8
001
370
     9
100
AcDbLine
 10
177.157867
 20
86.145929
 30
0.0
 11
177.157867
 21
77.322753
 31
0.0
  0
LINE
  5
F2
330
EE
100
AcDbEntity
  8
001
370
     9
100
AcDbLine
 10
177.157867
 20
78.822753
 30
0.0
 11
133.067867
 21
78.822753
 31
0.0
  0
POLYLINE
  5
F3
330
EE
100
AcDbEntity
  8
001
370
     9
100
AcDb2dPolyline
 66
     1
 10
0.0
 20
0.0
 30
0.0
  0
VERTEX
  5
F5
330
F3
100
AcDbEntity
  8
001
370
     9
100
AcDbVertex
100
AcDb2dVertex
 10
173.657867
 20
79.760575
 30
0.0
  0
VERTEX
  5
F6
330
F3
100
AcDbEntity
  8
001
370
     9
100
AcDbVertex
100
AcDb2dVertex
 10
177.157867
 20
78.822753
 30
0.0
  0
VERTEX
  5
F7
330
F3
100
AcDbEntity
  8
001
370
     9
100
AcDbVertex
100
AcDb2dVertex
 10
173.657867
 20
77.884931
 30
0.0
  0
SEQEND
  5
F4
330
F3
100
AcDbEntity
  8
001
370
     9
  0
POLYLINE
  5
F8
330
EE
100
AcDbEntity
  8
001
370
     9
100
AcDb2dPolyline
 66
     1
 10
0.0
 20
0.0
 30
0.0
  0
VERTEX
  5
FA
330
F8
100
AcDbEntity
  8
001
370
     9
100
AcDbVertex
100
AcDb2dVertex
 10
136.567867
 20
77.884931
 30
0.0
  0
VERTEX
  5
FB
330
F8
100
AcDbEntity
  8
001
370
     9
100
AcDbVertex
100
AcDb2dVertex
 10
133.067867
 20
78.822753
 30
0.0
  0
VERTEX
  5
FC
330
F8
100
AcDbEntity
  8
001
370
     9
100
AcDbVertex
100
AcDb2dVertex
 10
136.567867
 20
79.760575
 30
0.0
  0
SEQEND
  5
F9
330
F8
100
AcDbEntity
  8
001
370
     9
  0
TEXT
  5
FD
330
EE
100
AcDbEntity
  8
001
370
    30
100
AcDbText
 10
147.765224
 20
79.822753
 30
0.0
 40
3.0
  1
４４．０９
 41
0.816405
100
AcDbText
  0
POINT
  5
FE
330
EE
100
AcDbEntity
  8
001
370
     9
100
AcDbPoint
 10
177.157867
 20
86.145929
 30
0.0
  0
POINT
  5
FF
330
EE
100
AcDbEntity
  8
001
370
     9
100
AcDbPoint
 10
133.067867
 20
78.822753
 30
0.0
  0
POINT
  5
100
330
EE
100
AcDbEntity
  8
001
370
     9
100
AcDbPoint
 10
133.067867
 20
78.822753
 30
0.0
  0
ENDBLK
  5
F0
330
EE
100
AcDbEntity
  8
0
100
AcDbBlockEnd
  0
BLOCK
  5
102
330
101
100
AcDbEntity
  8
0
100
AcDbBlockBegin
  2
*D9
 70
     1
 10
0.0
 20
0.0
 30
0.0
  3
*D9
  1

  0
LINE
  5
104
330
101
100
AcDbEntity
  8
001
370
     9
100
AcDbLine
 10
183.657867
 20
85.945929
 30
0.0
 11
183.657867
 21
65.432222
 31
0.0
  0
LINE
  5
105
330
101
100
AcDbEntity
  8
001
370
     9
100
AcDbLine
 10
92.537867
 20
93.445929
 30
0.0
 11
92.537867
 21
65.432222
 31
0.0
  0
LINE
  5
106
330
101
100
AcDbEntity
  8
001
370
     9
100
AcDbLine
 10
183.657867
 20
66.932222
 30
0.0
 11
92.537867
 21
66.932222
 31
0.0
  0
POLYLINE
  5
107
330
101
100
AcDbEntity
  8
001
370
     9
100
AcDb2dPolyline
 66
     1
 10
0.0
 20
0.0
 30
0.0
  0
VERTEX
  5
109
330
107
100
AcDbEntity
  8
001
370
     9
100
AcDbVertex
100
AcDb2dVertex
 10
180.157867
 20
67.870044
 30
0.0
  0
VERTEX
  5
10A
330
107
100
AcDbEntity
  8
001
370
     9
100
AcDbVertex
100
AcDb2dVertex
 10
183.657867
 20
66.932222
 30
0.0
  0
VERTEX
  5
10B
330
107
100
AcDbEntity
  8
001
370
     9
100
AcDbVertex
100
AcDb2dVertex
 10
180.157867
 20
65.9944
 30
0.0
  0
SEQEND
  5
108
330
107
100
AcDbEntity
  8
001
370
     9
  0
POLYLINE
  5
10C
330
101
100
AcDbEntity
  8
001
370
     9
100
AcDb2dPolyline
 66
     1
 10
0.0
 20
0.0
 30
0.0
  0
VERTEX
  5
10E
330
10C
100
AcDbEntity
  8
001
370
     9
100
AcDbVertex
100
AcDb2dVertex
 10
96.037867
 20
65.9944
 30
0.0
  0
VERTEX
  5
10F
330
10C
100
AcDbEntity
  8
001
370
     9
100
AcDbVertex
100
AcDb2dVertex
 10
92.537867
 20
66.932222
 30
0.0
  0
VERTEX
  5
110
330
10C
100
AcDbEntity
  8
001
370
     9
100
AcDbVertex
100
AcDb2dVertex
 10
96.037867
 20
67.870044
 30
0.0
  0
SEQEND
  5
10D
330
10C
100
AcDbEntity
  8
001
370
     9
  0
TEXT
  5
111
330
101
100
AcDbEntity
  8
001
370
    30
100
AcDbText
 10
130.679574
 20
67.932222
 30
0.0
 40
3.0
  1
９１．１２
 41
0.824255
100
AcDbText
  0
POINT
  5
112
330
101
100
AcDbEntity
  8
001
370
     9
100
AcDbPoint
 10
183.657867
 20
85.945929
 30
0.0
  0
POINT
  5
113
330
101
100
AcDbEntity
  8
001
370
     9
100
AcDbPoint
 10
92.537867
 20
93.445929
 30
0.0
  0
POINT
  5
114
330
101
100
AcDbEntity
  8
001
370
     9
100
AcDbPoint
 10
92.537867
 20
66.932222
 30
0.0
  0
ENDBLK
  5
103
330
101
100
AcDbEntity
  8
0
100
AcDbBlockEnd
  0
BLOCK
  5
116
330
115
100
AcDbEntity
  8
0
100
AcDbBlockBegin
  2
*D10
 70
     1
 10
0.0
 20
0.0
 30
0.0
  3
*D10
  1

  0
LINE
  5
118
330
115
100
AcDbEntity
  8
001
370
     9
100
AcDbLine
 10
187.657867
 20
89.045929
 30
0.0
 11
187.657867
 21
65.432222
 31
0.0
  0
LINE
  5
119
330
115
100
AcDbEntity
  8
001
370
     9
100
AcDbLine
 10
183.657867
 20
85.945929
 30
0.0
 11
183.657867
 21
65.432222
 31
0.0
  0
LINE
  5
11A
330
115
100
AcDbEntity
  8
001
370
     9
100
AcDbLine
 10
187.657867
 20
66.932222
 30
0.0
 11
183.657867
 21
66.932222
 31
0.0
  0
POLYLINE
  5
11B
330
115
100
AcDbEntity
  8
001
370
     9
100
AcDb2dPolyline
 66
     1
 10
0.0
 20
0.0
 30
0.0
  0
VERTEX
  5
11D
330
11B
100
AcDbEntity
  8
001
370
     9
100
AcDbVertex
100
AcDb2dVertex
 10
191.157867
 20
65.9944
 30
0.0
  0
VERTEX
  5
11E
330
11B
100
AcDbEntity
  8
001
370
     9
100
AcDbVertex
100
AcDb2dVertex
 10
187.657867
 20
66.932222
 30
0.0
  0
VERTEX
  5
11F
330
11B
100
AcDbEntity
  8
001
370
     9
100
AcDbVertex
100
AcDb2dVertex
 10
191.157867
 20
67.870044
 30
0.0
  0
SEQEND
  5
11C
330
11B
100
AcDbEntity
  8
001
370
     9
  0
POLYLINE
  5
120
330
115
100
AcDbEntity
  8
001
370
     9
100
AcDb2dPolyline
 66
     1
 10
0.0
 20
0.0
 30
0.0
  0
VERTEX
  5
122
330
120
100
AcDbEntity
  8
001
370
     9
100
AcDbVertex
100
AcDb2dVertex
 10
180.157867
 20
67.870044
 30
0.0
  0
VERTEX
  5
123
330
120
100
AcDbEntity
  8
001
370
     9
100
AcDbVertex
100
AcDb2dVertex
 10
183.657867
 20
66.932222
 30
0.0
  0
VERTEX
  5
124
330
120
100
AcDbEntity
  8
001
370
     9
100
AcDbVertex
100
AcDb2dVertex
 10
180.157867
 20
65.9944
 30
0.0
  0
SEQEND
  5
121
330
120
100
AcDbEntity
  8
001
370
     9
  0
TEXT
  5
125
330
115
100
AcDbEntity
  8
001
370
    30
100
AcDbText
 10
192.657867
 20
67.932222
 30
0.0
 40
3.0
  1
４
 41
0.824255
100
AcDbText
  0
POINT
  5
126
330
115
100
AcDbEntity
  8
001
370
     9
100
AcDbPoint
 10
187.657867
 20
89.045929
 30
0.0
  0
POINT
  5
127
330
115
100
AcDbEntity
  8
001
370
     9
100
AcDbPoint
 10
183.657867
 20
85.945929
 30
0.0
  0
POINT
  5
128
330
115
100
AcDbEntity
  8
001
370
     9
100
AcDbPoint
 10
183.657867
 20
66.932222
 30
0.0
  0
LINE
  5
129
330
115
100
AcDbEntity
  8
001
370
     9
100
AcDbLine
 10
187.657867
 20
66.932222
 30
0.0
 11
198.625185
 21
66.932222
 31
0.0
  0
LINE
  5
12A
330
115
100
AcDbEntity
  8
001
370
     9
100
AcDbLine
 10
183.657867
 20
66.932222
 30
0.0
 11
179.157867
 21
66.932222
 31
0.0
  0
ENDBLK
  5
117
330
115
100
AcDbEntity
  8
0
100
AcDbBlockEnd
  0
BLOCK
  5
12C
330
12B
100
AcDbEntity
  8
0
100
AcDbBlockBegin
  2
*D11
 70
     1
 10
0.0
 20
0.0
 30
0.0
  3
*D11
  1

  0
LINE
  5
12E
330
12B
100
AcDbEntity
  8
001
370
     9
100
AcDbLine
 10
183.357867
 20
85.645929
 30
0.0
 11
208.985835
 21
85.645929
 31
0.0
  0
LINE
  5
12F
330
12B
100
AcDbEntity
  8
001
370
     9
100
AcDbLine
 10
183.357867
 20
116.645929
 30
0.0
 11
208.985835
 21
116.645929
 31
0.0
  0
LINE
  5
130
330
12B
100
AcDbEntity
  8
001
370
     9
100
AcDbLine
 10
207.485835
 20
85.645929
 30
0.0
 11
207.485835
 21
116.645929
 31
0.0
  0
POLYLINE
  5
131
330
12B
100
AcDbEntity
  8
001
370
     9
100
AcDb2dPolyline
 66
     1
 10
0.0
 20
0.0
 30
0.0
  0
VERTEX
  5
133
330
131
100
AcDbEntity
  8
001
370
     9
100
AcDbVertex
100
AcDb2dVertex
 10
208.423657
 20
89.145929
 30
0.0
  0
VERTEX
  5
134
330
131
100
AcDbEntity
  8
001
370
     9
100
AcDbVertex
100
AcDb2dVertex
 10
207.485835
 20
85.645929
 30
0.0
  0
VERTEX
  5
135
330
131
100
AcDbEntity
  8
001
370
     9
100
AcDbVertex
100
AcDb2dVertex
 10
206.548013
 20
89.145929
 30
0.0
  0
SEQEND
  5
132
330
131
100
AcDbEntity
  8
001
370
     9
  0
POLYLINE
  5
136
330
12B
100
AcDbEntity
  8
001
370
     9
100
AcDb2dPolyline
 66
     1
 10
0.0
 20
0.0
 30
0.0
  0
VERTEX
  5
138
330
136
100
AcDbEntity
  8
001
370
     9
100
AcDbVertex
100
AcDb2dVertex
 10
206.548013
 20
113.145929
 30
0.0
  0
VERTEX
  5
139
330
136
100
AcDbEntity
  8
001
370
     9
100
AcDbVertex
100
AcDb2dVertex
 10
207.485835
 20
116.645929
 30
0.0
  0
VERTEX
  5
13A
330
136
100
AcDbEntity
  8
001
370
     9
100
AcDbVertex
100
AcDb2dVertex
 10
208.423657
 20
113.145929
 30
0.0
  0
SEQEND
  5
137
330
136
100
AcDbEntity
  8
001
370
     9
  0
TEXT
  5
13B
330
12B
100
AcDbEntity
  8
001
370
    30
100
AcDbText
 10
206.485835
 20
96.694953
 30
0.0
 40
3.0
  1
%%c３１
 50
90.000003
 41
0.87274
100
AcDbText
  0
POINT
  5
13C
330
12B
100
AcDbEntity
  8
001
370
     9
100
AcDbPoint
 10
183.357867
 20
85.645929
 30
0.0
  0
POINT
  5
13D
330
12B
100
AcDbEntity
  8
001
370
     9
100
AcDbPoint
 10
183.357867
 20
116.645929
 30
0.0
  0
POINT
  5
13E
330
12B
100
AcDbEntity
  8
001
370
     9
100
AcDbPoint
 10
207.485835
 20
116.645929
 30
0.0
  0
ENDBLK
  5
12D
330
12B
100
AcDbEntity
  8
0
100
AcDbBlockEnd
  0
BLOCK
  5
140
330
13F
100
AcDbEntity
  8
0
100
AcDbBlockBegin
  2
*D12
 70
     1
 10
0.0
 20
0.0
 30
0.0
  3
*D12
  1

  0
LINE
  5
142
330
13F
100
AcDbEntity
  8
001
370
     9
100
AcDbLine
 10
240.310811
 20
131.145929
 30
0.0
 11
240.310811
 21
149.094557
 31
0.0
  0
LINE
  5
143
330
13F
100
AcDbEntity
  8
001
370
     9
100
AcDbLine
 10
258.310811
 20
131.145929
 30
0.0
 11
258.310811
 21
149.094557
 31
0.0
  0
LINE
  5
144
330
13F
100
AcDbEntity
  8
001
370
     9
100
AcDbLine
 10
240.310811
 20
147.594557
 30
0.0
 11
258.310811
 21
147.594557
 31
0.0
  0
POLYLINE
  5
145
330
13F
100
AcDbEntity
  8
001
370
     9
100
AcDb2dPolyline
 66
     1
 10
0.0
 20
0.0
 30
0.0
  0
VERTEX
  5
147
330
145
100
AcDbEntity
  8
001
370
     9
100
AcDbVertex
100
AcDb2dVertex
 10
243.810811
 20
146.656734
 30
0.0
  0
VERTEX
  5
148
330
145
100
AcDbEntity
  8
001
370
     9
100
AcDbVertex
100
AcDb2dVertex
 10
240.310811
 20
147.594557
 30
0.0
  0
VERTEX
  5
149
330
145
100
AcDbEntity
  8
001
370
     9
100
AcDbVertex
100
AcDb2dVertex
 10
243.810811
 20
148.532379
 30
0.0
  0
SEQEND
  5
146
330
145
100
AcDbEntity
  8
001
370
     9
  0
POLYLINE
  5
14A
330
13F
100
AcDbEntity
  8
001
370
     9
100
AcDb2dPolyline
 66
     1
 10
0.0
 20
0.0
 30
0.0
  0
VERTEX
  5
14C
330
14A
100
AcDbEntity
  8
001
370
     9
100
AcDbVertex
100
AcDb2dVertex
 10
254.810811
 20
148.532379
 30
0.0
  0
VERTEX
  5
14D
330
14A
100
AcDbEntity
  8
001
370
     9
100
AcDbVertex
100
AcDb2dVertex
 10
258.310811
 20
147.594557
 30
0.0
  0
VERTEX
  5
14E
330
14A
100
AcDbEntity
  8
001
370
     9
100
AcDbVertex
100
AcDb2dVertex
 10
254.810811
 20
146.656734
 30
0.0
  0
SEQEND
  5
14B
330
14A
100
AcDbEntity
  8
001
370
     9
  0
TEXT
  5
14F
330
13F
100
AcDbEntity
  8
001
370
    30
100
AcDbText
 10
244.865871
 20
148.594557
 30
0.0
 40
3.0
  1
%%c１８
 41
0.871557
100
AcDbText
  0
POINT
  5
150
330
13F
100
AcDbEntity
  8
001
370
     9
100
AcDbPoint
 10
240.310811
 20
131.145929
 30
0.0
  0
POINT
  5
151
330
13F
100
AcDbEntity
  8
001
370
     9
100
AcDbPoint
 10
258.310811
 20
131.145929
 30
0.0
  0
POINT
  5
152
330
13F
100
AcDbEntity
  8
001
370
     9
100
AcDbPoint
 10
258.310811
 20
147.594557
 30
0.0
  0
ENDBLK
  5
141
330
13F
100
AcDbEntity
  8
0
100
AcDbBlockEnd
  0
BLOCK
  5
154
330
153
100
AcDbEntity
  8
0
100
AcDbBlockBegin
  2
*D13
 70
     1
 10
0.0
 20
0.0
 30
0.0
  3
*D13
  1

  0
LINE
  5
156
330
153
100
AcDbEntity
  8
001
370
     9
100
AcDbLine
 10
243.310811
 20
131.645929
 30
0.0
 11
243.310811
 21
141.548773
 31
0.0
  0
LINE
  5
157
330
153
100
AcDbEntity
  8
001
370
     9
100
AcDbLine
 10
255.310811
 20
131.645929
 30
0.0
 11
255.310811
 21
141.548773
 31
0.0
  0
LINE
  5
158
330
153
100
AcDbEntity
  8
001
370
     9
100
AcDbLine
 10
243.310811
 20
140.048773
 30
0.0
 11
255.310811
 21
140.048773
 31
0.0
  0
POLYLINE
  5
159
330
153
100
AcDbEntity
  8
001
370
     9
100
AcDb2dPolyline
 66
     1
 10
0.0
 20
0.0
 30
0.0
  0
VERTEX
  5
15B
330
159
100
AcDbEntity
  8
001
370
     9
100
AcDbVertex
100
AcDb2dVertex
 10
246.810811
 20
139.110951
 30
0.0
  0
VERTEX
  5
15C
330
159
100
AcDbEntity
  8
001
370
     9
100
AcDbVertex
100
AcDb2dVertex
 10
243.310811
 20
140.048773
 30
0.0
  0
VERTEX
  5
15D
330
159
100
AcDbEntity
  8
001
370
     9
100
AcDbVertex
100
AcDb2dVertex
 10
246.810811
 20
140.986596
 30
0.0
  0
SEQEND
  5
15A
330
159
100
AcDbEntity
  8
001
370
     9
  0
POLYLINE
  5
15E
330
153
100
AcDbEntity
  8
001
370
     9
100
AcDb2dPolyline
 66
     1
 10
0.0
 20
0.0
 30
0.0
  0
VERTEX
  5
160
330
15E
100
AcDbEntity
  8
001
370
     9
100
AcDbVertex
100
AcDb2dVertex
 10
251.810811
 20
140.986596
 30
0.0
  0
VERTEX
  5
161
330
15E
100
AcDbEntity
  8
001
370
     9
100
AcDbVertex
100
AcDb2dVertex
 10
255.310811
 20
140.048773
 30
0.0
  0
VERTEX
  5
162
330
15E
100
AcDbEntity
  8
001
370
     9
100
AcDbVertex
100
AcDb2dVertex
 10
251.810811
 20
139.110951
 30
0.0
  0
SEQEND
  5
15F
330
15E
100
AcDbEntity
  8
001
370
     9
  0
TEXT
  5
163
330
153
100
AcDbEntity
  8
001
370
    30
100
AcDbText
 10
244.865871
 20
141.048773
 30
0.0
 40
3.0
  1
%%c１２
 41
0.871557
100
AcDbText
  0
POINT
  5
164
330
153
100
AcDbEntity
  8
001
370
     9
100
AcDbPoint
 10
243.310811
 20
131.645929
 30
0.0
  0
POINT
  5
165
330
153
100
AcDbEntity
  8
001
370
     9
100
AcDbPoint
 10
255.310811
 20
131.645929
 30
0.0
  0
POINT
  5
166
330
153
100
AcDbEntity
  8
001
370
     9
100
AcDbPoint
 10
255.310811
 20
140.048773
 30
0.0
  0
ENDBLK
  5
155
330
153
100
AcDbEntity
  8
0
100
AcDbBlockEnd
  0
BLOCK
  5
168
330
167
100
AcDbEntity
  8
0
100
AcDbBlockBegin
  2
*D14
 70
     1
 10
0.0
 20
0.0
 30
0.0
  3
*D14
  1

  0
LINE
  5
16A
330
167
100
AcDbEntity
  8
001
370
     9
100
AcDbLine
 10
240.810811
 20
131.645929
 30
0.0
 11
234.463785
 21
131.645929
 31
0.0
  0
LINE
  5
16B
330
167
100
AcDbEntity
  8
001
370
     9
100
AcDbLine
 10
235.963785
 20
131.645929
 30
0.0
 11
235.963785
 21
109.145929
 31
0.0
  0
POLYLINE
  5
16C
330
167
100
AcDbEntity
  8
001
370
     9
100
AcDb2dPolyline
 66
     1
 10
0.0
 20
0.0
 30
0.0
  0
VERTEX
  5
16E
330
16C
100
AcDbEntity
  8
001
370
     9
100
AcDbVertex
100
AcDb2dVertex
 10
235.025963
 20
128.145929
 30
0.0
  0
VERTEX
  5
16F
330
16C
100
AcDbEntity
  8
001
370
     9
100
AcDbVertex
100
AcDb2dVertex
 10
235.963785
 20
131.645929
 30
0.0
  0
VERTEX
  5
170
330
16C
100
AcDbEntity
  8
001
370
     9
100
AcDbVertex
100
AcDb2dVertex
 10
236.901607
 20
128.145929
 30
0.0
  0
SEQEND
  5
16D
330
16C
100
AcDbEntity
  8
001
370
     9
  0
POLYLINE
  5
171
330
167
100
AcDbEntity
  8
001
370
     9
100
AcDb2dPolyline
 66
     1
 10
0.0
 20
0.0
 30
0.0
  0
VERTEX
  5
173
330
171
100
AcDbEntity
  8
001
370
     9
100
AcDbVertex
100
AcDb2dVertex
 10
236.901607
 20
112.645929
 30
0.0
  0
VERTEX
  5
174
330
171
100
AcDbEntity
  8
001
370
     9
100
AcDbVertex
100
AcDb2dVertex
 10
235.963785
 20
109.145929
 30
0.0
  0
VERTEX
  5
175
330
171
100
AcDbEntity
  8
001
370
     9
100
AcDbVertex
100
AcDb2dVertex
 10
235.025963
 20
112.645929
 30
0.0
  0
SEQEND
  5
172
330
171
100
AcDbEntity
  8
001
370
     9
  0
TEXT
  5
176
330
167
100
AcDbEntity
  8
001
370
    30
100
AcDbText
 10
234.963785
 20
114.461294
 30
0.0
 40
3.0
  1
２２．５
 50
90.000003
 41
0.824255
100
AcDbText
  0
POINT
  5
177
330
167
100
AcDbEntity
  8
001
370
     9
100
AcDbPoint
 10
240.810811
 20
131.645929
 30
0.0
  0
POINT
  5
178
330
167
100
AcDbEntity
  8
001
370
     9
100
AcDbPoint
 10
237.463785
 20
109.145929
 30
0.0
  0
POINT
  5
179
330
167
100
AcDbEntity
  8
001
370
     9
100
AcDbPoint
 10
235.963785
 20
109.145929
 30
0.0
  0
ENDBLK
  5
169
330
167
100
AcDbEntity
  8
0
100
AcDbBlockEnd
  0
BLOCK
  5
17B
330
17A
100
AcDbEntity
  8
0
100
AcDbBlockBegin
  2
*D15
 70
     1
 10
0.0
 20
0.0
 30
0.0
  3
*D15
  1

  0
LINE
  5
17D
330
17A
100
AcDbEntity
  8
001
370
     9
100
AcDbLine
 10
118.067867
 20
123.145929
 30
0.0
 11
118.067867
 21
139.721781
 31
0.0
  0
LINE
  5
17E
330
17A
100
AcDbEntity
  8
001
370
     9
100
AcDbLine
 10
132.067867
 20
123.145929
 30
0.0
 11
132.067867
 21
139.721781
 31
0.0
  0
LINE
  5
17F
330
17A
100
AcDbEntity
  8
001
370
     9
100
AcDbLine
 10
118.067867
 20
138.221781
 30
0.0
 11
132.067867
 21
138.221781
 31
0.0
  0
POLYLINE
  5
180
330
17A
100
AcDbEntity
  8
001
370
     9
100
AcDb2dPolyline
 66
     1
 10
0.0
 20
0.0
 30
0.0
  0
VERTEX
  5
182
330
180
100
AcDbEntity
  8
001
370
     9
100
AcDbVertex
100
AcDb2dVertex
 10
121.567867
 20
137.283959
 30
0.0
  0
VERTEX
  5
183
330
180
100
AcDbEntity
  8
001
370
     9
100
AcDbVertex
100
AcDb2dVertex
 10
118.067867
 20
138.221781
 30
0.0
  0
VERTEX
  5
184
330
180
100
AcDbEntity
  8
001
370
     9
100
AcDbVertex
100
AcDb2dVertex
 10
121.567867
 20
139.159604
 30
0.0
  0
SEQEND
  5
181
330
180
100
AcDbEntity
  8
001
370
     9
  0
POLYLINE
  5
185
330
17A
100
AcDbEntity
  8
001
370
     9
100
AcDb2dPolyline
 66
     1
 10
0.0
 20
0.0
 30
0.0
  0
VERTEX
  5
187
330
185
100
AcDbEntity
  8
001
370
     9
100
AcDbVertex
100
AcDb2dVertex
 10
128.567867
 20
139.159604
 30
0.0
  0
VERTEX
  5
188
330
185
100
AcDbEntity
  8
001
370
     9
100
AcDbVertex
100
AcDb2dVertex
 10
132.067867
 20
138.221781
 30
0.0
  0
VERTEX
  5
189
330
185
100
AcDbEntity
  8
001
370
     9
100
AcDbVertex
100
AcDb2dVertex
 10
128.567867
 20
137.283959
 30
0.0
  0
SEQEND
  5
186
330
185
100
AcDbEntity
  8
001
370
     9
  0
TEXT
  5
18A
330
17A
100
AcDbEntity
  8
001
370
    30
100
AcDbText
 10
120.659303
 20
139.221781
 30
0.0
 40
3.0
  1
%%c１４
 41
0.864441
100
AcDbText
  0
POINT
  5
18B
330
17A
100
AcDbEntity
  8
001
370
     9
100
AcDbPoint
 10
118.067867
 20
123.145929
 30
0.0
  0
POINT
  5
18C
330
17A
100
AcDbEntity
  8
001
370
     9
100
AcDbPoint
 10
132.067867
 20
123.145929
 30
0.0
  0
POINT
  5
18D
330
17A
100
AcDbEntity
  8
001
370
     9
100
AcDbPoint
 10
132.067867
 20
138.221781
 30
0.0
  0
ENDBLK
  5
17C
330
17A
100
AcDbEntity
  8
0
100
AcDbBlockEnd
  0
ENDSEC
  0
SECTION
  2
ENTITIES
  0
INSERT
  5
18E
330
1F
100
AcDbEntity
  8
001
  6
ByBlock
 62
     0
370
    -2
100
AcDbBlockReference
  2
13462_KCAD_FINI-1
 10
0.0
 20
0.0
 30
0.0
  0
DIMENSION
  5
18F
330
1F
100
AcDbEntity
  8
001
370
     9
100
AcDbDimension
  2
*D2
 10
104.692588
 20
109.145929
 30
0.0
 11
102.192588
 21
116.396143
 31
0.0
 70
   160
 71
     5
 42
-1.0
  3
Standard
100
AcDbAlignedDimension
 13
118.567867
 23
123.645929
 33
0.0
 14
117.067867
 24
109.145929
 34
0.0
 50
270.0
100
AcDbRotatedDimension
  0
DIMENSION
  5
190
330
1F
100
AcDbEntity
  8
001
370
     9
100
AcDbDimension
  2
*D3
 10
81.925968
 20
93.145929
 30
0.0
 11
79.425967
 21
101.145929
 31
0.0
 70
   160
 71
     5
 42
-1.0
  3
Standard
100
AcDbAlignedDimension
 13
92.837867
 23
109.145929
 33
0.0
 14
92.837867
 24
93.145929
 34
0.0
 50
270.0
100
AcDbRotatedDimension
  0
DIMENSION
  5
191
330
1F
100
AcDbEntity
  8
001
370
     9
100
AcDbDimension
  2
*D4
 10
200.575625
 20
88.445929
 30
0.0
 11
198.075625
 21
101.145929
 31
0.0
 70
   160
 71
     5
 42
-1.0
  3
Standard
100
AcDbAlignedDimension
 13
187.057867
 23
113.845929
 33
0.0
 14
187.057867
 24
88.445929
 34
0.0
 50
270.0
100
AcDbRotatedDimension
  0
DIMENSION
  5
192
330
1F
100
AcDbEntity
  8
001
370
     9
100
AcDbDimension
  2
*D5
 10
121.067867
 20
128.789552
 30
0.0
 11
125.067867
 21
131.289552
 31
0.0
 70
   160
 71
     5
 42
-1.0
  3
Standard
100
AcDbAlignedDimension
 13
129.067867
 23
123.645929
 33
0.0
 14
121.067867
 24
123.645929
 34
0.0
 50
180.0
100
AcDbRotatedDimension
  0
DIMENSION
  5
193
330
1F
100
AcDbEntity
  8
001
370
     9
100
AcDbDimension
  2
*D6
 10
92.537867
 20
78.822753
 30
0.0
 11
108.802867
 21
81.322753
 31
0.0
 70
   160
 71
     5
 42
-1.0
  3
Standard
100
AcDbAlignedDimension
 13
125.067867
 23
88.511322
 33
0.0
 14
92.537867
 24
93.445929
 34
0.0
 50
180.0
100
AcDbRotatedDimension
  0
DIMENSION
  5
194
330
1F
100
AcDbEntity
  8
001
370
     9
100
AcDbDimension
  2
*D7
 10
133.067867
 20
78.822753
 30
0.0
 11
129.067867
 21
81.322753
 31
0.0
 70
   160
 71
     5
 42
-1.0
  3
Standard
100
AcDbAlignedDimension
 13
125.067867
 23
88.511322
 33
0.0
 14
133.067867
 24
92.445929
 34
0.0
100
AcDbRotatedDimension
  0
DIMENSION
  5
195
330
1F
100
AcDbEntity
  8
001
370
     9
100
AcDbDimension
  2
*D8
 10
133.067867
 20
78.822753
 30
0.0
 11
155.112867
 21
81.322753
 31
0.0
 70
   160
 71
     5
 42
-1.0
  3
Standard
100
AcDbAlignedDimension
 13
177.157867
 23
86.145929
 33
0.0
 14
133.067867
 24
78.822753
 34
0.0
 50
180.0
100
AcDbRotatedDimension
  0
DIMENSION
  5
196
330
1F
100
AcDbEntity
  8
001
370
     9
100
AcDbDimension
  2
*D9
 10
92.537867
 20
66.932222
 30
0.0
 11
138.097868
 21
69.432222
 31
0.0
 70
   160
 71
     5
 42
-1.0
  3
Standard
100
AcDbAlignedDimension
 13
183.657867
 23
85.945929
 33
0.0
 14
92.537867
 24
93.445929
 34
0.0
 50
180.0
100
AcDbRotatedDimension
  0
DIMENSION
  5
197
330
1F
100
AcDbEntity
  8
001
370
     9
100
AcDbDimension
  2
*D10
 10
183.657867
 20
66.932222
 30
0.0
 11
194.141526
 21
69.432222
 31
0.0
 70
   160
 71
     5
 42
-1.0
  3
Standard
100
AcDbAlignedDimension
 13
187.657867
 23
89.045929
 33
0.0
 14
183.657867
 24
85.945929
 34
0.0
 50
180.0
100
AcDbRotatedDimension
  0
DIMENSION
  5
198
330
1F
100
AcDbEntity
  8
001
370
     9
100
AcDbDimension
  2
*D11
 10
207.485835
 20
116.645929
 30
0.0
 11
204.985835
 21
101.145929
 31
0.0
 70
   160
 71
     5
 42
-1.0
  3
Standard
100
AcDbAlignedDimension
 13
183.357867
 23
85.645929
 33
0.0
 14
183.357867
 24
116.645929
 34
0.0
 50
90.0
100
AcDbRotatedDimension
  0
DIMENSION
  5
199
330
1F
100
AcDbEntity
  8
001
370
     9
100
AcDbDimension
  2
*D12
 10
258.310811
 20
147.594557
 30
0.0
 11
249.310811
 21
150.094557
 31
0.0
 70
   160
 71
     5
 42
-1.0
  3
Standard
100
AcDbAlignedDimension
 13
240.310811
 23
131.145929
 33
0.0
 14
258.310811
 24
131.145929
 34
0.0
100
AcDbRotatedDimension
  0
DIMENSION
  5
19A
330
1F
100
AcDbEntity
  8
001
370
     9
100
AcDbDimension
  2
*D13
 10
255.310811
 20
140.048773
 30
0.0
 11
249.310811
 21
142.548773
 31
0.0
 70
   160
 71
     5
 42
-1.0
  3
Standard
100
AcDbAlignedDimension
 13
243.310811
 23
131.645929
 33
0.0
 14
255.310811
 24
131.645929
 34
0.0
100
AcDbRotatedDimension
  0
DIMENSION
  5
19B
330
1F
100
AcDbEntity
  8
001
370
     9
100
AcDbDimension
  2
*D14
 10
235.963785
 20
109.145929
 30
0.0
 11
233.463785
 21
120.395929
 31
0.0
 70
   160
 71
     5
 42
-1.0
  3
Standard
100
AcDbAlignedDimension
 13
240.810811
 23
131.645929
 33
0.0
 14
237.463785
 24
109.145929
 34
0.0
 50
270.0
100
AcDbRotatedDimension
  0
DIMENSION
  5
19C
330
1F
100
AcDbEntity
  8
001
370
     9
100
AcDbDimension
  2
*D15
 10
132.067867
 20
138.221781
 30
0.0
 11
125.067931
 21
140.721781
 31
0.0
 70
   160
 71
     5
 42
-1.0
  3
Standard
100
AcDbAlignedDimension
 13
118.067867
 23
123.145929
 33
0.0
 14
132.067867
 24
123.145929
 34
0.0
100
AcDbRotatedDimension
  0
LINE
  5
19D
330
1F
100
AcDbEntity
  8
013
 62
     4
370
     9
100
AcDbLine
 10
287.0
 20
201.0
 30
0.0
 11
12.0
 21
201.0
 31
0.0
  0
LINE
  5
19E
330
1F
100
AcDbEntity
  8
013
 62
     4
370
     9
100
AcDbLine
 10
12.0
 20
201.0
 30
0.0
 11
12.0
 21
14.0
 31
0.0
  0
LINE
  5
19F
330
1F
100
AcDbEntity
  8
013
 62
     4
370
     9
100
AcDbLine
 10
287.0
 20
201.0
 30
0.0
 11
287.0
 21
14.0
 31
0.0
  0
LINE
  5
1A0
330
1F
100
AcDbEntity
  8
013
 62
   134
370
     9
100
AcDbLine
 10
148.5
 20
201.0
 30
0.0
 11
148.5
 21
203.5
 31
0.0
  0
LINE
  5
1A1
330
1F
100
AcDbEntity
  8
013
 62
     4
370
     9
100
AcDbLine
 10
287.0
 20
14.0
 30
0.0
 11
12.0
 21
14.0
 31
0.0
  0
LINE
  5
1A2
330
1F
100
AcDbEntity
  8
013
 62
     4
370
     9
100
AcDbLine
 10
97.0
 20
46.5
 30
0.0
 11
287.0
 21
46.5
 31
0.0
  0
LINE
  5
1A3
330
1F
100
AcDbEntity
  8
013
 62
     4
370
     9
100
AcDbLine
 10
227.0
 20
46.5
 30
0.0
 11
227.0
 21
14.0
 31
0.0
  0
LINE
  5
1A4
330
1F
100
AcDbEntity
  8
013
 62
     4
370
     9
100
AcDbLine
 10
287.0
 20
34.0
 30
0.0
 11
12.0
 21
34.0
 31
0.0
  0
LINE
  5
1A5
330
1F
100
AcDbEntity
  8
013
 62
     4
370
     9
100
AcDbLine
 10
182.0
 20
14.0
 30
0.0
 11
182.0
 21
46.5
 31
0.0
  0
LINE
  5
1A6
330
1F
100
AcDbEntity
  8
013
 62
   134
370
     9
100
AcDbLine
 10
232.0
 20
14.0
 30
0.0
 11
232.0
 21
34.0
 31
0.0
  0
LINE
  5
1A7
330
1F
100
AcDbEntity
  8
013
 62
     4
370
     9
100
AcDbLine
 10
287.0
 20
24.0
 30
0.0
 11
182.0
 21
24.0
 31
0.0
  0
LINE
  5
1A8
330
1F
100
AcDbEntity
  8
013
 62
   134
370
     9
100
AcDbLine
 10
97.0
 20
39.0
 30
0.0
 11
287.0
 21
39.0
 31
0.0
  0
LINE
  5
1A9
330
1F
100
AcDbEntity
  8
013
 62
   134
370
     9
100
AcDbLine
 10
187.0
 20
14.0
 30
0.0
 11
187.0
 21
34.0
 31
0.0
  0
LINE
  5
1AA
330
1F
100
AcDbEntity
  8
013
 62
   134
370
     9
100
AcDbLine
 10
14.879869
 20
30.218095
 30
0.0
 11
16.213203
 21
27.908694
 31
0.0
  0
LINE
  5
1AB
330
1F
100
AcDbEntity
  8
013
 62
   134
370
     9
100
AcDbLine
 10
16.213203
 20
27.908694
 30
0.0
 11
13.546536
 21
27.908694
 31
0.0
  0
LINE
  5
1AC
330
1F
100
AcDbEntity
  8
013
 62
   134
370
     9
100
AcDbLine
 10
13.546536
 20
27.908694
 30
0.0
 11
14.879869
 21
30.218095
 31
0.0
  0
LINE
  5
1AD
330
1F
100
AcDbEntity
  8
013
 62
   134
370
     9
100
AcDbLine
 10
13.544192
 20
31.220796
 30
0.0
 11
14.877526
 21
33.530197
 31
0.0
  0
LINE
  5
1AE
330
1F
100
AcDbEntity
  8
013
 62
   134
370
     9
100
AcDbLine
 10
16.210859
 20
31.220796
 30
0.0
 11
13.544192
 21
31.220796
 31
0.0
  0
LINE
  5
1AF
330
1F
100
AcDbEntity
  8
013
 62
   134
370
     9
100
AcDbLine
 10
14.877526
 20
33.530197
 30
0.0
 11
16.210859
 21
31.220796
 31
0.0
  0
LINE
  5
1B0
330
1F
100
AcDbEntity
  8
013
 62
   134
370
     9
100
AcDbLine
 10
17.4
 20
24.0
 30
0.0
 11
17.4
 21
34.0
 31
0.0
  0
LINE
  5
1B1
330
1F
100
AcDbEntity
  8
013
 62
   134
370
     9
100
AcDbLine
 10
30.0
 20
14.0
 30
0.0
 11
30.0
 21
34.0
 31
0.0
  0
LINE
  5
1B2
330
1F
100
AcDbEntity
  8
013
 62
     4
370
     9
100
AcDbLine
 10
12.0
 20
24.0
 30
0.0
 11
97.0
 21
24.0
 31
0.0
  0
LINE
  5
1B3
330
1F
100
AcDbEntity
  8
013
 62
   134
370
     9
100
AcDbLine
 10
12.0
 20
27.333333
 30
0.0
 11
97.0
 21
27.333333
 31
0.0
  0
LINE
  5
1B4
330
1F
100
AcDbEntity
  8
013
 62
   134
370
     9
100
AcDbLine
 10
12.0
 20
30.666667
 30
0.0
 11
97.0
 21
30.666667
 31
0.0
  0
LINE
  5
1B5
330
1F
100
AcDbEntity
  8
013
 62
   134
370
     9
100
AcDbLine
 10
38.0
 20
24.0
 30
0.0
 11
38.0
 21
34.0
 31
0.0
  0
LINE
  5
1B6
330
1F
100
AcDbEntity
  8
013
 62
   134
370
     9
100
AcDbLine
 10
97.0
 20
29.0
 30
0.0
 11
182.0
 21
29.0
 31
0.0
  0
LINE
  5
1B7
330
1F
100
AcDbEntity
  8
013
 62
   134
370
     9
100
AcDbLine
 10
97.0
 20
19.0
 30
0.0
 11
118.0
 21
19.0
 31
0.0
  0
LINE
  5
1B8
330
1F
100
AcDbEntity
  8
013
 62
     4
370
     9
100
AcDbLine
 10
166.0
 20
14.0
 30
0.0
 11
166.0
 21
46.5
 31
0.0
  0
LINE
  5
1B9
330
1F
100
AcDbEntity
  8
013
 62
     4
370
     9
100
AcDbLine
 10
150.0
 20
14.0
 30
0.0
 11
150.0
 21
34.0
 31
0.0
  0
LINE
  5
1BA
330
1F
100
AcDbEntity
  8
013
 62
     4
370
     9
100
AcDbLine
 10
134.0
 20
14.0
 30
0.0
 11
134.0
 21
34.0
 31
0.0
  0
LINE
  5
1BB
330
1F
100
AcDbEntity
  8
013
 62
     4
370
     9
100
AcDbLine
 10
118.0
 20
14.0
 30
0.0
 11
118.0
 21
46.5
 31
0.0
  0
LINE
  5
1BC
330
1F
100
AcDbEntity
  8
013
 62
     4
370
     9
100
AcDbLine
 10
97.0
 20
14.0
 30
0.0
 11
97.0
 21
46.5
 31
0.0
  0
LINE
  5
1BD
330
1F
100
AcDbEntity
  8
013
 62
   134
370
     9
100
AcDbLine
 10
287.0
 20
105.0
 30
0.0
 11
289.5
 21
105.0
 31
0.0
  0
LINE
  5
1BE
330
1F
100
AcDbEntity
  8
013
 62
   134
370
     9
100
AcDbLine
 10
12.0
 20
105.0
 30
0.0
 11
9.5
 21
105.0
 31
0.0
  0
LINE
  5
1BF
330
1F
100
AcDbEntity
  8
013
370
     9
100
AcDbLine
 10
139.175302
 20
11.520886
 30
0.0
 11
133.5
 21
11.520886
 31
0.0
  0
LINE
  5
1C0
330
1F
100
AcDbEntity
  8
013
370
     9
100
AcDbLine
 10
136.914043
 20
10.525613
 30
0.0
 11
139.175302
 21
10.525613
 31
0.0
  0
LINE
  5
1C1
330
1F
100
AcDbEntity
  8
013
370
     9
100
AcDbLine
 10
136.914043
 20
7.0
 30
0.0
 11
136.914043
 21
10.525613
 31
0.0
  0
LINE
  5
1C2
330
1F
100
AcDbEntity
  8
013
370
     9
100
AcDbLine
 10
135.725693
 20
10.525613
 30
0.0
 11
135.725693
 21
7.0
 31
0.0
  0
LINE
  5
1C3
330
1F
100
AcDbEntity
  8
013
370
     9
100
AcDbLine
 10
133.5
 20
10.525613
 30
0.0
 11
135.725693
 21
10.525613
 31
0.0
  0
LINE
  5
1C4
330
1F
100
AcDbEntity
  8
013
370
     9
100
AcDbLine
 10
139.175302
 20
10.525613
 30
0.0
 11
139.175302
 21
11.520886
 31
0.0
  0
ARC
  5
1C5
330
1F
100
AcDbEntity
  8
013
370
     9
100
AcDbCircle
 10
140.145007
 20
9.290613
 30
0.0
 40
1.194528336263346
100
AcDbArc
 50
90.0
 51
180.0
  0
LINE
  5
1C6
330
1F
100
AcDbEntity
  8
013
370
     9
100
AcDbLine
 10
138.950479
 20
9.290613
 30
0.0
 11
138.950479
 21
8.194528
 31
0.0
  0
LINE
  5
1C7
330
1F
100
AcDbEntity
  8
013
370
     9
100
AcDbLine
 10
143.103528
 20
10.485141
 30
0.0
 11
140.145007
 21
10.485141
 31
0.0
  0
ARC
  5
1C8
330
1F
100
AcDbEntity
  8
013
370
     9
100
AcDbCircle
 10
140.084926
 20
9.43385
 30
0.0
 40
0.1628902276722783
100
AcDbArc
 50
90.0
 51
180.0
  0
LINE
  5
1C9
330
1F
100
AcDbEntity
  8
013
370
     9
100
AcDbLine
 10
139.922035
 20
9.43385
 30
0.0
 11
139.922035
 21
8.058033
 31
0.0
  0
LINE
  5
1CA
330
1F
100
AcDbEntity
  8
013
370
     9
100
AcDbLine
 10
143.02112
 20
9.59674
 30
0.0
 11
140.084926
 21
9.59674
 31
0.0
  0
ARC
  5
1CB
330
1F
100
AcDbEntity
  8
013
370
     9
100
AcDbCircle
 10
140.145007
 20
8.194528
 30
0.0
 40
1.194528336263346
100
AcDbArc
 50
180.0
 51
270.0
  0
LINE
  5
1CC
330
1F
100
AcDbEntity
  8
013
370
     9
100
AcDbLine
 10
133.5
 20
11.520886
 30
0.0
 11
133.5
 21
10.525613
 31
0.0
  0
ARC
  5
1CD
330
1F
100
AcDbEntity
  8
013
370
     9
100
AcDbCircle
 10
140.084926
 20
8.058033
 30
0.0
 40
0.1628902276722748
100
AcDbArc
 50
180.0
 51
270.0
  0
LINE
  5
1CE
330
1F
100
AcDbEntity
  8
013
370
     9
100
AcDbLine
 10
135.725693
 20
7.0
 30
0.0
 11
136.914043
 21
7.0
 31
0.0
  0
LINE
  5
1CF
330
1F
100
AcDbEntity
  8
013
370
     9
100
AcDbLine
 10
140.084926
 20
7.895143
 30
0.0
 11
143.02112
 21
7.895143
 31
0.0
  0
LINE
  5
1D0
330
1F
100
AcDbEntity
  8
013
370
     9
100
AcDbLine
 10
140.145007
 20
7.0
 30
0.0
 11
143.103528
 21
7.0
 31
0.0
  0
ARC
  5
1D1
330
1F
100
AcDbEntity
  8
013
370
     9
100
AcDbCircle
 10
143.103528
 20
9.290613
 30
0.0
 40
1.194528336263346
100
AcDbArc
 50
0.0
 51
90.0
  0
ARC
  5
1D2
330
1F
100
AcDbEntity
  8
013
370
     9
100
AcDbCircle
 10
143.02112
 20
9.43385
 30
0.0
 40
0.1628902276722748
100
AcDbArc
 50
0.0
 51
90.0
  0
LINE
  5
1D3
330
1F
100
AcDbEntity
  8
013
370
     9
100
AcDbLine
 10
143.18401
 20
8.058033
 30
0.0
 11
143.18401
 21
9.43385
 31
0.0
  0
ARC
  5
1D4
330
1F
100
AcDbEntity
  8
013
370
     9
100
AcDbCircle
 10
143.02112
 20
8.058033
 30
0.0
 40
0.1628902276722783
100
AcDbArc
 50
270.0
 51
0.0
  0
ARC
  5
1D5
330
1F
100
AcDbEntity
  8
013
370
     9
100
AcDbCircle
 10
143.103528
 20
8.194528
 30
0.0
 40
1.194528336263346
100
AcDbArc
 50
270.0
 51
0.0
  0
LINE
  5
1D6
330
1F
100
AcDbEntity
  8
013
370
     9
100
AcDbLine
 10
144.298056
 20
8.194528
 30
0.0
 11
144.298056
 21
9.290613
 31
0.0
  0
LINE
  5
1D7
330
1F
100
AcDbEntity
  8
013
370
     9
100
AcDbLine
 10
144.843504
 20
11.520886
 30
0.0
 11
144.843504
 21
7.0
 31
0.0
  0
LINE
  5
1D8
330
1F
100
AcDbEntity
  8
013
370
     9
100
AcDbLine
 10
145.89917
 20
11.520886
 30
0.0
 11
144.843504
 21
11.520886
 31
0.0
  0
LINE
  5
1D9
330
1F
100
AcDbEntity
  8
013
370
     9
100
AcDbLine
 10
145.89917
 20
8.935599
 30
0.0
 11
145.89917
 21
11.520886
 31
0.0
  0
LINE
  5
1DA
330
1F
100
AcDbEntity
  8
013
370
     9
100
AcDbLine
 10
144.843504
 20
7.0
 30
0.0
 11
145.89917
 21
7.0
 31
0.0
  0
ARC
  5
1DB
330
1F
100
AcDbEntity
  8
013
370
     9
100
AcDbCircle
 10
146.007764
 20
8.935599
 30
0.0
 40
0.1085934851148481
100
AcDbArc
 50
180.0
 51
305.751288
  0
ARC
  5
1DC
330
1F
100
AcDbEntity
  8
013
370
     9
100
AcDbCircle
 10
146.007764
 20
8.550082
 30
0.0
 40
0.1085934851148522
100
AcDbArc
 50
52.952191
 51
180.0
  0
LINE
  5
1DD
330
1F
100
AcDbEntity
  8
013
370
     9
100
AcDbLine
 10
145.89917
 20
7.0
 30
0.0
 11
145.89917
 21
8.550082
 31
0.0
  0
LINE
  5
1DE
330
1F
100
AcDbEntity
  8
013
370
     9
100
AcDbLine
 10
148.335296
 20
10.477454
 30
0.0
 11
146.071211
 21
8.847469
 31
0.0
  0
LINE
  5
1DF
330
1F
100
AcDbEntity
  8
013
370
     9
100
AcDbLine
 10
148.241468
 20
7.0
 30
0.0
 11
146.073189
 21
8.636754
 31
0.0
  0
LINE
  5
1E0
330
1F
100
AcDbEntity
  8
013
370
     9
100
AcDbLine
 10
149.997381
 20
10.477454
 30
0.0
 11
147.398008
 21
8.74091
 31
0.0
  0
LINE
  5
1E1
330
1F
100
AcDbEntity
  8
013
370
     9
100
AcDbLine
 10
147.398008
 20
8.74091
 30
0.0
 11
150.053587
 21
7.0
 31
0.0
  0
LINE
  5
1E2
330
1F
100
AcDbEntity
  8
013
370
     9
100
AcDbLine
 10
149.997381
 20
10.477454
 30
0.0
 11
148.335296
 21
10.477454
 31
0.0
  0
LINE
  5
1E3
330
1F
100
AcDbEntity
  8
013
370
     9
100
AcDbLine
 10
148.241468
 20
7.0
 30
0.0
 11
150.053587
 21
7.0
 31
0.0
  0
LINE
  5
1E4
330
1F
100
AcDbEntity
  8
013
370
     9
100
AcDbLine
 10
150.724828
 20
11.520886
 30
0.0
 11
150.724828
 21
10.725093
 31
0.0
  0
LINE
  5
1E5
330
1F
100
AcDbEntity
  8
013
370
     9
100
AcDbLine
 10
151.779907
 20
11.520886
 30
0.0
 11
150.724828
 21
11.520886
 31
0.0
  0
LINE
  5
1E6
330
1F
100
AcDbEntity
  8
013
370
     9
100
AcDbLine
 10
150.724828
 20
10.725093
 30
0.0
 11
151.779907
 21
10.725093
 31
0.0
  0
LINE
  5
1E7
330
1F
100
AcDbEntity
  8
013
370
     9
100
AcDbLine
 10
151.779907
 20
10.477454
 30
0.0
 11
150.724828
 21
10.477454
 31
0.0
  0
LINE
  5
1E8
330
1F
100
AcDbEntity
  8
013
370
     9
100
AcDbLine
 10
150.724828
 20
10.477454
 30
0.0
 11
150.724828
 21
7.0
 31
0.0
  0
LINE
  5
1E9
330
1F
100
AcDbEntity
  8
013
370
     9
100
AcDbLine
 10
150.724828
 20
7.0
 30
0.0
 11
151.779907
 21
7.0
 31
0.0
  0
LINE
  5
1EA
330
1F
100
AcDbEntity
  8
013
370
     9
100
AcDbLine
 10
151.779907
 20
10.725093
 30
0.0
 11
151.779907
 21
11.520886
 31
0.0
  0
LINE
  5
1EB
330
1F
100
AcDbEntity
  8
013
370
     9
100
AcDbLine
 10
151.779907
 20
7.0
 30
0.0
 11
151.779907
 21
10.477454
 31
0.0
  0
LINE
  5
1EC
330
1F
100
AcDbEntity
  8
013
370
     9
100
AcDbLine
 10
152.396549
 20
10.477454
 30
0.0
 11
156.525773
 21
10.477454
 31
0.0
  0
LINE
  5
1ED
330
1F
100
AcDbEntity
  8
013
370
     9
100
AcDbLine
 10
152.396549
 20
7.0
 30
0.0
 11
152.396549
 21
10.477454
 31
0.0
  0
LINE
  5
1EE
330
1F
100
AcDbEntity
  8
013
370
     9
100
AcDbLine
 10
153.45643
 20
7.0
 30
0.0
 11
152.396549
 21
7.0
 31
0.0
  0
LINE
  5
1EF
330
1F
100
AcDbEntity
  8
013
370
     9
100
AcDbLine
 10
153.45643
 20
9.586524
 30
0.0
 11
153.45643
 21
7.0
 31
0.0
  0
LINE
  5
1F0
330
1F
100
AcDbEntity
  8
013
370
     9
100
AcDbLine
 10
156.298442
 20
9.586524
 30
0.0
 11
153.45643
 21
9.586524
 31
0.0
  0
ARC
  5
1F1
330
1F
100
AcDbEntity
  8
013
370
     9
100
AcDbCircle
 10
156.298442
 20
9.369337
 30
0.0
 40
0.2171869702296991
100
AcDbArc
 50
0.0
 51
90.0
  0
ARC
  5
1F2
330
1F
100
AcDbEntity
  8
013
370
     9
100
AcDbCircle
 10
156.525773
 20
9.427717
 30
0.0
 40
1.049737022776879
100
AcDbArc
 50
0.0
 51
90.0
  0
LINE
  5
1F3
330
1F
100
AcDbEntity
  8
013
370
     9
100
AcDbLine
 10
156.515629
 20
7.0
 30
0.0
 11
156.515629
 21
9.369337
 31
0.0
  0
LINE
  5
1F4
330
1F
100
AcDbEntity
  8
013
370
     9
100
AcDbLine
 10
157.57551
 20
7.0
 30
0.0
 11
156.515629
 21
7.0
 31
0.0
  0
LINE
  5
1F5
330
1F
100
AcDbEntity
  8
013
370
     9
100
AcDbLine
 10
157.57551
 20
9.427717
 30
0.0
 11
157.57551
 21
7.0
 31
0.0
  0
LINE
  5
1F6
330
1F
100
AcDbEntity
  8
013
370
     9
100
AcDbLine
 10
162.330899
 20
10.477454
 30
0.0
 11
158.214725
 21
10.477454
 31
0.0
  0
LINE
  5
1F7
330
1F
100
AcDbEntity
  8
013
370
     9
100
AcDbLine
 10
158.214725
 20
10.477454
 30
0.0
 11
158.214725
 21
9.689584
 31
0.0
  0
LINE
  5
1F8
330
1F
100
AcDbEntity
  8
013
370
     9
100
AcDbLine
 10
158.214725
 20
9.689584
 30
0.0
 11
162.257198
 21
9.689584
 31
0.0
  0
POLYLINE
  5
1F9
330
1F
100
AcDbEntity
  8
013
370
     9
100
AcDb2dPolyline
 66
     1
 10
0.0
 20
0.0
 30
0.0
  0
VERTEX
  5
1FB
330
1F9
100
AcDbEntity
  8
013
370
     9
100
AcDbVertex
100
AcDb2dVertex
 10
159.33884
 20
9.103412
 30
0.0
  0
VERTEX
  5
1FC
330
1F9
100
AcDbEntity
  8
013
370
     9
100
AcDbVertex
100
AcDb2dVertex
 10
159.226657
 20
9.101185
 30
0.0
  0
VERTEX
  5
1FD
330
1F9
100
AcDbEntity
  8
013
370
     9
100
AcDbVertex
100
AcDb2dVertex
 10
159.114588
 20
9.096556
 30
0.0
  0
VERTEX
  5
1FE
330
1F9
100
AcDbEntity
  8
013
370
     9
100
AcDbVertex
100
AcDb2dVertex
 10
158.997005
 20
9.086841
 30
0.0
  0
VERTEX
  5
1FF
330
1F9
100
AcDbEntity
  8
013
370
     9
100
AcDbVertex
100
AcDb2dVertex
 10
158.879991
 20
9.071301
 30
0.0
  0
VERTEX
  5
200
330
1F9
100
AcDbEntity
  8
013
370
     9
100
AcDbVertex
100
AcDb2dVertex
 10
158.757371
 20
9.047697
 30
0.0
  0
VERTEX
  5
201
330
1F9
100
AcDbEntity
  8
013
370
     9
100
AcDbVertex
100
AcDb2dVertex
 10
158.636974
 20
9.014779
 30
0.0
  0
VERTEX
  5
202
330
1F9
100
AcDbEntity
  8
013
370
     9
100
AcDbVertex
100
AcDb2dVertex
 10
158.580319
 20
8.994881
 30
0.0
  0
VERTEX
  5
203
330
1F9
100
AcDbEntity
  8
013
370
     9
100
AcDbVertex
100
AcDb2dVertex
 10
158.525089
 20
8.971485
 30
0.0
  0
VERTEX
  5
204
330
1F9
100
AcDbEntity
  8
013
370
     9
100
AcDbVertex
100
AcDb2dVertex
 10
158.467976
 20
8.941807
 30
0.0
  0
VERTEX
  5
205
330
1F9
100
AcDbEntity
  8
013
370
     9
100
AcDbVertex
100
AcDb2dVertex
 10
158.413205
 20
8.907746
 30
0.0
  0
VERTEX
  5
206
330
1F9
100
AcDbEntity
  8
013
370
     9
100
AcDbVertex
100
AcDb2dVertex
 10
158.35527
 20
8.865005
 30
0.0
  0
VERTEX
  5
207
330
1F9
100
AcDbEntity
  8
013
370
     9
100
AcDbVertex
100
AcDb2dVertex
 10
158.302523
 20
8.816348
 30
0.0
  0
VERTEX
  5
208
330
1F9
100
AcDbEntity
  8
013
370
     9
100
AcDbVertex
100
AcDb2dVertex
 10
158.273385
 20
8.78296
 30
0.0
  0
VERTEX
  5
209
330
1F9
100
AcDbEntity
  8
013
370
     9
100
AcDbVertex
100
AcDb2dVertex
 10
158.246714
 20
8.747462
 30
0.0
  0
VERTEX
  5
20A
330
1F9
100
AcDbEntity
  8
013
370
     9
100
AcDbVertex
100
AcDb2dVertex
 10
158.219586
 20
8.70581
 30
0.0
  0
VERTEX
  5
20B
330
1F9
100
AcDbEntity
  8
013
370
     9
100
AcDbVertex
100
AcDb2dVertex
 10
158.196185
 20
8.662076
 30
0.0
  0
VERTEX
  5
20C
330
1F9
100
AcDbEntity
  8
013
370
     9
100
AcDbVertex
100
AcDb2dVertex
 10
158.174978
 20
8.609529
 30
0.0
  0
VERTEX
  5
20D
330
1F9
100
AcDbEntity
  8
013
370
     9
100
AcDbVertex
100
AcDb2dVertex
 10
158.158891
 20
8.555044
 30
0.0
  0
VERTEX
  5
20E
330
1F9
100
AcDbEntity
  8
013
370
     9
100
AcDbVertex
100
AcDb2dVertex
 10
158.146306
 20
8.49586
 30
0.0
  0
VERTEX
  5
20F
330
1F9
100
AcDbEntity
  8
013
370
     9
100
AcDbVertex
100
AcDb2dVertex
 10
158.138439
 20
8.435986
 30
0.0
  0
VERTEX
  5
210
330
1F9
100
AcDbEntity
  8
013
370
     9
100
AcDbVertex
100
AcDb2dVertex
 10
158.135048
 20
8.372494
 30
0.0
  0
VERTEX
  5
211
330
1F9
100
AcDbEntity
  8
013
370
     9
100
AcDbVertex
100
AcDb2dVertex
 10
158.134431
 20
8.308798
 30
0.0
  0
SEQEND
  5
1FA
330
1F9
100
AcDbEntity
  8
013
370
     9
  0
LINE
  5
212
330
1F
100
AcDbEntity
  8
013
370
     9
100
AcDbLine
 10
158.134431
 20
8.308798
 30
0.0
 11
158.134431
 21
7.779056
 31
0.0
  0
POLYLINE
  5
213
330
1F
100
AcDbEntity
  8
013
370
     9
100
AcDb2dPolyline
 66
     1
 10
0.0
 20
0.0
 30
0.0
  0
VERTEX
  5
215
330
213
100
AcDbEntity
  8
013
370
     9
100
AcDbVertex
100
AcDb2dVertex
 10
159.33884
 20
7.0
 30
0.0
  0
VERTEX
  5
216
330
213
100
AcDbEntity
  8
013
370
     9
100
AcDbVertex
100
AcDb2dVertex
 10
159.226657
 20
7.002227
 30
0.0
  0
VERTEX
  5
217
330
213
100
AcDbEntity
  8
013
370
     9
100
AcDbVertex
100
AcDb2dVertex
 10
159.114588
 20
7.006856
 30
0.0
  0
VERTEX
  5
218
330
213
100
AcDbEntity
  8
013
370
     9
100
AcDbVertex
100
AcDb2dVertex
 10
158.997005
 20
7.016571
 30
0.0
  0
VERTEX
  5
219
330
213
100
AcDbEntity
  8
013
370
     9
100
AcDbVertex
100
AcDb2dVertex
 10
158.879991
 20
7.032111
 30
0.0
  0
VERTEX
  5
21A
330
213
100
AcDbEntity
  8
013
370
     9
100
AcDbVertex
100
AcDb2dVertex
 10
158.757371
 20
7.055715
 30
0.0
  0
VERTEX
  5
21B
330
213
100
AcDbEntity
  8
013
370
     9
100
AcDbVertex
100
AcDb2dVertex
 10
158.636974
 20
7.088633
 30
0.0
  0
VERTEX
  5
21C
330
213
100
AcDbEntity
  8
013
370
     9
100
AcDbVertex
100
AcDb2dVertex
 10
158.580319
 20
7.108531
 30
0.0
  0
VERTEX
  5
21D
330
213
100
AcDbEntity
  8
013
370
     9
100
AcDbVertex
100
AcDb2dVertex
 10
158.525089
 20
7.131927
 30
0.0
  0
VERTEX
  5
21E
330
213
100
AcDbEntity
  8
013
370
     9
100
AcDbVertex
100
AcDb2dVertex
 10
158.467976
 20
7.161605
 30
0.0
  0
VERTEX
  5
21F
330
213
100
AcDbEntity
  8
013
370
     9
100
AcDbVertex
100
AcDb2dVertex
 10
158.413205
 20
7.195666
 30
0.0
  0
VERTEX
  5
220
330
213
100
AcDbEntity
  8
013
370
     9
100
AcDbVertex
100
AcDb2dVertex
 10
158.35527
 20
7.238407
 30
0.0
  0
VERTEX
  5
221
330
213
100
AcDbEntity
  8
013
370
     9
100
AcDbVertex
100
AcDb2dVertex
 10
158.302523
 20
7.287064
 30
0.0
  0
VERTEX
  5
222
330
213
100
AcDbEntity
  8
013
370
     9
100
AcDbVertex
100
AcDb2dVertex
 10
158.273385
 20
7.320452
 30
0.0
  0
VERTEX
  5
223
330
213
100
AcDbEntity
  8
013
370
     9
100
AcDbVertex
100
AcDb2dVertex
 10
158.246714
 20
7.35595
 30
0.0
  0
VERTEX
  5
224
330
213
100
AcDbEntity
  8
013
370
     9
100
AcDbVertex
100
AcDb2dVertex
 10
158.219586
 20
7.397602
 30
0.0
  0
VERTEX
  5
225
330
213
100
AcDbEntity
  8
013
370
     9
100
AcDbVertex
100
AcDb2dVertex
 10
158.196185
 20
7.441336
 30
0.0
  0
VERTEX
  5
226
330
213
100
AcDbEntity
  8
013
370
     9
100
AcDbVertex
100
AcDb2dVertex
 10
158.174978
 20
7.493883
 30
0.0
  0
VERTEX
  5
227
330
213
100
AcDbEntity
  8
013
370
     9
100
AcDbVertex
100
AcDb2dVertex
 10
158.158891
 20
7.548368
 30
0.0
  0
VERTEX
  5
228
330
213
100
AcDbEntity
  8
013
370
     9
100
AcDbVertex
100
AcDb2dVertex
 10
158.146306
 20
7.607552
 30
0.0
  0
VERTEX
  5
229
330
213
100
AcDbEntity
  8
013
370
     9
100
AcDbVertex
100
AcDb2dVertex
 10
158.138439
 20
7.667426
 30
0.0
  0
VERTEX
  5
22A
330
213
100
AcDbEntity
  8
013
370
     9
100
AcDbVertex
100
AcDb2dVertex
 10
158.135048
 20
7.730918
 30
0.0
  0
VERTEX
  5
22B
330
213
100
AcDbEntity
  8
013
370
     9
100
AcDbVertex
100
AcDb2dVertex
 10
158.134431
 20
7.794614
 30
0.0
  0
SEQEND
  5
214
330
213
100
AcDbEntity
  8
013
370
     9
  0
LINE
  5
22C
330
1F
100
AcDbEntity
  8
013
370
     9
100
AcDbLine
 10
162.438187
 20
9.103412
 30
0.0
 11
159.33884
 21
9.103412
 31
0.0
  0
LINE
  5
22D
330
1F
100
AcDbEntity
  8
013
370
     9
100
AcDbLine
 10
159.33884
 20
8.308798
 30
0.0
 11
159.33884
 21
7.779056
 31
0.0
  0
LINE
  5
22E
330
1F
100
AcDbEntity
  8
013
370
     9
100
AcDbLine
 10
162.438187
 20
8.308798
 30
0.0
 11
159.33884
 21
8.308798
 31
0.0
  0
LINE
  5
22F
330
1F
100
AcDbEntity
  8
013
370
     9
100
AcDbLine
 10
159.33884
 20
7.779056
 30
0.0
 11
162.438187
 21
7.779056
 31
0.0
  0
LINE
  5
230
330
1F
100
AcDbEntity
  8
013
370
     9
100
AcDbLine
 10
159.33884
 20
7.0
 30
0.0
 11
163.500011
 21
7.0
 31
0.0
  0
ARC
  5
231
330
1F
100
AcDbEntity
  8
013
370
     9
100
AcDbCircle
 10
162.257198
 20
9.508594
 30
0.0
 40
0.1809891418580829
100
AcDbArc
 50
0.0
 51
90.0
  0
POLYLINE
  5
232
330
1F
100
AcDbEntity
  8
013
370
     9
100
AcDb2dPolyline
 66
     1
 10
0.0
 20
0.0
 30
0.0
  0
VERTEX
  5
234
330
232
100
AcDbEntity
  8
013
370
     9
100
AcDbVertex
100
AcDb2dVertex
 10
163.500011
 20
9.303488
 30
0.0
  0
VERTEX
  5
235
330
232
100
AcDbEntity
  8
013
370
     9
100
AcDbVertex
100
AcDb2dVertex
 10
163.493682
 20
9.419365
 30
0.0
  0
VERTEX
  5
236
330
232
100
AcDbEntity
  8
013
370
     9
100
AcDbVertex
100
AcDb2dVertex
 10
163.484701
 20
9.535046
 30
0.0
  0
VERTEX
  5
237
330
232
100
AcDbEntity
  8
013
370
     9
100
AcDbVertex
100
AcDb2dVertex
 10
163.470425
 20
9.650095
 30
0.0
  0
VERTEX
  5
238
330
232
100
AcDbEntity
  8
013
370
     9
100
AcDbVertex
100
AcDb2dVertex
 10
163.448136
 20
9.76393
 30
0.0
  0
VERTEX
  5
239
330
232
100
AcDbEntity
  8
013
370
     9
100
AcDbVertex
100
AcDb2dVertex
 10
163.419801
 20
9.861668
 30
0.0
  0
VERTEX
  5
23A
330
232
100
AcDbEntity
  8
013
370
     9
100
AcDbVertex
100
AcDb2dVertex
 10
163.380868
 20
9.955449
 30
0.0
  0
VERTEX
  5
23B
330
232
100
AcDbEntity
  8
013
370
     9
100
AcDbVertex
100
AcDb2dVertex
 10
163.323336
 20
10.052559
 30
0.0
  0
VERTEX
  5
23C
330
232
100
AcDbEntity
  8
013
370
     9
100
AcDbVertex
100
AcDb2dVertex
 10
163.252831
 20
10.141189
 30
0.0
  0
VERTEX
  5
23D
330
232
100
AcDbEntity
  8
013
370
     9
100
AcDbVertex
100
AcDb2dVertex
 10
163.18106
 20
10.212308
 30
0.0
  0
VERTEX
  5
23E
330
232
100
AcDbEntity
  8
013
370
     9
100
AcDbVertex
100
AcDb2dVertex
 10
163.101373
 20
10.273861
 30
0.0
  0
VERTEX
  5
23F
330
232
100
AcDbEntity
  8
013
370
     9
100
AcDbVertex
100
AcDb2dVertex
 10
163.006783
 20
10.327929
 30
0.0
  0
VERTEX
  5
240
330
232
100
AcDbEntity
  8
013
370
     9
100
AcDbVertex
100
AcDb2dVertex
 10
162.906195
 20
10.370634
 30
0.0
  0
VERTEX
  5
241
330
232
100
AcDbEntity
  8
013
370
     9
100
AcDbVertex
100
AcDb2dVertex
 10
162.777997
 20
10.411068
 30
0.0
  0
VERTEX
  5
242
330
232
100
AcDbEntity
  8
013
370
     9
100
AcDbVertex
100
AcDb2dVertex
 10
162.646998
 20
10.440872
 30
0.0
  0
VERTEX
  5
243
330
232
100
AcDbEntity
  8
013
370
     9
100
AcDbVertex
100
AcDb2dVertex
 10
162.564482
 20
10.455113
 30
0.0
  0
VERTEX
  5
244
330
232
100
AcDbEntity
  8
013
370
     9
100
AcDbVertex
100
AcDb2dVertex
 10
162.481487
 20
10.465845
 30
0.0
  0
VERTEX
  5
245
330
232
100
AcDbEntity
  8
013
370
     9
100
AcDbVertex
100
AcDb2dVertex
 10
162.406273
 20
10.472458
 30
0.0
  0
VERTEX
  5
246
330
232
100
AcDbEntity
  8
013
370
     9
100
AcDbVertex
100
AcDb2dVertex
 10
162.330899
 20
10.477454
 30
0.0
  0
SEQEND
  5
233
330
232
100
AcDbEntity
  8
013
370
     9
  0
LINE
  5
247
330
1F
100
AcDbEntity
  8
013
370
     9
100
AcDbLine
 10
162.438187
 20
9.508594
 30
0.0
 11
162.438187
 21
9.103412
 31
0.0
  0
LINE
  5
248
330
1F
100
AcDbEntity
  8
013
370
     9
100
AcDbLine
 10
162.438187
 20
7.779056
 30
0.0
 11
162.438187
 21
8.308798
 31
0.0
  0
LINE
  5
249
330
1F
100
AcDbEntity
  8
013
370
     9
100
AcDbLine
 10
163.500011
 20
7.0
 30
0.0
 11
163.500011
 21
9.303488
 31
0.0
  0
TEXT
  5
24A
330
1F
100
AcDbEntity
  8
013
 62
     4
370
    30
100
AcDbText
 10
227.729914
 20
30.885552
 30
0.0
 40
2.7
  1
製
 41
1.266667
100
AcDbText
  0
TEXT
  5
24B
330
1F
100
AcDbEntity
  8
013
 62
     4
370
    30
100
AcDbText
 10
227.729914
 20
27.785552
 30
0.0
 40
2.7
  1
品
 41
1.266667
100
AcDbText
  0
TEXT
  5
24C
330
1F
100
AcDbEntity
  8
013
 62
     4
370
    30
100
AcDbText
 10
227.729914
 20
24.685552
 30
0.0
 40
2.7
  1
名
 41
1.266667
100
AcDbText
  0
TEXT
  5
24D
330
1F
100
AcDbEntity
  8
013
 62
     4
370
    30
100
AcDbText
 10
183.015468
 20
19.595361
 30
0.0
 40
2.7
  1
面
 41
1.203333
100
AcDbText
  0
TEXT
  5
24E
330
1F
100
AcDbEntity
  8
013
 62
     4
370
    30
100
AcDbText
 10
183.015468
 20
16.095361
 30
0.0
 40
2.7
  1
取
 41
1.203333
100
AcDbText
  0
TEXT
  5
24F
330
1F
100
AcDbEntity
  8
013
 62
     4
370
    30
100
AcDbText
 10
182.668526
 20
25.867233
 30
0.0
 40
2.7
  1
上
 41
1.27
100
AcDbText
  0
TEXT
  5
250
330
1F
100
AcDbEntity
  8
013
 62
     4
370
    30
100
AcDbText
 10
182.668526
 20
29.367233
 30
0.0
 40
2.7
  1
仕
 41
1.266667
100
AcDbText
  0
TEXT
  5
251
330
1F
100
AcDbEntity
  8
013
 62
     4
370
    30
100
AcDbText
 10
227.65
 20
20.15
 30
0.0
 40
2.7
  1
図
 41
1.266667
100
AcDbText
  0
TEXT
  5
252
330
1F
100
AcDbEntity
  8
013
 62
     4
370
    30
100
AcDbText
 10
227.65
 20
15.65
 30
0.0
 40
2.7
  1
番
 41
1.266667
100
AcDbText
  0
TEXT
  5
253
330
1F
100
AcDbEntity
  8
013
 62
   134
370
    30
100
AcDbText
 10
14.607694
 20
31.472834
 30
0.0
 40
1.356
  1
2
 41
0.577433
100
AcDbText
  0
TEXT
  5
254
330
1F
100
AcDbEntity
  8
013
 62
   134
370
    30
100
AcDbText
 10
14.740244
 20
28.146594
 30
0.0
 40
1.356
  1
1
 41
0.577433
100
AcDbText
  0
LINE
  5
255
330
1F
100
AcDbEntity
  8
001
370
     9
100
AcDbLine
 10
136.895516
 20
7.0
 30
0.0
 11
136.914043
 21
7.018527
 31
0.0
  0
LINE
  5
256
330
1F
100
AcDbEntity
  8
001
370
     9
100
AcDbLine
 10
136.824805
 20
7.0
 30
0.0
 11
136.914043
 21
7.089238
 31
0.0
  0
LINE
  5
257
330
1F
100
AcDbEntity
  8
001
370
     9
100
AcDbLine
 10
136.754094
 20
7.0
 30
0.0
 11
136.914043
 21
7.159949
 31
0.0
  0
LINE
  5
258
330
1F
100
AcDbEntity
  8
001
370
     9
100
AcDbLine
 10
136.683384
 20
7.0
 30
0.0
 11
136.914043
 21
7.23066
 31
0.0
  0
LINE
  5
259
330
1F
100
AcDbEntity
  8
001
370
     9
100
AcDbLine
 10
136.612673
 20
7.0
 30
0.0
 11
136.914043
 21
7.30137
 31
0.0
  0
LINE
  5
25A
330
1F
100
AcDbEntity
  8
001
370
     9
100
AcDbLine
 10
136.541962
 20
7.0
 30
0.0
 11
136.914043
 21
7.372081
 31
0.0
  0
LINE
  5
25B
330
1F
100
AcDbEntity
  8
001
370
     9
100
AcDbLine
 10
136.471252
 20
7.0
 30
0.0
 11
136.914043
 21
7.442792
 31
0.0
  0
LINE
  5
25C
330
1F
100
AcDbEntity
  8
001
370
     9
100
AcDbLine
 10
136.400541
 20
7.0
 30
0.0
 11
136.914043
 21
7.513502
 31
0.0
  0
LINE
  5
25D
330
1F
100
AcDbEntity
  8
001
370
     9
100
AcDbLine
 10
136.32983
 20
7.0
 30
0.0
 11
136.914043
 21
7.584213
 31
0.0
  0
LINE
  5
25E
330
1F
100
AcDbEntity
  8
001
370
     9
100
AcDbLine
 10
136.25912
 20
7.0
 30
0.0
 11
136.914043
 21
7.654924
 31
0.0
  0
LINE
  5
25F
330
1F
100
AcDbEntity
  8
001
370
     9
100
AcDbLine
 10
136.188409
 20
7.0
 30
0.0
 11
136.914043
 21
7.725634
 31
0.0
  0
LINE
  5
260
330
1F
100
AcDbEntity
  8
001
370
     9
100
AcDbLine
 10
136.117698
 20
7.0
 30
0.0
 11
136.914043
 21
7.796345
 31
0.0
  0
LINE
  5
261
330
1F
100
AcDbEntity
  8
001
370
     9
100
AcDbLine
 10
136.046988
 20
7.0
 30
0.0
 11
136.914043
 21
7.867056
 31
0.0
  0
LINE
  5
262
330
1F
100
AcDbEntity
  8
001
370
     9
100
AcDbLine
 10
135.976277
 20
7.0
 30
0.0
 11
136.914043
 21
7.937766
 31
0.0
  0
LINE
  5
263
330
1F
100
AcDbEntity
  8
001
370
     9
100
AcDbLine
 10
135.905566
 20
7.0
 30
0.0
 11
136.914043
 21
8.008477
 31
0.0
  0
LINE
  5
264
330
1F
100
AcDbEntity
  8
001
370
     9
100
AcDbLine
 10
135.834856
 20
7.0
 30
0.0
 11
136.914043
 21
8.079188
 31
0.0
  0
LINE
  5
265
330
1F
100
AcDbEntity
  8
001
370
     9
100
AcDbLine
 10
135.764145
 20
7.0
 30
0.0
 11
136.914043
 21
8.149898
 31
0.0
  0
LINE
  5
266
330
1F
100
AcDbEntity
  8
001
370
     9
100
AcDbLine
 10
135.725693
 20
7.032258
 30
0.0
 11
136.914043
 21
8.220609
 31
0.0
  0
LINE
  5
267
330
1F
100
AcDbEntity
  8
001
370
     9
100
AcDbLine
 10
135.725693
 20
7.102969
 30
0.0
 11
136.914043
 21
8.29132
 31
0.0
  0
LINE
  5
268
330
1F
100
AcDbEntity
  8
001
370
     9
100
AcDbLine
 10
139.148336
 20
10.525613
 30
0.0
 11
139.175302
 21
10.552578
 31
0.0
  0
LINE
  5
269
330
1F
100
AcDbEntity
  8
001
370
     9
100
AcDbLine
 10
135.725693
 20
7.17368
 30
0.0
 11
136.914043
 21
8.36203
 31
0.0
  0
LINE
  5
26A
330
1F
100
AcDbEntity
  8
001
370
     9
100
AcDbLine
 10
139.077625
 20
10.525613
 30
0.0
 11
139.175302
 21
10.623289
 31
0.0
  0
LINE
  5
26B
330
1F
100
AcDbEntity
  8
001
370
     9
100
AcDbLine
 10
135.725693
 20
7.24439
 30
0.0
 11
136.914043
 21
8.432741
 31
0.0
  0
LINE
  5
26C
330
1F
100
AcDbEntity
  8
001
370
     9
100
AcDbLine
 10
139.006915
 20
10.525613
 30
0.0
 11
139.175302
 21
10.694
 31
0.0
  0
LINE
  5
26D
330
1F
100
AcDbEntity
  8
001
370
     9
100
AcDbLine
 10
135.725693
 20
7.315101
 30
0.0
 11
136.914043
 21
8.503452
 31
0.0
  0
LINE
  5
26E
330
1F
100
AcDbEntity
  8
001
370
     9
100
AcDbLine
 10
138.936204
 20
10.525613
 30
0.0
 11
139.175302
 21
10.76471
 31
0.0
  0
LINE
  5
26F
330
1F
100
AcDbEntity
  8
001
370
     9
100
AcDbLine
 10
135.725693
 20
7.385812
 30
0.0
 11
136.914043
 21
8.574162
 31
0.0
  0
LINE
  5
270
330
1F
100
AcDbEntity
  8
001
370
     9
100
AcDbLine
 10
138.865493
 20
10.525613
 30
0.0
 11
139.175302
 21
10.835421
 31
0.0
  0
LINE
  5
271
330
1F
100
AcDbEntity
  8
001
370
     9
100
AcDbLine
 10
135.725693
 20
7.456522
 30
0.0
 11
136.914043
 21
8.644873
 31
0.0
  0
LINE
  5
272
330
1F
100
AcDbEntity
  8
001
370
     9
100
AcDbLine
 10
138.794783
 20
10.525613
 30
0.0
 11
139.175302
 21
10.906132
 31
0.0
  0
LINE
  5
273
330
1F
100
AcDbEntity
  8
001
370
     9
100
AcDbLine
 10
135.725693
 20
7.527233
 30
0.0
 11
136.914043
 21
8.715584
 31
0.0
  0
LINE
  5
274
330
1F
100
AcDbEntity
  8
001
370
     9
100
AcDbLine
 10
138.724072
 20
10.525613
 30
0.0
 11
139.175302
 21
10.976842
 31
0.0
  0
LINE
  5
275
330
1F
100
AcDbEntity
  8
001
370
     9
100
AcDbLine
 10
135.725693
 20
7.597944
 30
0.0
 11
136.914043
 21
8.786294
 31
0.0
  0
LINE
  5
276
330
1F
100
AcDbEntity
  8
001
370
     9
100
AcDbLine
 10
138.653361
 20
10.525613
 30
0.0
 11
139.175302
 21
11.047553
 31
0.0
  0
LINE
  5
277
330
1F
100
AcDbEntity
  8
001
370
     9
100
AcDbLine
 10
135.725693
 20
7.668654
 30
0.0
 11
136.914043
 21
8.857005
 31
0.0
  0
LINE
  5
278
330
1F
100
AcDbEntity
  8
001
370
     9
100
AcDbLine
 10
138.582651
 20
10.525613
 30
0.0
 11
139.175302
 21
11.118264
 31
0.0
  0
LINE
  5
279
330
1F
100
AcDbEntity
  8
001
370
     9
100
AcDbLine
 10
135.725693
 20
7.739365
 30
0.0
 11
136.914043
 21
8.927716
 31
0.0
  0
LINE
  5
27A
330
1F
100
AcDbEntity
  8
001
370
     9
100
AcDbLine
 10
138.51194
 20
10.525613
 30
0.0
 11
139.175302
 21
11.188974
 31
0.0
  0
LINE
  5
27B
330
1F
100
AcDbEntity
  8
001
370
     9
100
AcDbLine
 10
135.725693
 20
7.810076
 30
0.0
 11
136.914043
 21
8.998426
 31
0.0
  0
LINE
  5
27C
330
1F
100
AcDbEntity
  8
001
370
     9
100
AcDbLine
 10
138.441229
 20
10.525613
 30
0.0
 11
139.175302
 21
11.259685
 31
0.0
  0
LINE
  5
27D
330
1F
100
AcDbEntity
  8
001
370
     9
100
AcDbLine
 10
135.725693
 20
7.880787
 30
0.0
 11
136.914043
 21
9.069137
 31
0.0
  0
LINE
  5
27E
330
1F
100
AcDbEntity
  8
001
370
     9
100
AcDbLine
 10
138.370519
 20
10.525613
 30
0.0
 11
139.175302
 21
11.330396
 31
0.0
  0
LINE
  5
27F
330
1F
100
AcDbEntity
  8
001
370
     9
100
AcDbLine
 10
135.725693
 20
7.951497
 30
0.0
 11
136.914043
 21
9.139848
 31
0.0
  0
LINE
  5
280
330
1F
100
AcDbEntity
  8
001
370
     9
100
AcDbLine
 10
138.299808
 20
10.525613
 30
0.0
 11
139.175302
 21
11.401106
 31
0.0
  0
LINE
  5
281
330
1F
100
AcDbEntity
  8
001
370
     9
100
AcDbLine
 10
135.725693
 20
8.022208
 30
0.0
 11
136.914043
 21
9.210559
 31
0.0
  0
LINE
  5
282
330
1F
100
AcDbEntity
  8
001
370
     9
100
AcDbLine
 10
138.229097
 20
10.525613
 30
0.0
 11
139.175302
 21
11.471817
 31
0.0
  0
LINE
  5
283
330
1F
100
AcDbEntity
  8
001
370
     9
100
AcDbLine
 10
135.725693
 20
8.092919
 30
0.0
 11
136.914043
 21
9.281269
 31
0.0
  0
LINE
  5
284
330
1F
100
AcDbEntity
  8
001
370
     9
100
AcDbLine
 10
138.158387
 20
10.525613
 30
0.0
 11
139.15366
 21
11.520886
 31
0.0
  0
LINE
  5
285
330
1F
100
AcDbEntity
  8
001
370
     9
100
AcDbLine
 10
135.725693
 20
8.163629
 30
0.0
 11
136.914043
 21
9.35198
 31
0.0
  0
LINE
  5
286
330
1F
100
AcDbEntity
  8
001
370
     9
100
AcDbLine
 10
138.087676
 20
10.525613
 30
0.0
 11
139.08295
 21
11.520886
 31
0.0
  0
LINE
  5
287
330
1F
100
AcDbEntity
  8
001
370
     9
100
AcDbLine
 10
135.725693
 20
8.23434
 30
0.0
 11
136.914043
 21
9.422691
 31
0.0
  0
LINE
  5
288
330
1F
100
AcDbEntity
  8
001
370
     9
100
AcDbLine
 10
138.016965
 20
10.525613
 30
0.0
 11
139.012239
 21
11.520886
 31
0.0
  0
LINE
  5
289
330
1F
100
AcDbEntity
  8
001
370
     9
100
AcDbLine
 10
135.725693
 20
8.305051
 30
0.0
 11
136.914043
 21
9.493401
 31
0.0
  0
LINE
  5
28A
330
1F
100
AcDbEntity
  8
001
370
     9
100
AcDbLine
 10
137.946255
 20
10.525613
 30
0.0
 11
138.941528
 21
11.520886
 31
0.0
  0
LINE
  5
28B
330
1F
100
AcDbEntity
  8
001
370
     9
100
AcDbLine
 10
135.725693
 20
8.375761
 30
0.0
 11
136.914043
 21
9.564112
 31
0.0
  0
LINE
  5
28C
330
1F
100
AcDbEntity
  8
001
370
     9
100
AcDbLine
 10
137.875544
 20
10.525613
 30
0.0
 11
138.870818
 21
11.520886
 31
0.0
  0
LINE
  5
28D
330
1F
100
AcDbEntity
  8
001
370
     9
100
AcDbLine
 10
135.725693
 20
8.446472
 30
0.0
 11
136.914043
 21
9.634823
 31
0.0
  0
LINE
  5
28E
330
1F
100
AcDbEntity
  8
001
370
     9
100
AcDbLine
 10
137.804833
 20
10.525613
 30
0.0
 11
138.800107
 21
11.520886
 31
0.0
  0
LINE
  5
28F
330
1F
100
AcDbEntity
  8
001
370
     9
100
AcDbLine
 10
135.725693
 20
8.517183
 30
0.0
 11
136.914043
 21
9.705533
 31
0.0
  0
LINE
  5
290
330
1F
100
AcDbEntity
  8
001
370
     9
100
AcDbLine
 10
137.734123
 20
10.525613
 30
0.0
 11
138.729396
 21
11.520886
 31
0.0
  0
LINE
  5
291
330
1F
100
AcDbEntity
  8
001
370
     9
100
AcDbLine
 10
135.725693
 20
8.587893
 30
0.0
 11
136.914043
 21
9.776244
 31
0.0
  0
LINE
  5
292
330
1F
100
AcDbEntity
  8
001
370
     9
100
AcDbLine
 10
137.663412
 20
10.525613
 30
0.0
 11
138.658686
 21
11.520886
 31
0.0
  0
LINE
  5
293
330
1F
100
AcDbEntity
  8
001
370
     9
100
AcDbLine
 10
135.725693
 20
8.658604
 30
0.0
 11
136.914043
 21
9.846955
 31
0.0
  0
LINE
  5
294
330
1F
100
AcDbEntity
  8
001
370
     9
100
AcDbLine
 10
137.592701
 20
10.525613
 30
0.0
 11
138.587975
 21
11.520886
 31
0.0
  0
LINE
  5
295
330
1F
100
AcDbEntity
  8
001
370
     9
100
AcDbLine
 10
135.725693
 20
8.729315
 30
0.0
 11
136.914043
 21
9.917665
 31
0.0
  0
LINE
  5
296
330
1F
100
AcDbEntity
  8
001
370
     9
100
AcDbLine
 10
137.521991
 20
10.525613
 30
0.0
 11
138.517264
 21
11.520886
 31
0.0
  0
LINE
  5
297
330
1F
100
AcDbEntity
  8
001
370
     9
100
AcDbLine
 10
135.725693
 20
8.800025
 30
0.0
 11
136.914043
 21
9.988376
 31
0.0
  0
LINE
  5
298
330
1F
100
AcDbEntity
  8
001
370
     9
100
AcDbLine
 10
137.45128
 20
10.525613
 30
0.0
 11
138.446554
 21
11.520886
 31
0.0
  0
LINE
  5
299
330
1F
100
AcDbEntity
  8
001
370
     9
100
AcDbLine
 10
135.725693
 20
8.870736
 30
0.0
 11
136.914043
 21
10.059087
 31
0.0
  0
LINE
  5
29A
330
1F
100
AcDbEntity
  8
001
370
     9
100
AcDbLine
 10
137.380569
 20
10.525613
 30
0.0
 11
138.375843
 21
11.520886
 31
0.0
  0
LINE
  5
29B
330
1F
100
AcDbEntity
  8
001
370
     9
100
AcDbLine
 10
135.725693
 20
8.941447
 30
0.0
 11
136.914043
 21
10.129797
 31
0.0
  0
LINE
  5
29C
330
1F
100
AcDbEntity
  8
001
370
     9
100
AcDbLine
 10
137.309859
 20
10.525613
 30
0.0
 11
138.305132
 21
11.520886
 31
0.0
  0
LINE
  5
29D
330
1F
100
AcDbEntity
  8
001
370
     9
100
AcDbLine
 10
135.725693
 20
9.012157
 30
0.0
 11
136.914043
 21
10.200508
 31
0.0
  0
LINE
  5
29E
330
1F
100
AcDbEntity
  8
001
370
     9
100
AcDbLine
 10
137.239148
 20
10.525613
 30
0.0
 11
138.234422
 21
11.520886
 31
0.0
  0
LINE
  5
29F
330
1F
100
AcDbEntity
  8
001
370
     9
100
AcDbLine
 10
135.725693
 20
9.082868
 30
0.0
 11
136.914043
 21
10.271219
 31
0.0
  0
LINE
  5
2A0
330
1F
100
AcDbEntity
  8
001
370
     9
100
AcDbLine
 10
137.168437
 20
10.525613
 30
0.0
 11
138.163711
 21
11.520886
 31
0.0
  0
LINE
  5
2A1
330
1F
100
AcDbEntity
  8
001
370
     9
100
AcDbLine
 10
135.725693
 20
9.153579
 30
0.0
 11
136.914043
 21
10.341929
 31
0.0
  0
LINE
  5
2A2
330
1F
100
AcDbEntity
  8
001
370
     9
100
AcDbLine
 10
137.097727
 20
10.525613
 30
0.0
 11
138.093
 21
11.520886
 31
0.0
  0
LINE
  5
2A3
330
1F
100
AcDbEntity
  8
001
370
     9
100
AcDbLine
 10
135.725693
 20
9.224289
 30
0.0
 11
136.914043
 21
10.41264
 31
0.0
  0
LINE
  5
2A4
330
1F
100
AcDbEntity
  8
001
370
     9
100
AcDbLine
 10
137.027016
 20
10.525613
 30
0.0
 11
138.02229
 21
11.520886
 31
0.0
  0
LINE
  5
2A5
330
1F
100
AcDbEntity
  8
001
370
     9
100
AcDbLine
 10
135.725693
 20
9.295
 30
0.0
 11
136.914043
 21
10.483351
 31
0.0
  0
LINE
  5
2A6
330
1F
100
AcDbEntity
  8
001
370
     9
100
AcDbLine
 10
136.956305
 20
10.525613
 30
0.0
 11
137.951579
 21
11.520886
 31
0.0
  0
LINE
  5
2A7
330
1F
100
AcDbEntity
  8
001
370
     9
100
AcDbLine
 10
135.725693
 20
9.365711
 30
0.0
 11
137.880868
 21
11.520886
 31
0.0
  0
LINE
  5
2A8
330
1F
100
AcDbEntity
  8
001
370
     9
100
AcDbLine
 10
135.725693
 20
9.436421
 30
0.0
 11
137.810158
 21
11.520886
 31
0.0
  0
LINE
  5
2A9
330
1F
100
AcDbEntity
  8
001
370
     9
100
AcDbLine
 10
135.725693
 20
9.507132
 30
0.0
 11
137.739447
 21
11.520886
 31
0.0
  0
LINE
  5
2AA
330
1F
100
AcDbEntity
  8
001
370
     9
100
AcDbLine
 10
135.725693
 20
9.577843
 30
0.0
 11
137.668736
 21
11.520886
 31
0.0
  0
LINE
  5
2AB
330
1F
100
AcDbEntity
  8
001
370
     9
100
AcDbLine
 10
135.725693
 20
9.648553
 30
0.0
 11
137.598025
 21
11.520886
 31
0.0
  0
LINE
  5
2AC
330
1F
100
AcDbEntity
  8
001
370
     9
100
AcDbLine
 10
135.725693
 20
9.719264
 30
0.0
 11
137.527315
 21
11.520886
 31
0.0
  0
LINE
  5
2AD
330
1F
100
AcDbEntity
  8
001
370
     9
100
AcDbLine
 10
135.725693
 20
9.789975
 30
0.0
 11
137.456604
 21
11.520886
 31
0.0
  0
LINE
  5
2AE
330
1F
100
AcDbEntity
  8
001
370
     9
100
AcDbLine
 10
135.725693
 20
9.860686
 30
0.0
 11
137.385893
 21
11.520886
 31
0.0
  0
LINE
  5
2AF
330
1F
100
AcDbEntity
  8
001
370
     9
100
AcDbLine
 10
135.725693
 20
9.931396
 30
0.0
 11
137.315183
 21
11.520886
 31
0.0
  0
LINE
  5
2B0
330
1F
100
AcDbEntity
  8
001
370
     9
100
AcDbLine
 10
135.725693
 20
10.002107
 30
0.0
 11
137.244472
 21
11.520886
 31
0.0
  0
LINE
  5
2B1
330
1F
100
AcDbEntity
  8
001
370
     9
100
AcDbLine
 10
135.725693
 20
10.072818
 30
0.0
 11
137.173761
 21
11.520886
 31
0.0
  0
LINE
  5
2B2
330
1F
100
AcDbEntity
  8
001
370
     9
100
AcDbLine
 10
135.725693
 20
10.143528
 30
0.0
 11
137.103051
 21
11.520886
 31
0.0
  0
LINE
  5
2B3
330
1F
100
AcDbEntity
  8
001
370
     9
100
AcDbLine
 10
135.725693
 20
10.214239
 30
0.0
 11
137.03234
 21
11.520886
 31
0.0
  0
LINE
  5
2B4
330
1F
100
AcDbEntity
  8
001
370
     9
100
AcDbLine
 10
135.725693
 20
10.28495
 30
0.0
 11
136.961629
 21
11.520886
 31
0.0
  0
LINE
  5
2B5
330
1F
100
AcDbEntity
  8
001
370
     9
100
AcDbLine
 10
135.725693
 20
10.35566
 30
0.0
 11
136.890919
 21
11.520886
 31
0.0
  0
LINE
  5
2B6
330
1F
100
AcDbEntity
  8
001
370
     9
100
AcDbLine
 10
135.725693
 20
10.426371
 30
0.0
 11
136.820208
 21
11.520886
 31
0.0
  0
LINE
  5
2B7
330
1F
100
AcDbEntity
  8
001
370
     9
100
AcDbLine
 10
135.725693
 20
10.497082
 30
0.0
 11
136.749497
 21
11.520886
 31
0.0
  0
LINE
  5
2B8
330
1F
100
AcDbEntity
  8
001
370
     9
100
AcDbLine
 10
135.683513
 20
10.525613
 30
0.0
 11
136.678787
 21
11.520886
 31
0.0
  0
LINE
  5
2B9
330
1F
100
AcDbEntity
  8
001
370
     9
100
AcDbLine
 10
135.612802
 20
10.525613
 30
0.0
 11
136.608076
 21
11.520886
 31
0.0
  0
LINE
  5
2BA
330
1F
100
AcDbEntity
  8
001
370
     9
100
AcDbLine
 10
135.542092
 20
10.525613
 30
0.0
 11
136.537365
 21
11.520886
 31
0.0
  0
LINE
  5
2BB
330
1F
100
AcDbEntity
  8
001
370
     9
100
AcDbLine
 10
135.471381
 20
10.525613
 30
0.0
 11
136.466655
 21
11.520886
 31
0.0
  0
LINE
  5
2BC
330
1F
100
AcDbEntity
  8
001
370
     9
100
AcDbLine
 10
135.40067
 20
10.525613
 30
0.0
 11
136.395944
 21
11.520886
 31
0.0
  0
LINE
  5
2BD
330
1F
100
AcDbEntity
  8
001
370
     9
100
AcDbLine
 10
135.32996
 20
10.525613
 30
0.0
 11
136.325233
 21
11.520886
 31
0.0
  0
LINE
  5
2BE
330
1F
100
AcDbEntity
  8
001
370
     9
100
AcDbLine
 10
135.259249
 20
10.525613
 30
0.0
 11
136.254523
 21
11.520886
 31
0.0
  0
LINE
  5
2BF
330
1F
100
AcDbEntity
  8
001
370
     9
100
AcDbLine
 10
135.188538
 20
10.525613
 30
0.0
 11
136.183812
 21
11.520886
 31
0.0
  0
LINE
  5
2C0
330
1F
100
AcDbEntity
  8
001
370
     9
100
AcDbLine
 10
135.117828
 20
10.525613
 30
0.0
 11
136.113101
 21
11.520886
 31
0.0
  0
LINE
  5
2C1
330
1F
100
AcDbEntity
  8
001
370
     9
100
AcDbLine
 10
135.047117
 20
10.525613
 30
0.0
 11
136.042391
 21
11.520886
 31
0.0
  0
LINE
  5
2C2
330
1F
100
AcDbEntity
  8
001
370
     9
100
AcDbLine
 10
134.976406
 20
10.525613
 30
0.0
 11
135.97168
 21
11.520886
 31
0.0
  0
LINE
  5
2C3
330
1F
100
AcDbEntity
  8
001
370
     9
100
AcDbLine
 10
134.905695
 20
10.525613
 30
0.0
 11
135.900969
 21
11.520886
 31
0.0
  0
LINE
  5
2C4
330
1F
100
AcDbEntity
  8
001
370
     9
100
AcDbLine
 10
134.834985
 20
10.525613
 30
0.0
 11
135.830259
 21
11.520886
 31
0.0
  0
LINE
  5
2C5
330
1F
100
AcDbEntity
  8
001
370
     9
100
AcDbLine
 10
134.764274
 20
10.525613
 30
0.0
 11
135.759548
 21
11.520886
 31
0.0
  0
LINE
  5
2C6
330
1F
100
AcDbEntity
  8
001
370
     9
100
AcDbLine
 10
134.693563
 20
10.525613
 30
0.0
 11
135.688837
 21
11.520886
 31
0.0
  0
LINE
  5
2C7
330
1F
100
AcDbEntity
  8
001
370
     9
100
AcDbLine
 10
134.622853
 20
10.525613
 30
0.0
 11
135.618127
 21
11.520886
 31
0.0
  0
LINE
  5
2C8
330
1F
100
AcDbEntity
  8
001
370
     9
100
AcDbLine
 10
134.552142
 20
10.525613
 30
0.0
 11
135.547416
 21
11.520886
 31
0.0
  0
LINE
  5
2C9
330
1F
100
AcDbEntity
  8
001
370
     9
100
AcDbLine
 10
134.481431
 20
10.525613
 30
0.0
 11
135.476705
 21
11.520886
 31
0.0
  0
LINE
  5
2CA
330
1F
100
AcDbEntity
  8
001
370
     9
100
AcDbLine
 10
134.410721
 20
10.525613
 30
0.0
 11
135.405994
 21
11.520886
 31
0.0
  0
LINE
  5
2CB
330
1F
100
AcDbEntity
  8
001
370
     9
100
AcDbLine
 10
134.34001
 20
10.525613
 30
0.0
 11
135.335284
 21
11.520886
 31
0.0
  0
LINE
  5
2CC
330
1F
100
AcDbEntity
  8
001
370
     9
100
AcDbLine
 10
134.269299
 20
10.525613
 30
0.0
 11
135.264573
 21
11.520886
 31
0.0
  0
LINE
  5
2CD
330
1F
100
AcDbEntity
  8
001
370
     9
100
AcDbLine
 10
134.198589
 20
10.525613
 30
0.0
 11
135.193862
 21
11.520886
 31
0.0
  0
LINE
  5
2CE
330
1F
100
AcDbEntity
  8
001
370
     9
100
AcDbLine
 10
134.127878
 20
10.525613
 30
0.0
 11
135.123152
 21
11.520886
 31
0.0
  0
LINE
  5
2CF
330
1F
100
AcDbEntity
  8
001
370
     9
100
AcDbLine
 10
134.057167
 20
10.525613
 30
0.0
 11
135.052441
 21
11.520886
 31
0.0
  0
LINE
  5
2D0
330
1F
100
AcDbEntity
  8
001
370
     9
100
AcDbLine
 10
133.986457
 20
10.525613
 30
0.0
 11
134.98173
 21
11.520886
 31
0.0
  0
LINE
  5
2D1
330
1F
100
AcDbEntity
  8
001
370
     9
100
AcDbLine
 10
133.915746
 20
10.525613
 30
0.0
 11
134.91102
 21
11.520886
 31
0.0
  0
LINE
  5
2D2
330
1F
100
AcDbEntity
  8
001
370
     9
100
AcDbLine
 10
133.845035
 20
10.525613
 30
0.0
 11
134.840309
 21
11.520886
 31
0.0
  0
LINE
  5
2D3
330
1F
100
AcDbEntity
  8
001
370
     9
100
AcDbLine
 10
133.774325
 20
10.525613
 30
0.0
 11
134.769598
 21
11.520886
 31
0.0
  0
LINE
  5
2D4
330
1F
100
AcDbEntity
  8
001
370
     9
100
AcDbLine
 10
133.703614
 20
10.525613
 30
0.0
 11
134.698888
 21
11.520886
 31
0.0
  0
LINE
  5
2D5
330
1F
100
AcDbEntity
  8
001
370
     9
100
AcDbLine
 10
133.632903
 20
10.525613
 30
0.0
 11
134.628177
 21
11.520886
 31
0.0
  0
LINE
  5
2D6
330
1F
100
AcDbEntity
  8
001
370
     9
100
AcDbLine
 10
133.562193
 20
10.525613
 30
0.0
 11
134.557466
 21
11.520886
 31
0.0
  0
LINE
  5
2D7
330
1F
100
AcDbEntity
  8
001
370
     9
100
AcDbLine
 10
133.5
 20
10.534131
 30
0.0
 11
134.486756
 21
11.520886
 31
0.0
  0
LINE
  5
2D8
330
1F
100
AcDbEntity
  8
001
370
     9
100
AcDbLine
 10
133.5
 20
10.604841
 30
0.0
 11
134.416045
 21
11.520886
 31
0.0
  0
LINE
  5
2D9
330
1F
100
AcDbEntity
  8
001
370
     9
100
AcDbLine
 10
133.5
 20
10.675552
 30
0.0
 11
134.345334
 21
11.520886
 31
0.0
  0
LINE
  5
2DA
330
1F
100
AcDbEntity
  8
001
370
     9
100
AcDbLine
 10
133.5
 20
10.746263
 30
0.0
 11
134.274624
 21
11.520886
 31
0.0
  0
LINE
  5
2DB
330
1F
100
AcDbEntity
  8
001
370
     9
100
AcDbLine
 10
133.5
 20
10.816973
 30
0.0
 11
134.203913
 21
11.520886
 31
0.0
  0
LINE
  5
2DC
330
1F
100
AcDbEntity
  8
001
370
     9
100
AcDbLine
 10
133.5
 20
10.887684
 30
0.0
 11
134.133202
 21
11.520886
 31
0.0
  0
LINE
  5
2DD
330
1F
100
AcDbEntity
  8
001
370
     9
100
AcDbLine
 10
133.5
 20
10.958395
 30
0.0
 11
134.062492
 21
11.520886
 31
0.0
  0
LINE
  5
2DE
330
1F
100
AcDbEntity
  8
001
370
     9
100
AcDbLine
 10
133.5
 20
11.029105
 30
0.0
 11
133.991781
 21
11.520886
 31
0.0
  0
LINE
  5
2DF
330
1F
100
AcDbEntity
  8
001
370
     9
100
AcDbLine
 10
133.5
 20
11.099816
 30
0.0
 11
133.92107
 21
11.520886
 31
0.0
  0
LINE
  5
2E0
330
1F
100
AcDbEntity
  8
001
370
     9
100
AcDbLine
 10
133.5
 20
11.170527
 30
0.0
 11
133.85036
 21
11.520886
 31
0.0
  0
LINE
  5
2E1
330
1F
100
AcDbEntity
  8
001
370
     9
100
AcDbLine
 10
133.5
 20
11.241238
 30
0.0
 11
133.779649
 21
11.520886
 31
0.0
  0
LINE
  5
2E2
330
1F
100
AcDbEntity
  8
001
370
     9
100
AcDbLine
 10
133.5
 20
11.311948
 30
0.0
 11
133.708938
 21
11.520886
 31
0.0
  0
LINE
  5
2E3
330
1F
100
AcDbEntity
  8
001
370
     9
100
AcDbLine
 10
133.5
 20
11.382659
 30
0.0
 11
133.638228
 21
11.520886
 31
0.0
  0
LINE
  5
2E4
330
1F
100
AcDbEntity
  8
001
370
     9
100
AcDbLine
 10
133.5
 20
11.45337
 30
0.0
 11
133.567517
 21
11.520886
 31
0.0
  0
LINE
  5
2E5
330
1F
100
AcDbEntity
  8
001
370
     9
100
AcDbLine
 10
150.047702
 20
7.0
 30
0.0
 11
150.050032
 21
7.00233
 31
0.0
  0
LINE
  5
2E6
330
1F
100
AcDbEntity
  8
001
370
     9
100
AcDbLine
 10
149.976991
 20
7.0
 30
0.0
 11
150.007321
 21
7.03033
 31
0.0
  0
LINE
  5
2E7
330
1F
100
AcDbEntity
  8
001
370
     9
100
AcDbLine
 10
149.90628
 20
7.0
 30
0.0
 11
149.964611
 21
7.05833
 31
0.0
  0
LINE
  5
2E8
330
1F
100
AcDbEntity
  8
001
370
     9
100
AcDbLine
 10
149.83557
 20
7.0
 30
0.0
 11
149.9219
 21
7.08633
 31
0.0
  0
LINE
  5
2E9
330
1F
100
AcDbEntity
  8
001
370
     9
100
AcDbLine
 10
149.764859
 20
7.0
 30
0.0
 11
149.879189
 21
7.11433
 31
0.0
  0
LINE
  5
2EA
330
1F
100
AcDbEntity
  8
001
370
     9
100
AcDbLine
 10
149.694148
 20
7.0
 30
0.0
 11
149.836478
 21
7.14233
 31
0.0
  0
LINE
  5
2EB
330
1F
100
AcDbEntity
  8
001
370
     9
100
AcDbLine
 10
149.623438
 20
7.0
 30
0.0
 11
149.793767
 21
7.170329
 31
0.0
  0
LINE
  5
2EC
330
1F
100
AcDbEntity
  8
001
370
     9
100
AcDbLine
 10
149.552727
 20
7.0
 30
0.0
 11
149.751056
 21
7.198329
 31
0.0
  0
LINE
  5
2ED
330
1F
100
AcDbEntity
  8
001
370
     9
100
AcDbLine
 10
149.482016
 20
7.0
 30
0.0
 11
149.708345
 21
7.226329
 31
0.0
  0
LINE
  5
2EE
330
1F
100
AcDbEntity
  8
001
370
     9
100
AcDbLine
 10
149.411306
 20
7.0
 30
0.0
 11
149.665635
 21
7.254329
 31
0.0
  0
LINE
  5
2EF
330
1F
100
AcDbEntity
  8
001
370
     9
100
AcDbLine
 10
149.340595
 20
7.0
 30
0.0
 11
149.622924
 21
7.282329
 31
0.0
  0
LINE
  5
2F0
330
1F
100
AcDbEntity
  8
001
370
     9
100
AcDbLine
 10
149.269884
 20
7.0
 30
0.0
 11
149.580213
 21
7.310328
 31
0.0
  0
LINE
  5
2F1
330
1F
100
AcDbEntity
  8
001
370
     9
100
AcDbLine
 10
149.199174
 20
7.0
 30
0.0
 11
149.537502
 21
7.338328
 31
0.0
  0
LINE
  5
2F2
330
1F
100
AcDbEntity
  8
001
370
     9
100
AcDbLine
 10
149.128463
 20
7.0
 30
0.0
 11
149.494791
 21
7.366328
 31
0.0
  0
LINE
  5
2F3
330
1F
100
AcDbEntity
  8
001
370
     9
100
AcDbLine
 10
149.057752
 20
7.0
 30
0.0
 11
149.45208
 21
7.394328
 31
0.0
  0
LINE
  5
2F4
330
1F
100
AcDbEntity
  8
001
370
     9
100
AcDbLine
 10
148.987042
 20
7.0
 30
0.0
 11
149.409369
 21
7.422328
 31
0.0
  0
LINE
  5
2F5
330
1F
100
AcDbEntity
  8
001
370
     9
100
AcDbLine
 10
148.916331
 20
7.0
 30
0.0
 11
149.366659
 21
7.450328
 31
0.0
  0
LINE
  5
2F6
330
1F
100
AcDbEntity
  8
001
370
     9
100
AcDbLine
 10
148.84562
 20
7.0
 30
0.0
 11
149.323948
 21
7.478327
 31
0.0
  0
LINE
  5
2F7
330
1F
100
AcDbEntity
  8
001
370
     9
100
AcDbLine
 10
148.77491
 20
7.0
 30
0.0
 11
149.281237
 21
7.506327
 31
0.0
  0
LINE
  5
2F8
330
1F
100
AcDbEntity
  8
001
370
     9
100
AcDbLine
 10
148.704199
 20
7.0
 30
0.0
 11
149.238526
 21
7.534327
 31
0.0
  0
LINE
  5
2F9
330
1F
100
AcDbEntity
  8
001
370
     9
100
AcDbLine
 10
148.633488
 20
7.0
 30
0.0
 11
149.195815
 21
7.562327
 31
0.0
  0
LINE
  5
2FA
330
1F
100
AcDbEntity
  8
001
370
     9
100
AcDbLine
 10
148.562778
 20
7.0
 30
0.0
 11
149.153104
 21
7.590327
 31
0.0
  0
LINE
  5
2FB
330
1F
100
AcDbEntity
  8
001
370
     9
100
AcDbLine
 10
148.492067
 20
7.0
 30
0.0
 11
149.110393
 21
7.618327
 31
0.0
  0
LINE
  5
2FC
330
1F
100
AcDbEntity
  8
001
370
     9
100
AcDbLine
 10
148.421356
 20
7.0
 30
0.0
 11
149.067683
 21
7.646326
 31
0.0
  0
LINE
  5
2FD
330
1F
100
AcDbEntity
  8
001
370
     9
100
AcDbLine
 10
148.350646
 20
7.0
 30
0.0
 11
149.024972
 21
7.674326
 31
0.0
  0
LINE
  5
2FE
330
1F
100
AcDbEntity
  8
001
370
     9
100
AcDbLine
 10
148.279935
 20
7.0
 30
0.0
 11
148.982261
 21
7.702326
 31
0.0
  0
LINE
  5
2FF
330
1F
100
AcDbEntity
  8
001
370
     9
100
AcDbLine
 10
148.223094
 20
7.01387
 30
0.0
 11
148.93955
 21
7.730326
 31
0.0
  0
LINE
  5
300
330
1F
100
AcDbEntity
  8
001
370
     9
100
AcDbLine
 10
148.1828
 20
7.044286
 30
0.0
 11
148.896839
 21
7.758326
 31
0.0
  0
LINE
  5
301
330
1F
100
AcDbEntity
  8
001
370
     9
100
AcDbLine
 10
148.142506
 20
7.074703
 30
0.0
 11
148.854128
 21
7.786325
 31
0.0
  0
LINE
  5
302
330
1F
100
AcDbEntity
  8
001
370
     9
100
AcDbLine
 10
148.102212
 20
7.105119
 30
0.0
 11
148.811417
 21
7.814325
 31
0.0
  0
LINE
  5
303
330
1F
100
AcDbEntity
  8
001
370
     9
100
AcDbLine
 10
148.061918
 20
7.135536
 30
0.0
 11
148.768707
 21
7.842325
 31
0.0
  0
LINE
  5
304
330
1F
100
AcDbEntity
  8
001
370
     9
100
AcDbLine
 10
148.021623
 20
7.165953
 30
0.0
 11
148.725996
 21
7.870325
 31
0.0
  0
LINE
  5
305
330
1F
100
AcDbEntity
  8
001
370
     9
100
AcDbLine
 10
147.981329
 20
7.196369
 30
0.0
 11
148.683285
 21
7.898325
 31
0.0
  0
LINE
  5
306
330
1F
100
AcDbEntity
  8
001
370
     9
100
AcDbLine
 10
147.941035
 20
7.226786
 30
0.0
 11
148.640574
 21
7.926325
 31
0.0
  0
LINE
  5
307
330
1F
100
AcDbEntity
  8
001
370
     9
100
AcDbLine
 10
147.900741
 20
7.257202
 30
0.0
 11
148.597863
 21
7.954324
 31
0.0
  0
LINE
  5
308
330
1F
100
AcDbEntity
  8
001
370
     9
100
AcDbLine
 10
147.860447
 20
7.287619
 30
0.0
 11
148.555152
 21
7.982324
 31
0.0
  0
LINE
  5
309
330
1F
100
AcDbEntity
  8
001
370
     9
100
AcDbLine
 10
147.820153
 20
7.318035
 30
0.0
 11
148.512441
 21
8.010324
 31
0.0
  0
LINE
  5
30A
330
1F
100
AcDbEntity
  8
001
370
     9
100
AcDbLine
 10
147.779859
 20
7.348452
 30
0.0
 11
148.469731
 21
8.038324
 31
0.0
  0
LINE
  5
30B
330
1F
100
AcDbEntity
  8
001
370
     9
100
AcDbLine
 10
147.739564
 20
7.378868
 30
0.0
 11
148.42702
 21
8.066324
 31
0.0
  0
LINE
  5
30C
330
1F
100
AcDbEntity
  8
001
370
     9
100
AcDbLine
 10
147.69927
 20
7.409285
 30
0.0
 11
148.384309
 21
8.094324
 31
0.0
  0
LINE
  5
30D
330
1F
100
AcDbEntity
  8
001
370
     9
100
AcDbLine
 10
147.658976
 20
7.439702
 30
0.0
 11
148.341598
 21
8.122323
 31
0.0
  0
LINE
  5
30E
330
1F
100
AcDbEntity
  8
001
370
     9
100
AcDbLine
 10
147.618682
 20
7.470118
 30
0.0
 11
148.298887
 21
8.150323
 31
0.0
  0
LINE
  5
30F
330
1F
100
AcDbEntity
  8
001
370
     9
100
AcDbLine
 10
147.578388
 20
7.500535
 30
0.0
 11
148.256176
 21
8.178323
 31
0.0
  0
LINE
  5
310
330
1F
100
AcDbEntity
  8
001
370
     9
100
AcDbLine
 10
147.538094
 20
7.530951
 30
0.0
 11
148.213465
 21
8.206323
 31
0.0
  0
LINE
  5
311
330
1F
100
AcDbEntity
  8
001
370
     9
100
AcDbLine
 10
147.4978
 20
7.561368
 30
0.0
 11
148.170755
 21
8.234323
 31
0.0
  0
LINE
  5
312
330
1F
100
AcDbEntity
  8
001
370
     9
100
AcDbLine
 10
147.457506
 20
7.591784
 30
0.0
 11
148.128044
 21
8.262322
 31
0.0
  0
LINE
  5
313
330
1F
100
AcDbEntity
  8
001
370
     9
100
AcDbLine
 10
147.417211
 20
7.622201
 30
0.0
 11
148.085333
 21
8.290322
 31
0.0
  0
LINE
  5
314
330
1F
100
AcDbEntity
  8
001
370
     9
100
AcDbLine
 10
147.376917
 20
7.652617
 30
0.0
 11
148.042622
 21
8.318322
 31
0.0
  0
LINE
  5
315
330
1F
100
AcDbEntity
  8
001
370
     9
100
AcDbLine
 10
147.336623
 20
7.683034
 30
0.0
 11
147.999911
 21
8.346322
 31
0.0
  0
LINE
  5
316
330
1F
100
AcDbEntity
  8
001
370
     9
100
AcDbLine
 10
147.296329
 20
7.71345
 30
0.0
 11
147.9572
 21
8.374322
 31
0.0
  0
LINE
  5
317
330
1F
100
AcDbEntity
  8
001
370
     9
100
AcDbLine
 10
147.256035
 20
7.743867
 30
0.0
 11
147.914489
 21
8.402322
 31
0.0
  0
LINE
  5
318
330
1F
100
AcDbEntity
  8
001
370
     9
100
AcDbLine
 10
149.974006
 20
10.461838
 30
0.0
 11
149.989622
 21
10.477454
 31
0.0
  0
LINE
  5
319
330
1F
100
AcDbEntity
  8
001
370
     9
100
AcDbLine
 10
147.215741
 20
7.774284
 30
0.0
 11
147.871779
 21
8.430321
 31
0.0
  0
LINE
  5
31A
330
1F
100
AcDbEntity
  8
001
370
     9
100
AcDbLine
 10
149.760982
 20
10.319525
 30
0.0
 11
149.918911
 21
10.477454
 31
0.0
  0
LINE
  5
31B
330
1F
100
AcDbEntity
  8
001
370
     9
100
AcDbLine
 10
147.175447
 20
7.8047
 30
0.0
 11
147.829068
 21
8.458321
 31
0.0
  0
LINE
  5
31C
330
1F
100
AcDbEntity
  8
001
370
     9
100
AcDbLine
 10
149.547958
 20
10.177211
 30
0.0
 11
149.848201
 21
10.477454
 31
0.0
  0
LINE
  5
31D
330
1F
100
AcDbEntity
  8
001
370
     9
100
AcDbLine
 10
147.135153
 20
7.835117
 30
0.0
 11
147.786357
 21
8.486321
 31
0.0
  0
LINE
  5
31E
330
1F
100
AcDbEntity
  8
001
370
     9
100
AcDbLine
 10
149.334934
 20
10.034898
 30
0.0
 11
149.77749
 21
10.477454
 31
0.0
  0
LINE
  5
31F
330
1F
100
AcDbEntity
  8
001
370
     9
100
AcDbLine
 10
147.094858
 20
7.865533
 30
0.0
 11
147.743646
 21
8.514321
 31
0.0
  0
LINE
  5
320
330
1F
100
AcDbEntity
  8
001
370
     9
100
AcDbLine
 10
149.12191
 20
9.892584
 30
0.0
 11
149.706779
 21
10.477454
 31
0.0
  0
LINE
  5
321
330
1F
100
AcDbEntity
  8
001
370
     9
100
AcDbLine
 10
147.054564
 20
7.89595
 30
0.0
 11
147.700935
 21
8.542321
 31
0.0
  0
LINE
  5
322
330
1F
100
AcDbEntity
  8
001
370
     9
100
AcDbLine
 10
148.908886
 20
9.750271
 30
0.0
 11
149.636069
 21
10.477454
 31
0.0
  0
LINE
  5
323
330
1F
100
AcDbEntity
  8
001
370
     9
100
AcDbLine
 10
147.01427
 20
7.926366
 30
0.0
 11
147.658224
 21
8.570321
 31
0.0
  0
LINE
  5
324
330
1F
100
AcDbEntity
  8
001
370
     9
100
AcDbLine
 10
148.695861
 20
9.607958
 30
0.0
 11
149.565358
 21
10.477454
 31
0.0
  0
LINE
  5
325
330
1F
100
AcDbEntity
  8
001
370
     9
100
AcDbLine
 10
146.973976
 20
7.956783
 30
0.0
 11
147.615514
 21
8.59832
 31
0.0
  0
LINE
  5
326
330
1F
100
AcDbEntity
  8
001
370
     9
100
AcDbLine
 10
148.482837
 20
9.465644
 30
0.0
 11
149.494647
 21
10.477454
 31
0.0
  0
LINE
  5
327
330
1F
100
AcDbEntity
  8
001
370
     9
100
AcDbLine
 10
146.933682
 20
7.987199
 30
0.0
 11
147.572803
 21
8.62632
 31
0.0
  0
LINE
  5
328
330
1F
100
AcDbEntity
  8
001
370
     9
100
AcDbLine
 10
148.269813
 20
9.323331
 30
0.0
 11
149.423937
 21
10.477454
 31
0.0
  0
LINE
  5
329
330
1F
100
AcDbEntity
  8
001
370
     9
100
AcDbLine
 10
145.875772
 20
7.0
 30
0.0
 11
145.89917
 21
7.023398
 31
0.0
  0
LINE
  5
32A
330
1F
100
AcDbEntity
  8
001
370
     9
100
AcDbLine
 10
146.893388
 20
8.017616
 30
0.0
 11
147.530092
 21
8.65432
 31
0.0
  0
LINE
  5
32B
330
1F
100
AcDbEntity
  8
001
370
     9
100
AcDbLine
 10
148.056789
 20
9.181017
 30
0.0
 11
149.353226
 21
10.477454
 31
0.0
  0
LINE
  5
32C
330
1F
100
AcDbEntity
  8
001
370
     9
100
AcDbLine
 10
145.805061
 20
7.0
 30
0.0
 11
145.89917
 21
7.094109
 31
0.0
  0
LINE
  5
32D
330
1F
100
AcDbEntity
  8
001
370
     9
100
AcDbLine
 10
146.853094
 20
8.048033
 30
0.0
 11
147.487381
 21
8.68232
 31
0.0
  0
LINE
  5
32E
330
1F
100
AcDbEntity
  8
001
370
     9
100
AcDbLine
 10
147.843765
 20
9.038704
 30
0.0
 11
149.282515
 21
10.477454
 31
0.0
  0
LINE
  5
32F
330
1F
100
AcDbEntity
  8
001
370
     9
100
AcDbLine
 10
145.73435
 20
7.0
 30
0.0
 11
145.89917
 21
7.16482
 31
0.0
  0
LINE
  5
330
330
1F
100
AcDbEntity
  8
001
370
     9
100
AcDbLine
 10
146.8128
 20
8.078449
 30
0.0
 11
147.44467
 21
8.71032
 31
0.0
  0
LINE
  5
331
330
1F
100
AcDbEntity
  8
001
370
     9
100
AcDbLine
 10
147.630741
 20
8.89639
 30
0.0
 11
149.211805
 21
10.477454
 31
0.0
  0
LINE
  5
332
330
1F
100
AcDbEntity
  8
001
370
     9
100
AcDbLine
 10
145.66364
 20
7.0
 30
0.0
 11
145.89917
 21
7.23553
 31
0.0
  0
LINE
  5
333
330
1F
100
AcDbEntity
  8
001
370
     9
100
AcDbLine
 10
146.772505
 20
8.108866
 30
0.0
 11
147.401959
 21
8.738319
 31
0.0
  0
LINE
  5
334
330
1F
100
AcDbEntity
  8
001
370
     9
100
AcDbLine
 10
147.417717
 20
8.754077
 30
0.0
 11
149.141094
 21
10.477454
 31
0.0
  0
LINE
  5
335
330
1F
100
AcDbEntity
  8
001
370
     9
100
AcDbLine
 10
145.592929
 20
7.0
 30
0.0
 11
145.89917
 21
7.306241
 31
0.0
  0
LINE
  5
336
330
1F
100
AcDbEntity
  8
001
370
     9
100
AcDbLine
 10
146.732211
 20
8.139282
 30
0.0
 11
149.070383
 21
10.477454
 31
0.0
  0
LINE
  5
337
330
1F
100
AcDbEntity
  8
001
370
     9
100
AcDbLine
 10
145.522218
 20
7.0
 30
0.0
 11
145.89917
 21
7.376952
 31
0.0
  0
LINE
  5
338
330
1F
100
AcDbEntity
  8
001
370
     9
100
AcDbLine
 10
146.691917
 20
8.169699
 30
0.0
 11
148.999673
 21
10.477454
 31
0.0
  0
LINE
  5
339
330
1F
100
AcDbEntity
  8
001
370
     9
100
AcDbLine
 10
145.451508
 20
7.0
 30
0.0
 11
145.89917
 21
7.447662
 31
0.0
  0
LINE
  5
33A
330
1F
100
AcDbEntity
  8
001
370
     9
100
AcDbLine
 10
146.651623
 20
8.200115
 30
0.0
 11
148.928962
 21
10.477454
 31
0.0
  0
LINE
  5
33B
330
1F
100
AcDbEntity
  8
001
370
     9
100
AcDbLine
 10
145.380797
 20
7.0
 30
0.0
 11
145.89917
 21
7.518373
 31
0.0
  0
LINE
  5
33C
330
1F
100
AcDbEntity
  8
001
370
     9
100
AcDbLine
 10
146.611329
 20
8.230532
 30
0.0
 11
148.858251
 21
10.477454
 31
0.0
  0
LINE
  5
33D
330
1F
100
AcDbEntity
  8
001
370
     9
100
AcDbLine
 10
145.310086
 20
7.0
 30
0.0
 11
145.89917
 21
7.589084
 31
0.0
  0
LINE
  5
33E
330
1F
100
AcDbEntity
  8
001
370
     9
100
AcDbLine
 10
146.571035
 20
8.260948
 30
0.0
 11
148.787541
 21
10.477454
 31
0.0
  0
LINE
  5
33F
330
1F
100
AcDbEntity
  8
001
370
     9
100
AcDbLine
 10
145.239376
 20
7.0
 30
0.0
 11
145.89917
 21
7.659795
 31
0.0
  0
LINE
  5
340
330
1F
100
AcDbEntity
  8
001
370
     9
100
AcDbLine
 10
146.530741
 20
8.291365
 30
0.0
 11
148.71683
 21
10.477454
 31
0.0
  0
LINE
  5
341
330
1F
100
AcDbEntity
  8
001
370
     9
100
AcDbLine
 10
145.168665
 20
7.0
 30
0.0
 11
145.89917
 21
7.730505
 31
0.0
  0
LINE
  5
342
330
1F
100
AcDbEntity
  8
001
370
     9
100
AcDbLine
 10
146.490447
 20
8.321782
 30
0.0
 11
148.646119
 21
10.477454
 31
0.0
  0
LINE
  5
343
330
1F
100
AcDbEntity
  8
001
370
     9
100
AcDbLine
 10
145.097954
 20
7.0
 30
0.0
 11
145.89917
 21
7.801216
 31
0.0
  0
LINE
  5
344
330
1F
100
AcDbEntity
  8
001
370
     9
100
AcDbLine
 10
146.450152
 20
8.352198
 30
0.0
 11
148.575409
 21
10.477454
 31
0.0
  0
LINE
  5
345
330
1F
100
AcDbEntity
  8
001
370
     9
100
AcDbLine
 10
145.027244
 20
7.0
 30
0.0
 11
145.89917
 21
7.871927
 31
0.0
  0
LINE
  5
346
330
1F
100
AcDbEntity
  8
001
370
     9
100
AcDbLine
 10
146.409858
 20
8.382615
 30
0.0
 11
148.504698
 21
10.477454
 31
0.0
  0
LINE
  5
347
330
1F
100
AcDbEntity
  8
001
370
     9
100
AcDbLine
 10
144.956533
 20
7.0
 30
0.0
 11
145.89917
 21
7.942637
 31
0.0
  0
LINE
  5
348
330
1F
100
AcDbEntity
  8
001
370
     9
100
AcDbLine
 10
146.369564
 20
8.413031
 30
0.0
 11
148.433987
 21
10.477454
 31
0.0
  0
LINE
  5
349
330
1F
100
AcDbEntity
  8
001
370
     9
100
AcDbLine
 10
144.885822
 20
7.0
 30
0.0
 11
145.89917
 21
8.013348
 31
0.0
  0
LINE
  5
34A
330
1F
100
AcDbEntity
  8
001
370
     9
100
AcDbLine
 10
146.32927
 20
8.443448
 30
0.0
 11
148.363277
 21
10.477454
 31
0.0
  0
LINE
  5
34B
330
1F
100
AcDbEntity
  8
001
370
     9
100
AcDbLine
 10
144.843504
 20
7.028393
 30
0.0
 11
145.89917
 21
8.084059
 31
0.0
  0
LINE
  5
34C
330
1F
100
AcDbEntity
  8
001
370
     9
100
AcDbLine
 10
146.288976
 20
8.473864
 30
0.0
 11
148.182725
 21
10.367613
 31
0.0
  0
LINE
  5
34D
330
1F
100
AcDbEntity
  8
001
370
     9
100
AcDbLine
 10
144.843504
 20
7.099103
 30
0.0
 11
145.89917
 21
8.154769
 31
0.0
  0
LINE
  5
34E
330
1F
100
AcDbEntity
  8
001
370
     9
100
AcDbLine
 10
146.248682
 20
8.504281
 30
0.0
 11
147.930249
 21
10.185848
 31
0.0
  0
LINE
  5
34F
330
1F
100
AcDbEntity
  8
001
370
     9
100
AcDbLine
 10
144.843504
 20
7.169814
 30
0.0
 11
145.89917
 21
8.22548
 31
0.0
  0
LINE
  5
350
330
1F
100
AcDbEntity
  8
001
370
     9
100
AcDbLine
 10
146.208388
 20
8.534697
 30
0.0
 11
147.677773
 21
10.004082
 31
0.0
  0
LINE
  5
351
330
1F
100
AcDbEntity
  8
001
370
     9
100
AcDbLine
 10
144.843504
 20
7.240525
 30
0.0
 11
145.89917
 21
8.296191
 31
0.0
  0
LINE
  5
352
330
1F
100
AcDbEntity
  8
001
370
     9
100
AcDbLine
 10
146.168094
 20
8.565114
 30
0.0
 11
147.425297
 21
9.822317
 31
0.0
  0
LINE
  5
353
330
1F
100
AcDbEntity
  8
001
370
     9
100
AcDbLine
 10
144.843504
 20
7.311236
 30
0.0
 11
145.89917
 21
8.366901
 31
0.0
  0
LINE
  5
354
330
1F
100
AcDbEntity
  8
001
370
     9
100
AcDbLine
 10
146.127799
 20
8.59553
 30
0.0
 11
147.172821
 21
9.640552
 31
0.0
  0
LINE
  5
355
330
1F
100
AcDbEntity
  8
001
370
     9
100
AcDbLine
 10
144.843504
 20
7.381946
 30
0.0
 11
145.89917
 21
8.437612
 31
0.0
  0
LINE
  5
356
330
1F
100
AcDbEntity
  8
001
370
     9
100
AcDbLine
 10
146.087505
 20
8.625947
 30
0.0
 11
146.920345
 21
9.458786
 31
0.0
  0
LINE
  5
357
330
1F
100
AcDbEntity
  8
001
370
     9
100
AcDbLine
 10
144.843504
 20
7.452657
 30
0.0
 11
145.89917
 21
8.508323
 31
0.0
  0
LINE
  5
358
330
1F
100
AcDbEntity
  8
001
370
     9
100
AcDbLine
 10
146.043481
 20
8.652633
 30
0.0
 11
146.667869
 21
9.277021
 31
0.0
  0
LINE
  5
359
330
1F
100
AcDbEntity
  8
001
370
     9
100
AcDbLine
 10
144.843504
 20
7.523368
 30
0.0
 11
145.904836
 21
8.584699
 31
0.0
  0
LINE
  5
35A
330
1F
100
AcDbEntity
  8
001
370
     9
100
AcDbLine
 10
145.973147
 20
8.65301
 30
0.0
 11
146.415393
 21
9.095256
 31
0.0
  0
LINE
  5
35B
330
1F
100
AcDbEntity
  8
001
370
     9
100
AcDbLine
 10
144.843504
 20
7.594078
 30
0.0
 11
146.162917
 21
8.91349
 31
0.0
  0
LINE
  5
35C
330
1F
100
AcDbEntity
  8
001
370
     9
100
AcDbLine
 10
144.843504
 20
7.664789
 30
0.0
 11
146.00574
 21
8.827025
 31
0.0
  0
LINE
  5
35D
330
1F
100
AcDbEntity
  8
001
370
     9
100
AcDbLine
 10
144.843504
 20
7.7355
 30
0.0
 11
145.951017
 21
8.843012
 31
0.0
  0
LINE
  5
35E
330
1F
100
AcDbEntity
  8
001
370
     9
100
AcDbLine
 10
144.843504
 20
7.80621
 30
0.0
 11
145.915547
 21
8.878253
 31
0.0
  0
LINE
  5
35F
330
1F
100
AcDbEntity
  8
001
370
     9
100
AcDbLine
 10
144.843504
 20
7.876921
 30
0.0
 11
145.899211
 21
8.932627
 31
0.0
  0
LINE
  5
360
330
1F
100
AcDbEntity
  8
001
370
     9
100
AcDbLine
 10
144.843504
 20
7.947632
 30
0.0
 11
145.89917
 21
9.003297
 31
0.0
  0
LINE
  5
361
330
1F
100
AcDbEntity
  8
001
370
     9
100
AcDbLine
 10
144.843504
 20
8.018342
 30
0.0
 11
145.89917
 21
9.074008
 31
0.0
  0
LINE
  5
362
330
1F
100
AcDbEntity
  8
001
370
     9
100
AcDbLine
 10
144.843504
 20
8.089053
 30
0.0
 11
145.89917
 21
9.144719
 31
0.0
  0
LINE
  5
363
330
1F
100
AcDbEntity
  8
001
370
     9
100
AcDbLine
 10
144.843504
 20
8.159764
 30
0.0
 11
145.89917
 21
9.215429
 31
0.0
  0
LINE
  5
364
330
1F
100
AcDbEntity
  8
001
370
     9
100
AcDbLine
 10
144.843504
 20
8.230474
 30
0.0
 11
145.89917
 21
9.28614
 31
0.0
  0
LINE
  5
365
330
1F
100
AcDbEntity
  8
001
370
     9
100
AcDbLine
 10
144.843504
 20
8.301185
 30
0.0
 11
145.89917
 21
9.356851
 31
0.0
  0
LINE
  5
366
330
1F
100
AcDbEntity
  8
001
370
     9
100
AcDbLine
 10
144.843504
 20
8.371896
 30
0.0
 11
145.89917
 21
9.427561
 31
0.0
  0
LINE
  5
367
330
1F
100
AcDbEntity
  8
001
370
     9
100
AcDbLine
 10
144.843504
 20
8.442606
 30
0.0
 11
145.89917
 21
9.498272
 31
0.0
  0
LINE
  5
368
330
1F
100
AcDbEntity
  8
001
370
     9
100
AcDbLine
 10
144.843504
 20
8.513317
 30
0.0
 11
145.89917
 21
9.568983
 31
0.0
  0
LINE
  5
369
330
1F
100
AcDbEntity
  8
001
370
     9
100
AcDbLine
 10
144.843504
 20
8.584028
 30
0.0
 11
145.89917
 21
9.639693
 31
0.0
  0
LINE
  5
36A
330
1F
100
AcDbEntity
  8
001
370
     9
100
AcDbLine
 10
144.843504
 20
8.654738
 30
0.0
 11
145.89917
 21
9.710404
 31
0.0
  0
LINE
  5
36B
330
1F
100
AcDbEntity
  8
001
370
     9
100
AcDbLine
 10
144.843504
 20
8.725449
 30
0.0
 11
145.89917
 21
9.781115
 31
0.0
  0
LINE
  5
36C
330
1F
100
AcDbEntity
  8
001
370
     9
100
AcDbLine
 10
144.843504
 20
8.79616
 30
0.0
 11
145.89917
 21
9.851826
 31
0.0
  0
LINE
  5
36D
330
1F
100
AcDbEntity
  8
001
370
     9
100
AcDbLine
 10
144.843504
 20
8.86687
 30
0.0
 11
145.89917
 21
9.922536
 31
0.0
  0
LINE
  5
36E
330
1F
100
AcDbEntity
  8
001
370
     9
100
AcDbLine
 10
144.843504
 20
8.937581
 30
0.0
 11
145.89917
 21
9.993247
 31
0.0
  0
LINE
  5
36F
330
1F
100
AcDbEntity
  8
001
370
     9
100
AcDbLine
 10
144.843504
 20
9.008292
 30
0.0
 11
145.89917
 21
10.063958
 31
0.0
  0
LINE
  5
370
330
1F
100
AcDbEntity
  8
001
370
     9
100
AcDbLine
 10
144.843504
 20
9.079002
 30
0.0
 11
145.89917
 21
10.134668
 31
0.0
  0
LINE
  5
371
330
1F
100
AcDbEntity
  8
001
370
     9
100
AcDbLine
 10
144.843504
 20
9.149713
 30
0.0
 11
145.89917
 21
10.205379
 31
0.0
  0
LINE
  5
372
330
1F
100
AcDbEntity
  8
001
370
     9
100
AcDbLine
 10
144.843504
 20
9.220424
 30
0.0
 11
145.89917
 21
10.27609
 31
0.0
  0
LINE
  5
373
330
1F
100
AcDbEntity
  8
001
370
     9
100
AcDbLine
 10
144.843504
 20
9.291134
 30
0.0
 11
145.89917
 21
10.3468
 31
0.0
  0
LINE
  5
374
330
1F
100
AcDbEntity
  8
001
370
     9
100
AcDbLine
 10
144.843504
 20
9.361845
 30
0.0
 11
145.89917
 21
10.417511
 31
0.0
  0
LINE
  5
375
330
1F
100
AcDbEntity
  8
001
370
     9
100
AcDbLine
 10
144.843504
 20
9.432556
 30
0.0
 11
145.89917
 21
10.488222
 31
0.0
  0
LINE
  5
376
330
1F
100
AcDbEntity
  8
001
370
     9
100
AcDbLine
 10
144.843504
 20
9.503267
 30
0.0
 11
145.89917
 21
10.558932
 31
0.0
  0
LINE
  5
377
330
1F
100
AcDbEntity
  8
001
370
     9
100
AcDbLine
 10
144.843504
 20
9.573977
 30
0.0
 11
145.89917
 21
10.629643
 31
0.0
  0
LINE
  5
378
330
1F
100
AcDbEntity
  8
001
370
     9
100
AcDbLine
 10
144.843504
 20
9.644688
 30
0.0
 11
145.89917
 21
10.700354
 31
0.0
  0
LINE
  5
379
330
1F
100
AcDbEntity
  8
001
370
     9
100
AcDbLine
 10
144.843504
 20
9.715399
 30
0.0
 11
145.89917
 21
10.771064
 31
0.0
  0
LINE
  5
37A
330
1F
100
AcDbEntity
  8
001
370
     9
100
AcDbLine
 10
144.843504
 20
9.786109
 30
0.0
 11
145.89917
 21
10.841775
 31
0.0
  0
LINE
  5
37B
330
1F
100
AcDbEntity
  8
001
370
     9
100
AcDbLine
 10
144.843504
 20
9.85682
 30
0.0
 11
145.89917
 21
10.912486
 31
0.0
  0
LINE
  5
37C
330
1F
100
AcDbEntity
  8
001
370
     9
100
AcDbLine
 10
144.843504
 20
9.927531
 30
0.0
 11
145.89917
 21
10.983196
 31
0.0
  0
LINE
  5
37D
330
1F
100
AcDbEntity
  8
001
370
     9
100
AcDbLine
 10
144.843504
 20
9.998241
 30
0.0
 11
145.89917
 21
11.053907
 31
0.0
  0
LINE
  5
37E
330
1F
100
AcDbEntity
  8
001
370
     9
100
AcDbLine
 10
144.843504
 20
10.068952
 30
0.0
 11
145.89917
 21
11.124618
 31
0.0
  0
LINE
  5
37F
330
1F
100
AcDbEntity
  8
001
370
     9
100
AcDbLine
 10
144.843504
 20
10.139663
 30
0.0
 11
145.89917
 21
11.195328
 31
0.0
  0
LINE
  5
380
330
1F
100
AcDbEntity
  8
001
370
     9
100
AcDbLine
 10
144.843504
 20
10.210373
 30
0.0
 11
145.89917
 21
11.266039
 31
0.0
  0
LINE
  5
381
330
1F
100
AcDbEntity
  8
001
370
     9
100
AcDbLine
 10
144.843504
 20
10.281084
 30
0.0
 11
145.89917
 21
11.33675
 31
0.0
  0
LINE
  5
382
330
1F
100
AcDbEntity
  8
001
370
     9
100
AcDbLine
 10
144.843504
 20
10.351795
 30
0.0
 11
145.89917
 21
11.40746
 31
0.0
  0
LINE
  5
383
330
1F
100
AcDbEntity
  8
001
370
     9
100
AcDbLine
 10
144.843504
 20
10.422505
 30
0.0
 11
145.89917
 21
11.478171
 31
0.0
  0
LINE
  5
384
330
1F
100
AcDbEntity
  8
001
370
     9
100
AcDbLine
 10
144.843504
 20
10.493216
 30
0.0
 11
145.871175
 21
11.520886
 31
0.0
  0
LINE
  5
385
330
1F
100
AcDbEntity
  8
001
370
     9
100
AcDbLine
 10
144.843504
 20
10.563927
 30
0.0
 11
145.800464
 21
11.520886
 31
0.0
  0
LINE
  5
386
330
1F
100
AcDbEntity
  8
001
370
     9
100
AcDbLine
 10
144.843504
 20
10.634637
 30
0.0
 11
145.729753
 21
11.520886
 31
0.0
  0
LINE
  5
387
330
1F
100
AcDbEntity
  8
001
370
     9
100
AcDbLine
 10
144.843504
 20
10.705348
 30
0.0
 11
145.659043
 21
11.520886
 31
0.0
  0
LINE
  5
388
330
1F
100
AcDbEntity
  8
001
370
     9
100
AcDbLine
 10
144.843504
 20
10.776059
 30
0.0
 11
145.588332
 21
11.520886
 31
0.0
  0
LINE
  5
389
330
1F
100
AcDbEntity
  8
001
370
     9
100
AcDbLine
 10
144.843504
 20
10.846769
 30
0.0
 11
145.517621
 21
11.520886
 31
0.0
  0
LINE
  5
38A
330
1F
100
AcDbEntity
  8
001
370
     9
100
AcDbLine
 10
144.843504
 20
10.91748
 30
0.0
 11
145.446911
 21
11.520886
 31
0.0
  0
LINE
  5
38B
330
1F
100
AcDbEntity
  8
001
370
     9
100
AcDbLine
 10
144.843504
 20
10.988191
 30
0.0
 11
145.3762
 21
11.520886
 31
0.0
  0
LINE
  5
38C
330
1F
100
AcDbEntity
  8
001
370
     9
100
AcDbLine
 10
144.843504
 20
11.058901
 30
0.0
 11
145.305489
 21
11.520886
 31
0.0
  0
LINE
  5
38D
330
1F
100
AcDbEntity
  8
001
370
     9
100
AcDbLine
 10
144.843504
 20
11.129612
 30
0.0
 11
145.234779
 21
11.520886
 31
0.0
  0
LINE
  5
38E
330
1F
100
AcDbEntity
  8
001
370
     9
100
AcDbLine
 10
144.843504
 20
11.200323
 30
0.0
 11
145.164068
 21
11.520886
 31
0.0
  0
LINE
  5
38F
330
1F
100
AcDbEntity
  8
001
370
     9
100
AcDbLine
 10
144.843504
 20
11.271033
 30
0.0
 11
145.093357
 21
11.520886
 31
0.0
  0
LINE
  5
390
330
1F
100
AcDbEntity
  8
001
370
     9
100
AcDbLine
 10
144.843504
 20
11.341744
 30
0.0
 11
145.022647
 21
11.520886
 31
0.0
  0
LINE
  5
391
330
1F
100
AcDbEntity
  8
001
370
     9
100
AcDbLine
 10
144.843504
 20
11.412455
 30
0.0
 11
144.951936
 21
11.520886
 31
0.0
  0
LINE
  5
392
330
1F
100
AcDbEntity
  8
001
370
     9
100
AcDbLine
 10
144.843504
 20
11.483166
 30
0.0
 11
144.881225
 21
11.520886
 31
0.0
  0
LINE
  5
393
330
1F
100
AcDbEntity
  8
001
370
     9
100
AcDbLine
 10
151.744758
 20
7.0
 30
0.0
 11
151.779907
 21
7.035149
 31
0.0
  0
LINE
  5
394
330
1F
100
AcDbEntity
  8
001
370
     9
100
AcDbLine
 10
151.674047
 20
7.0
 30
0.0
 11
151.779907
 21
7.10586
 31
0.0
  0
LINE
  5
395
330
1F
100
AcDbEntity
  8
001
370
     9
100
AcDbLine
 10
151.603337
 20
7.0
 30
0.0
 11
151.779907
 21
7.17657
 31
0.0
  0
LINE
  5
396
330
1F
100
AcDbEntity
  8
001
370
     9
100
AcDbLine
 10
151.532626
 20
7.0
 30
0.0
 11
151.779907
 21
7.247281
 31
0.0
  0
LINE
  5
397
330
1F
100
AcDbEntity
  8
001
370
     9
100
AcDbLine
 10
151.461915
 20
7.0
 30
0.0
 11
151.779907
 21
7.317992
 31
0.0
  0
LINE
  5
398
330
1F
100
AcDbEntity
  8
001
370
     9
100
AcDbLine
 10
151.391205
 20
7.0
 30
0.0
 11
151.779907
 21
7.388702
 31
0.0
  0
LINE
  5
399
330
1F
100
AcDbEntity
  8
001
370
     9
100
AcDbLine
 10
151.320494
 20
7.0
 30
0.0
 11
151.779907
 21
7.459413
 31
0.0
  0
LINE
  5
39A
330
1F
100
AcDbEntity
  8
001
370
     9
100
AcDbLine
 10
151.249783
 20
7.0
 30
0.0
 11
151.779907
 21
7.530124
 31
0.0
  0
LINE
  5
39B
330
1F
100
AcDbEntity
  8
001
370
     9
100
AcDbLine
 10
151.179073
 20
7.0
 30
0.0
 11
151.779907
 21
7.600834
 31
0.0
  0
LINE
  5
39C
330
1F
100
AcDbEntity
  8
001
370
     9
100
AcDbLine
 10
151.108362
 20
7.0
 30
0.0
 11
151.779907
 21
7.671545
 31
0.0
  0
LINE
  5
39D
330
1F
100
AcDbEntity
  8
001
370
     9
100
AcDbLine
 10
151.037651
 20
7.0
 30
0.0
 11
151.779907
 21
7.742256
 31
0.0
  0
LINE
  5
39E
330
1F
100
AcDbEntity
  8
001
370
     9
100
AcDbLine
 10
150.966941
 20
7.0
 30
0.0
 11
151.779907
 21
7.812966
 31
0.0
  0
LINE
  5
39F
330
1F
100
AcDbEntity
  8
001
370
     9
100
AcDbLine
 10
150.89623
 20
7.0
 30
0.0
 11
151.779907
 21
7.883677
 31
0.0
  0
LINE
  5
3A0
330
1F
100
AcDbEntity
  8
001
370
     9
100
AcDbLine
 10
150.825519
 20
7.0
 30
0.0
 11
151.779907
 21
7.954388
 31
0.0
  0
LINE
  5
3A1
330
1F
100
AcDbEntity
  8
001
370
     9
100
AcDbLine
 10
150.754809
 20
7.0
 30
0.0
 11
151.779907
 21
8.025098
 31
0.0
  0
LINE
  5
3A2
330
1F
100
AcDbEntity
  8
001
370
     9
100
AcDbLine
 10
150.724828
 20
7.04073
 30
0.0
 11
151.779907
 21
8.095809
 31
0.0
  0
LINE
  5
3A3
330
1F
100
AcDbEntity
  8
001
370
     9
100
AcDbLine
 10
150.724828
 20
7.11144
 30
0.0
 11
151.779907
 21
8.16652
 31
0.0
  0
LINE
  5
3A4
330
1F
100
AcDbEntity
  8
001
370
     9
100
AcDbLine
 10
150.724828
 20
7.182151
 30
0.0
 11
151.779907
 21
8.237231
 31
0.0
  0
LINE
  5
3A5
330
1F
100
AcDbEntity
  8
001
370
     9
100
AcDbLine
 10
150.724828
 20
7.252862
 30
0.0
 11
151.779907
 21
8.307941
 31
0.0
  0
LINE
  5
3A6
330
1F
100
AcDbEntity
  8
001
370
     9
100
AcDbLine
 10
150.724828
 20
7.323572
 30
0.0
 11
151.779907
 21
8.378652
 31
0.0
  0
LINE
  5
3A7
330
1F
100
AcDbEntity
  8
001
370
     9
100
AcDbLine
 10
150.724828
 20
7.394283
 30
0.0
 11
151.779907
 21
8.449363
 31
0.0
  0
LINE
  5
3A8
330
1F
100
AcDbEntity
  8
001
370
     9
100
AcDbLine
 10
150.724828
 20
7.464994
 30
0.0
 11
151.779907
 21
8.520073
 31
0.0
  0
LINE
  5
3A9
330
1F
100
AcDbEntity
  8
001
370
     9
100
AcDbLine
 10
150.724828
 20
7.535705
 30
0.0
 11
151.779907
 21
8.590784
 31
0.0
  0
LINE
  5
3AA
330
1F
100
AcDbEntity
  8
001
370
     9
100
AcDbLine
 10
150.724828
 20
7.606415
 30
0.0
 11
151.779907
 21
8.661495
 31
0.0
  0
LINE
  5
3AB
330
1F
100
AcDbEntity
  8
001
370
     9
100
AcDbLine
 10
150.724828
 20
7.677126
 30
0.0
 11
151.779907
 21
8.732205
 31
0.0
  0
LINE
  5
3AC
330
1F
100
AcDbEntity
  8
001
370
     9
100
AcDbLine
 10
150.724828
 20
7.747837
 30
0.0
 11
151.779907
 21
8.802916
 31
0.0
  0
LINE
  5
3AD
330
1F
100
AcDbEntity
  8
001
370
     9
100
AcDbLine
 10
150.724828
 20
7.818547
 30
0.0
 11
151.779907
 21
8.873627
 31
0.0
  0
LINE
  5
3AE
330
1F
100
AcDbEntity
  8
001
370
     9
100
AcDbLine
 10
150.724828
 20
7.889258
 30
0.0
 11
151.779907
 21
8.944337
 31
0.0
  0
LINE
  5
3AF
330
1F
100
AcDbEntity
  8
001
370
     9
100
AcDbLine
 10
150.724828
 20
7.959969
 30
0.0
 11
151.779907
 21
9.015048
 31
0.0
  0
LINE
  5
3B0
330
1F
100
AcDbEntity
  8
001
370
     9
100
AcDbLine
 10
150.724828
 20
8.030679
 30
0.0
 11
151.779907
 21
9.085759
 31
0.0
  0
LINE
  5
3B1
330
1F
100
AcDbEntity
  8
001
370
     9
100
AcDbLine
 10
150.724828
 20
8.10139
 30
0.0
 11
151.779907
 21
9.156469
 31
0.0
  0
LINE
  5
3B2
330
1F
100
AcDbEntity
  8
001
370
     9
100
AcDbLine
 10
150.724828
 20
8.172101
 30
0.0
 11
151.779907
 21
9.22718
 31
0.0
  0
LINE
  5
3B3
330
1F
100
AcDbEntity
  8
001
370
     9
100
AcDbLine
 10
150.724828
 20
8.242811
 30
0.0
 11
151.779907
 21
9.297891
 31
0.0
  0
LINE
  5
3B4
330
1F
100
AcDbEntity
  8
001
370
     9
100
AcDbLine
 10
150.724828
 20
8.313522
 30
0.0
 11
151.779907
 21
9.368601
 31
0.0
  0
LINE
  5
3B5
330
1F
100
AcDbEntity
  8
001
370
     9
100
AcDbLine
 10
150.724828
 20
8.384233
 30
0.0
 11
151.779907
 21
9.439312
 31
0.0
  0
LINE
  5
3B6
330
1F
100
AcDbEntity
  8
001
370
     9
100
AcDbLine
 10
150.724828
 20
8.454943
 30
0.0
 11
151.779907
 21
9.510023
 31
0.0
  0
LINE
  5
3B7
330
1F
100
AcDbEntity
  8
001
370
     9
100
AcDbLine
 10
150.724828
 20
8.525654
 30
0.0
 11
151.779907
 21
9.580733
 31
0.0
  0
LINE
  5
3B8
330
1F
100
AcDbEntity
  8
001
370
     9
100
AcDbLine
 10
150.724828
 20
8.596365
 30
0.0
 11
151.779907
 21
9.651444
 31
0.0
  0
LINE
  5
3B9
330
1F
100
AcDbEntity
  8
001
370
     9
100
AcDbLine
 10
150.724828
 20
8.667075
 30
0.0
 11
151.779907
 21
9.722155
 31
0.0
  0
LINE
  5
3BA
330
1F
100
AcDbEntity
  8
001
370
     9
100
AcDbLine
 10
150.724828
 20
8.737786
 30
0.0
 11
151.779907
 21
9.792865
 31
0.0
  0
LINE
  5
3BB
330
1F
100
AcDbEntity
  8
001
370
     9
100
AcDbLine
 10
150.724828
 20
8.808497
 30
0.0
 11
151.779907
 21
9.863576
 31
0.0
  0
LINE
  5
3BC
330
1F
100
AcDbEntity
  8
001
370
     9
100
AcDbLine
 10
150.724828
 20
8.879207
 30
0.0
 11
151.779907
 21
9.934287
 31
0.0
  0
LINE
  5
3BD
330
1F
100
AcDbEntity
  8
001
370
     9
100
AcDbLine
 10
150.724828
 20
8.949918
 30
0.0
 11
151.779907
 21
10.004997
 31
0.0
  0
LINE
  5
3BE
330
1F
100
AcDbEntity
  8
001
370
     9
100
AcDbLine
 10
150.724828
 20
9.020629
 30
0.0
 11
151.779907
 21
10.075708
 31
0.0
  0
LINE
  5
3BF
330
1F
100
AcDbEntity
  8
001
370
     9
100
AcDbLine
 10
150.724828
 20
9.091339
 30
0.0
 11
151.779907
 21
10.146419
 31
0.0
  0
LINE
  5
3C0
330
1F
100
AcDbEntity
  8
001
370
     9
100
AcDbLine
 10
150.724828
 20
9.16205
 30
0.0
 11
151.779907
 21
10.21713
 31
0.0
  0
LINE
  5
3C1
330
1F
100
AcDbEntity
  8
001
370
     9
100
AcDbLine
 10
150.724828
 20
9.232761
 30
0.0
 11
151.779907
 21
10.28784
 31
0.0
  0
LINE
  5
3C2
330
1F
100
AcDbEntity
  8
001
370
     9
100
AcDbLine
 10
150.724828
 20
9.303471
 30
0.0
 11
151.779907
 21
10.358551
 31
0.0
  0
LINE
  5
3C3
330
1F
100
AcDbEntity
  8
001
370
     9
100
AcDbLine
 10
150.724828
 20
9.374182
 30
0.0
 11
151.779907
 21
10.429262
 31
0.0
  0
LINE
  5
3C4
330
1F
100
AcDbEntity
  8
001
370
     9
100
AcDbLine
 10
150.724828
 20
9.444893
 30
0.0
 11
151.757389
 21
10.477454
 31
0.0
  0
LINE
  5
3C5
330
1F
100
AcDbEntity
  8
001
370
     9
100
AcDbLine
 10
150.724828
 20
9.515603
 30
0.0
 11
151.686678
 21
10.477454
 31
0.0
  0
LINE
  5
3C6
330
1F
100
AcDbEntity
  8
001
370
     9
100
AcDbLine
 10
150.724828
 20
9.586314
 30
0.0
 11
151.615968
 21
10.477454
 31
0.0
  0
LINE
  5
3C7
330
1F
100
AcDbEntity
  8
001
370
     9
100
AcDbLine
 10
150.724828
 20
9.657025
 30
0.0
 11
151.545257
 21
10.477454
 31
0.0
  0
LINE
  5
3C8
330
1F
100
AcDbEntity
  8
001
370
     9
100
AcDbLine
 10
150.724828
 20
9.727736
 30
0.0
 11
151.474546
 21
10.477454
 31
0.0
  0
LINE
  5
3C9
330
1F
100
AcDbEntity
  8
001
370
     9
100
AcDbLine
 10
150.724828
 20
9.798446
 30
0.0
 11
151.403836
 21
10.477454
 31
0.0
  0
LINE
  5
3CA
330
1F
100
AcDbEntity
  8
001
370
     9
100
AcDbLine
 10
150.724828
 20
9.869157
 30
0.0
 11
151.333125
 21
10.477454
 31
0.0
  0
LINE
  5
3CB
330
1F
100
AcDbEntity
  8
001
370
     9
100
AcDbLine
 10
150.724828
 20
9.939868
 30
0.0
 11
151.262414
 21
10.477454
 31
0.0
  0
LINE
  5
3CC
330
1F
100
AcDbEntity
  8
001
370
     9
100
AcDbLine
 10
150.724828
 20
10.010578
 30
0.0
 11
151.191704
 21
10.477454
 31
0.0
  0
LINE
  5
3CD
330
1F
100
AcDbEntity
  8
001
370
     9
100
AcDbLine
 10
150.724828
 20
10.081289
 30
0.0
 11
151.120993
 21
10.477454
 31
0.0
  0
LINE
  5
3CE
330
1F
100
AcDbEntity
  8
001
370
     9
100
AcDbLine
 10
150.724828
 20
10.152
 30
0.0
 11
151.050282
 21
10.477454
 31
0.0
  0
LINE
  5
3CF
330
1F
100
AcDbEntity
  8
001
370
     9
100
AcDbLine
 10
150.724828
 20
10.22271
 30
0.0
 11
150.979572
 21
10.477454
 31
0.0
  0
LINE
  5
3D0
330
1F
100
AcDbEntity
  8
001
370
     9
100
AcDbLine
 10
150.724828
 20
10.293421
 30
0.0
 11
150.908861
 21
10.477454
 31
0.0
  0
LINE
  5
3D1
330
1F
100
AcDbEntity
  8
001
370
     9
100
AcDbLine
 10
150.724828
 20
10.364132
 30
0.0
 11
150.83815
 21
10.477454
 31
0.0
  0
LINE
  5
3D2
330
1F
100
AcDbEntity
  8
001
370
     9
100
AcDbLine
 10
150.724828
 20
10.434842
 30
0.0
 11
150.76744
 21
10.477454
 31
0.0
  0
LINE
  5
3D3
330
1F
100
AcDbEntity
  8
001
370
     9
100
AcDbLine
 10
151.722185
 20
10.725093
 30
0.0
 11
151.779907
 21
10.782815
 31
0.0
  0
LINE
  5
3D4
330
1F
100
AcDbEntity
  8
001
370
     9
100
AcDbLine
 10
151.651474
 20
10.725093
 30
0.0
 11
151.779907
 21
10.853526
 31
0.0
  0
LINE
  5
3D5
330
1F
100
AcDbEntity
  8
001
370
     9
100
AcDbLine
 10
151.580764
 20
10.725093
 30
0.0
 11
151.779907
 21
10.924236
 31
0.0
  0
LINE
  5
3D6
330
1F
100
AcDbEntity
  8
001
370
     9
100
AcDbLine
 10
151.510053
 20
10.725093
 30
0.0
 11
151.779907
 21
10.994947
 31
0.0
  0
LINE
  5
3D7
330
1F
100
AcDbEntity
  8
001
370
     9
100
AcDbLine
 10
151.439342
 20
10.725093
 30
0.0
 11
151.779907
 21
11.065658
 31
0.0
  0
LINE
  5
3D8
330
1F
100
AcDbEntity
  8
001
370
     9
100
AcDbLine
 10
151.368632
 20
10.725093
 30
0.0
 11
151.779907
 21
11.136368
 31
0.0
  0
LINE
  5
3D9
330
1F
100
AcDbEntity
  8
001
370
     9
100
AcDbLine
 10
151.297921
 20
10.725093
 30
0.0
 11
151.779907
 21
11.207079
 31
0.0
  0
LINE
  5
3DA
330
1F
100
AcDbEntity
  8
001
370
     9
100
AcDbLine
 10
151.22721
 20
10.725093
 30
0.0
 11
151.779907
 21
11.27779
 31
0.0
  0
LINE
  5
3DB
330
1F
100
AcDbEntity
  8
001
370
     9
100
AcDbLine
 10
151.1565
 20
10.725093
 30
0.0
 11
151.779907
 21
11.3485
 31
0.0
  0
LINE
  5
3DC
330
1F
100
AcDbEntity
  8
001
370
     9
100
AcDbLine
 10
151.085789
 20
10.725093
 30
0.0
 11
151.779907
 21
11.419211
 31
0.0
  0
LINE
  5
3DD
330
1F
100
AcDbEntity
  8
001
370
     9
100
AcDbLine
 10
151.015078
 20
10.725093
 30
0.0
 11
151.779907
 21
11.489922
 31
0.0
  0
LINE
  5
3DE
330
1F
100
AcDbEntity
  8
001
370
     9
100
AcDbLine
 10
150.944367
 20
10.725093
 30
0.0
 11
151.740161
 21
11.520886
 31
0.0
  0
LINE
  5
3DF
330
1F
100
AcDbEntity
  8
001
370
     9
100
AcDbLine
 10
150.873657
 20
10.725093
 30
0.0
 11
151.66945
 21
11.520886
 31
0.0
  0
LINE
  5
3E0
330
1F
100
AcDbEntity
  8
001
370
     9
100
AcDbLine
 10
150.802946
 20
10.725093
 30
0.0
 11
151.59874
 21
11.520886
 31
0.0
  0
LINE
  5
3E1
330
1F
100
AcDbEntity
  8
001
370
     9
100
AcDbLine
 10
150.732235
 20
10.725093
 30
0.0
 11
151.528029
 21
11.520886
 31
0.0
  0
LINE
  5
3E2
330
1F
100
AcDbEntity
  8
001
370
     9
100
AcDbLine
 10
150.724828
 20
10.788396
 30
0.0
 11
151.457318
 21
11.520886
 31
0.0
  0
LINE
  5
3E3
330
1F
100
AcDbEntity
  8
001
370
     9
100
AcDbLine
 10
150.724828
 20
10.859106
 30
0.0
 11
151.386608
 21
11.520886
 31
0.0
  0
LINE
  5
3E4
330
1F
100
AcDbEntity
  8
001
370
     9
100
AcDbLine
 10
150.724828
 20
10.929817
 30
0.0
 11
151.315897
 21
11.520886
 31
0.0
  0
LINE
  5
3E5
330
1F
100
AcDbEntity
  8
001
370
     9
100
AcDbLine
 10
150.724828
 20
11.000528
 30
0.0
 11
151.245186
 21
11.520886
 31
0.0
  0
LINE
  5
3E6
330
1F
100
AcDbEntity
  8
001
370
     9
100
AcDbLine
 10
150.724828
 20
11.071238
 30
0.0
 11
151.174476
 21
11.520886
 31
0.0
  0
LINE
  5
3E7
330
1F
100
AcDbEntity
  8
001
370
     9
100
AcDbLine
 10
150.724828
 20
11.141949
 30
0.0
 11
151.103765
 21
11.520886
 31
0.0
  0
LINE
  5
3E8
330
1F
100
AcDbEntity
  8
001
370
     9
100
AcDbLine
 10
150.724828
 20
11.21266
 30
0.0
 11
151.033054
 21
11.520886
 31
0.0
  0
LINE
  5
3E9
330
1F
100
AcDbEntity
  8
001
370
     9
100
AcDbLine
 10
150.724828
 20
11.28337
 30
0.0
 11
150.962344
 21
11.520886
 31
0.0
  0
LINE
  5
3EA
330
1F
100
AcDbEntity
  8
001
370
     9
100
AcDbLine
 10
150.724828
 20
11.354081
 30
0.0
 11
150.891633
 21
11.520886
 31
0.0
  0
LINE
  5
3EB
330
1F
100
AcDbEntity
  8
001
370
     9
100
AcDbLine
 10
150.724828
 20
11.424792
 30
0.0
 11
150.820922
 21
11.520886
 31
0.0
  0
LINE
  5
3EC
330
1F
100
AcDbEntity
  8
001
370
     9
100
AcDbLine
 10
150.724828
 20
11.495502
 30
0.0
 11
150.750212
 21
11.520886
 31
0.0
  0
LINE
  5
3ED
330
1F
100
AcDbEntity
  8
001
370
     9
100
AcDbLine
 10
157.543034
 20
7.0
 30
0.0
 11
157.57551
 21
7.032476
 31
0.0
  0
LINE
  5
3EE
330
1F
100
AcDbEntity
  8
001
370
     9
100
AcDbLine
 10
157.472323
 20
7.0
 30
0.0
 11
157.57551
 21
7.103187
 31
0.0
  0
LINE
  5
3EF
330
1F
100
AcDbEntity
  8
001
370
     9
100
AcDbLine
 10
157.401612
 20
7.0
 30
0.0
 11
157.57551
 21
7.173897
 31
0.0
  0
LINE
  5
3F0
330
1F
100
AcDbEntity
  8
001
370
     9
100
AcDbLine
 10
157.330902
 20
7.0
 30
0.0
 11
157.57551
 21
7.244608
 31
0.0
  0
LINE
  5
3F1
330
1F
100
AcDbEntity
  8
001
370
     9
100
AcDbLine
 10
157.260191
 20
7.0
 30
0.0
 11
157.57551
 21
7.315319
 31
0.0
  0
LINE
  5
3F2
330
1F
100
AcDbEntity
  8
001
370
     9
100
AcDbLine
 10
157.18948
 20
7.0
 30
0.0
 11
157.57551
 21
7.386029
 31
0.0
  0
LINE
  5
3F3
330
1F
100
AcDbEntity
  8
001
370
     9
100
AcDbLine
 10
157.11877
 20
7.0
 30
0.0
 11
157.57551
 21
7.45674
 31
0.0
  0
LINE
  5
3F4
330
1F
100
AcDbEntity
  8
001
370
     9
100
AcDbLine
 10
157.048059
 20
7.0
 30
0.0
 11
157.57551
 21
7.527451
 31
0.0
  0
LINE
  5
3F5
330
1F
100
AcDbEntity
  8
001
370
     9
100
AcDbLine
 10
156.977348
 20
7.0
 30
0.0
 11
157.57551
 21
7.598161
 31
0.0
  0
LINE
  5
3F6
330
1F
100
AcDbEntity
  8
001
370
     9
100
AcDbLine
 10
156.906638
 20
7.0
 30
0.0
 11
157.57551
 21
7.668872
 31
0.0
  0
LINE
  5
3F7
330
1F
100
AcDbEntity
  8
001
370
     9
100
AcDbLine
 10
156.835927
 20
7.0
 30
0.0
 11
157.57551
 21
7.739583
 31
0.0
  0
LINE
  5
3F8
330
1F
100
AcDbEntity
  8
001
370
     9
100
AcDbLine
 10
156.765216
 20
7.0
 30
0.0
 11
157.57551
 21
7.810293
 31
0.0
  0
LINE
  5
3F9
330
1F
100
AcDbEntity
  8
001
370
     9
100
AcDbLine
 10
156.694506
 20
7.0
 30
0.0
 11
157.57551
 21
7.881004
 31
0.0
  0
LINE
  5
3FA
330
1F
100
AcDbEntity
  8
001
370
     9
100
AcDbLine
 10
156.623795
 20
7.0
 30
0.0
 11
157.57551
 21
7.951715
 31
0.0
  0
LINE
  5
3FB
330
1F
100
AcDbEntity
  8
001
370
     9
100
AcDbLine
 10
156.553084
 20
7.0
 30
0.0
 11
157.57551
 21
8.022425
 31
0.0
  0
LINE
  5
3FC
330
1F
100
AcDbEntity
  8
001
370
     9
100
AcDbLine
 10
156.515629
 20
7.033256
 30
0.0
 11
157.57551
 21
8.093136
 31
0.0
  0
LINE
  5
3FD
330
1F
100
AcDbEntity
  8
001
370
     9
100
AcDbLine
 10
156.515629
 20
7.103966
 30
0.0
 11
157.57551
 21
8.163847
 31
0.0
  0
LINE
  5
3FE
330
1F
100
AcDbEntity
  8
001
370
     9
100
AcDbLine
 10
156.515629
 20
7.174677
 30
0.0
 11
157.57551
 21
8.234557
 31
0.0
  0
LINE
  5
3FF
330
1F
100
AcDbEntity
  8
001
370
     9
100
AcDbLine
 10
156.515629
 20
7.245388
 30
0.0
 11
157.57551
 21
8.305268
 31
0.0
  0
LINE
  5
400
330
1F
100
AcDbEntity
  8
001
370
     9
100
AcDbLine
 10
156.515629
 20
7.316098
 30
0.0
 11
157.57551
 21
8.375979
 31
0.0
  0
LINE
  5
401
330
1F
100
AcDbEntity
  8
001
370
     9
100
AcDbLine
 10
156.515629
 20
7.386809
 30
0.0
 11
157.57551
 21
8.446689
 31
0.0
  0
LINE
  5
402
330
1F
100
AcDbEntity
  8
001
370
     9
100
AcDbLine
 10
156.515629
 20
7.45752
 30
0.0
 11
157.57551
 21
8.5174
 31
0.0
  0
LINE
  5
403
330
1F
100
AcDbEntity
  8
001
370
     9
100
AcDbLine
 10
156.515629
 20
7.52823
 30
0.0
 11
157.57551
 21
8.588111
 31
0.0
  0
LINE
  5
404
330
1F
100
AcDbEntity
  8
001
370
     9
100
AcDbLine
 10
156.515629
 20
7.598941
 30
0.0
 11
157.57551
 21
8.658821
 31
0.0
  0
LINE
  5
405
330
1F
100
AcDbEntity
  8
001
370
     9
100
AcDbLine
 10
156.515629
 20
7.669652
 30
0.0
 11
157.57551
 21
8.729532
 31
0.0
  0
LINE
  5
406
330
1F
100
AcDbEntity
  8
001
370
     9
100
AcDbLine
 10
156.515629
 20
7.740362
 30
0.0
 11
157.57551
 21
8.800243
 31
0.0
  0
LINE
  5
407
330
1F
100
AcDbEntity
  8
001
370
     9
100
AcDbLine
 10
156.515629
 20
7.811073
 30
0.0
 11
157.57551
 21
8.870953
 31
0.0
  0
LINE
  5
408
330
1F
100
AcDbEntity
  8
001
370
     9
100
AcDbLine
 10
156.515629
 20
7.881784
 30
0.0
 11
157.57551
 21
8.941664
 31
0.0
  0
LINE
  5
409
330
1F
100
AcDbEntity
  8
001
370
     9
100
AcDbLine
 10
156.515629
 20
7.952495
 30
0.0
 11
157.57551
 21
9.012375
 31
0.0
  0
LINE
  5
40A
330
1F
100
AcDbEntity
  8
001
370
     9
100
AcDbLine
 10
156.515629
 20
8.023205
 30
0.0
 11
157.57551
 21
9.083085
 31
0.0
  0
LINE
  5
40B
330
1F
100
AcDbEntity
  8
001
370
     9
100
AcDbLine
 10
156.515629
 20
8.093916
 30
0.0
 11
157.57551
 21
9.153796
 31
0.0
  0
LINE
  5
40C
330
1F
100
AcDbEntity
  8
001
370
     9
100
AcDbLine
 10
156.515629
 20
8.164627
 30
0.0
 11
157.57551
 21
9.224507
 31
0.0
  0
LINE
  5
40D
330
1F
100
AcDbEntity
  8
001
370
     9
100
AcDbLine
 10
156.515629
 20
8.235337
 30
0.0
 11
157.57551
 21
9.295218
 31
0.0
  0
LINE
  5
40E
330
1F
100
AcDbEntity
  8
001
370
     9
100
AcDbLine
 10
156.515629
 20
8.306048
 30
0.0
 11
157.57551
 21
9.365928
 31
0.0
  0
LINE
  5
40F
330
1F
100
AcDbEntity
  8
001
370
     9
100
AcDbLine
 10
156.515629
 20
8.376759
 30
0.0
 11
157.575472
 21
9.436601
 31
0.0
  0
LINE
  5
410
330
1F
100
AcDbEntity
  8
001
370
     9
100
AcDbLine
 10
156.515629
 20
8.447469
 30
0.0
 11
157.572695
 21
9.504535
 31
0.0
  0
LINE
  5
411
330
1F
100
AcDbEntity
  8
001
370
     9
100
AcDbLine
 10
156.515629
 20
8.51818
 30
0.0
 11
157.566017
 21
9.568568
 31
0.0
  0
LINE
  5
412
330
1F
100
AcDbEntity
  8
001
370
     9
100
AcDbLine
 10
156.515629
 20
8.588891
 30
0.0
 11
157.555983
 21
9.629245
 31
0.0
  0
LINE
  5
413
330
1F
100
AcDbEntity
  8
001
370
     9
100
AcDbLine
 10
156.515629
 20
8.659601
 30
0.0
 11
157.542993
 21
9.686965
 31
0.0
  0
LINE
  5
414
330
1F
100
AcDbEntity
  8
001
370
     9
100
AcDbLine
 10
156.515629
 20
8.730312
 30
0.0
 11
157.527349
 21
9.742031
 31
0.0
  0
LINE
  5
415
330
1F
100
AcDbEntity
  8
001
370
     9
100
AcDbLine
 10
156.515629
 20
8.801023
 30
0.0
 11
157.509281
 21
9.794675
 31
0.0
  0
LINE
  5
416
330
1F
100
AcDbEntity
  8
001
370
     9
100
AcDbLine
 10
156.515629
 20
8.871733
 30
0.0
 11
157.488974
 21
9.845078
 31
0.0
  0
LINE
  5
417
330
1F
100
AcDbEntity
  8
001
370
     9
100
AcDbLine
 10
156.515629
 20
8.942444
 30
0.0
 11
157.466571
 21
9.893385
 31
0.0
  0
LINE
  5
418
330
1F
100
AcDbEntity
  8
001
370
     9
100
AcDbLine
 10
156.515629
 20
9.013155
 30
0.0
 11
157.442185
 21
9.93971
 31
0.0
  0
LINE
  5
419
330
1F
100
AcDbEntity
  8
001
370
     9
100
AcDbLine
 10
156.515629
 20
9.083865
 30
0.0
 11
157.415907
 21
9.984143
 31
0.0
  0
LINE
  5
41A
330
1F
100
AcDbEntity
  8
001
370
     9
100
AcDbLine
 10
156.515629
 20
9.154576
 30
0.0
 11
157.387807
 21
10.026754
 31
0.0
  0
LINE
  5
41B
330
1F
100
AcDbEntity
  8
001
370
     9
100
AcDbLine
 10
156.515629
 20
9.225287
 30
0.0
 11
157.357939
 21
10.067597
 31
0.0
  0
LINE
  5
41C
330
1F
100
AcDbEntity
  8
001
370
     9
100
AcDbLine
 10
156.515629
 20
9.295997
 30
0.0
 11
157.326344
 21
10.106712
 31
0.0
  0
LINE
  5
41D
330
1F
100
AcDbEntity
  8
001
370
     9
100
AcDbLine
 10
156.515629
 20
9.366708
 30
0.0
 11
157.293046
 21
10.144125
 31
0.0
  0
LINE
  5
41E
330
1F
100
AcDbEntity
  8
001
370
     9
100
AcDbLine
 10
156.507259
 20
9.429049
 30
0.0
 11
157.25806
 21
10.179849
 31
0.0
  0
LINE
  5
41F
330
1F
100
AcDbEntity
  8
001
370
     9
100
AcDbLine
 10
156.486127
 20
9.478628
 30
0.0
 11
157.221389
 21
10.213889
 31
0.0
  0
LINE
  5
420
330
1F
100
AcDbEntity
  8
001
370
     9
100
AcDbLine
 10
156.45581
 20
9.519021
 30
0.0
 11
157.183023
 21
10.246234
 31
0.0
  0
LINE
  5
421
330
1F
100
AcDbEntity
  8
001
370
     9
100
AcDbLine
 10
156.417235
 20
9.551157
 30
0.0
 11
157.142942
 21
10.276864
 31
0.0
  0
LINE
  5
422
330
1F
100
AcDbEntity
  8
001
370
     9
100
AcDbLine
 10
156.369825
 20
9.574458
 30
0.0
 11
157.101112
 21
10.305744
 31
0.0
  0
LINE
  5
423
330
1F
100
AcDbEntity
  8
001
370
     9
100
AcDbLine
 10
156.310827
 20
9.58617
 30
0.0
 11
157.057486
 21
10.332829
 31
0.0
  0
LINE
  5
424
330
1F
100
AcDbEntity
  8
001
370
     9
100
AcDbLine
 10
156.24047
 20
9.586524
 30
0.0
 11
157.012002
 21
10.358055
 31
0.0
  0
LINE
  5
425
330
1F
100
AcDbEntity
  8
001
370
     9
100
AcDbLine
 10
156.169759
 20
9.586524
 30
0.0
 11
156.964577
 21
10.381341
 31
0.0
  0
LINE
  5
426
330
1F
100
AcDbEntity
  8
001
370
     9
100
AcDbLine
 10
156.099049
 20
9.586524
 30
0.0
 11
156.915109
 21
10.402584
 31
0.0
  0
LINE
  5
427
330
1F
100
AcDbEntity
  8
001
370
     9
100
AcDbLine
 10
153.441814
 20
7.0
 30
0.0
 11
153.45643
 21
7.014615
 31
0.0
  0
LINE
  5
428
330
1F
100
AcDbEntity
  8
001
370
     9
100
AcDbLine
 10
156.028338
 20
9.586524
 30
0.0
 11
156.863468
 21
10.421654
 31
0.0
  0
LINE
  5
429
330
1F
100
AcDbEntity
  8
001
370
     9
100
AcDbLine
 10
153.371104
 20
7.0
 30
0.0
 11
153.45643
 21
7.085326
 31
0.0
  0
LINE
  5
42A
330
1F
100
AcDbEntity
  8
001
370
     9
100
AcDbLine
 10
155.957627
 20
9.586524
 30
0.0
 11
156.80949
 21
10.438386
 31
0.0
  0
LINE
  5
42B
330
1F
100
AcDbEntity
  8
001
370
     9
100
AcDbLine
 10
153.300393
 20
7.0
 30
0.0
 11
153.45643
 21
7.156037
 31
0.0
  0
LINE
  5
42C
330
1F
100
AcDbEntity
  8
001
370
     9
100
AcDbLine
 10
155.886917
 20
9.586524
 30
0.0
 11
156.752967
 21
10.452574
 31
0.0
  0
LINE
  5
42D
330
1F
100
AcDbEntity
  8
001
370
     9
100
AcDbLine
 10
153.229682
 20
7.0
 30
0.0
 11
153.45643
 21
7.226747
 31
0.0
  0
LINE
  5
42E
330
1F
100
AcDbEntity
  8
001
370
     9
100
AcDbLine
 10
155.816206
 20
9.586524
 30
0.0
 11
156.693629
 21
10.463947
 31
0.0
  0
LINE
  5
42F
330
1F
100
AcDbEntity
  8
001
370
     9
100
AcDbLine
 10
153.158972
 20
7.0
 30
0.0
 11
153.45643
 21
7.297458
 31
0.0
  0
LINE
  5
430
330
1F
100
AcDbEntity
  8
001
370
     9
100
AcDbLine
 10
155.745495
 20
9.586524
 30
0.0
 11
156.631126
 21
10.472154
 31
0.0
  0
LINE
  5
431
330
1F
100
AcDbEntity
  8
001
370
     9
100
AcDbLine
 10
153.088261
 20
7.0
 30
0.0
 11
153.45643
 21
7.368169
 31
0.0
  0
LINE
  5
432
330
1F
100
AcDbEntity
  8
001
370
     9
100
AcDbLine
 10
155.674785
 20
9.586524
 30
0.0
 11
156.564983
 21
10.476722
 31
0.0
  0
LINE
  5
433
330
1F
100
AcDbEntity
  8
001
370
     9
100
AcDbLine
 10
153.01755
 20
7.0
 30
0.0
 11
153.45643
 21
7.438879
 31
0.0
  0
LINE
  5
434
330
1F
100
AcDbEntity
  8
001
370
     9
100
AcDbLine
 10
155.604074
 20
9.586524
 30
0.0
 11
156.495005
 21
10.477454
 31
0.0
  0
LINE
  5
435
330
1F
100
AcDbEntity
  8
001
370
     9
100
AcDbLine
 10
152.94684
 20
7.0
 30
0.0
 11
153.45643
 21
7.50959
 31
0.0
  0
LINE
  5
436
330
1F
100
AcDbEntity
  8
001
370
     9
100
AcDbLine
 10
155.533363
 20
9.586524
 30
0.0
 11
156.424294
 21
10.477454
 31
0.0
  0
LINE
  5
437
330
1F
100
AcDbEntity
  8
001
370
     9
100
AcDbLine
 10
152.876129
 20
7.0
 30
0.0
 11
153.45643
 21
7.580301
 31
0.0
  0
LINE
  5
438
330
1F
100
AcDbEntity
  8
001
370
     9
100
AcDbLine
 10
155.462653
 20
9.586524
 30
0.0
 11
156.353583
 21
10.477454
 31
0.0
  0
LINE
  5
439
330
1F
100
AcDbEntity
  8
001
370
     9
100
AcDbLine
 10
152.805418
 20
7.0
 30
0.0
 11
153.45643
 21
7.651011
 31
0.0
  0
LINE
  5
43A
330
1F
100
AcDbEntity
  8
001
370
     9
100
AcDbLine
 10
155.391942
 20
9.586524
 30
0.0
 11
156.282872
 21
10.477454
 31
0.0
  0
LINE
  5
43B
330
1F
100
AcDbEntity
  8
001
370
     9
100
AcDbLine
 10
152.734708
 20
7.0
 30
0.0
 11
153.45643
 21
7.721722
 31
0.0
  0
LINE
  5
43C
330
1F
100
AcDbEntity
  8
001
370
     9
100
AcDbLine
 10
155.321231
 20
9.586524
 30
0.0
 11
156.212162
 21
10.477454
 31
0.0
  0
LINE
  5
43D
330
1F
100
AcDbEntity
  8
001
370
     9
100
AcDbLine
 10
152.663997
 20
7.0
 30
0.0
 11
153.45643
 21
7.792433
 31
0.0
  0
LINE
  5
43E
330
1F
100
AcDbEntity
  8
001
370
     9
100
AcDbLine
 10
155.250521
 20
9.586524
 30
0.0
 11
156.141451
 21
10.477454
 31
0.0
  0
LINE
  5
43F
330
1F
100
AcDbEntity
  8
001
370
     9
100
AcDbLine
 10
152.593286
 20
7.0
 30
0.0
 11
153.45643
 21
7.863143
 31
0.0
  0
LINE
  5
440
330
1F
100
AcDbEntity
  8
001
370
     9
100
AcDbLine
 10
155.17981
 20
9.586524
 30
0.0
 11
156.07074
 21
10.477454
 31
0.0
  0
LINE
  5
441
330
1F
100
AcDbEntity
  8
001
370
     9
100
AcDbLine
 10
152.522576
 20
7.0
 30
0.0
 11
153.45643
 21
7.933854
 31
0.0
  0
LINE
  5
442
330
1F
100
AcDbEntity
  8
001
370
     9
100
AcDbLine
 10
155.109099
 20
9.586524
 30
0.0
 11
156.00003
 21
10.477454
 31
0.0
  0
LINE
  5
443
330
1F
100
AcDbEntity
  8
001
370
     9
100
AcDbLine
 10
152.451865
 20
7.0
 30
0.0
 11
153.45643
 21
8.004565
 31
0.0
  0
LINE
  5
444
330
1F
100
AcDbEntity
  8
001
370
     9
100
AcDbLine
 10
155.038389
 20
9.586524
 30
0.0
 11
155.929319
 21
10.477454
 31
0.0
  0
LINE
  5
445
330
1F
100
AcDbEntity
  8
001
370
     9
100
AcDbLine
 10
152.396549
 20
7.015395
 30
0.0
 11
153.45643
 21
8.075275
 31
0.0
  0
LINE
  5
446
330
1F
100
AcDbEntity
  8
001
370
     9
100
AcDbLine
 10
154.967678
 20
9.586524
 30
0.0
 11
155.858608
 21
10.477454
 31
0.0
  0
LINE
  5
447
330
1F
100
AcDbEntity
  8
001
370
     9
100
AcDbLine
 10
152.396549
 20
7.086106
 30
0.0
 11
153.45643
 21
8.145986
 31
0.0
  0
LINE
  5
448
330
1F
100
AcDbEntity
  8
001
370
     9
100
AcDbLine
 10
154.896967
 20
9.586524
 30
0.0
 11
155.787898
 21
10.477454
 31
0.0
  0
LINE
  5
449
330
1F
100
AcDbEntity
  8
001
370
     9
100
AcDbLine
 10
152.396549
 20
7.156817
 30
0.0
 11
153.45643
 21
8.216697
 31
0.0
  0
LINE
  5
44A
330
1F
100
AcDbEntity
  8
001
370
     9
100
AcDbLine
 10
154.826257
 20
9.586524
 30
0.0
 11
155.717187
 21
10.477454
 31
0.0
  0
LINE
  5
44B
330
1F
100
AcDbEntity
  8
001
370
     9
100
AcDbLine
 10
152.396549
 20
7.227527
 30
0.0
 11
153.45643
 21
8.287407
 31
0.0
  0
LINE
  5
44C
330
1F
100
AcDbEntity
  8
001
370
     9
100
AcDbLine
 10
154.755546
 20
9.586524
 30
0.0
 11
155.646476
 21
10.477454
 31
0.0
  0
LINE
  5
44D
330
1F
100
AcDbEntity
  8
001
370
     9
100
AcDbLine
 10
152.396549
 20
7.298238
 30
0.0
 11
153.45643
 21
8.358118
 31
0.0
  0
LINE
  5
44E
330
1F
100
AcDbEntity
  8
001
370
     9
100
AcDbLine
 10
154.684835
 20
9.586524
 30
0.0
 11
155.575766
 21
10.477454
 31
0.0
  0
LINE
  5
44F
330
1F
100
AcDbEntity
  8
001
370
     9
100
AcDbLine
 10
152.396549
 20
7.368949
 30
0.0
 11
153.45643
 21
8.428829
 31
0.0
  0
LINE
  5
450
330
1F
100
AcDbEntity
  8
001
370
     9
100
AcDbLine
 10
154.614124
 20
9.586524
 30
0.0
 11
155.505055
 21
10.477454
 31
0.0
  0
LINE
  5
451
330
1F
100
AcDbEntity
  8
001
370
     9
100
AcDbLine
 10
152.396549
 20
7.439659
 30
0.0
 11
153.45643
 21
8.49954
 31
0.0
  0
LINE
  5
452
330
1F
100
AcDbEntity
  8
001
370
     9
100
AcDbLine
 10
154.543414
 20
9.586524
 30
0.0
 11
155.434344
 21
10.477454
 31
0.0
  0
LINE
  5
453
330
1F
100
AcDbEntity
  8
001
370
     9
100
AcDbLine
 10
152.396549
 20
7.51037
 30
0.0
 11
153.45643
 21
8.57025
 31
0.0
  0
LINE
  5
454
330
1F
100
AcDbEntity
  8
001
370
     9
100
AcDbLine
 10
154.472703
 20
9.586524
 30
0.0
 11
155.363634
 21
10.477454
 31
0.0
  0
LINE
  5
455
330
1F
100
AcDbEntity
  8
001
370
     9
100
AcDbLine
 10
152.396549
 20
7.581081
 30
0.0
 11
153.45643
 21
8.640961
 31
0.0
  0
LINE
  5
456
330
1F
100
AcDbEntity
  8
001
370
     9
100
AcDbLine
 10
154.401992
 20
9.586524
 30
0.0
 11
155.292923
 21
10.477454
 31
0.0
  0
LINE
  5
457
330
1F
100
AcDbEntity
  8
001
370
     9
100
AcDbLine
 10
152.396549
 20
7.651791
 30
0.0
 11
153.45643
 21
8.711672
 31
0.0
  0
LINE
  5
458
330
1F
100
AcDbEntity
  8
001
370
     9
100
AcDbLine
 10
154.331282
 20
9.586524
 30
0.0
 11
155.222212
 21
10.477454
 31
0.0
  0
LINE
  5
459
330
1F
100
AcDbEntity
  8
001
370
     9
100
AcDbLine
 10
152.396549
 20
7.722502
 30
0.0
 11
153.45643
 21
8.782382
 31
0.0
  0
LINE
  5
45A
330
1F
100
AcDbEntity
  8
001
370
     9
100
AcDbLine
 10
154.260571
 20
9.586524
 30
0.0
 11
155.151502
 21
10.477454
 31
0.0
  0
LINE
  5
45B
330
1F
100
AcDbEntity
  8
001
370
     9
100
AcDbLine
 10
152.396549
 20
7.793213
 30
0.0
 11
153.45643
 21
8.853093
 31
0.0
  0
LINE
  5
45C
330
1F
100
AcDbEntity
  8
001
370
     9
100
AcDbLine
 10
154.18986
 20
9.586524
 30
0.0
 11
155.080791
 21
10.477454
 31
0.0
  0
LINE
  5
45D
330
1F
100
AcDbEntity
  8
001
370
     9
100
AcDbLine
 10
152.396549
 20
7.863923
 30
0.0
 11
153.45643
 21
8.923804
 31
0.0
  0
LINE
  5
45E
330
1F
100
AcDbEntity
  8
001
370
     9
100
AcDbLine
 10
154.11915
 20
9.586524
 30
0.0
 11
155.01008
 21
10.477454
 31
0.0
  0
LINE
  5
45F
330
1F
100
AcDbEntity
  8
001
370
     9
100
AcDbLine
 10
152.396549
 20
7.934634
 30
0.0
 11
153.45643
 21
8.994514
 31
0.0
  0
LINE
  5
460
330
1F
100
AcDbEntity
  8
001
370
     9
100
AcDbLine
 10
154.048439
 20
9.586524
 30
0.0
 11
154.93937
 21
10.477454
 31
0.0
  0
LINE
  5
461
330
1F
100
AcDbEntity
  8
001
370
     9
100
AcDbLine
 10
152.396549
 20
8.005345
 30
0.0
 11
153.45643
 21
9.065225
 31
0.0
  0
LINE
  5
462
330
1F
100
AcDbEntity
  8
001
370
     9
100
AcDbLine
 10
153.977728
 20
9.586524
 30
0.0
 11
154.868659
 21
10.477454
 31
0.0
  0
LINE
  5
463
330
1F
100
AcDbEntity
  8
001
370
     9
100
AcDbLine
 10
152.396549
 20
8.076055
 30
0.0
 11
153.45643
 21
9.135936
 31
0.0
  0
LINE
  5
464
330
1F
100
AcDbEntity
  8
001
370
     9
100
AcDbLine
 10
153.907018
 20
9.586524
 30
0.0
 11
154.797948
 21
10.477454
 31
0.0
  0
LINE
  5
465
330
1F
100
AcDbEntity
  8
001
370
     9
100
AcDbLine
 10
152.396549
 20
8.146766
 30
0.0
 11
153.45643
 21
9.206646
 31
0.0
  0
LINE
  5
466
330
1F
100
AcDbEntity
  8
001
370
     9
100
AcDbLine
 10
153.836307
 20
9.586524
 30
0.0
 11
154.727238
 21
10.477454
 31
0.0
  0
LINE
  5
467
330
1F
100
AcDbEntity
  8
001
370
     9
100
AcDbLine
 10
152.396549
 20
8.217477
 30
0.0
 11
153.45643
 21
9.277357
 31
0.0
  0
LINE
  5
468
330
1F
100
AcDbEntity
  8
001
370
     9
100
AcDbLine
 10
153.765596
 20
9.586524
 30
0.0
 11
154.656527
 21
10.477454
 31
0.0
  0
LINE
  5
469
330
1F
100
AcDbEntity
  8
001
370
     9
100
AcDbLine
 10
152.396549
 20
8.288187
 30
0.0
 11
153.45643
 21
9.348068
 31
0.0
  0
LINE
  5
46A
330
1F
100
AcDbEntity
  8
001
370
     9
100
AcDbLine
 10
153.694886
 20
9.586524
 30
0.0
 11
154.585816
 21
10.477454
 31
0.0
  0
LINE
  5
46B
330
1F
100
AcDbEntity
  8
001
370
     9
100
AcDbLine
 10
152.396549
 20
8.358898
 30
0.0
 11
153.45643
 21
9.418778
 31
0.0
  0
LINE
  5
46C
330
1F
100
AcDbEntity
  8
001
370
     9
100
AcDbLine
 10
153.624175
 20
9.586524
 30
0.0
 11
154.515106
 21
10.477454
 31
0.0
  0
LINE
  5
46D
330
1F
100
AcDbEntity
  8
001
370
     9
100
AcDbLine
 10
152.396549
 20
8.429609
 30
0.0
 11
153.45643
 21
9.489489
 31
0.0
  0
LINE
  5
46E
330
1F
100
AcDbEntity
  8
001
370
     9
100
AcDbLine
 10
153.553464
 20
9.586524
 30
0.0
 11
154.444395
 21
10.477454
 31
0.0
  0
LINE
  5
46F
330
1F
100
AcDbEntity
  8
001
370
     9
100
AcDbLine
 10
152.396549
 20
8.500319
 30
0.0
 11
153.45643
 21
9.5602
 31
0.0
  0
LINE
  5
470
330
1F
100
AcDbEntity
  8
001
370
     9
100
AcDbLine
 10
153.482754
 20
9.586524
 30
0.0
 11
154.373684
 21
10.477454
 31
0.0
  0
LINE
  5
471
330
1F
100
AcDbEntity
  8
001
370
     9
100
AcDbLine
 10
152.396549
 20
8.57103
 30
0.0
 11
154.302973
 21
10.477454
 31
0.0
  0
LINE
  5
472
330
1F
100
AcDbEntity
  8
001
370
     9
100
AcDbLine
 10
152.396549
 20
8.641741
 30
0.0
 11
154.232263
 21
10.477454
 31
0.0
  0
LINE
  5
473
330
1F
100
AcDbEntity
  8
001
370
     9
100
AcDbLine
 10
152.396549
 20
8.712451
 30
0.0
 11
154.161552
 21
10.477454
 31
0.0
  0
LINE
  5
474
330
1F
100
AcDbEntity
  8
001
370
     9
100
AcDbLine
 10
152.396549
 20
8.783162
 30
0.0
 11
154.090841
 21
10.477454
 31
0.0
  0
LINE
  5
475
330
1F
100
AcDbEntity
  8
001
370
     9
100
AcDbLine
 10
152.396549
 20
8.853873
 30
0.0
 11
154.020131
 21
10.477454
 31
0.0
  0
LINE
  5
476
330
1F
100
AcDbEntity
  8
001
370
     9
100
AcDbLine
 10
152.396549
 20
8.924583
 30
0.0
 11
153.94942
 21
10.477454
 31
0.0
  0
LINE
  5
477
330
1F
100
AcDbEntity
  8
001
370
     9
100
AcDbLine
 10
152.396549
 20
8.995294
 30
0.0
 11
153.878709
 21
10.477454
 31
0.0
  0
LINE
  5
478
330
1F
100
AcDbEntity
  8
001
370
     9
100
AcDbLine
 10
152.396549
 20
9.066005
 30
0.0
 11
153.807999
 21
10.477454
 31
0.0
  0
LINE
  5
479
330
1F
100
AcDbEntity
  8
001
370
     9
100
AcDbLine
 10
152.396549
 20
9.136715
 30
0.0
 11
153.737288
 21
10.477454
 31
0.0
  0
LINE
  5
47A
330
1F
100
AcDbEntity
  8
001
370
     9
100
AcDbLine
 10
152.396549
 20
9.207426
 30
0.0
 11
153.666577
 21
10.477454
 31
0.0
  0
LINE
  5
47B
330
1F
100
AcDbEntity
  8
001
370
     9
100
AcDbLine
 10
152.396549
 20
9.278137
 30
0.0
 11
153.595867
 21
10.477454
 31
0.0
  0
LINE
  5
47C
330
1F
100
AcDbEntity
  8
001
370
     9
100
AcDbLine
 10
152.396549
 20
9.348848
 30
0.0
 11
153.525156
 21
10.477454
 31
0.0
  0
LINE
  5
47D
330
1F
100
AcDbEntity
  8
001
370
     9
100
AcDbLine
 10
152.396549
 20
9.419558
 30
0.0
 11
153.454445
 21
10.477454
 31
0.0
  0
LINE
  5
47E
330
1F
100
AcDbEntity
  8
001
370
     9
100
AcDbLine
 10
152.396549
 20
9.490269
 30
0.0
 11
153.383735
 21
10.477454
 31
0.0
  0
LINE
  5
47F
330
1F
100
AcDbEntity
  8
001
370
     9
100
AcDbLine
 10
152.396549
 20
9.56098
 30
0.0
 11
153.313024
 21
10.477454
 31
0.0
  0
LINE
  5
480
330
1F
100
AcDbEntity
  8
001
370
     9
100
AcDbLine
 10
152.396549
 20
9.63169
 30
0.0
 11
153.242313
 21
10.477454
 31
0.0
  0
LINE
  5
481
330
1F
100
AcDbEntity
  8
001
370
     9
100
AcDbLine
 10
152.396549
 20
9.702401
 30
0.0
 11
153.171603
 21
10.477454
 31
0.0
  0
LINE
  5
482
330
1F
100
AcDbEntity
  8
001
370
     9
100
AcDbLine
 10
152.396549
 20
9.773112
 30
0.0
 11
153.100892
 21
10.477454
 31
0.0
  0
LINE
  5
483
330
1F
100
AcDbEntity
  8
001
370
     9
100
AcDbLine
 10
152.396549
 20
9.843822
 30
0.0
 11
153.030181
 21
10.477454
 31
0.0
  0
LINE
  5
484
330
1F
100
AcDbEntity
  8
001
370
     9
100
AcDbLine
 10
152.396549
 20
9.914533
 30
0.0
 11
152.959471
 21
10.477454
 31
0.0
  0
LINE
  5
485
330
1F
100
AcDbEntity
  8
001
370
     9
100
AcDbLine
 10
152.396549
 20
9.985244
 30
0.0
 11
152.88876
 21
10.477454
 31
0.0
  0
LINE
  5
486
330
1F
100
AcDbEntity
  8
001
370
     9
100
AcDbLine
 10
152.396549
 20
10.055954
 30
0.0
 11
152.818049
 21
10.477454
 31
0.0
  0
LINE
  5
487
330
1F
100
AcDbEntity
  8
001
370
     9
100
AcDbLine
 10
152.396549
 20
10.126665
 30
0.0
 11
152.747339
 21
10.477454
 31
0.0
  0
LINE
  5
488
330
1F
100
AcDbEntity
  8
001
370
     9
100
AcDbLine
 10
152.396549
 20
10.197376
 30
0.0
 11
152.676628
 21
10.477454
 31
0.0
  0
LINE
  5
489
330
1F
100
AcDbEntity
  8
001
370
     9
100
AcDbLine
 10
152.396549
 20
10.268086
 30
0.0
 11
152.605917
 21
10.477454
 31
0.0
  0
LINE
  5
48A
330
1F
100
AcDbEntity
  8
001
370
     9
100
AcDbLine
 10
152.396549
 20
10.338797
 30
0.0
 11
152.535207
 21
10.477454
 31
0.0
  0
LINE
  5
48B
330
1F
100
AcDbEntity
  8
001
370
     9
100
AcDbLine
 10
152.396549
 20
10.409508
 30
0.0
 11
152.464496
 21
10.477454
 31
0.0
  0
LINE
  5
48C
330
1F
100
AcDbEntity
  8
001
370
     9
100
AcDbLine
 10
163.482731
 20
7.0
 30
0.0
 11
163.500011
 21
7.01728
 31
0.0
  0
LINE
  5
48D
330
1F
100
AcDbEntity
  8
001
370
     9
100
AcDbLine
 10
163.41202
 20
7.0
 30
0.0
 11
163.500011
 21
7.087991
 31
0.0
  0
LINE
  5
48E
330
1F
100
AcDbEntity
  8
001
370
     9
100
AcDbLine
 10
163.341309
 20
7.0
 30
0.0
 11
163.500011
 21
7.158702
 31
0.0
  0
LINE
  5
48F
330
1F
100
AcDbEntity
  8
001
370
     9
100
AcDbLine
 10
163.270599
 20
7.0
 30
0.0
 11
163.500011
 21
7.229412
 31
0.0
  0
LINE
  5
490
330
1F
100
AcDbEntity
  8
001
370
     9
100
AcDbLine
 10
163.199888
 20
7.0
 30
0.0
 11
163.500011
 21
7.300123
 31
0.0
  0
LINE
  5
491
330
1F
100
AcDbEntity
  8
001
370
     9
100
AcDbLine
 10
163.129177
 20
7.0
 30
0.0
 11
163.500011
 21
7.370834
 31
0.0
  0
LINE
  5
492
330
1F
100
AcDbEntity
  8
001
370
     9
100
AcDbLine
 10
163.058467
 20
7.0
 30
0.0
 11
163.500011
 21
7.441544
 31
0.0
  0
LINE
  5
493
330
1F
100
AcDbEntity
  8
001
370
     9
100
AcDbLine
 10
162.987756
 20
7.0
 30
0.0
 11
163.500011
 21
7.512255
 31
0.0
  0
LINE
  5
494
330
1F
100
AcDbEntity
  8
001
370
     9
100
AcDbLine
 10
162.917045
 20
7.0
 30
0.0
 11
163.500011
 21
7.582966
 31
0.0
  0
LINE
  5
495
330
1F
100
AcDbEntity
  8
001
370
     9
100
AcDbLine
 10
162.846335
 20
7.0
 30
0.0
 11
163.500011
 21
7.653676
 31
0.0
  0
LINE
  5
496
330
1F
100
AcDbEntity
  8
001
370
     9
100
AcDbLine
 10
162.775624
 20
7.0
 30
0.0
 11
163.500011
 21
7.724387
 31
0.0
  0
LINE
  5
497
330
1F
100
AcDbEntity
  8
001
370
     9
100
AcDbLine
 10
162.704913
 20
7.0
 30
0.0
 11
163.500011
 21
7.795098
 31
0.0
  0
LINE
  5
498
330
1F
100
AcDbEntity
  8
001
370
     9
100
AcDbLine
 10
162.634203
 20
7.0
 30
0.0
 11
163.500011
 21
7.865808
 31
0.0
  0
LINE
  5
499
330
1F
100
AcDbEntity
  8
001
370
     9
100
AcDbLine
 10
162.563492
 20
7.0
 30
0.0
 11
163.500011
 21
7.936519
 31
0.0
  0
LINE
  5
49A
330
1F
100
AcDbEntity
  8
001
370
     9
100
AcDbLine
 10
162.492781
 20
7.0
 30
0.0
 11
163.500011
 21
8.00723
 31
0.0
  0
LINE
  5
49B
330
1F
100
AcDbEntity
  8
001
370
     9
100
AcDbLine
 10
162.422071
 20
7.0
 30
0.0
 11
163.500011
 21
8.07794
 31
0.0
  0
LINE
  5
49C
330
1F
100
AcDbEntity
  8
001
370
     9
100
AcDbLine
 10
162.35136
 20
7.0
 30
0.0
 11
163.500011
 21
8.148651
 31
0.0
  0
LINE
  5
49D
330
1F
100
AcDbEntity
  8
001
370
     9
100
AcDbLine
 10
162.280649
 20
7.0
 30
0.0
 11
163.500011
 21
8.219362
 31
0.0
  0
LINE
  5
49E
330
1F
100
AcDbEntity
  8
001
370
     9
100
AcDbLine
 10
162.209938
 20
7.0
 30
0.0
 11
163.500011
 21
8.290072
 31
0.0
  0
LINE
  5
49F
330
1F
100
AcDbEntity
  8
001
370
     9
100
AcDbLine
 10
162.139228
 20
7.0
 30
0.0
 11
163.500011
 21
8.360783
 31
0.0
  0
LINE
  5
4A0
330
1F
100
AcDbEntity
  8
001
370
     9
100
AcDbLine
 10
162.068517
 20
7.0
 30
0.0
 11
163.500011
 21
8.431494
 31
0.0
  0
LINE
  5
4A1
330
1F
100
AcDbEntity
  8
001
370
     9
100
AcDbLine
 10
161.997806
 20
7.0
 30
0.0
 11
163.500011
 21
8.502204
 31
0.0
  0
LINE
  5
4A2
330
1F
100
AcDbEntity
  8
001
370
     9
100
AcDbLine
 10
161.927096
 20
7.0
 30
0.0
 11
163.500011
 21
8.572915
 31
0.0
  0
LINE
  5
4A3
330
1F
100
AcDbEntity
  8
001
370
     9
100
AcDbLine
 10
161.856385
 20
7.0
 30
0.0
 11
163.500011
 21
8.643626
 31
0.0
  0
LINE
  5
4A4
330
1F
100
AcDbEntity
  8
001
370
     9
100
AcDbLine
 10
161.785674
 20
7.0
 30
0.0
 11
163.500011
 21
8.714336
 31
0.0
  0
LINE
  5
4A5
330
1F
100
AcDbEntity
  8
001
370
     9
100
AcDbLine
 10
161.714964
 20
7.0
 30
0.0
 11
163.500011
 21
8.785047
 31
0.0
  0
LINE
  5
4A6
330
1F
100
AcDbEntity
  8
001
370
     9
100
AcDbLine
 10
161.644253
 20
7.0
 30
0.0
 11
162.423309
 21
7.779056
 31
0.0
  0
LINE
  5
4A7
330
1F
100
AcDbEntity
  8
001
370
     9
100
AcDbLine
 10
162.438187
 20
7.793934
 30
0.0
 11
163.500011
 21
8.855758
 31
0.0
  0
LINE
  5
4A8
330
1F
100
AcDbEntity
  8
001
370
     9
100
AcDbLine
 10
161.573542
 20
7.0
 30
0.0
 11
162.352598
 21
7.779056
 31
0.0
  0
LINE
  5
4A9
330
1F
100
AcDbEntity
  8
001
370
     9
100
AcDbLine
 10
162.438187
 20
7.864644
 30
0.0
 11
163.500011
 21
8.926469
 31
0.0
  0
LINE
  5
4AA
330
1F
100
AcDbEntity
  8
001
370
     9
100
AcDbLine
 10
161.502832
 20
7.0
 30
0.0
 11
162.281887
 21
7.779056
 31
0.0
  0
LINE
  5
4AB
330
1F
100
AcDbEntity
  8
001
370
     9
100
AcDbLine
 10
162.438187
 20
7.935355
 30
0.0
 11
163.500011
 21
8.997179
 31
0.0
  0
LINE
  5
4AC
330
1F
100
AcDbEntity
  8
001
370
     9
100
AcDbLine
 10
161.432121
 20
7.0
 30
0.0
 11
162.211177
 21
7.779056
 31
0.0
  0
LINE
  5
4AD
330
1F
100
AcDbEntity
  8
001
370
     9
100
AcDbLine
 10
162.438187
 20
8.006066
 30
0.0
 11
163.500011
 21
9.06789
 31
0.0
  0
LINE
  5
4AE
330
1F
100
AcDbEntity
  8
001
370
     9
100
AcDbLine
 10
161.36141
 20
7.0
 30
0.0
 11
162.140466
 21
7.779056
 31
0.0
  0
LINE
  5
4AF
330
1F
100
AcDbEntity
  8
001
370
     9
100
AcDbLine
 10
162.438187
 20
8.076776
 30
0.0
 11
163.500011
 21
9.138601
 31
0.0
  0
LINE
  5
4B0
330
1F
100
AcDbEntity
  8
001
370
     9
100
AcDbLine
 10
161.2907
 20
7.0
 30
0.0
 11
162.069755
 21
7.779056
 31
0.0
  0
LINE
  5
4B1
330
1F
100
AcDbEntity
  8
001
370
     9
100
AcDbLine
 10
162.438187
 20
8.147487
 30
0.0
 11
163.500011
 21
9.209311
 31
0.0
  0
LINE
  5
4B2
330
1F
100
AcDbEntity
  8
001
370
     9
100
AcDbLine
 10
161.219989
 20
7.0
 30
0.0
 11
161.999045
 21
7.779056
 31
0.0
  0
LINE
  5
4B3
330
1F
100
AcDbEntity
  8
001
370
     9
100
AcDbLine
 10
162.438187
 20
8.218198
 30
0.0
 11
163.500011
 21
9.280022
 31
0.0
  0
LINE
  5
4B4
330
1F
100
AcDbEntity
  8
001
370
     9
100
AcDbLine
 10
161.149278
 20
7.0
 30
0.0
 11
161.928334
 21
7.779056
 31
0.0
  0
LINE
  5
4B5
330
1F
100
AcDbEntity
  8
001
370
     9
100
AcDbLine
 10
162.438187
 20
8.288908
 30
0.0
 11
163.497687
 21
9.348408
 31
0.0
  0
LINE
  5
4B6
330
1F
100
AcDbEntity
  8
001
370
     9
100
AcDbLine
 10
161.078568
 20
7.0
 30
0.0
 11
161.857623
 21
7.779056
 31
0.0
  0
LINE
  5
4B7
330
1F
100
AcDbEntity
  8
001
370
     9
100
AcDbLine
 10
162.387366
 20
8.308798
 30
0.0
 11
163.493913
 21
9.415345
 31
0.0
  0
LINE
  5
4B8
330
1F
100
AcDbEntity
  8
001
370
     9
100
AcDbLine
 10
161.007857
 20
7.0
 30
0.0
 11
161.786913
 21
7.779056
 31
0.0
  0
LINE
  5
4B9
330
1F
100
AcDbEntity
  8
001
370
     9
100
AcDbLine
 10
162.316655
 20
8.308798
 30
0.0
 11
163.489324
 21
9.481467
 31
0.0
  0
LINE
  5
4BA
330
1F
100
AcDbEntity
  8
001
370
     9
100
AcDbLine
 10
160.937146
 20
7.0
 30
0.0
 11
161.716202
 21
7.779056
 31
0.0
  0
LINE
  5
4BB
330
1F
100
AcDbEntity
  8
001
370
     9
100
AcDbLine
 10
162.245944
 20
8.308798
 30
0.0
 11
163.483467
 21
9.546321
 31
0.0
  0
LINE
  5
4BC
330
1F
100
AcDbEntity
  8
001
370
     9
100
AcDbLine
 10
160.866436
 20
7.0
 30
0.0
 11
161.645491
 21
7.779056
 31
0.0
  0
LINE
  5
4BD
330
1F
100
AcDbEntity
  8
001
370
     9
100
AcDbLine
 10
162.175234
 20
8.308798
 30
0.0
 11
163.476044
 21
9.609608
 31
0.0
  0
LINE
  5
4BE
330
1F
100
AcDbEntity
  8
001
370
     9
100
AcDbLine
 10
160.795725
 20
7.0
 30
0.0
 11
161.574781
 21
7.779056
 31
0.0
  0
LINE
  5
4BF
330
1F
100
AcDbEntity
  8
001
370
     9
100
AcDbLine
 10
162.104523
 20
8.308798
 30
0.0
 11
163.466768
 21
9.671043
 31
0.0
  0
LINE
  5
4C0
330
1F
100
AcDbEntity
  8
001
370
     9
100
AcDbLine
 10
160.725014
 20
7.0
 30
0.0
 11
161.50407
 21
7.779056
 31
0.0
  0
LINE
  5
4C1
330
1F
100
AcDbEntity
  8
001
370
     9
100
AcDbLine
 10
162.033812
 20
8.308798
 30
0.0
 11
163.455417
 21
9.730403
 31
0.0
  0
LINE
  5
4C2
330
1F
100
AcDbEntity
  8
001
370
     9
100
AcDbLine
 10
160.654304
 20
7.0
 30
0.0
 11
161.433359
 21
7.779056
 31
0.0
  0
LINE
  5
4C3
330
1F
100
AcDbEntity
  8
001
370
     9
100
AcDbLine
 10
161.963102
 20
8.308798
 30
0.0
 11
163.441736
 21
9.787433
 31
0.0
  0
LINE
  5
4C4
330
1F
100
AcDbEntity
  8
001
370
     9
100
AcDbLine
 10
160.583593
 20
7.0
 30
0.0
 11
161.362649
 21
7.779056
 31
0.0
  0
LINE
  5
4C5
330
1F
100
AcDbEntity
  8
001
370
     9
100
AcDbLine
 10
161.892391
 20
8.308798
 30
0.0
 11
163.425856
 21
9.842263
 31
0.0
  0
LINE
  5
4C6
330
1F
100
AcDbEntity
  8
001
370
     9
100
AcDbLine
 10
160.512882
 20
7.0
 30
0.0
 11
161.291938
 21
7.779056
 31
0.0
  0
LINE
  5
4C7
330
1F
100
AcDbEntity
  8
001
370
     9
100
AcDbLine
 10
161.82168
 20
8.308798
 30
0.0
 11
163.407583
 21
9.894701
 31
0.0
  0
LINE
  5
4C8
330
1F
100
AcDbEntity
  8
001
370
     9
100
AcDbLine
 10
160.442172
 20
7.0
 30
0.0
 11
161.221227
 21
7.779056
 31
0.0
  0
LINE
  5
4C9
330
1F
100
AcDbEntity
  8
001
370
     9
100
AcDbLine
 10
161.75097
 20
8.308798
 30
0.0
 11
163.385985
 21
9.943814
 31
0.0
  0
LINE
  5
4CA
330
1F
100
AcDbEntity
  8
001
370
     9
100
AcDbLine
 10
160.371461
 20
7.0
 30
0.0
 11
161.150517
 21
7.779056
 31
0.0
  0
LINE
  5
4CB
330
1F
100
AcDbEntity
  8
001
370
     9
100
AcDbLine
 10
161.680259
 20
8.308798
 30
0.0
 11
163.35885
 21
9.98739
 31
0.0
  0
LINE
  5
4CC
330
1F
100
AcDbEntity
  8
001
370
     9
100
AcDbLine
 10
160.30075
 20
7.0
 30
0.0
 11
161.079806
 21
7.779056
 31
0.0
  0
LINE
  5
4CD
330
1F
100
AcDbEntity
  8
001
370
     9
100
AcDbLine
 10
161.609548
 20
8.308798
 30
0.0
 11
162.404162
 21
9.103412
 31
0.0
  0
LINE
  5
4CE
330
1F
100
AcDbEntity
  8
001
370
     9
100
AcDbLine
 10
162.438187
 20
9.137437
 30
0.0
 11
163.329997
 21
10.029247
 31
0.0
  0
LINE
  5
4CF
330
1F
100
AcDbEntity
  8
001
370
     9
100
AcDbLine
 10
160.230039
 20
7.0
 30
0.0
 11
161.009095
 21
7.779056
 31
0.0
  0
LINE
  5
4D0
330
1F
100
AcDbEntity
  8
001
370
     9
100
AcDbLine
 10
161.538838
 20
8.308798
 30
0.0
 11
162.333452
 21
9.103412
 31
0.0
  0
LINE
  5
4D1
330
1F
100
AcDbEntity
  8
001
370
     9
100
AcDbLine
 10
162.438187
 20
9.208147
 30
0.0
 11
163.301143
 21
10.071104
 31
0.0
  0
LINE
  5
4D2
330
1F
100
AcDbEntity
  8
001
370
     9
100
AcDbLine
 10
160.159329
 20
7.0
 30
0.0
 11
160.938385
 21
7.779056
 31
0.0
  0
LINE
  5
4D3
330
1F
100
AcDbEntity
  8
001
370
     9
100
AcDbLine
 10
161.468127
 20
8.308798
 30
0.0
 11
162.262741
 21
9.103412
 31
0.0
  0
LINE
  5
4D4
330
1F
100
AcDbEntity
  8
001
370
     9
100
AcDbLine
 10
162.438187
 20
9.278858
 30
0.0
 11
163.27229
 21
10.112961
 31
0.0
  0
LINE
  5
4D5
330
1F
100
AcDbEntity
  8
001
370
     9
100
AcDbLine
 10
160.088618
 20
7.0
 30
0.0
 11
160.867674
 21
7.779056
 31
0.0
  0
LINE
  5
4D6
330
1F
100
AcDbEntity
  8
001
370
     9
100
AcDbLine
 10
161.397416
 20
8.308798
 30
0.0
 11
162.19203
 21
9.103412
 31
0.0
  0
LINE
  5
4D7
330
1F
100
AcDbEntity
  8
001
370
     9
100
AcDbLine
 10
162.438187
 20
9.349569
 30
0.0
 11
163.240558
 21
10.15194
 31
0.0
  0
LINE
  5
4D8
330
1F
100
AcDbEntity
  8
001
370
     9
100
AcDbLine
 10
160.017907
 20
7.0
 30
0.0
 11
160.796963
 21
7.779056
 31
0.0
  0
LINE
  5
4D9
330
1F
100
AcDbEntity
  8
001
370
     9
100
AcDbLine
 10
161.326706
 20
8.308798
 30
0.0
 11
162.121319
 21
9.103412
 31
0.0
  0
LINE
  5
4DA
330
1F
100
AcDbEntity
  8
001
370
     9
100
AcDbLine
 10
162.438187
 20
9.420279
 30
0.0
 11
163.202865
 21
10.184958
 31
0.0
  0
LINE
  5
4DB
330
1F
100
AcDbEntity
  8
001
370
     9
100
AcDbLine
 10
159.947197
 20
7.0
 30
0.0
 11
160.726253
 21
7.779056
 31
0.0
  0
LINE
  5
4DC
330
1F
100
AcDbEntity
  8
001
370
     9
100
AcDbLine
 10
161.255995
 20
8.308798
 30
0.0
 11
162.050609
 21
9.103412
 31
0.0
  0
LINE
  5
4DD
330
1F
100
AcDbEntity
  8
001
370
     9
100
AcDbLine
 10
162.438187
 20
9.49099
 30
0.0
 11
163.165172
 21
10.217975
 31
0.0
  0
LINE
  5
4DE
330
1F
100
AcDbEntity
  8
001
370
     9
100
AcDbLine
 10
159.876486
 20
7.0
 30
0.0
 11
160.655542
 21
7.779056
 31
0.0
  0
LINE
  5
4DF
330
1F
100
AcDbEntity
  8
001
370
     9
100
AcDbLine
 10
161.185284
 20
8.308798
 30
0.0
 11
161.979898
 21
9.103412
 31
0.0
  0
LINE
  5
4E0
330
1F
100
AcDbEntity
  8
001
370
     9
100
AcDbLine
 10
162.431999
 20
9.555513
 30
0.0
 11
163.127479
 21
10.250993
 31
0.0
  0
LINE
  5
4E1
330
1F
100
AcDbEntity
  8
001
370
     9
100
AcDbLine
 10
159.805775
 20
7.0
 30
0.0
 11
160.584831
 21
7.779056
 31
0.0
  0
LINE
  5
4E2
330
1F
100
AcDbEntity
  8
001
370
     9
100
AcDbLine
 10
161.114574
 20
8.308798
 30
0.0
 11
161.909187
 21
9.103412
 31
0.0
  0
LINE
  5
4E3
330
1F
100
AcDbEntity
  8
001
370
     9
100
AcDbLine
 10
162.410529
 20
9.604754
 30
0.0
 11
163.087542
 21
10.281767
 31
0.0
  0
LINE
  5
4E4
330
1F
100
AcDbEntity
  8
001
370
     9
100
AcDbLine
 10
159.735065
 20
7.0
 30
0.0
 11
160.514121
 21
7.779056
 31
0.0
  0
LINE
  5
4E5
330
1F
100
AcDbEntity
  8
001
370
     9
100
AcDbLine
 10
161.043863
 20
8.308798
 30
0.0
 11
161.838477
 21
9.103412
 31
0.0
  0
LINE
  5
4E6
330
1F
100
AcDbEntity
  8
001
370
     9
100
AcDbLine
 10
162.378228
 20
9.643163
 30
0.0
 11
163.042549
 21
10.307485
 31
0.0
  0
LINE
  5
4E7
330
1F
100
AcDbEntity
  8
001
370
     9
100
AcDbLine
 10
159.664354
 20
7.0
 30
0.0
 11
160.44341
 21
7.779056
 31
0.0
  0
LINE
  5
4E8
330
1F
100
AcDbEntity
  8
001
370
     9
100
AcDbLine
 10
160.973152
 20
8.308798
 30
0.0
 11
161.767766
 21
9.103412
 31
0.0
  0
LINE
  5
4E9
330
1F
100
AcDbEntity
  8
001
370
     9
100
AcDbLine
 10
162.33592
 20
9.671566
 30
0.0
 11
162.996604
 21
10.33225
 31
0.0
  0
LINE
  5
4EA
330
1F
100
AcDbEntity
  8
001
370
     9
100
AcDbLine
 10
159.593643
 20
7.0
 30
0.0
 11
160.372699
 21
7.779056
 31
0.0
  0
LINE
  5
4EB
330
1F
100
AcDbEntity
  8
001
370
     9
100
AcDbLine
 10
160.902442
 20
8.308798
 30
0.0
 11
161.697055
 21
9.103412
 31
0.0
  0
LINE
  5
4EC
330
1F
100
AcDbEntity
  8
001
370
     9
100
AcDbLine
 10
162.281577
 20
9.687934
 30
0.0
 11
162.946967
 21
10.353324
 31
0.0
  0
LINE
  5
4ED
330
1F
100
AcDbEntity
  8
001
370
     9
100
AcDbLine
 10
159.522933
 20
7.0
 30
0.0
 11
160.301989
 21
7.779056
 31
0.0
  0
LINE
  5
4EE
330
1F
100
AcDbEntity
  8
001
370
     9
100
AcDbLine
 10
160.831731
 20
8.308798
 30
0.0
 11
161.626345
 21
9.103412
 31
0.0
  0
LINE
  5
4EF
330
1F
100
AcDbEntity
  8
001
370
     9
100
AcDbLine
 10
162.212516
 20
9.689584
 30
0.0
 11
162.896779
 21
10.373846
 31
0.0
  0
LINE
  5
4F0
330
1F
100
AcDbEntity
  8
001
370
     9
100
AcDbLine
 10
159.452222
 20
7.0
 30
0.0
 11
160.231278
 21
7.779056
 31
0.0
  0
LINE
  5
4F1
330
1F
100
AcDbEntity
  8
001
370
     9
100
AcDbLine
 10
160.76102
 20
8.308798
 30
0.0
 11
161.555634
 21
9.103412
 31
0.0
  0
LINE
  5
4F2
330
1F
100
AcDbEntity
  8
001
370
     9
100
AcDbLine
 10
162.141806
 20
9.689584
 30
0.0
 11
162.844056
 21
10.391834
 31
0.0
  0
LINE
  5
4F3
330
1F
100
AcDbEntity
  8
001
370
     9
100
AcDbLine
 10
159.381511
 20
7.0
 30
0.0
 11
160.160567
 21
7.779056
 31
0.0
  0
LINE
  5
4F4
330
1F
100
AcDbEntity
  8
001
370
     9
100
AcDbLine
 10
160.69031
 20
8.308798
 30
0.0
 11
161.484923
 21
9.103412
 31
0.0
  0
LINE
  5
4F5
330
1F
100
AcDbEntity
  8
001
370
     9
100
AcDbLine
 10
162.071095
 20
9.689584
 30
0.0
 11
162.789301
 21
10.40779
 31
0.0
  0
LINE
  5
4F6
330
1F
100
AcDbEntity
  8
001
370
     9
100
AcDbLine
 10
159.311265
 20
7.000465
 30
0.0
 11
160.089856
 21
7.779056
 31
0.0
  0
LINE
  5
4F7
330
1F
100
AcDbEntity
  8
001
370
     9
100
AcDbLine
 10
160.619599
 20
8.308798
 30
0.0
 11
161.414213
 21
9.103412
 31
0.0
  0
LINE
  5
4F8
330
1F
100
AcDbEntity
  8
001
370
     9
100
AcDbLine
 10
162.000384
 20
9.689584
 30
0.0
 11
162.732955
 21
10.422155
 31
0.0
  0
LINE
  5
4F9
330
1F
100
AcDbEntity
  8
001
370
     9
100
AcDbLine
 10
159.24195
 20
7.00186
 30
0.0
 11
160.019146
 21
7.779056
 31
0.0
  0
LINE
  5
4FA
330
1F
100
AcDbEntity
  8
001
370
     9
100
AcDbLine
 10
160.548888
 20
8.308798
 30
0.0
 11
161.343502
 21
9.103412
 31
0.0
  0
LINE
  5
4FB
330
1F
100
AcDbEntity
  8
001
370
     9
100
AcDbLine
 10
161.929674
 20
9.689584
 30
0.0
 11
162.67509
 21
10.435
 31
0.0
  0
LINE
  5
4FC
330
1F
100
AcDbEntity
  8
001
370
     9
100
AcDbLine
 10
159.173417
 20
7.004037
 30
0.0
 11
159.948435
 21
7.779056
 31
0.0
  0
LINE
  5
4FD
330
1F
100
AcDbEntity
  8
001
370
     9
100
AcDbLine
 10
160.478178
 20
8.308798
 30
0.0
 11
161.272791
 21
9.103412
 31
0.0
  0
LINE
  5
4FE
330
1F
100
AcDbEntity
  8
001
370
     9
100
AcDbLine
 10
161.858963
 20
9.689584
 30
0.0
 11
162.615842
 21
10.446463
 31
0.0
  0
LINE
  5
4FF
330
1F
100
AcDbEntity
  8
001
370
     9
100
AcDbLine
 10
159.106123
 20
7.007455
 30
0.0
 11
159.877724
 21
7.779056
 31
0.0
  0
LINE
  5
500
330
1F
100
AcDbEntity
  8
001
370
     9
100
AcDbLine
 10
160.407467
 20
8.308798
 30
0.0
 11
161.202081
 21
9.103412
 31
0.0
  0
LINE
  5
501
330
1F
100
AcDbEntity
  8
001
370
     9
100
AcDbLine
 10
161.788252
 20
9.689584
 30
0.0
 11
162.555019
 21
10.45635
 31
0.0
  0
LINE
  5
502
330
1F
100
AcDbEntity
  8
001
370
     9
100
AcDbLine
 10
159.040424
 20
7.012466
 30
0.0
 11
159.807014
 21
7.779056
 31
0.0
  0
LINE
  5
503
330
1F
100
AcDbEntity
  8
001
370
     9
100
AcDbLine
 10
160.336756
 20
8.308798
 30
0.0
 11
161.13137
 21
9.103412
 31
0.0
  0
LINE
  5
504
330
1F
100
AcDbEntity
  8
001
370
     9
100
AcDbLine
 10
161.717542
 20
9.689584
 30
0.0
 11
162.492466
 21
10.464508
 31
0.0
  0
LINE
  5
505
330
1F
100
AcDbEntity
  8
001
370
     9
100
AcDbLine
 10
158.976296
 20
7.019049
 30
0.0
 11
159.736303
 21
7.779056
 31
0.0
  0
LINE
  5
506
330
1F
100
AcDbEntity
  8
001
370
     9
100
AcDbLine
 10
160.266045
 20
8.308798
 30
0.0
 11
161.060659
 21
9.103412
 31
0.0
  0
LINE
  5
507
330
1F
100
AcDbEntity
  8
001
370
     9
100
AcDbLine
 10
161.646831
 20
9.689584
 30
0.0
 11
162.427994
 21
10.470747
 31
0.0
  0
LINE
  5
508
330
1F
100
AcDbEntity
  8
001
370
     9
100
AcDbLine
 10
158.913722
 20
7.027185
 30
0.0
 11
159.665592
 21
7.779056
 31
0.0
  0
LINE
  5
509
330
1F
100
AcDbEntity
  8
001
370
     9
100
AcDbLine
 10
160.195335
 20
8.308798
 30
0.0
 11
160.989949
 21
9.103412
 31
0.0
  0
LINE
  5
50A
330
1F
100
AcDbEntity
  8
001
370
     9
100
AcDbLine
 10
161.57612
 20
9.689584
 30
0.0
 11
162.361852
 21
10.475316
 31
0.0
  0
LINE
  5
50B
330
1F
100
AcDbEntity
  8
001
370
     9
100
AcDbLine
 10
158.852716
 20
7.03689
 30
0.0
 11
159.594882
 21
7.779056
 31
0.0
  0
LINE
  5
50C
330
1F
100
AcDbEntity
  8
001
370
     9
100
AcDbLine
 10
160.124624
 20
8.308798
 30
0.0
 11
160.919238
 21
9.103412
 31
0.0
  0
LINE
  5
50D
330
1F
100
AcDbEntity
  8
001
370
     9
100
AcDbLine
 10
161.50541
 20
9.689584
 30
0.0
 11
162.29328
 21
10.477454
 31
0.0
  0
LINE
  5
50E
330
1F
100
AcDbEntity
  8
001
370
     9
100
AcDbLine
 10
158.793291
 20
7.048175
 30
0.0
 11
159.524171
 21
7.779056
 31
0.0
  0
LINE
  5
50F
330
1F
100
AcDbEntity
  8
001
370
     9
100
AcDbLine
 10
160.053913
 20
8.308798
 30
0.0
 11
160.848527
 21
9.103412
 31
0.0
  0
LINE
  5
510
330
1F
100
AcDbEntity
  8
001
370
     9
100
AcDbLine
 10
161.434699
 20
9.689584
 30
0.0
 11
162.222569
 21
10.477454
 31
0.0
  0
LINE
  5
511
330
1F
100
AcDbEntity
  8
001
370
     9
100
AcDbLine
 10
158.735575
 20
7.06117
 30
0.0
 11
159.45346
 21
7.779056
 31
0.0
  0
LINE
  5
512
330
1F
100
AcDbEntity
  8
001
370
     9
100
AcDbLine
 10
159.983203
 20
8.308798
 30
0.0
 11
160.777817
 21
9.103412
 31
0.0
  0
LINE
  5
513
330
1F
100
AcDbEntity
  8
001
370
     9
100
AcDbLine
 10
161.363988
 20
9.689584
 30
0.0
 11
162.151859
 21
10.477454
 31
0.0
  0
LINE
  5
514
330
1F
100
AcDbEntity
  8
001
370
     9
100
AcDbLine
 10
158.679658
 20
7.075964
 30
0.0
 11
159.38275
 21
7.779056
 31
0.0
  0
LINE
  5
515
330
1F
100
AcDbEntity
  8
001
370
     9
100
AcDbLine
 10
159.912492
 20
8.308798
 30
0.0
 11
160.707106
 21
9.103412
 31
0.0
  0
LINE
  5
516
330
1F
100
AcDbEntity
  8
001
370
     9
100
AcDbLine
 10
161.293278
 20
9.689584
 30
0.0
 11
162.081148
 21
10.477454
 31
0.0
  0
LINE
  5
517
330
1F
100
AcDbEntity
  8
001
370
     9
100
AcDbLine
 10
158.625608
 20
7.092625
 30
0.0
 11
159.33884
 21
7.805857
 31
0.0
  0
LINE
  5
518
330
1F
100
AcDbEntity
  8
001
370
     9
100
AcDbLine
 10
159.841781
 20
8.308798
 30
0.0
 11
160.636395
 21
9.103412
 31
0.0
  0
LINE
  5
519
330
1F
100
AcDbEntity
  8
001
370
     9
100
AcDbLine
 10
161.222567
 20
9.689584
 30
0.0
 11
162.010437
 21
10.477454
 31
0.0
  0
LINE
  5
51A
330
1F
100
AcDbEntity
  8
001
370
     9
100
AcDbLine
 10
158.573635
 20
7.111363
 30
0.0
 11
159.33884
 21
7.876567
 31
0.0
  0
LINE
  5
51B
330
1F
100
AcDbEntity
  8
001
370
     9
100
AcDbLine
 10
159.771071
 20
8.308798
 30
0.0
 11
160.565685
 21
9.103412
 31
0.0
  0
LINE
  5
51C
330
1F
100
AcDbEntity
  8
001
370
     9
100
AcDbLine
 10
161.151856
 20
9.689584
 30
0.0
 11
161.939727
 21
10.477454
 31
0.0
  0
LINE
  5
51D
330
1F
100
AcDbEntity
  8
001
370
     9
100
AcDbLine
 10
158.52407
 20
7.132508
 30
0.0
 11
159.33884
 21
7.947278
 31
0.0
  0
LINE
  5
51E
330
1F
100
AcDbEntity
  8
001
370
     9
100
AcDbLine
 10
159.70036
 20
8.308798
 30
0.0
 11
160.494974
 21
9.103412
 31
0.0
  0
LINE
  5
51F
330
1F
100
AcDbEntity
  8
001
370
     9
100
AcDbLine
 10
161.081145
 20
9.689584
 30
0.0
 11
161.869016
 21
10.477454
 31
0.0
  0
LINE
  5
520
330
1F
100
AcDbEntity
  8
001
370
     9
100
AcDbLine
 10
158.479022
 20
7.158171
 30
0.0
 11
159.33884
 21
8.017989
 31
0.0
  0
LINE
  5
521
330
1F
100
AcDbEntity
  8
001
370
     9
100
AcDbLine
 10
159.629649
 20
8.308798
 30
0.0
 11
160.424263
 21
9.103412
 31
0.0
  0
LINE
  5
522
330
1F
100
AcDbEntity
  8
001
370
     9
100
AcDbLine
 10
161.010435
 20
9.689584
 30
0.0
 11
161.798305
 21
10.477454
 31
0.0
  0
LINE
  5
523
330
1F
100
AcDbEntity
  8
001
370
     9
100
AcDbLine
 10
158.433974
 20
7.183834
 30
0.0
 11
159.33884
 21
8.088699
 31
0.0
  0
LINE
  5
524
330
1F
100
AcDbEntity
  8
001
370
     9
100
AcDbLine
 10
159.558939
 20
8.308798
 30
0.0
 11
160.353553
 21
9.103412
 31
0.0
  0
LINE
  5
525
330
1F
100
AcDbEntity
  8
001
370
     9
100
AcDbLine
 10
160.939724
 20
9.689584
 30
0.0
 11
161.727595
 21
10.477454
 31
0.0
  0
LINE
  5
526
330
1F
100
AcDbEntity
  8
001
370
     9
100
AcDbLine
 10
158.392332
 20
7.212902
 30
0.0
 11
159.33884
 21
8.15941
 31
0.0
  0
LINE
  5
527
330
1F
100
AcDbEntity
  8
001
370
     9
100
AcDbLine
 10
159.488228
 20
8.308798
 30
0.0
 11
160.282842
 21
9.103412
 31
0.0
  0
LINE
  5
528
330
1F
100
AcDbEntity
  8
001
370
     9
100
AcDbLine
 10
160.869013
 20
9.689584
 30
0.0
 11
161.656884
 21
10.477454
 31
0.0
  0
LINE
  5
529
330
1F
100
AcDbEntity
  8
001
370
     9
100
AcDbLine
 10
158.353603
 20
7.244884
 30
0.0
 11
159.33884
 21
8.230121
 31
0.0
  0
LINE
  5
52A
330
1F
100
AcDbEntity
  8
001
370
     9
100
AcDbLine
 10
159.417517
 20
8.308798
 30
0.0
 11
160.212131
 21
9.103412
 31
0.0
  0
LINE
  5
52B
330
1F
100
AcDbEntity
  8
001
370
     9
100
AcDbLine
 10
160.798303
 20
9.689584
 30
0.0
 11
161.586173
 21
10.477454
 31
0.0
  0
LINE
  5
52C
330
1F
100
AcDbEntity
  8
001
370
     9
100
AcDbLine
 10
158.314874
 20
7.276865
 30
0.0
 11
159.33884
 21
8.300832
 31
0.0
  0
LINE
  5
52D
330
1F
100
AcDbEntity
  8
001
370
     9
100
AcDbLine
 10
159.346807
 20
8.308798
 30
0.0
 11
160.14142
 21
9.103412
 31
0.0
  0
LINE
  5
52E
330
1F
100
AcDbEntity
  8
001
370
     9
100
AcDbLine
 10
160.727592
 20
9.689584
 30
0.0
 11
161.515463
 21
10.477454
 31
0.0
  0
LINE
  5
52F
330
1F
100
AcDbEntity
  8
001
370
     9
100
AcDbLine
 10
158.280968
 20
7.31367
 30
0.0
 11
160.07071
 21
9.103412
 31
0.0
  0
LINE
  5
530
330
1F
100
AcDbEntity
  8
001
370
     9
100
AcDbLine
 10
160.656881
 20
9.689584
 30
0.0
 11
161.444752
 21
10.477454
 31
0.0
  0
LINE
  5
531
330
1F
100
AcDbEntity
  8
001
370
     9
100
AcDbLine
 10
158.24932
 20
7.352733
 30
0.0
 11
159.999999
 21
9.103412
 31
0.0
  0
LINE
  5
532
330
1F
100
AcDbEntity
  8
001
370
     9
100
AcDbLine
 10
160.586171
 20
9.689584
 30
0.0
 11
161.374041
 21
10.477454
 31
0.0
  0
LINE
  5
533
330
1F
100
AcDbEntity
  8
001
370
     9
100
AcDbLine
 10
158.222591
 20
7.396715
 30
0.0
 11
159.929288
 21
9.103412
 31
0.0
  0
LINE
  5
534
330
1F
100
AcDbEntity
  8
001
370
     9
100
AcDbLine
 10
160.51546
 20
9.689584
 30
0.0
 11
161.303331
 21
10.477454
 31
0.0
  0
LINE
  5
535
330
1F
100
AcDbEntity
  8
001
370
     9
100
AcDbLine
 10
158.196303
 20
7.441137
 30
0.0
 11
159.858578
 21
9.103412
 31
0.0
  0
LINE
  5
536
330
1F
100
AcDbEntity
  8
001
370
     9
100
AcDbLine
 10
160.444749
 20
9.689584
 30
0.0
 11
161.23262
 21
10.477454
 31
0.0
  0
LINE
  5
537
330
1F
100
AcDbEntity
  8
001
370
     9
100
AcDbLine
 10
158.175944
 20
7.491489
 30
0.0
 11
159.787867
 21
9.103412
 31
0.0
  0
LINE
  5
538
330
1F
100
AcDbEntity
  8
001
370
     9
100
AcDbLine
 10
160.374039
 20
9.689584
 30
0.0
 11
161.161909
 21
10.477454
 31
0.0
  0
LINE
  5
539
330
1F
100
AcDbEntity
  8
001
370
     9
100
AcDbLine
 10
158.159625
 20
7.545881
 30
0.0
 11
159.717156
 21
9.103412
 31
0.0
  0
LINE
  5
53A
330
1F
100
AcDbEntity
  8
001
370
     9
100
AcDbLine
 10
160.303328
 20
9.689584
 30
0.0
 11
161.091199
 21
10.477454
 31
0.0
  0
LINE
  5
53B
330
1F
100
AcDbEntity
  8
001
370
     9
100
AcDbLine
 10
158.147164
 20
7.604131
 30
0.0
 11
159.646446
 21
9.103412
 31
0.0
  0
LINE
  5
53C
330
1F
100
AcDbEntity
  8
001
370
     9
100
AcDbLine
 10
160.232617
 20
9.689584
 30
0.0
 11
161.020488
 21
10.477454
 31
0.0
  0
LINE
  5
53D
330
1F
100
AcDbEntity
  8
001
370
     9
100
AcDbLine
 10
158.138577
 20
7.666254
 30
0.0
 11
159.575735
 21
9.103412
 31
0.0
  0
LINE
  5
53E
330
1F
100
AcDbEntity
  8
001
370
     9
100
AcDbLine
 10
160.161907
 20
9.689584
 30
0.0
 11
160.949777
 21
10.477454
 31
0.0
  0
LINE
  5
53F
330
1F
100
AcDbEntity
  8
001
370
     9
100
AcDbLine
 10
158.135364
 20
7.733752
 30
0.0
 11
159.505024
 21
9.103412
 31
0.0
  0
LINE
  5
540
330
1F
100
AcDbEntity
  8
001
370
     9
100
AcDbLine
 10
160.091196
 20
9.689584
 30
0.0
 11
160.879067
 21
10.477454
 31
0.0
  0
LINE
  5
541
330
1F
100
AcDbEntity
  8
001
370
     9
100
AcDbLine
 10
158.134431
 20
7.803529
 30
0.0
 11
159.434314
 21
9.103412
 31
0.0
  0
LINE
  5
542
330
1F
100
AcDbEntity
  8
001
370
     9
100
AcDbLine
 10
160.020485
 20
9.689584
 30
0.0
 11
160.808356
 21
10.477454
 31
0.0
  0
LINE
  5
543
330
1F
100
AcDbEntity
  8
001
370
     9
100
AcDbLine
 10
158.134431
 20
7.87424
 30
0.0
 11
159.363603
 21
9.103412
 31
0.0
  0
LINE
  5
544
330
1F
100
AcDbEntity
  8
001
370
     9
100
AcDbLine
 10
159.949775
 20
9.689584
 30
0.0
 11
160.737645
 21
10.477454
 31
0.0
  0
LINE
  5
545
330
1F
100
AcDbEntity
  8
001
370
     9
100
AcDbLine
 10
158.134431
 20
7.94495
 30
0.0
 11
159.292098
 21
9.102618
 31
0.0
  0
LINE
  5
546
330
1F
100
AcDbEntity
  8
001
370
     9
100
AcDbLine
 10
159.879064
 20
9.689584
 30
0.0
 11
160.666935
 21
10.477454
 31
0.0
  0
LINE
  5
547
330
1F
100
AcDbEntity
  8
001
370
     9
100
AcDbLine
 10
158.134431
 20
8.015661
 30
0.0
 11
159.219718
 21
9.100949
 31
0.0
  0
LINE
  5
548
330
1F
100
AcDbEntity
  8
001
370
     9
100
AcDbLine
 10
159.808353
 20
9.689584
 30
0.0
 11
160.596224
 21
10.477454
 31
0.0
  0
LINE
  5
549
330
1F
100
AcDbEntity
  8
001
370
     9
100
AcDbLine
 10
158.134431
 20
8.086372
 30
0.0
 11
159.146235
 21
9.098176
 31
0.0
  0
LINE
  5
54A
330
1F
100
AcDbEntity
  8
001
370
     9
100
AcDbLine
 10
159.737643
 20
9.689584
 30
0.0
 11
160.525513
 21
10.477454
 31
0.0
  0
LINE
  5
54B
330
1F
100
AcDbEntity
  8
001
370
     9
100
AcDbLine
 10
158.134431
 20
8.157082
 30
0.0
 11
159.070808
 21
9.09346
 31
0.0
  0
LINE
  5
54C
330
1F
100
AcDbEntity
  8
001
370
     9
100
AcDbLine
 10
159.666932
 20
9.689584
 30
0.0
 11
160.454802
 21
10.477454
 31
0.0
  0
LINE
  5
54D
330
1F
100
AcDbEntity
  8
001
370
     9
100
AcDbLine
 10
158.134431
 20
8.227793
 30
0.0
 11
158.992999
 21
9.086362
 31
0.0
  0
LINE
  5
54E
330
1F
100
AcDbEntity
  8
001
370
     9
100
AcDbLine
 10
159.596221
 20
9.689584
 30
0.0
 11
160.384092
 21
10.477454
 31
0.0
  0
LINE
  5
54F
330
1F
100
AcDbEntity
  8
001
370
     9
100
AcDbLine
 10
158.134431
 20
8.298504
 30
0.0
 11
158.911885
 21
9.075958
 31
0.0
  0
LINE
  5
550
330
1F
100
AcDbEntity
  8
001
370
     9
100
AcDbLine
 10
159.525511
 20
9.689584
 30
0.0
 11
160.313381
 21
10.477454
 31
0.0
  0
LINE
  5
551
330
1F
100
AcDbEntity
  8
001
370
     9
100
AcDbLine
 10
158.135372
 20
8.370155
 30
0.0
 11
158.827283
 21
9.062066
 31
0.0
  0
LINE
  5
552
330
1F
100
AcDbEntity
  8
001
370
     9
100
AcDbLine
 10
159.4548
 20
9.689584
 30
0.0
 11
160.24267
 21
10.477454
 31
0.0
  0
LINE
  5
553
330
1F
100
AcDbEntity
  8
001
370
     9
100
AcDbLine
 10
158.139499
 20
8.444994
 30
0.0
 11
158.737139
 21
9.042634
 31
0.0
  0
LINE
  5
554
330
1F
100
AcDbEntity
  8
001
370
     9
100
AcDbLine
 10
159.384089
 20
9.689584
 30
0.0
 11
160.17196
 21
10.477454
 31
0.0
  0
LINE
  5
555
330
1F
100
AcDbEntity
  8
001
370
     9
100
AcDbLine
 10
158.153063
 20
8.529268
 30
0.0
 11
158.639249
 21
9.015454
 31
0.0
  0
LINE
  5
556
330
1F
100
AcDbEntity
  8
001
370
     9
100
AcDbLine
 10
159.313379
 20
9.689584
 30
0.0
 11
160.101249
 21
10.477454
 31
0.0
  0
LINE
  5
557
330
1F
100
AcDbEntity
  8
001
370
     9
100
AcDbLine
 10
158.183345
 20
8.63026
 30
0.0
 11
158.523881
 21
8.970796
 31
0.0
  0
LINE
  5
558
330
1F
100
AcDbEntity
  8
001
370
     9
100
AcDbLine
 10
159.242668
 20
9.689584
 30
0.0
 11
160.030538
 21
10.477454
 31
0.0
  0
LINE
  5
559
330
1F
100
AcDbEntity
  8
001
370
     9
100
AcDbLine
 10
159.171957
 20
9.689584
 30
0.0
 11
159.959828
 21
10.477454
 31
0.0
  0
LINE
  5
55A
330
1F
100
AcDbEntity
  8
001
370
     9
100
AcDbLine
 10
159.101246
 20
9.689584
 30
0.0
 11
159.889117
 21
10.477454
 31
0.0
  0
LINE
  5
55B
330
1F
100
AcDbEntity
  8
001
370
     9
100
AcDbLine
 10
159.030536
 20
9.689584
 30
0.0
 11
159.818406
 21
10.477454
 31
0.0
  0
LINE
  5
55C
330
1F
100
AcDbEntity
  8
001
370
     9
100
AcDbLine
 10
158.959825
 20
9.689584
 30
0.0
 11
159.747696
 21
10.477454
 31
0.0
  0
LINE
  5
55D
330
1F
100
AcDbEntity
  8
001
370
     9
100
AcDbLine
 10
158.889114
 20
9.689584
 30
0.0
 11
159.676985
 21
10.477454
 31
0.0
  0
LINE
  5
55E
330
1F
100
AcDbEntity
  8
001
370
     9
100
AcDbLine
 10
158.818404
 20
9.689584
 30
0.0
 11
159.606274
 21
10.477454
 31
0.0
  0
LINE
  5
55F
330
1F
100
AcDbEntity
  8
001
370
     9
100
AcDbLine
 10
158.747693
 20
9.689584
 30
0.0
 11
159.535564
 21
10.477454
 31
0.0
  0
LINE
  5
560
330
1F
100
AcDbEntity
  8
001
370
     9
100
AcDbLine
 10
158.676982
 20
9.689584
 30
0.0
 11
159.464853
 21
10.477454
 31
0.0
  0
LINE
  5
561
330
1F
100
AcDbEntity
  8
001
370
     9
100
AcDbLine
 10
158.606272
 20
9.689584
 30
0.0
 11
159.394142
 21
10.477454
 31
0.0
  0
LINE
  5
562
330
1F
100
AcDbEntity
  8
001
370
     9
100
AcDbLine
 10
158.535561
 20
9.689584
 30
0.0
 11
159.323432
 21
10.477454
 31
0.0
  0
LINE
  5
563
330
1F
100
AcDbEntity
  8
001
370
     9
100
AcDbLine
 10
158.46485
 20
9.689584
 30
0.0
 11
159.252721
 21
10.477454
 31
0.0
  0
LINE
  5
564
330
1F
100
AcDbEntity
  8
001
370
     9
100
AcDbLine
 10
158.39414
 20
9.689584
 30
0.0
 11
159.18201
 21
10.477454
 31
0.0
  0
LINE
  5
565
330
1F
100
AcDbEntity
  8
001
370
     9
100
AcDbLine
 10
158.323429
 20
9.689584
 30
0.0
 11
159.1113
 21
10.477454
 31
0.0
  0
LINE
  5
566
330
1F
100
AcDbEntity
  8
001
370
     9
100
AcDbLine
 10
158.252718
 20
9.689584
 30
0.0
 11
159.040589
 21
10.477454
 31
0.0
  0
LINE
  5
567
330
1F
100
AcDbEntity
  8
001
370
     9
100
AcDbLine
 10
158.214725
 20
9.7223
 30
0.0
 11
158.969878
 21
10.477454
 31
0.0
  0
LINE
  5
568
330
1F
100
AcDbEntity
  8
001
370
     9
100
AcDbLine
 10
158.214725
 20
9.793011
 30
0.0
 11
158.899168
 21
10.477454
 31
0.0
  0
LINE
  5
569
330
1F
100
AcDbEntity
  8
001
370
     9
100
AcDbLine
 10
158.214725
 20
9.863722
 30
0.0
 11
158.828457
 21
10.477454
 31
0.0
  0
LINE
  5
56A
330
1F
100
AcDbEntity
  8
001
370
     9
100
AcDbLine
 10
158.214725
 20
9.934433
 30
0.0
 11
158.757746
 21
10.477454
 31
0.0
  0
LINE
  5
56B
330
1F
100
AcDbEntity
  8
001
370
     9
100
AcDbLine
 10
158.214725
 20
10.005143
 30
0.0
 11
158.687036
 21
10.477454
 31
0.0
  0
LINE
  5
56C
330
1F
100
AcDbEntity
  8
001
370
     9
100
AcDbLine
 10
158.214725
 20
10.075854
 30
0.0
 11
158.616325
 21
10.477454
 31
0.0
  0
LINE
  5
56D
330
1F
100
AcDbEntity
  8
001
370
     9
100
AcDbLine
 10
158.214725
 20
10.146565
 30
0.0
 11
158.545614
 21
10.477454
 31
0.0
  0
LINE
  5
56E
330
1F
100
AcDbEntity
  8
001
370
     9
100
AcDbLine
 10
158.214725
 20
10.217275
 30
0.0
 11
158.474904
 21
10.477454
 31
0.0
  0
LINE
  5
56F
330
1F
100
AcDbEntity
  8
001
370
     9
100
AcDbLine
 10
158.214725
 20
10.287986
 30
0.0
 11
158.404193
 21
10.477454
 31
0.0
  0
LINE
  5
570
330
1F
100
AcDbEntity
  8
001
370
     9
100
AcDbLine
 10
158.214725
 20
10.358697
 30
0.0
 11
158.333482
 21
10.477454
 31
0.0
  0
LINE
  5
571
330
1F
100
AcDbEntity
  8
001
370
     9
100
AcDbLine
 10
158.214725
 20
10.429407
 30
0.0
 11
158.262771
 21
10.477454
 31
0.0
  0
LINE
  5
572
330
1F
100
AcDbEntity
  8
001
370
     9
100
AcDbLine
 10
143.704513
 20
7.162194
 30
0.0
 11
144.135862
 21
7.593543
 31
0.0
  0
LINE
  5
573
330
1F
100
AcDbEntity
  8
001
370
     9
100
AcDbLine
 10
143.563878
 20
7.092269
 30
0.0
 11
144.205787
 21
7.734179
 31
0.0
  0
LINE
  5
574
330
1F
100
AcDbEntity
  8
001
370
     9
100
AcDbLine
 10
143.453234
 20
7.052336
 30
0.0
 11
144.24572
 21
7.844822
 31
0.0
  0
LINE
  5
575
330
1F
100
AcDbEntity
  8
001
370
     9
100
AcDbLine
 10
143.357498
 20
7.027311
 30
0.0
 11
144.270746
 21
7.940558
 31
0.0
  0
LINE
  5
576
330
1F
100
AcDbEntity
  8
001
370
     9
100
AcDbLine
 10
143.27132
 20
7.011843
 30
0.0
 11
144.286213
 21
8.026736
 31
0.0
  0
LINE
  5
577
330
1F
100
AcDbEntity
  8
001
370
     9
100
AcDbLine
 10
143.192051
 20
7.003285
 30
0.0
 11
144.294772
 21
8.106006
 31
0.0
  0
LINE
  5
578
330
1F
100
AcDbEntity
  8
001
370
     9
100
AcDbLine
 10
143.118145
 20
7.000089
 30
0.0
 11
144.297967
 21
8.179911
 31
0.0
  0
LINE
  5
579
330
1F
100
AcDbEntity
  8
001
370
     9
100
AcDbLine
 10
143.047345
 20
7.0
 30
0.0
 11
144.298056
 21
8.250711
 31
0.0
  0
LINE
  5
57A
330
1F
100
AcDbEntity
  8
001
370
     9
100
AcDbLine
 10
142.976634
 20
7.0
 30
0.0
 11
144.298056
 21
8.321422
 31
0.0
  0
LINE
  5
57B
330
1F
100
AcDbEntity
  8
001
370
     9
100
AcDbLine
 10
142.905923
 20
7.0
 30
0.0
 11
144.298056
 21
8.392133
 31
0.0
  0
LINE
  5
57C
330
1F
100
AcDbEntity
  8
001
370
     9
100
AcDbLine
 10
142.835213
 20
7.0
 30
0.0
 11
144.298056
 21
8.462844
 31
0.0
  0
LINE
  5
57D
330
1F
100
AcDbEntity
  8
001
370
     9
100
AcDbLine
 10
142.764502
 20
7.0
 30
0.0
 11
144.298056
 21
8.533554
 31
0.0
  0
LINE
  5
57E
330
1F
100
AcDbEntity
  8
001
370
     9
100
AcDbLine
 10
142.693791
 20
7.0
 30
0.0
 11
144.298056
 21
8.604265
 31
0.0
  0
LINE
  5
57F
330
1F
100
AcDbEntity
  8
001
370
     9
100
AcDbLine
 10
142.623081
 20
7.0
 30
0.0
 11
144.298056
 21
8.674976
 31
0.0
  0
LINE
  5
580
330
1F
100
AcDbEntity
  8
001
370
     9
100
AcDbLine
 10
142.55237
 20
7.0
 30
0.0
 11
144.298056
 21
8.745686
 31
0.0
  0
LINE
  5
581
330
1F
100
AcDbEntity
  8
001
370
     9
100
AcDbLine
 10
142.481659
 20
7.0
 30
0.0
 11
144.298056
 21
8.816397
 31
0.0
  0
LINE
  5
582
330
1F
100
AcDbEntity
  8
001
370
     9
100
AcDbLine
 10
142.410949
 20
7.0
 30
0.0
 11
144.298056
 21
8.887108
 31
0.0
  0
LINE
  5
583
330
1F
100
AcDbEntity
  8
001
370
     9
100
AcDbLine
 10
142.340238
 20
7.0
 30
0.0
 11
144.298056
 21
8.957818
 31
0.0
  0
LINE
  5
584
330
1F
100
AcDbEntity
  8
001
370
     9
100
AcDbLine
 10
142.269527
 20
7.0
 30
0.0
 11
144.298056
 21
9.028529
 31
0.0
  0
LINE
  5
585
330
1F
100
AcDbEntity
  8
001
370
     9
100
AcDbLine
 10
142.198817
 20
7.0
 30
0.0
 11
144.298056
 21
9.09924
 31
0.0
  0
LINE
  5
586
330
1F
100
AcDbEntity
  8
001
370
     9
100
AcDbLine
 10
142.128106
 20
7.0
 30
0.0
 11
143.023263
 21
7.895157
 31
0.0
  0
LINE
  5
587
330
1F
100
AcDbEntity
  8
001
370
     9
100
AcDbLine
 10
143.183996
 20
8.05589
 30
0.0
 11
144.298056
 21
9.16995
 31
0.0
  0
LINE
  5
588
330
1F
100
AcDbEntity
  8
001
370
     9
100
AcDbLine
 10
142.057395
 20
7.0
 30
0.0
 11
142.952538
 21
7.895143
 31
0.0
  0
LINE
  5
589
330
1F
100
AcDbEntity
  8
001
370
     9
100
AcDbLine
 10
143.18401
 20
8.126615
 30
0.0
 11
144.298056
 21
9.240661
 31
0.0
  0
LINE
  5
58A
330
1F
100
AcDbEntity
  8
001
370
     9
100
AcDbLine
 10
141.986685
 20
7.0
 30
0.0
 11
142.881828
 21
7.895143
 31
0.0
  0
LINE
  5
58B
330
1F
100
AcDbEntity
  8
001
370
     9
100
AcDbLine
 10
143.18401
 20
8.197326
 30
0.0
 11
144.297879
 21
9.311194
 31
0.0
  0
LINE
  5
58C
330
1F
100
AcDbEntity
  8
001
370
     9
100
AcDbLine
 10
141.915974
 20
7.0
 30
0.0
 11
142.811117
 21
7.895143
 31
0.0
  0
LINE
  5
58D
330
1F
100
AcDbEntity
  8
001
370
     9
100
AcDbLine
 10
143.18401
 20
8.268036
 30
0.0
 11
144.294795
 21
9.378821
 31
0.0
  0
LINE
  5
58E
330
1F
100
AcDbEntity
  8
001
370
     9
100
AcDbLine
 10
141.845263
 20
7.0
 30
0.0
 11
142.740406
 21
7.895143
 31
0.0
  0
LINE
  5
58F
330
1F
100
AcDbEntity
  8
001
370
     9
100
AcDbLine
 10
143.18401
 20
8.338747
 30
0.0
 11
144.288292
 21
9.443029
 31
0.0
  0
LINE
  5
590
330
1F
100
AcDbEntity
  8
001
370
     9
100
AcDbLine
 10
141.774552
 20
7.0
 30
0.0
 11
142.669696
 21
7.895143
 31
0.0
  0
LINE
  5
591
330
1F
100
AcDbEntity
  8
001
370
     9
100
AcDbLine
 10
143.18401
 20
8.409458
 30
0.0
 11
144.278798
 21
9.504245
 31
0.0
  0
LINE
  5
592
330
1F
100
AcDbEntity
  8
001
370
     9
100
AcDbLine
 10
141.703842
 20
7.0
 30
0.0
 11
142.598985
 21
7.895143
 31
0.0
  0
LINE
  5
593
330
1F
100
AcDbEntity
  8
001
370
     9
100
AcDbLine
 10
143.18401
 20
8.480168
 30
0.0
 11
144.266634
 21
9.562792
 31
0.0
  0
LINE
  5
594
330
1F
100
AcDbEntity
  8
001
370
     9
100
AcDbLine
 10
141.633131
 20
7.0
 30
0.0
 11
142.528274
 21
7.895143
 31
0.0
  0
LINE
  5
595
330
1F
100
AcDbEntity
  8
001
370
     9
100
AcDbLine
 10
143.18401
 20
8.550879
 30
0.0
 11
144.252053
 21
9.618922
 31
0.0
  0
LINE
  5
596
330
1F
100
AcDbEntity
  8
001
370
     9
100
AcDbLine
 10
141.56242
 20
7.0
 30
0.0
 11
142.457564
 21
7.895143
 31
0.0
  0
LINE
  5
597
330
1F
100
AcDbEntity
  8
001
370
     9
100
AcDbLine
 10
143.18401
 20
8.62159
 30
0.0
 11
144.235254
 21
9.672834
 31
0.0
  0
LINE
  5
598
330
1F
100
AcDbEntity
  8
001
370
     9
100
AcDbLine
 10
141.49171
 20
7.0
 30
0.0
 11
142.386853
 21
7.895143
 31
0.0
  0
LINE
  5
599
330
1F
100
AcDbEntity
  8
001
370
     9
100
AcDbLine
 10
143.18401
 20
8.692301
 30
0.0
 11
144.216397
 21
9.724687
 31
0.0
  0
LINE
  5
59A
330
1F
100
AcDbEntity
  8
001
370
     9
100
AcDbLine
 10
141.420999
 20
7.0
 30
0.0
 11
142.316142
 21
7.895143
 31
0.0
  0
LINE
  5
59B
330
1F
100
AcDbEntity
  8
001
370
     9
100
AcDbLine
 10
143.18401
 20
8.763011
 30
0.0
 11
144.19561
 21
9.774611
 31
0.0
  0
LINE
  5
59C
330
1F
100
AcDbEntity
  8
001
370
     9
100
AcDbLine
 10
141.350288
 20
7.0
 30
0.0
 11
142.245432
 21
7.895143
 31
0.0
  0
LINE
  5
59D
330
1F
100
AcDbEntity
  8
001
370
     9
100
AcDbLine
 10
143.18401
 20
8.833722
 30
0.0
 11
144.173
 21
9.822711
 31
0.0
  0
LINE
  5
59E
330
1F
100
AcDbEntity
  8
001
370
     9
100
AcDbLine
 10
141.279578
 20
7.0
 30
0.0
 11
142.174721
 21
7.895143
 31
0.0
  0
LINE
  5
59F
330
1F
100
AcDbEntity
  8
001
370
     9
100
AcDbLine
 10
143.18401
 20
8.904433
 30
0.0
 11
144.148651
 21
9.869073
 31
0.0
  0
LINE
  5
5A0
330
1F
100
AcDbEntity
  8
001
370
     9
100
AcDbLine
 10
141.208867
 20
7.0
 30
0.0
 11
142.10401
 21
7.895143
 31
0.0
  0
LINE
  5
5A1
330
1F
100
AcDbEntity
  8
001
370
     9
100
AcDbLine
 10
143.18401
 20
8.975143
 30
0.0
 11
144.122634
 21
9.913767
 31
0.0
  0
LINE
  5
5A2
330
1F
100
AcDbEntity
  8
001
370
     9
100
AcDbLine
 10
141.138156
 20
7.0
 30
0.0
 11
142.033299
 21
7.895143
 31
0.0
  0
LINE
  5
5A3
330
1F
100
AcDbEntity
  8
001
370
     9
100
AcDbLine
 10
143.18401
 20
9.045854
 30
0.0
 11
144.095005
 21
9.956849
 31
0.0
  0
LINE
  5
5A4
330
1F
100
AcDbEntity
  8
001
370
     9
100
AcDbLine
 10
141.067446
 20
7.0
 30
0.0
 11
141.962589
 21
7.895143
 31
0.0
  0
LINE
  5
5A5
330
1F
100
AcDbEntity
  8
001
370
     9
100
AcDbLine
 10
143.18401
 20
9.116565
 30
0.0
 11
144.06581
 21
9.998364
 31
0.0
  0
LINE
  5
5A6
330
1F
100
AcDbEntity
  8
001
370
     9
100
AcDbLine
 10
140.996735
 20
7.0
 30
0.0
 11
141.891878
 21
7.895143
 31
0.0
  0
LINE
  5
5A7
330
1F
100
AcDbEntity
  8
001
370
     9
100
AcDbLine
 10
143.18401
 20
9.187275
 30
0.0
 11
144.035082
 21
10.038347
 31
0.0
  0
LINE
  5
5A8
330
1F
100
AcDbEntity
  8
001
370
     9
100
AcDbLine
 10
140.926024
 20
7.0
 30
0.0
 11
141.821167
 21
7.895143
 31
0.0
  0
LINE
  5
5A9
330
1F
100
AcDbEntity
  8
001
370
     9
100
AcDbLine
 10
143.18401
 20
9.257986
 30
0.0
 11
144.002846
 21
10.076822
 31
0.0
  0
LINE
  5
5AA
330
1F
100
AcDbEntity
  8
001
370
     9
100
AcDbLine
 10
140.855314
 20
7.0
 30
0.0
 11
141.750457
 21
7.895143
 31
0.0
  0
LINE
  5
5AB
330
1F
100
AcDbEntity
  8
001
370
     9
100
AcDbLine
 10
143.18401
 20
9.328697
 30
0.0
 11
143.96912
 21
10.113807
 31
0.0
  0
LINE
  5
5AC
330
1F
100
AcDbEntity
  8
001
370
     9
100
AcDbLine
 10
140.784603
 20
7.0
 30
0.0
 11
141.679746
 21
7.895143
 31
0.0
  0
LINE
  5
5AD
330
1F
100
AcDbEntity
  8
001
370
     9
100
AcDbLine
 10
143.18401
 20
9.399407
 30
0.0
 11
143.933912
 21
10.149309
 31
0.0
  0
LINE
  5
5AE
330
1F
100
AcDbEntity
  8
001
370
     9
100
AcDbLine
 10
140.713892
 20
7.0
 30
0.0
 11
141.609035
 21
7.895143
 31
0.0
  0
LINE
  5
5AF
330
1F
100
AcDbEntity
  8
001
370
     9
100
AcDbLine
 10
143.180651
 20
9.466759
 30
0.0
 11
143.897223
 21
10.183331
 31
0.0
  0
LINE
  5
5B0
330
1F
100
AcDbEntity
  8
001
370
     9
100
AcDbLine
 10
140.643182
 20
7.0
 30
0.0
 11
141.538325
 21
7.895143
 31
0.0
  0
LINE
  5
5B1
330
1F
100
AcDbEntity
  8
001
370
     9
100
AcDbLine
 10
143.160813
 20
9.517631
 30
0.0
 11
143.859046
 21
10.215864
 31
0.0
  0
LINE
  5
5B2
330
1F
100
AcDbEntity
  8
001
370
     9
100
AcDbLine
 10
140.572471
 20
7.0
 30
0.0
 11
141.467614
 21
7.895143
 31
0.0
  0
LINE
  5
5B3
330
1F
100
AcDbEntity
  8
001
370
     9
100
AcDbLine
 10
143.128663
 20
9.556192
 30
0.0
 11
143.819366
 21
10.246895
 31
0.0
  0
LINE
  5
5B4
330
1F
100
AcDbEntity
  8
001
370
     9
100
AcDbLine
 10
140.50176
 20
7.0
 30
0.0
 11
141.396903
 21
7.895143
 31
0.0
  0
LINE
  5
5B5
330
1F
100
AcDbEntity
  8
001
370
     9
100
AcDbLine
 10
143.085317
 20
9.583556
 30
0.0
 11
143.778158
 21
10.276398
 31
0.0
  0
LINE
  5
5B6
330
1F
100
AcDbEntity
  8
001
370
     9
100
AcDbLine
 10
140.43105
 20
7.0
 30
0.0
 11
141.326193
 21
7.895143
 31
0.0
  0
LINE
  5
5B7
330
1F
100
AcDbEntity
  8
001
370
     9
100
AcDbLine
 10
143.027659
 20
9.596609
 30
0.0
 11
143.735392
 21
10.304342
 31
0.0
  0
LINE
  5
5B8
330
1F
100
AcDbEntity
  8
001
370
     9
100
AcDbLine
 10
140.360339
 20
7.0
 30
0.0
 11
141.255482
 21
7.895143
 31
0.0
  0
LINE
  5
5B9
330
1F
100
AcDbEntity
  8
001
370
     9
100
AcDbLine
 10
142.957079
 20
9.59674
 30
0.0
 11
143.691023
 21
10.330684
 31
0.0
  0
LINE
  5
5BA
330
1F
100
AcDbEntity
  8
001
370
     9
100
AcDbLine
 10
140.289628
 20
7.0
 30
0.0
 11
141.184771
 21
7.895143
 31
0.0
  0
LINE
  5
5BB
330
1F
100
AcDbEntity
  8
001
370
     9
100
AcDbLine
 10
142.886369
 20
9.59674
 30
0.0
 11
143.644998
 21
10.35537
 31
0.0
  0
LINE
  5
5BC
330
1F
100
AcDbEntity
  8
001
370
     9
100
AcDbLine
 10
140.218918
 20
7.0
 30
0.0
 11
141.114061
 21
7.895143
 31
0.0
  0
LINE
  5
5BD
330
1F
100
AcDbEntity
  8
001
370
     9
100
AcDbLine
 10
142.815658
 20
9.59674
 30
0.0
 11
143.597251
 21
10.378333
 31
0.0
  0
LINE
  5
5BE
330
1F
100
AcDbEntity
  8
001
370
     9
100
AcDbLine
 10
140.148207
 20
7.0
 30
0.0
 11
141.04335
 21
7.895143
 31
0.0
  0
LINE
  5
5BF
330
1F
100
AcDbEntity
  8
001
370
     9
100
AcDbLine
 10
142.744947
 20
9.59674
 30
0.0
 11
143.547698
 21
10.399491
 31
0.0
  0
LINE
  5
5C0
330
1F
100
AcDbEntity
  8
001
370
     9
100
AcDbLine
 10
140.079304
 20
7.001808
 30
0.0
 11
140.972639
 21
7.895143
 31
0.0
  0
LINE
  5
5C1
330
1F
100
AcDbEntity
  8
001
370
     9
100
AcDbLine
 10
142.674236
 20
9.59674
 30
0.0
 11
143.496239
 21
10.418743
 31
0.0
  0
LINE
  5
5C2
330
1F
100
AcDbEntity
  8
001
370
     9
100
AcDbLine
 10
140.013992
 20
7.007207
 30
0.0
 11
140.901929
 21
7.895143
 31
0.0
  0
LINE
  5
5C3
330
1F
100
AcDbEntity
  8
001
370
     9
100
AcDbLine
 10
142.603526
 20
9.59674
 30
0.0
 11
143.442749
 21
10.435963
 31
0.0
  0
LINE
  5
5C4
330
1F
100
AcDbEntity
  8
001
370
     9
100
AcDbLine
 10
139.951803
 20
7.015728
 30
0.0
 11
140.831218
 21
7.895143
 31
0.0
  0
LINE
  5
5C5
330
1F
100
AcDbEntity
  8
001
370
     9
100
AcDbLine
 10
142.532815
 20
9.59674
 30
0.0
 11
143.387075
 21
10.451
 31
0.0
  0
LINE
  5
5C6
330
1F
100
AcDbEntity
  8
001
370
     9
100
AcDbLine
 10
139.892383
 20
7.027019
 30
0.0
 11
140.760507
 21
7.895143
 31
0.0
  0
LINE
  5
5C7
330
1F
100
AcDbEntity
  8
001
370
     9
100
AcDbLine
 10
142.462104
 20
9.59674
 30
0.0
 11
143.329028
 21
10.463664
 31
0.0
  0
LINE
  5
5C8
330
1F
100
AcDbEntity
  8
001
370
     9
100
AcDbLine
 10
139.835458
 20
7.040805
 30
0.0
 11
140.689797
 21
7.895143
 31
0.0
  0
LINE
  5
5C9
330
1F
100
AcDbEntity
  8
001
370
     9
100
AcDbLine
 10
142.391394
 20
9.59674
 30
0.0
 11
143.268367
 21
10.473713
 31
0.0
  0
LINE
  5
5CA
330
1F
100
AcDbEntity
  8
001
370
     9
100
AcDbLine
 10
139.780815
 20
7.056872
 30
0.0
 11
140.619086
 21
7.895143
 31
0.0
  0
LINE
  5
5CB
330
1F
100
AcDbEntity
  8
001
370
     9
100
AcDbLine
 10
142.320683
 20
9.59674
 30
0.0
 11
143.204785
 21
10.480842
 31
0.0
  0
LINE
  5
5CC
330
1F
100
AcDbEntity
  8
001
370
     9
100
AcDbLine
 10
139.72828
 20
7.075048
 30
0.0
 11
140.548375
 21
7.895143
 31
0.0
  0
LINE
  5
5CD
330
1F
100
AcDbEntity
  8
001
370
     9
100
AcDbLine
 10
142.249972
 20
9.59674
 30
0.0
 11
143.137879
 21
10.484647
 31
0.0
  0
LINE
  5
5CE
330
1F
100
AcDbEntity
  8
001
370
     9
100
AcDbLine
 10
139.677715
 20
7.095194
 30
0.0
 11
140.477665
 21
7.895143
 31
0.0
  0
LINE
  5
5CF
330
1F
100
AcDbEntity
  8
001
370
     9
100
AcDbLine
 10
142.179262
 20
9.59674
 30
0.0
 11
143.067663
 21
10.485141
 31
0.0
  0
LINE
  5
5D0
330
1F
100
AcDbEntity
  8
001
370
     9
100
AcDbLine
 10
139.629008
 20
7.117197
 30
0.0
 11
140.406954
 21
7.895143
 31
0.0
  0
LINE
  5
5D1
330
1F
100
AcDbEntity
  8
001
370
     9
100
AcDbLine
 10
142.108551
 20
9.59674
 30
0.0
 11
142.996952
 21
10.485141
 31
0.0
  0
LINE
  5
5D2
330
1F
100
AcDbEntity
  8
001
370
     9
100
AcDbLine
 10
139.582065
 20
7.140965
 30
0.0
 11
140.336243
 21
7.895143
 31
0.0
  0
LINE
  5
5D3
330
1F
100
AcDbEntity
  8
001
370
     9
100
AcDbLine
 10
142.03784
 20
9.59674
 30
0.0
 11
142.926241
 21
10.485141
 31
0.0
  0
LINE
  5
5D4
330
1F
100
AcDbEntity
  8
001
370
     9
100
AcDbLine
 10
139.536813
 20
7.166424
 30
0.0
 11
140.265533
 21
7.895143
 31
0.0
  0
LINE
  5
5D5
330
1F
100
AcDbEntity
  8
001
370
     9
100
AcDbLine
 10
141.96713
 20
9.59674
 30
0.0
 11
142.855531
 21
10.485141
 31
0.0
  0
LINE
  5
5D6
330
1F
100
AcDbEntity
  8
001
370
     9
100
AcDbLine
 10
139.493191
 20
7.193512
 30
0.0
 11
140.194822
 21
7.895143
 31
0.0
  0
LINE
  5
5D7
330
1F
100
AcDbEntity
  8
001
370
     9
100
AcDbLine
 10
141.896419
 20
9.59674
 30
0.0
 11
142.78482
 21
10.485141
 31
0.0
  0
LINE
  5
5D8
330
1F
100
AcDbEntity
  8
001
370
     9
100
AcDbLine
 10
139.451149
 20
7.222181
 30
0.0
 11
140.124111
 21
7.895143
 31
0.0
  0
LINE
  5
5D9
330
1F
100
AcDbEntity
  8
001
370
     9
100
AcDbLine
 10
141.825708
 20
9.59674
 30
0.0
 11
142.714109
 21
10.485141
 31
0.0
  0
LINE
  5
5DA
330
1F
100
AcDbEntity
  8
001
370
     9
100
AcDbLine
 10
139.410651
 20
7.252393
 30
0.0
 11
140.055991
 21
7.897734
 31
0.0
  0
LINE
  5
5DB
330
1F
100
AcDbEntity
  8
001
370
     9
100
AcDbLine
 10
141.754998
 20
9.59674
 30
0.0
 11
142.643399
 21
10.485141
 31
0.0
  0
LINE
  5
5DC
330
1F
100
AcDbEntity
  8
001
370
     9
100
AcDbLine
 10
139.371667
 20
7.28412
 30
0.0
 11
140.004136
 21
7.91659
 31
0.0
  0
LINE
  5
5DD
330
1F
100
AcDbEntity
  8
001
370
     9
100
AcDbLine
 10
141.684287
 20
9.59674
 30
0.0
 11
142.572688
 21
10.485141
 31
0.0
  0
LINE
  5
5DE
330
1F
100
AcDbEntity
  8
001
370
     9
100
AcDbLine
 10
139.334178
 20
7.317342
 30
0.0
 11
139.964827
 21
7.947991
 31
0.0
  0
LINE
  5
5DF
330
1F
100
AcDbEntity
  8
001
370
     9
100
AcDbLine
 10
141.613576
 20
9.59674
 30
0.0
 11
142.501977
 21
10.485141
 31
0.0
  0
LINE
  5
5E0
330
1F
100
AcDbEntity
  8
001
370
     9
100
AcDbLine
 10
139.298174
 20
7.352049
 30
0.0
 11
139.936673
 21
7.990548
 31
0.0
  0
LINE
  5
5E1
330
1F
100
AcDbEntity
  8
001
370
     9
100
AcDbLine
 10
141.542866
 20
9.59674
 30
0.0
 11
142.431267
 21
10.485141
 31
0.0
  0
LINE
  5
5E2
330
1F
100
AcDbEntity
  8
001
370
     9
100
AcDbLine
 10
139.26365
 20
7.388235
 30
0.0
 11
139.92241
 21
8.046995
 31
0.0
  0
LINE
  5
5E3
330
1F
100
AcDbEntity
  8
001
370
     9
100
AcDbLine
 10
141.472155
 20
9.59674
 30
0.0
 11
142.360556
 21
10.485141
 31
0.0
  0
LINE
  5
5E4
330
1F
100
AcDbEntity
  8
001
370
     9
100
AcDbLine
 10
139.230611
 20
7.425907
 30
0.0
 11
139.922035
 21
8.117331
 31
0.0
  0
LINE
  5
5E5
330
1F
100
AcDbEntity
  8
001
370
     9
100
AcDbLine
 10
141.401444
 20
9.59674
 30
0.0
 11
142.289845
 21
10.485141
 31
0.0
  0
LINE
  5
5E6
330
1F
100
AcDbEntity
  8
001
370
     9
100
AcDbLine
 10
139.19907
 20
7.465076
 30
0.0
 11
139.922035
 21
8.188042
 31
0.0
  0
LINE
  5
5E7
330
1F
100
AcDbEntity
  8
001
370
     9
100
AcDbLine
 10
141.330734
 20
9.59674
 30
0.0
 11
142.219135
 21
10.485141
 31
0.0
  0
LINE
  5
5E8
330
1F
100
AcDbEntity
  8
001
370
     9
100
AcDbLine
 10
139.169046
 20
7.505763
 30
0.0
 11
139.922035
 21
8.258753
 31
0.0
  0
LINE
  5
5E9
330
1F
100
AcDbEntity
  8
001
370
     9
100
AcDbLine
 10
141.260023
 20
9.59674
 30
0.0
 11
142.148424
 21
10.485141
 31
0.0
  0
LINE
  5
5EA
330
1F
100
AcDbEntity
  8
001
370
     9
100
AcDbLine
 10
139.140569
 20
7.547997
 30
0.0
 11
139.922035
 21
8.329464
 31
0.0
  0
LINE
  5
5EB
330
1F
100
AcDbEntity
  8
001
370
     9
100
AcDbLine
 10
141.189312
 20
9.59674
 30
0.0
 11
142.077713
 21
10.485141
 31
0.0
  0
LINE
  5
5EC
330
1F
100
AcDbEntity
  8
001
370
     9
100
AcDbLine
 10
139.113679
 20
7.591818
 30
0.0
 11
139.922035
 21
8.400174
 31
0.0
  0
LINE
  5
5ED
330
1F
100
AcDbEntity
  8
001
370
     9
100
AcDbLine
 10
141.118602
 20
9.59674
 30
0.0
 11
142.007003
 21
10.485141
 31
0.0
  0
LINE
  5
5EE
330
1F
100
AcDbEntity
  8
001
370
     9
100
AcDbLine
 10
139.088425
 20
7.637274
 30
0.0
 11
139.922035
 21
8.470885
 31
0.0
  0
LINE
  5
5EF
330
1F
100
AcDbEntity
  8
001
370
     9
100
AcDbLine
 10
141.047891
 20
9.59674
 30
0.0
 11
141.936292
 21
10.485141
 31
0.0
  0
LINE
  5
5F0
330
1F
100
AcDbEntity
  8
001
370
     9
100
AcDbLine
 10
139.064869
 20
7.684429
 30
0.0
 11
139.922035
 21
8.541596
 31
0.0
  0
LINE
  5
5F1
330
1F
100
AcDbEntity
  8
001
370
     9
100
AcDbLine
 10
140.97718
 20
9.59674
 30
0.0
 11
141.865581
 21
10.485141
 31
0.0
  0
LINE
  5
5F2
330
1F
100
AcDbEntity
  8
001
370
     9
100
AcDbLine
 10
139.04309
 20
7.73336
 30
0.0
 11
139.922035
 21
8.612306
 31
0.0
  0
LINE
  5
5F3
330
1F
100
AcDbEntity
  8
001
370
     9
100
AcDbLine
 10
140.90647
 20
9.59674
 30
0.0
 11
141.794871
 21
10.485141
 31
0.0
  0
LINE
  5
5F4
330
1F
100
AcDbEntity
  8
001
370
     9
100
AcDbLine
 10
139.02318
 20
7.784161
 30
0.0
 11
139.922035
 21
8.683017
 31
0.0
  0
LINE
  5
5F5
330
1F
100
AcDbEntity
  8
001
370
     9
100
AcDbLine
 10
140.835759
 20
9.59674
 30
0.0
 11
141.72416
 21
10.485141
 31
0.0
  0
LINE
  5
5F6
330
1F
100
AcDbEntity
  8
001
370
     9
100
AcDbLine
 10
139.005255
 20
7.836947
 30
0.0
 11
139.922035
 21
8.753728
 31
0.0
  0
LINE
  5
5F7
330
1F
100
AcDbEntity
  8
001
370
     9
100
AcDbLine
 10
140.765048
 20
9.59674
 30
0.0
 11
141.653449
 21
10.485141
 31
0.0
  0
LINE
  5
5F8
330
1F
100
AcDbEntity
  8
001
370
     9
100
AcDbLine
 10
138.989459
 20
7.891862
 30
0.0
 11
139.922035
 21
8.824438
 31
0.0
  0
LINE
  5
5F9
330
1F
100
AcDbEntity
  8
001
370
     9
100
AcDbLine
 10
140.694338
 20
9.59674
 30
0.0
 11
141.582739
 21
10.485141
 31
0.0
  0
LINE
  5
5FA
330
1F
100
AcDbEntity
  8
001
370
     9
100
AcDbLine
 10
138.975967
 20
7.949081
 30
0.0
 11
139.922035
 21
8.895149
 31
0.0
  0
LINE
  5
5FB
330
1F
100
AcDbEntity
  8
001
370
     9
100
AcDbLine
 10
140.623627
 20
9.59674
 30
0.0
 11
141.512028
 21
10.485141
 31
0.0
  0
LINE
  5
5FC
330
1F
100
AcDbEntity
  8
001
370
     9
100
AcDbLine
 10
138.965002
 20
8.008826
 30
0.0
 11
139.922035
 21
8.96586
 31
0.0
  0
LINE
  5
5FD
330
1F
100
AcDbEntity
  8
001
370
     9
100
AcDbLine
 10
140.552916
 20
9.59674
 30
0.0
 11
141.441317
 21
10.485141
 31
0.0
  0
LINE
  5
5FE
330
1F
100
AcDbEntity
  8
001
370
     9
100
AcDbLine
 10
138.956844
 20
8.071378
 30
0.0
 11
139.922035
 21
9.03657
 31
0.0
  0
LINE
  5
5FF
330
1F
100
AcDbEntity
  8
001
370
     9
100
AcDbLine
 10
140.482205
 20
9.59674
 30
0.0
 11
141.370607
 21
10.485141
 31
0.0
  0
LINE
  5
600
330
1F
100
AcDbEntity
  8
001
370
     9
100
AcDbLine
 10
138.95186
 20
8.137105
 30
0.0
 11
139.922035
 21
9.107281
 31
0.0
  0
LINE
  5
601
330
1F
100
AcDbEntity
  8
001
370
     9
100
AcDbLine
 10
140.411495
 20
9.59674
 30
0.0
 11
141.299896
 21
10.485141
 31
0.0
  0
LINE
  5
602
330
1F
100
AcDbEntity
  8
001
370
     9
100
AcDbLine
 10
138.950479
 20
8.206435
 30
0.0
 11
139.922035
 21
9.177992
 31
0.0
  0
LINE
  5
603
330
1F
100
AcDbEntity
  8
001
370
     9
100
AcDbLine
 10
140.340784
 20
9.59674
 30
0.0
 11
141.229185
 21
10.485141
 31
0.0
  0
LINE
  5
604
330
1F
100
AcDbEntity
  8
001
370
     9
100
AcDbLine
 10
138.950479
 20
8.277145
 30
0.0
 11
139.922035
 21
9.248702
 31
0.0
  0
LINE
  5
605
330
1F
100
AcDbEntity
  8
001
370
     9
100
AcDbLine
 10
140.270073
 20
9.59674
 30
0.0
 11
141.158475
 21
10.485141
 31
0.0
  0
LINE
  5
606
330
1F
100
AcDbEntity
  8
001
370
     9
100
AcDbLine
 10
138.950479
 20
8.347856
 30
0.0
 11
139.922035
 21
9.319413
 31
0.0
  0
LINE
  5
607
330
1F
100
AcDbEntity
  8
001
370
     9
100
AcDbLine
 10
140.199363
 20
9.59674
 30
0.0
 11
141.087764
 21
10.485141
 31
0.0
  0
LINE
  5
608
330
1F
100
AcDbEntity
  8
001
370
     9
100
AcDbLine
 10
138.950479
 20
8.418567
 30
0.0
 11
139.922035
 21
9.390124
 31
0.0
  0
LINE
  5
609
330
1F
100
AcDbEntity
  8
001
370
     9
100
AcDbLine
 10
140.128652
 20
9.59674
 30
0.0
 11
141.017053
 21
10.485141
 31
0.0
  0
LINE
  5
60A
330
1F
100
AcDbEntity
  8
001
370
     9
100
AcDbLine
 10
138.950479
 20
8.489277
 30
0.0
 11
139.924769
 21
9.463568
 31
0.0
  0
LINE
  5
60B
330
1F
100
AcDbEntity
  8
001
370
     9
100
AcDbLine
 10
140.055208
 20
9.594006
 30
0.0
 11
140.946342
 21
10.485141
 31
0.0
  0
LINE
  5
60C
330
1F
100
AcDbEntity
  8
001
370
     9
100
AcDbLine
 10
138.950479
 20
8.559988
 30
0.0
 11
140.875632
 21
10.485141
 31
0.0
  0
LINE
  5
60D
330
1F
100
AcDbEntity
  8
001
370
     9
100
AcDbLine
 10
138.950479
 20
8.630699
 30
0.0
 11
140.804921
 21
10.485141
 31
0.0
  0
LINE
  5
60E
330
1F
100
AcDbEntity
  8
001
370
     9
100
AcDbLine
 10
138.950479
 20
8.701409
 30
0.0
 11
140.73421
 21
10.485141
 31
0.0
  0
LINE
  5
60F
330
1F
100
AcDbEntity
  8
001
370
     9
100
AcDbLine
 10
138.950479
 20
8.77212
 30
0.0
 11
140.6635
 21
10.485141
 31
0.0
  0
LINE
  5
610
330
1F
100
AcDbEntity
  8
001
370
     9
100
AcDbLine
 10
138.950479
 20
8.842831
 30
0.0
 11
140.592789
 21
10.485141
 31
0.0
  0
LINE
  5
611
330
1F
100
AcDbEntity
  8
001
370
     9
100
AcDbLine
 10
138.950479
 20
8.913542
 30
0.0
 11
140.522078
 21
10.485141
 31
0.0
  0
LINE
  5
612
330
1F
100
AcDbEntity
  8
001
370
     9
100
AcDbLine
 10
138.950479
 20
8.984252
 30
0.0
 11
140.451368
 21
10.485141
 31
0.0
  0
LINE
  5
613
330
1F
100
AcDbEntity
  8
001
370
     9
100
AcDbLine
 10
138.950479
 20
9.054963
 30
0.0
 11
140.380657
 21
10.485141
 31
0.0
  0
LINE
  5
614
330
1F
100
AcDbEntity
  8
001
370
     9
100
AcDbLine
 10
138.950479
 20
9.125674
 30
0.0
 11
140.309946
 21
10.485141
 31
0.0
  0
LINE
  5
615
330
1F
100
AcDbEntity
  8
001
370
     9
100
AcDbLine
 10
138.950479
 20
9.196384
 30
0.0
 11
140.239236
 21
10.485141
 31
0.0
  0
LINE
  5
616
330
1F
100
AcDbEntity
  8
001
370
     9
100
AcDbLine
 10
138.950479
 20
9.267095
 30
0.0
 11
140.168525
 21
10.485141
 31
0.0
  0
LINE
  5
617
330
1F
100
AcDbEntity
  8
001
370
     9
100
AcDbLine
 10
138.95145
 20
9.338777
 30
0.0
 11
140.096843
 21
10.48417
 31
0.0
  0
LINE
  5
618
330
1F
100
AcDbEntity
  8
001
370
     9
100
AcDbLine
 10
138.956974
 20
9.415011
 30
0.0
 11
140.020609
 21
10.478646
 31
0.0
  0
LINE
  5
619
330
1F
100
AcDbEntity
  8
001
370
     9
100
AcDbLine
 10
138.968484
 20
9.497232
 30
0.0
 11
139.938388
 21
10.467136
 31
0.0
  0
LINE
  5
61A
330
1F
100
AcDbEntity
  8
001
370
     9
100
AcDbLine
 10
138.987933
 20
9.587392
 30
0.0
 11
139.848228
 21
10.447687
 31
0.0
  0
LINE
  5
61B
330
1F
100
AcDbEntity
  8
001
370
     9
100
AcDbLine
 10
139.018891
 20
9.68906
 30
0.0
 11
139.746559
 21
10.416729
 31
0.0
  0
LINE
  5
61C
330
1F
100
AcDbEntity
  8
001
370
     9
100
AcDbLine
 10
139.069478
 20
9.810358
 30
0.0
 11
139.625262
 21
10.366142
 31
0.0
  0
LINE
  5
61D
330
1F
100
AcDbEntity
  8
001
370
     9
100
AcDbLine
 10
139.172113
 20
9.983704
 30
0.0
 11
139.451916
 21
10.263507
 31
0.0
  0
LINE
  5
61E
330
1F
100
AcDbEntity
  8
001
 62
   134
370
     9
100
AcDbLine
 10
60.0
 20
195.0
 30
0.0
 11
60.0
 21
131.0
 31
0.0
  0
LINE
  5
61F
330
1F
100
AcDbEntity
  8
001
370
     9
100
AcDbLine
 10
90.0
 20
131.0
 30
0.0
 11
90.0
 21
195.0
 31
0.0
  0
LINE
  5
620
330
1F
100
AcDbEntity
  8
001
370
     9
100
AcDbLine
 10
90.0
 20
195.0
 30
0.0
 11
18.0
 21
195.0
 31
0.0
  0
LINE
  5
621
330
1F
100
AcDbEntity
  8
001
370
     9
100
AcDbLine
 10
18.0
 20
195.0
 30
0.0
 11
18.0
 21
131.0
 31
0.0
  0
LINE
  5
622
330
1F
100
AcDbEntity
  8
001
 62
   134
370
     9
100
AcDbLine
 10
18.0
 20
188.6
 30
0.0
 11
90.0
 21
188.6
 31
0.0
  0
LINE
  5
623
330
1F
100
AcDbEntity
  8
001
 62
   134
370
     9
100
AcDbLine
 10
90.0
 20
182.2
 30
0.0
 11
18.0
 21
182.2
 31
0.0
  0
LINE
  5
624
330
1F
100
AcDbEntity
  8
001
 62
   134
370
     9
100
AcDbLine
 10
18.0
 20
175.8
 30
0.0
 11
90.0
 21
175.8
 31
0.0
  0
LINE
  5
625
330
1F
100
AcDbEntity
  8
001
 62
   134
370
     9
100
AcDbLine
 10
90.0
 20
169.4
 30
0.0
 11
18.0
 21
169.4
 31
0.0
  0
LINE
  5
626
330
1F
100
AcDbEntity
  8
001
 62
   134
370
     9
100
AcDbLine
 10
18.0
 20
163.0
 30
0.0
 11
90.0
 21
163.0
 31
0.0
  0
LINE
  5
627
330
1F
100
AcDbEntity
  8
001
 62
   134
370
     9
100
AcDbLine
 10
90.0
 20
156.6
 30
0.0
 11
18.0
 21
156.6
 31
0.0
  0
LINE
  5
628
330
1F
100
AcDbEntity
  8
001
 62
   134
370
     9
100
AcDbLine
 10
18.0
 20
150.2
 30
0.0
 11
90.0
 21
150.2
 31
0.0
  0
LINE
  5
629
330
1F
100
AcDbEntity
  8
001
 62
   134
370
     9
100
AcDbLine
 10
90.0
 20
143.8
 30
0.0
 11
18.0
 21
143.8
 31
0.0
  0
LINE
  5
62A
330
1F
100
AcDbEntity
  8
001
 62
   134
370
     9
100
AcDbLine
 10
90.0
 20
137.4
 30
0.0
 11
18.0
 21
137.4
 31
0.0
  0
LINE
  5
62B
330
1F
100
AcDbEntity
  8
001
370
     9
100
AcDbLine
 10
90.0
 20
131.0
 30
0.0
 11
18.0
 21
131.0
 31
0.0
  0
TEXT
  5
62C
330
1F
100
AcDbEntity
  8
001
 62
   134
370
    30
100
AcDbText
 10
20.0
 20
145.4
 30
0.0
 40
3.2
  1
ＴＶディストーション
 41
0.850013
100
AcDbText
  0
TEXT
  5
62D
330
1F
100
AcDbEntity
  8
001
 62
   134
370
    30
100
AcDbText
 10
20.0
 20
190.2
 30
0.0
 40
3.2
  1
倍率
 41
0.850013
100
AcDbText
  0
TEXT
  5
62E
330
1F
100
AcDbEntity
  8
001
 62
   134
370
    30
100
AcDbText
 10
20.0
 20
183.8
 30
0.0
 40
3.2
  1
Ｏ／Ｉ
 41
0.850013
100
AcDbText
  0
TEXT
  5
62F
330
1F
100
AcDbEntity
  8
001
 62
   134
370
    30
100
AcDbText
 10
20.0
 20
177.4
 30
0.0
 40
3.2
  1
Ｗ．Ｄ．
 41
0.850013
100
AcDbText
  0
TEXT
  5
630
330
1F
100
AcDbEntity
  8
001
 62
   134
370
    30
100
AcDbText
 10
20.0
 20
171.0
 30
0.0
 40
3.2
  1
被写界深度
 41
0.850013
100
AcDbText
  0
TEXT
  5
631
330
1F
100
AcDbEntity
  8
001
 62
   134
370
    30
100
AcDbText
 10
20.0
 20
164.6
 30
0.0
 40
3.2
  1
分解能
 41
0.850013
100
AcDbText
  0
TEXT
  5
632
330
1F
100
AcDbEntity
  8
001
 62
   134
370
    30
100
AcDbText
 10
20.0
 20
158.2
 30
0.0
 40
3.2
  1
有効Ｆナンバー
 41
0.850013
100
AcDbText
  0
TEXT
  5
633
330
1F
100
AcDbEntity
  8
001
 62
   134
370
    30
100
AcDbText
 10
20.0
 20
151.8
 30
0.0
 40
3.2
  1
Ｎ．Ａ．
 41
0.850013
100
AcDbText
  0
TEXT
  5
634
330
1F
100
AcDbEntity
  8
001
 62
   134
370
    30
100
AcDbText
 10
20.0
 20
139.0
 30
0.0
 40
3.2
  1
重量
 41
0.850013
100
AcDbText
  0
TEXT
  5
635
330
1F
100
AcDbEntity
  8
001
 62
   134
370
    30
100
AcDbText
 10
20.0
 20
132.6
 30
0.0
 40
3.2
  1
対応素子サイズ
 41
0.850013
100
AcDbText
  0
TEXT
  5
636
330
1F
100
AcDbEntity
  8
001
 62
   134
370
    30
100
AcDbText
 10
69.24
 20
190.2
 30
0.0
 40
3.2
  1
４．０
 41
0.859091
100
AcDbText
  0
TEXT
  5
637
330
1F
100
AcDbEntity
  8
001
 62
   134
370
    30
100
AcDbText
 10
63.820813
 20
183.8
 30
0.0
 40
3.2
  1
２１８．９ｍｍ
 41
0.850013
100
AcDbText
  0
TEXT
  5
638
330
1F
100
AcDbEntity
  8
001
 62
   134
370
    30
100
AcDbText
 10
67.32
 20
171.0
 30
0.0
 40
3.2
  1
２１０μ
 41
0.850013
100
AcDbText
  0
TEXT
  5
639
330
1F
100
AcDbEntity
  8
001
 62
   134
370
    30
100
AcDbText
 10
65.831106
 20
164.6
 30
0.0
 40
3.2
  1
６．９９μ
 41
0.850013
100
AcDbText
  0
TEXT
  5
63A
330
1F
100
AcDbEntity
  8
001
 62
   134
370
    30
100
AcDbText
 10
65.930365
 20
158.2
 30
0.0
 40
3.2
  1
４１．４９
 41
0.850013
100
AcDbText
  0
TEXT
  5
63B
330
1F
100
AcDbEntity
  8
001
 62
   134
370
    30
100
AcDbText
 10
65.4
 20
151.8
 30
0.0
 40
3.2
  1
０．０４８
 41
0.850013
100
AcDbText
  0
TEXT
  5
63C
330
1F
100
AcDbEntity
  8
001
 62
   134
370
    30
100
AcDbText
 10
65.862231
 20
145.4
 30
0.0
 40
3.2
  1
０．０６％
 41
0.850013
100
AcDbText
  0
TEXT
  5
63D
330
1F
100
AcDbEntity
  8
001
 62
   134
370
    30
100
AcDbText
 10
67.885203
 20
132.6
 30
0.0
 40
3.2
  1
２／３″
 41
0.850013
100
AcDbText
  0
TEXT
  5
63E
330
1F
100
AcDbEntity
  8
001
 62
   134
370
    30
100
AcDbText
 10
67.101625
 20
177.4
 30
0.0
 40
3.2
  1
１１０ｍｍ
 41
0.827935
100
AcDbText
  0
TEXT
  5
63F
330
1F
100
AcDbEntity
  8
001
 62
     3
370
    30
100
AcDbText
 10
101.02
 20
40.95
 30
0.0
 40
3.6
  1
０００
 41
0.983072
100
AcDbText
  0
TEXT
  5
640
330
1F
100
AcDbEntity
  8
001
 62
     3
370
    30
100
AcDbText
 10
172.799999
 20
40.95
 30
0.0
 40
3.6
  1
１
 41
1.095492
100
AcDbText
  0
TEXT
  5
641
330
1F
100
AcDbEntity
  8
001
 62
     3
370
    30
100
AcDbText
 10
242.8251
 20
41.0
 30
0.0
 40
3.5
  1
サテン黒アルマイト
 41
0.847805
100
AcDbText
  0
TEXT
  5
642
330
1F
100
AcDbEntity
  8
001
 62
     3
370
    30
100
AcDbText
 10
192.202114
 20
41.0
 30
0.0
 40
3.5
  1
Ａ５０５２ＴＤ
 41
0.847805
100
AcDbText
  0
TEXT
  5
643
330
1F
100
AcDbEntity
  8
001
 62
     3
370
    30
100
AcDbText
 10
133.36
 20
41.082297
 30
0.0
 40
3.6
  1
組　立　図
 41
0.834642
100
AcDbText
  0
TEXT
  5
644
330
1F
100
AcDbEntity
  8
013
 62
     4
370
    30
100
AcDbText
 10
99.94
 20
34.925
 30
0.0
 40
3.15
  1
部品番号
 41
1.000734
100
AcDbText
  0
TEXT
  5
645
330
1F
100
AcDbEntity
  8
013
 62
     4
370
    30
100
AcDbText
 10
130.66
 20
34.925
 30
0.0
 40
3.2
  1
部　　品　　名
 41
0.850013
100
AcDbText
  0
TEXT
  5
646
330
1F
100
AcDbEntity
  8
013
 62
     4
370
    30
100
AcDbText
 10
170.22
 20
34.925
 30
0.0
 40
3.15
  1
個数
 41
0.980081
100
AcDbText
  0
TEXT
  5
647
330
1F
100
AcDbEntity
  8
013
 62
     4
370
    30
100
AcDbText
 10
196.94
 20
34.925
 30
0.0
 40
3.15
  1
材　　質
 41
0.980081
100
AcDbText
  0
TEXT
  5
648
330
1F
100
AcDbEntity
  8
013
 62
     4
370
    30
100
AcDbText
 10
247.477734
 20
34.925
 30
0.0
 40
3.15
  1
表　面　処　理
 41
0.829034
100
AcDbText
  0
TEXT
  5
649
330
1F
100
AcDbEntity
  8
001
370
    30
100
AcDbText
 10
239.910453
 20
27.599255
 30
0.0
 40
3.2
  1
ＫＣＭ－４Ｄ－１１０Ｃ
 41
0.828623
100
AcDbText
  0
TEXT
  5
64A
330
1F
100
AcDbEntity
  8
013
 62
     4
370
    30
100
AcDbText
 10
100.696
 20
15.15
 30
0.0
 40
2.7
  1
　三角法
 41
1.195283
100
AcDbText
  0
TEXT
  5
64B
330
1F
100
AcDbEntity
  8
013
 62
     4
370
    30
100
AcDbText
 10
103.742355
 20
29.925
 30
0.0
 40
3.15
  1
尺度
 41
1.210481
100
AcDbText
  0
TEXT
  5
64C
330
1F
100
AcDbEntity
  8
013
 62
     4
370
    30
100
AcDbText
 10
121.275
 20
29.925
 30
0.0
 40
3.15
  1
製　図
 41
0.843884
100
AcDbText
  0
TEXT
  5
64D
330
1F
100
AcDbEntity
  8
013
 62
     4
370
    30
100
AcDbText
 10
137.275
 20
29.925
 30
0.0
 40
3.15
  1
設　計
 41
0.843884
100
AcDbText
  0
TEXT
  5
64E
330
1F
100
AcDbEntity
  8
013
 62
     4
370
    30
100
AcDbText
 10
153.275
 20
29.925
 30
0.0
 40
3.15
  1
検　図
 41
0.843884
100
AcDbText
  0
TEXT
  5
64F
330
1F
100
AcDbEntity
  8
013
 62
     4
370
    30
100
AcDbText
 10
169.275
 20
29.925
 30
0.0
 40
3.15
  1
承　認
 41
0.858752
100
AcDbText
  0
TEXT
  5
650
330
1F
100
AcDbEntity
  8
013
 62
     4
370
    30
100
AcDbText
 10
16.91912
 20
17.674294
 30
0.0
 40
3.15
  1
日付
 41
0.980081
100
AcDbText
  0
TEXT
  5
651
330
1F
100
AcDbEntity
  8
013
 62
     4
370
    30
100
AcDbText
 10
12.899486
 20
24.849449
 30
0.0
 40
1.8
  1
符号
 41
0.846731
100
AcDbText
  0
TEXT
  5
652
330
1F
100
AcDbEntity
  8
013
 62
     4
370
    30
100
AcDbText
 10
19.928051
 20
24.482618
 30
0.0
 40
2.4
  1
年月日
 41
0.845893
100
AcDbText
  0
TEXT
  5
653
330
1F
100
AcDbEntity
  8
013
 62
     4
370
    30
100
AcDbText
 10
31.612385
 20
24.549449
 30
0.0
 40
2.4
  1
担当
 41
0.828965
100
AcDbText
  0
TEXT
  5
654
330
1F
100
AcDbEntity
  8
001
 62
     4
370
    30
100
AcDbText
 10
40.862
 20
17.285
 30
0.0
 40
3.43
  1
２０１２年　２月　８日
 41
1.020239
100
AcDbText
  0
TEXT
  5
655
330
1F
100
AcDbEntity
  8
013
 62
     4
370
    30
100
AcDbText
 10
55.053437
 20
24.510829
 30
0.0
 40
2.4
  1
訂　正　記　事
 41
0.816405
100
AcDbText
  0
TEXT
  5
656
330
1F
100
AcDbEntity
  8
001
 62
     3
370
    30
100
AcDbText
 10
124.026146
 20
20.5
 30
0.0
 40
4.0
  1
原
 41
0.990922
100
AcDbText
  0
TEXT
  5
657
330
1F
100
AcDbEntity
  8
001
 62
     3
370
    30
100
AcDbText
 10
140.026146
 20
20.5
 30
0.0
 40
4.0
  1
関
 41
0.990922
100
AcDbText
  0
TEXT
  5
658
330
1F
100
AcDbEntity
  8
001
 62
     3
370
    30
100
AcDbText
 10
121.8
 20
17.0
 30
0.0
 40
1.5
  1
１２／０２／０８
 41
0.583333
100
AcDbText
  0
TEXT
  5
659
330
1F
100
AcDbEntity
  8
001
 62
     3
370
    30
100
AcDbText
 10
137.8
 20
17.0
 30
0.0
 40
1.5
  1
１２／０２／０８
 41
0.583333
100
AcDbText
  0
TEXT
  5
65A
330
1F
100
AcDbEntity
  8
001
 62
     3
370
    30
100
AcDbText
 10
156.026146
 20
20.5
 30
0.0
 40
4.0
  1
関
 41
0.990922
100
AcDbText
  0
TEXT
  5
65B
330
1F
100
AcDbEntity
  8
001
 62
     3
370
    30
100
AcDbText
 10
153.8
 20
17.0
 30
0.0
 40
1.5
  1
１２／０２／０８
 41
0.583333
100
AcDbText
  0
TEXT
  5
65C
330
1F
100
AcDbEntity
  8
001
 62
     3
370
    30
100
AcDbText
 10
172.026146
 20
20.5
 30
0.0
 40
4.0
  1
関
 41
0.990922
100
AcDbText
  0
TEXT
  5
65D
330
1F
100
AcDbEntity
  8
001
 62
     3
370
    30
100
AcDbText
 10
169.8
 20
17.0
 30
0.0
 40
1.5
  1
１２／０２／０８
 41
0.583333
100
AcDbText
  0
TEXT
  5
65E
330
1F
100
AcDbEntity
  8
001
 62
     3
370
    30
100
AcDbText
 10
200.200001
 20
17.0
 30
0.0
 40
3.2
  1
C0.1
 41
1.2
100
AcDbText
  0
TEXT
  5
65F
330
1F
100
AcDbEntity
  8
001
370
    30
100
AcDbText
 10
241.793121
 20
16.98311
 30
0.0
 40
4.0
  1
ＫＶＴ－１０２５
 41
0.828623
100
AcDbText
  0
TEXT
  5
660
330
1F
100
AcDbEntity
  8
001
 62
   134
370
    30
100
AcDbText
 10
71.16
 20
139.0
 30
0.0
 40
3.2
  1
５５
 41
0.827935
100
AcDbText
  0
TEXT
  5
661
330
1F
100
AcDbEntity
  8
001
 62
     3
370
    30
100
AcDbText
 10
101.695832
 20
21.966
 30
0.0
 40
3.5
  1
1/1
 41
1.222971
100
AcDbText
  0
LINE
  5
662
330
1F
100
AcDbEntity
  8
001
370
     9
100
AcDbLine
 10
184.657867
 20
101.145929
 30
0.0
 11
184.657867
 21
88.445929
 31
0.0
  0
LINE
  5
663
330
1F
100
AcDbEntity
  8
001
370
     9
100
AcDbLine
 10
183.657867
 20
101.145929
 30
0.0
 11
183.657867
 21
85.945929
 31
0.0
  0
LINE
  5
664
330
1F
100
AcDbEntity
  8
001
370
     9
100
AcDbLine
 10
177.157867
 20
101.145929
 30
0.0
 11
177.157867
 21
86.145929
 31
0.0
  0
LINE
  5
665
330
1F
100
AcDbEntity
  8
001
370
     9
100
AcDbLine
 10
187.057867
 20
88.445929
 30
0.0
 11
184.657867
 21
88.445929
 31
0.0
  0
LINE
  5
666
330
1F
100
AcDbEntity
  8
001
370
     9
100
AcDbLine
 10
187.057867
 20
88.445929
 30
0.0
 11
187.657867
 21
89.045929
 31
0.0
  0
LINE
  5
667
330
1F
100
AcDbEntity
  8
001
370
     9
100
AcDbLine
 10
187.057867
 20
88.445929
 30
0.0
 11
187.057867
 21
101.145929
 31
0.0
  0
LINE
  5
668
330
1F
100
AcDbEntity
  8
001
370
     9
100
AcDbLine
 10
183.357867
 20
85.645929
 30
0.0
 11
177.657867
 21
85.645929
 31
0.0
  0
LINE
  5
669
330
1F
100
AcDbEntity
  8
001
370
     9
100
AcDbLine
 10
183.657867
 20
85.945929
 30
0.0
 11
183.357867
 21
85.645929
 31
0.0
  0
LINE
  5
66A
330
1F
100
AcDbEntity
  8
001
370
     9
100
AcDbLine
 10
177.657867
 20
85.645929
 30
0.0
 11
177.157867
 21
86.145929
 31
0.0
  0
LINE
  5
66B
330
1F
100
AcDbEntity
  8
001
370
     9
100
AcDbLine
 10
177.657867
 20
85.645929
 30
0.0
 11
177.657867
 21
101.145929
 31
0.0
  0
LINE
  5
66C
330
1F
100
AcDbEntity
  8
001
370
     9
100
AcDbLine
 10
183.357867
 20
85.645929
 30
0.0
 11
183.357867
 21
101.145929
 31
0.0
  0
LINE
  5
66D
330
1F
100
AcDbEntity
  8
001
370
     9
100
AcDbLine
 10
187.657867
 20
89.045929
 30
0.0
 11
187.657867
 21
101.145929
 31
0.0
  0
LINE
  5
66E
330
1F
100
AcDbEntity
  8
001
 62
    40
370
     9
100
AcDbLine
 10
92.537867
 20
108.845929
 30
0.0
 11
92.537867
 21
101.145929
 31
0.0
  0
LINE
  5
66F
330
1F
100
AcDbEntity
  8
001
 62
    40
370
     9
100
AcDbLine
 10
92.837867
 20
109.145929
 30
0.0
 11
92.837867
 21
101.145929
 31
0.0
  0
LINE
  5
670
330
1F
100
AcDbEntity
  8
001
 62
    40
370
     9
100
AcDbLine
 10
116.967867
 20
109.145929
 30
0.0
 11
116.967867
 21
101.145929
 31
0.0
  0
LINE
  5
671
330
1F
100
AcDbEntity
  8
001
 62
    40
370
     9
100
AcDbLine
 10
92.537867
 20
93.445929
 30
0.0
 11
92.537867
 21
101.145929
 31
0.0
  0
LINE
  5
672
330
1F
100
AcDbEntity
  8
005
 62
    40
370
     9
100
AcDbLine
 10
133.167867
 20
93.145929
 30
0.0
 11
177.157867
 21
93.145929
 31
0.0
  0
LINE
  5
673
330
1F
100
AcDbEntity
  8
003
 62
    40
370
     9
100
AcDbLine
 10
92.837867
 20
93.145929
 30
0.0
 11
116.967867
 21
93.145929
 31
0.0
  0
LINE
  5
674
330
1F
100
AcDbEntity
  8
003
 62
    40
370
     9
100
AcDbLine
 10
116.967867
 20
93.145929
 30
0.0
 11
117.067867
 21
93.245929
 31
0.0
  0
LINE
  5
675
330
1F
100
AcDbEntity
  8
005
 62
    40
370
     9
100
AcDbLine
 10
133.167867
 20
93.145929
 30
0.0
 11
133.067867
 21
93.245929
 31
0.0
  0
LINE
  5
676
330
1F
100
AcDbEntity
  8
001
 62
    40
370
     9
100
AcDbLine
 10
92.537867
 20
93.445929
 30
0.0
 11
92.837867
 21
93.145929
 31
0.0
  0
LINE
  5
677
330
1F
100
AcDbEntity
  8
001
 62
    40
370
     9
100
AcDbLine
 10
92.837867
 20
93.145929
 30
0.0
 11
92.837867
 21
101.145929
 31
0.0
  0
LINE
  5
678
330
1F
100
AcDbEntity
  8
001
 62
    40
370
     9
100
AcDbLine
 10
116.967867
 20
93.145929
 30
0.0
 11
116.967867
 21
101.145929
 31
0.0
  0
LINE
  5
679
330
1F
100
AcDbEntity
  8
001
 62
   140
370
     9
100
AcDbLine
 10
133.067867
 20
92.445929
 30
0.0
 11
133.067867
 21
101.145929
 31
0.0
  0
LINE
  5
67A
330
1F
100
AcDbEntity
  8
001
 62
   140
370
     9
100
AcDbLine
 10
117.067867
 20
92.445929
 30
0.0
 11
117.067867
 21
101.145929
 31
0.0
  0
LINE
  5
67B
330
1F
100
AcDbEntity
  8
001
370
     9
100
AcDbLine
 10
26.578055
 20
101.145929
 30
0.0
 11
26.578055
 21
99.508689
 31
0.0
  0
LINE
  5
67C
330
1F
100
AcDbEntity
  8
001
370
     9
100
AcDbLine
 10
26.578055
 20
101.145929
 30
0.0
 11
26.578055
 21
102.78317
 31
0.0
  0
LINE
  5
67D
330
1F
100
AcDbEntity
  8
001
370
     9
100
AcDbLine
 10
184.657867
 20
88.895929
 30
0.0
 11
183.657867
 21
88.895929
 31
0.0
  0
LINE
  5
67E
330
1F
100
AcDbEntity
  8
001
370
     9
100
AcDbLine
 10
184.657867
 20
88.895929
 30
0.0
 11
187.507867
 21
88.895929
 31
0.0
  0
CIRCLE
  5
67F
330
1F
100
AcDbEntity
  8
001
370
     9
100
AcDbCircle
 10
180.457867
 20
101.145929
 30
0.0
 40
1.25
  0
CIRCLE
  5
680
330
1F
100
AcDbEntity
  8
001
370
     9
100
AcDbCircle
 10
180.457867
 20
101.145929
 30
0.0
 40
1.500000000000114
  0
LINE
  5
681
330
1F
100
AcDbEntity
  8
001
  6
CENTER
 62
     3
370
     9
100
AcDbLine
 10
180.457867
 20
104.145929
 30
0.0
 11
180.457867
 21
98.145929
 31
0.0
  0
LINE
  5
682
330
1F
100
AcDbEntity
  8
001
370
     9
100
AcDbLine
 10
184.657867
 20
101.145929
 30
0.0
 11
184.657867
 21
113.845929
 31
0.0
  0
LINE
  5
683
330
1F
100
AcDbEntity
  8
001
370
     9
100
AcDbLine
 10
183.657867
 20
101.145929
 30
0.0
 11
183.657867
 21
116.345929
 31
0.0
  0
LINE
  5
684
330
1F
100
AcDbEntity
  8
001
370
     9
100
AcDbLine
 10
177.157867
 20
101.145929
 30
0.0
 11
177.157867
 21
116.145929
 31
0.0
  0
LINE
  5
685
330
1F
100
AcDbEntity
  8
001
370
     9
100
AcDbLine
 10
187.057867
 20
113.845929
 30
0.0
 11
187.057867
 21
101.145929
 31
0.0
  0
LINE
  5
686
330
1F
100
AcDbEntity
  8
001
370
     9
100
AcDbLine
 10
177.657867
 20
116.645929
 30
0.0
 11
177.657867
 21
101.145929
 31
0.0
  0
LINE
  5
687
330
1F
100
AcDbEntity
  8
001
370
     9
100
AcDbLine
 10
183.357867
 20
116.645929
 30
0.0
 11
183.357867
 21
101.145929
 31
0.0
  0
LINE
  5
688
330
1F
100
AcDbEntity
  8
001
370
     9
100
AcDbLine
 10
187.657867
 20
113.245929
 30
0.0
 11
187.657867
 21
101.145929
 31
0.0
  0
LINE
  5
689
330
1F
100
AcDbEntity
  8
001
 62
    40
370
     9
100
AcDbLine
 10
133.067867
 20
109.045929
 30
0.0
 11
133.067867
 21
101.145929
 31
0.0
  0
LINE
  5
68A
330
1F
100
AcDbEntity
  8
001
 62
    40
370
     9
100
AcDbLine
 10
117.067867
 20
109.045929
 30
0.0
 11
117.067867
 21
101.145929
 31
0.0
  0
LINE
  5
68B
330
1F
100
AcDbEntity
  8
001
 62
   140
370
     9
100
AcDbLine
 10
118.567867
 20
123.645929
 30
0.0
 11
131.567867
 21
123.645929
 31
0.0
  0
LINE
  5
68C
330
1F
100
AcDbEntity
  8
001
 62
   140
370
     9
100
AcDbLine
 10
118.067867
 20
123.145929
 30
0.0
 11
118.567867
 21
123.645929
 31
0.0
  0
LINE
  5
68D
330
1F
100
AcDbEntity
  8
001
 62
   140
370
     9
100
AcDbLine
 10
117.067867
 20
110.845929
 30
0.0
 11
117.367867
 21
111.145929
 31
0.0
  0
LINE
  5
68E
330
1F
100
AcDbEntity
  8
001
 62
   140
370
     9
100
AcDbLine
 10
125.067867
 20
111.145929
 30
0.0
 11
117.367867
 21
111.145929
 31
0.0
  0
LINE
  5
68F
330
1F
100
AcDbEntity
  8
001
 62
   140
370
     9
100
AcDbLine
 10
118.067867
 20
123.145929
 30
0.0
 11
125.067867
 21
123.145929
 31
0.0
  0
LINE
  5
690
330
1F
100
AcDbEntity
  8
003
 62
    40
370
     9
100
AcDbLine
 10
92.837867
 20
109.145929
 30
0.0
 11
116.967867
 21
109.145929
 31
0.0
  0
LINE
  5
691
330
1F
100
AcDbEntity
  8
003
 62
    40
370
     9
100
AcDbLine
 10
116.967867
 20
109.145929
 30
0.0
 11
117.067867
 21
109.045929
 31
0.0
  0
LINE
  5
692
330
1F
100
AcDbEntity
  8
001
 62
    40
370
     9
100
AcDbLine
 10
92.537867
 20
108.845929
 30
0.0
 11
92.837867
 21
109.145929
 31
0.0
  0
LINE
  5
693
330
1F
100
AcDbEntity
  8
005
 62
    40
370
     9
100
AcDbLine
 10
133.167867
 20
109.145929
 30
0.0
 11
177.157867
 21
109.145929
 31
0.0
  0
LINE
  5
694
330
1F
100
AcDbEntity
  8
005
 62
    40
370
     9
100
AcDbLine
 10
133.167867
 20
109.145929
 30
0.0
 11
133.067867
 21
109.045929
 31
0.0
  0
LINE
  5
695
330
1F
100
AcDbEntity
  8
001
 62
   140
370
     9
100
AcDbLine
 10
117.067867
 20
93.208676
 30
0.0
 11
133.067867
 21
93.208676
 31
0.0
  0
LINE
  5
696
330
1F
100
AcDbEntity
  8
001
 62
   140
370
     9
100
AcDbLine
 10
117.367867
 20
92.145929
 30
0.0
 11
132.767867
 21
92.145929
 31
0.0
  0
LINE
  5
697
330
1F
100
AcDbEntity
  8
001
 62
   140
370
     9
100
AcDbLine
 10
132.767867
 20
92.145929
 30
0.0
 11
133.067867
 21
92.445929
 31
0.0
  0
LINE
  5
698
330
1F
100
AcDbEntity
  8
001
 62
   140
370
     9
100
AcDbLine
 10
117.367867
 20
92.145929
 30
0.0
 11
117.067867
 21
92.445929
 31
0.0
  0
LINE
  5
699
330
1F
100
AcDbEntity
  8
001
 62
   140
370
     9
100
AcDbLine
 10
118.067867
 20
123.145929
 30
0.0
 11
132.067867
 21
123.145929
 31
0.0
  0
LINE
  5
69A
330
1F
100
AcDbEntity
  8
001
  6
CENTER
 62
     3
370
     9
100
AcDbLine
 10
128.067867
 20
120.645929
 30
0.0
 11
122.067867
 21
120.645929
 31
0.0
  0
CIRCLE
  5
69B
330
1F
100
AcDbEntity
  8
001
 62
   140
370
     9
100
AcDbCircle
 10
125.067867
 20
120.645929
 30
0.0
 40
1.5
  0
CIRCLE
  5
69C
330
1F
100
AcDbEntity
  8
001
 62
   140
370
     9
100
AcDbCircle
 10
125.067867
 20
120.645929
 30
0.0
 40
1.25
  0
LINE
  5
69D
330
1F
100
AcDbEntity
  8
001
370
     9
100
AcDbLine
 10
118.067867
 20
123.145929
 30
0.0
 11
118.567867
 21
123.645929
 31
0.0
  0
LINE
  5
69E
330
1F
100
AcDbEntity
  8
001
 62
   140
370
     9
100
AcDbLine
 10
118.567867
 20
123.645929
 30
0.0
 11
131.567867
 21
123.645929
 31
0.0
  0
LINE
  5
69F
330
1F
100
AcDbEntity
  8
001
 62
   140
370
     9
100
AcDbLine
 10
131.567867
 20
123.645929
 30
0.0
 11
132.067867
 21
123.145929
 31
0.0
  0
LINE
  5
6A0
330
1F
100
AcDbEntity
  8
001
  6
CENTER
 62
     3
370
     9
100
AcDbLine
 10
125.067867
 20
127.178792
 30
0.0
 11
125.067867
 21
88.511322
 31
0.0
  0
LINE
  5
6A1
330
1F
100
AcDbEntity
  8
001
  6
DASHED
 62
   140
370
     9
100
AcDbLine
 10
121.067867
 20
123.645929
 30
0.0
 11
121.067867
 21
111.945929
 31
0.0
  0
LINE
  5
6A2
330
1F
100
AcDbEntity
  8
001
  6
DASHED
 62
   140
370
     9
100
AcDbLine
 10
121.067867
 20
111.945929
 30
0.0
 11
129.067867
 21
111.945929
 31
0.0
  0
LINE
  5
6A3
330
1F
100
AcDbEntity
  8
001
  6
DASHED
 62
   140
370
     9
100
AcDbLine
 10
129.067867
 20
123.645929
 30
0.0
 11
129.067867
 21
111.945929
 31
0.0
  0
ARC
  5
6A4
330
1F
100
AcDbEntity
  8
001
 62
    40
370
     9
100
AcDbCircle
 10
135.084918
 20
162.374474
 30
0.0
 40
6.949525795186947
100
AcDbArc
 50
324.859821
 51
35.140179
  0
ARC
  5
6A5
330
1F
100
AcDbEntity
  8
001
 62
    40
370
     9
100
AcDbCircle
 10
135.084918
 20
170.374474
 30
0.0
 40
6.949525795186968
100
AcDbArc
 50
324.859821
 51
35.140179
  0
ARC
  5
6A6
330
1F
100
AcDbEntity
  8
001
 62
    40
370
     9
100
AcDbCircle
 10
146.450816
 20
170.374474
 30
0.0
 40
6.949525795186965
100
AcDbArc
 50
144.859821
 51
215.140179
  0
ARC
  5
6A7
330
1F
100
AcDbEntity
  8
001
 62
    40
370
     9
100
AcDbCircle
 10
103.684918
 20
162.374474
 30
0.0
 40
6.949525795186947
100
AcDbArc
 50
324.859821
 51
35.140179
  0
ARC
  5
6A8
330
1F
100
AcDbEntity
  8
001
 62
    40
370
     9
100
AcDbCircle
 10
115.050816
 20
162.374474
 30
0.0
 40
6.949525795186965
100
AcDbArc
 50
144.859821
 51
215.140179
  0
ARC
  5
6A9
330
1F
100
AcDbEntity
  8
001
 62
    40
370
     9
100
AcDbCircle
 10
115.050816
 20
170.374474
 30
0.0
 40
6.94952579518695
100
AcDbArc
 50
144.859821
 51
215.140179
  0
LINE
  5
6AA
330
1F
100
AcDbEntity
  8
001
 62
    40
370
     9
100
AcDbLine
 10
133.067867
 20
158.374474
 30
0.0
 11
140.767867
 21
158.374474
 31
0.0
  0
LINE
  5
6AB
330
1F
100
AcDbEntity
  8
001
 62
    40
370
     9
100
AcDbLine
 10
133.067867
 20
174.374474
 30
0.0
 11
140.767867
 21
174.374474
 31
0.0
  0
LINE
  5
6AC
330
1F
100
AcDbEntity
  8
001
 62
    40
370
     9
100
AcDbLine
 10
117.067867
 20
158.374474
 30
0.0
 11
109.367867
 21
158.374474
 31
0.0
  0
LINE
  5
6AD
330
1F
100
AcDbEntity
  8
001
 62
    40
370
     9
100
AcDbLine
 10
117.067867
 20
174.374474
 30
0.0
 11
109.367867
 21
174.374474
 31
0.0
  0
LINE
  5
6AE
330
1F
100
AcDbEntity
  8
001
  6
CENTER
 62
     3
370
     9
100
AcDbLine
 10
116.117867
 20
159.274474
 30
0.0
 11
134.017867
 21
159.274474
 31
0.0
  0
LINE
  5
6AF
330
1F
100
AcDbEntity
  8
001
  6
CENTER
 62
     3
370
     9
100
AcDbLine
 10
131.467867
 20
156.724474
 30
0.0
 11
131.467867
 21
176.024474
 31
0.0
  0
LINE
  5
6B0
330
1F
100
AcDbEntity
  8
001
  6
CENTER
 62
     3
370
     9
100
AcDbLine
 10
134.017867
 20
173.474474
 30
0.0
 11
116.117867
 21
173.474474
 31
0.0
  0
LINE
  5
6B1
330
1F
100
AcDbEntity
  8
001
  6
CENTER
 62
     3
370
     9
100
AcDbLine
 10
118.667867
 20
176.024474
 30
0.0
 11
118.667867
 21
156.724474
 31
0.0
  0
CIRCLE
  5
6B2
330
1F
100
AcDbEntity
  8
001
370
     9
100
AcDbCircle
 10
125.067867
 20
166.374474
 30
0.0
 40
7.000000000000057
  0
LINE
  5
6B3
330
1F
100
AcDbEntity
  8
001
  6
CENTER
 62
     3
370
     9
100
AcDbLine
 10
104.43682
 20
166.374474
 30
0.0
 11
145.772663
 21
166.374474
 31
0.0
  0
LINE
  5
6B4
330
1F
100
AcDbEntity
  8
001
  6
CENTER
 62
     3
370
     9
100
AcDbLine
 10
125.067867
 20
177.874474
 30
0.0
 11
125.067867
 21
154.874474
 31
0.0
  0
LINE
  5
6B5
330
1F
100
AcDbEntity
  8
001
370
     9
100
AcDbLine
 10
117.067867
 20
157.430202
 30
0.0
 11
133.067867
 21
157.430202
 31
0.0
  0
LINE
  5
6B6
330
1F
100
AcDbEntity
  8
001
370
     9
100
AcDbLine
 10
133.067867
 20
156.374474
 30
0.0
 11
133.067867
 21
176.374474
 31
0.0
  0
LINE
  5
6B7
330
1F
100
AcDbEntity
  8
001
370
     9
100
AcDbLine
 10
133.067867
 20
175.318745
 30
0.0
 11
117.067867
 21
175.318745
 31
0.0
  0
LINE
  5
6B8
330
1F
100
AcDbEntity
  8
001
370
     9
100
AcDbLine
 10
117.067867
 20
176.374474
 30
0.0
 11
117.067867
 21
156.374474
 31
0.0
  0
LINE
  5
6B9
330
1F
100
AcDbEntity
  8
001
370
     9
100
AcDbLine
 10
117.067867
 20
176.374474
 30
0.0
 11
133.067867
 21
176.374474
 31
0.0
  0
LINE
  5
6BA
330
1F
100
AcDbEntity
  8
001
370
     9
100
AcDbLine
 10
117.067867
 20
156.374474
 30
0.0
 11
133.067867
 21
156.374474
 31
0.0
  0
CIRCLE
  5
6BB
330
1F
100
AcDbEntity
  8
001
370
     9
100
AcDbCircle
 10
125.067867
 20
166.374474
 30
0.0
 40
4.0
  0
CIRCLE
  5
6BC
330
1F
100
AcDbEntity
  8
001
370
     9
100
AcDbCircle
 10
125.067867
 20
166.374474
 30
0.0
 40
2.0
  0
CIRCLE
  5
6BD
330
1F
100
AcDbEntity
  8
001
370
     9
100
AcDbCircle
 10
118.667867
 20
173.474474
 30
0.0
 40
1.600000000000023
  0
CIRCLE
  5
6BE
330
1F
100
AcDbEntity
  8
001
370
     9
100
AcDbCircle
 10
131.467867
 20
173.474474
 30
0.0
 40
1.600000000000023
  0
CIRCLE
  5
6BF
330
1F
100
AcDbEntity
  8
001
370
     9
100
AcDbCircle
 10
118.667867
 20
159.274474
 30
0.0
 40
1.600000000000023
  0
CIRCLE
  5
6C0
330
1F
100
AcDbEntity
  8
001
370
     9
100
AcDbCircle
 10
131.467867
 20
159.274474
 30
0.0
 40
1.600000000000023
  0
LINE
  5
6C1
330
1F
100
AcDbEntity
  8
008
370
     9
100
AcDbLine
 10
118.942867
 20
173.199474
 30
0.0
 11
119.767867
 21
173.199474
 31
0.0
  0
LINE
  5
6C2
330
1F
100
AcDbEntity
  8
008
370
     9
100
AcDbLine
 10
119.767867
 20
173.199474
 30
0.0
 11
119.767867
 21
173.749474
 31
0.0
  0
LINE
  5
6C3
330
1F
100
AcDbEntity
  8
008
370
     9
100
AcDbLine
 10
119.767867
 20
173.749474
 30
0.0
 11
118.942867
 21
173.749474
 31
0.0
  0
LINE
  5
6C4
330
1F
100
AcDbEntity
  8
008
370
     9
100
AcDbLine
 10
118.942867
 20
173.749474
 30
0.0
 11
118.942867
 21
174.574474
 31
0.0
  0
LINE
  5
6C5
330
1F
100
AcDbEntity
  8
008
370
     9
100
AcDbLine
 10
118.942867
 20
174.574474
 30
0.0
 11
118.392867
 21
174.574474
 31
0.0
  0
LINE
  5
6C6
330
1F
100
AcDbEntity
  8
008
370
     9
100
AcDbLine
 10
118.392867
 20
174.574474
 30
0.0
 11
118.392867
 21
173.749474
 31
0.0
  0
LINE
  5
6C7
330
1F
100
AcDbEntity
  8
008
370
     9
100
AcDbLine
 10
117.567867
 20
173.199474
 30
0.0
 11
118.392867
 21
173.199474
 31
0.0
  0
LINE
  5
6C8
330
1F
100
AcDbEntity
  8
008
370
     9
100
AcDbLine
 10
118.392867
 20
173.749474
 30
0.0
 11
117.567867
 21
173.749474
 31
0.0
  0
LINE
  5
6C9
330
1F
100
AcDbEntity
  8
008
370
     9
100
AcDbLine
 10
117.567867
 20
173.749474
 30
0.0
 11
117.567867
 21
173.199474
 31
0.0
  0
LINE
  5
6CA
330
1F
100
AcDbEntity
  8
008
370
     9
100
AcDbLine
 10
118.392867
 20
172.374474
 30
0.0
 11
118.942867
 21
172.374474
 31
0.0
  0
LINE
  5
6CB
330
1F
100
AcDbEntity
  8
008
370
     9
100
AcDbLine
 10
118.942867
 20
172.374474
 30
0.0
 11
118.942867
 21
173.199474
 31
0.0
  0
LINE
  5
6CC
330
1F
100
AcDbEntity
  8
008
370
     9
100
AcDbLine
 10
118.392867
 20
173.199474
 30
0.0
 11
118.392867
 21
172.374474
 31
0.0
  0
LINE
  5
6CD
330
1F
100
AcDbEntity
  8
008
370
     9
100
AcDbLine
 10
131.192867
 20
173.199474
 30
0.0
 11
131.192867
 21
172.374474
 31
0.0
  0
LINE
  5
6CE
330
1F
100
AcDbEntity
  8
008
370
     9
100
AcDbLine
 10
131.742867
 20
172.374474
 30
0.0
 11
131.742867
 21
173.199474
 31
0.0
  0
LINE
  5
6CF
330
1F
100
AcDbEntity
  8
008
370
     9
100
AcDbLine
 10
131.192867
 20
172.374474
 30
0.0
 11
131.742867
 21
172.374474
 31
0.0
  0
LINE
  5
6D0
330
1F
100
AcDbEntity
  8
008
370
     9
100
AcDbLine
 10
130.367867
 20
173.749474
 30
0.0
 11
130.367867
 21
173.199474
 31
0.0
  0
LINE
  5
6D1
330
1F
100
AcDbEntity
  8
008
370
     9
100
AcDbLine
 10
131.192867
 20
173.749474
 30
0.0
 11
130.367867
 21
173.749474
 31
0.0
  0
LINE
  5
6D2
330
1F
100
AcDbEntity
  8
008
370
     9
100
AcDbLine
 10
130.367867
 20
173.199474
 30
0.0
 11
131.192867
 21
173.199474
 31
0.0
  0
LINE
  5
6D3
330
1F
100
AcDbEntity
  8
008
370
     9
100
AcDbLine
 10
131.192867
 20
174.574474
 30
0.0
 11
131.192867
 21
173.749474
 31
0.0
  0
LINE
  5
6D4
330
1F
100
AcDbEntity
  8
008
370
     9
100
AcDbLine
 10
131.742867
 20
174.574474
 30
0.0
 11
131.192867
 21
174.574474
 31
0.0
  0
LINE
  5
6D5
330
1F
100
AcDbEntity
  8
008
370
     9
100
AcDbLine
 10
131.742867
 20
173.749474
 30
0.0
 11
131.742867
 21
174.574474
 31
0.0
  0
LINE
  5
6D6
330
1F
100
AcDbEntity
  8
008
370
     9
100
AcDbLine
 10
132.567867
 20
173.749474
 30
0.0
 11
131.742867
 21
173.749474
 31
0.0
  0
LINE
  5
6D7
330
1F
100
AcDbEntity
  8
008
370
     9
100
AcDbLine
 10
132.567867
 20
173.199474
 30
0.0
 11
132.567867
 21
173.749474
 31
0.0
  0
LINE
  5
6D8
330
1F
100
AcDbEntity
  8
008
370
     9
100
AcDbLine
 10
131.742867
 20
173.199474
 30
0.0
 11
132.567867
 21
173.199474
 31
0.0
  0
LINE
  5
6D9
330
1F
100
AcDbEntity
  8
008
370
     9
100
AcDbLine
 10
118.392867
 20
158.999474
 30
0.0
 11
118.392867
 21
158.174474
 31
0.0
  0
LINE
  5
6DA
330
1F
100
AcDbEntity
  8
008
370
     9
100
AcDbLine
 10
118.942867
 20
158.174474
 30
0.0
 11
118.942867
 21
158.999474
 31
0.0
  0
LINE
  5
6DB
330
1F
100
AcDbEntity
  8
008
370
     9
100
AcDbLine
 10
118.392867
 20
158.174474
 30
0.0
 11
118.942867
 21
158.174474
 31
0.0
  0
LINE
  5
6DC
330
1F
100
AcDbEntity
  8
008
370
     9
100
AcDbLine
 10
117.567867
 20
159.549474
 30
0.0
 11
117.567867
 21
158.999474
 31
0.0
  0
LINE
  5
6DD
330
1F
100
AcDbEntity
  8
008
370
     9
100
AcDbLine
 10
118.392867
 20
159.549474
 30
0.0
 11
117.567867
 21
159.549474
 31
0.0
  0
LINE
  5
6DE
330
1F
100
AcDbEntity
  8
008
370
     9
100
AcDbLine
 10
117.567867
 20
158.999474
 30
0.0
 11
118.392867
 21
158.999474
 31
0.0
  0
LINE
  5
6DF
330
1F
100
AcDbEntity
  8
008
370
     9
100
AcDbLine
 10
118.392867
 20
160.374474
 30
0.0
 11
118.392867
 21
159.549474
 31
0.0
  0
LINE
  5
6E0
330
1F
100
AcDbEntity
  8
008
370
     9
100
AcDbLine
 10
118.942867
 20
160.374474
 30
0.0
 11
118.392867
 21
160.374474
 31
0.0
  0
LINE
  5
6E1
330
1F
100
AcDbEntity
  8
008
370
     9
100
AcDbLine
 10
118.942867
 20
159.549474
 30
0.0
 11
118.942867
 21
160.374474
 31
0.0
  0
LINE
  5
6E2
330
1F
100
AcDbEntity
  8
008
370
     9
100
AcDbLine
 10
119.767867
 20
159.549474
 30
0.0
 11
118.942867
 21
159.549474
 31
0.0
  0
LINE
  5
6E3
330
1F
100
AcDbEntity
  8
008
370
     9
100
AcDbLine
 10
119.767867
 20
158.999474
 30
0.0
 11
119.767867
 21
159.549474
 31
0.0
  0
LINE
  5
6E4
330
1F
100
AcDbEntity
  8
008
370
     9
100
AcDbLine
 10
118.942867
 20
158.999474
 30
0.0
 11
119.767867
 21
158.999474
 31
0.0
  0
LINE
  5
6E5
330
1F
100
AcDbEntity
  8
008
370
     9
100
AcDbLine
 10
131.192867
 20
158.999474
 30
0.0
 11
131.192867
 21
158.174474
 31
0.0
  0
LINE
  5
6E6
330
1F
100
AcDbEntity
  8
008
370
     9
100
AcDbLine
 10
131.742867
 20
158.174474
 30
0.0
 11
131.742867
 21
158.999474
 31
0.0
  0
LINE
  5
6E7
330
1F
100
AcDbEntity
  8
008
370
     9
100
AcDbLine
 10
131.192867
 20
158.174474
 30
0.0
 11
131.742867
 21
158.174474
 31
0.0
  0
LINE
  5
6E8
330
1F
100
AcDbEntity
  8
008
370
     9
100
AcDbLine
 10
130.367867
 20
159.549474
 30
0.0
 11
130.367867
 21
158.999474
 31
0.0
  0
LINE
  5
6E9
330
1F
100
AcDbEntity
  8
008
370
     9
100
AcDbLine
 10
131.192867
 20
159.549474
 30
0.0
 11
130.367867
 21
159.549474
 31
0.0
  0
LINE
  5
6EA
330
1F
100
AcDbEntity
  8
008
370
     9
100
AcDbLine
 10
130.367867
 20
158.999474
 30
0.0
 11
131.192867
 21
158.999474
 31
0.0
  0
LINE
  5
6EB
330
1F
100
AcDbEntity
  8
008
370
     9
100
AcDbLine
 10
131.192867
 20
160.374474
 30
0.0
 11
131.192867
 21
159.549474
 31
0.0
  0
LINE
  5
6EC
330
1F
100
AcDbEntity
  8
008
370
     9
100
AcDbLine
 10
131.742867
 20
160.374474
 30
0.0
 11
131.192867
 21
160.374474
 31
0.0
  0
LINE
  5
6ED
330
1F
100
AcDbEntity
  8
008
370
     9
100
AcDbLine
 10
131.742867
 20
159.549474
 30
0.0
 11
131.742867
 21
160.374474
 31
0.0
  0
LINE
  5
6EE
330
1F
100
AcDbEntity
  8
008
370
     9
100
AcDbLine
 10
132.567867
 20
159.549474
 30
0.0
 11
131.742867
 21
159.549474
 31
0.0
  0
LINE
  5
6EF
330
1F
100
AcDbEntity
  8
008
370
     9
100
AcDbLine
 10
132.567867
 20
158.999474
 30
0.0
 11
132.567867
 21
159.549474
 31
0.0
  0
LINE
  5
6F0
330
1F
100
AcDbEntity
  8
008
370
     9
100
AcDbLine
 10
131.742867
 20
158.999474
 30
0.0
 11
132.567867
 21
158.999474
 31
0.0
  0
LINE
  5
6F1
330
1F
100
AcDbEntity
  8
001
 62
   140
370
     9
100
AcDbLine
 10
133.067867
 20
110.845929
 30
0.0
 11
132.767867
 21
111.145929
 31
0.0
  0
LINE
  5
6F2
330
1F
100
AcDbEntity
  8
001
 62
   140
370
     9
100
AcDbLine
 10
125.067867
 20
111.145929
 30
0.0
 11
132.767867
 21
111.145929
 31
0.0
  0
LINE
  5
6F3
330
1F
100
AcDbEntity
  8
001
 62
   140
370
     9
100
AcDbLine
 10
133.067867
 20
110.845929
 30
0.0
 11
133.067867
 21
101.145929
 31
0.0
  0
LINE
  5
6F4
330
1F
100
AcDbEntity
  8
001
 62
   140
370
     9
100
AcDbLine
 10
117.067867
 20
110.845929
 30
0.0
 11
117.067867
 21
101.145929
 31
0.0
  0
LINE
  5
6F5
330
1F
100
AcDbEntity
  8
001
 62
   140
370
     9
100
AcDbLine
 10
133.067867
 20
109.145929
 30
0.0
 11
117.067867
 21
109.145929
 31
0.0
  0
LINE
  5
6F6
330
1F
100
AcDbEntity
  8
001
370
     9
100
AcDbLine
 10
183.357867
 20
116.645929
 30
0.0
 11
177.657867
 21
116.645929
 31
0.0
  0
LINE
  5
6F7
330
1F
100
AcDbEntity
  8
001
370
     9
100
AcDbLine
 10
183.657867
 20
116.345929
 30
0.0
 11
183.357867
 21
116.645929
 31
0.0
  0
LINE
  5
6F8
330
1F
100
AcDbEntity
  8
001
370
     9
100
AcDbLine
 10
177.657867
 20
116.645929
 30
0.0
 11
177.157867
 21
116.145929
 31
0.0
  0
LINE
  5
6F9
330
1F
100
AcDbEntity
  8
001
370
     9
100
AcDbLine
 10
241.310811
 20
93.145929
 30
0.0
 11
233.610811
 21
93.145929
 31
0.0
  0
LINE
  5
6FA
330
1F
100
AcDbEntity
  8
001
370
     9
100
AcDbLine
 10
233.610811
 20
109.145929
 30
0.0
 11
265.010811
 21
109.145929
 31
0.0
  0
LINE
  5
6FB
330
1F
100
AcDbEntity
  8
001
  6
CENTER
 62
     3
370
     9
100
AcDbLine
 10
228.679764
 20
101.145929
 30
0.0
 11
270.015607
 21
101.145929
 31
0.0
  0
LINE
  5
6FC
330
1F
100
AcDbEntity
  8
001
370
     9
100
AcDbLine
 10
257.310811
 20
93.145929
 30
0.0
 11
265.010811
 21
93.145929
 31
0.0
  0
ARC
  5
6FD
330
1F
100
AcDbEntity
  8
001
370
     9
100
AcDbCircle
 10
259.327862
 20
97.145929
 30
0.0
 40
6.949525795186979
100
AcDbArc
 50
324.859821
 51
35.140179
  0
ARC
  5
6FE
330
1F
100
AcDbEntity
  8
001
370
     9
100
AcDbCircle
 10
259.327862
 20
105.145929
 30
0.0
 40
6.949525795186942
100
AcDbArc
 50
324.859821
 51
35.140179
  0
ARC
  5
6FF
330
1F
100
AcDbEntity
  8
001
370
     9
100
AcDbCircle
 10
270.69376
 20
105.145929
 30
0.0
 40
6.94952579518695
100
AcDbArc
 50
144.859821
 51
215.140179
  0
ARC
  5
700
330
1F
100
AcDbEntity
  8
001
370
     9
100
AcDbCircle
 10
227.927862
 20
97.145929
 30
0.0
 40
6.94952579518695
100
AcDbArc
 50
324.859821
 51
35.140179
  0
ARC
  5
701
330
1F
100
AcDbEntity
  8
001
370
     9
100
AcDbCircle
 10
239.29376
 20
97.145929
 30
0.0
 40
6.949525795186942
100
AcDbArc
 50
144.859821
 51
215.140179
  0
ARC
  5
702
330
1F
100
AcDbEntity
  8
001
370
     9
100
AcDbCircle
 10
239.29376
 20
105.145929
 30
0.0
 40
6.949525795186979
100
AcDbArc
 50
144.859821
 51
215.140179
  0
LINE
  5
703
330
1F
100
AcDbEntity
  8
001
370
     9
100
AcDbLine
 10
257.310811
 20
92.445929
 30
0.0
 11
257.310811
 21
110.845929
 31
0.0
  0
LINE
  5
704
330
1F
100
AcDbEntity
  8
001
370
     9
100
AcDbLine
 10
241.310811
 20
92.445929
 30
0.0
 11
241.310811
 21
110.845929
 31
0.0
  0
LINE
  5
705
330
1F
100
AcDbEntity
  8
001
370
     9
100
AcDbLine
 10
241.310811
 20
92.445929
 30
0.0
 11
241.610811
 21
92.145929
 31
0.0
  0
LINE
  5
706
330
1F
100
AcDbEntity
  8
001
370
     9
100
AcDbLine
 10
257.010811
 20
92.145929
 30
0.0
 11
257.310811
 21
92.445929
 31
0.0
  0
LINE
  5
707
330
1F
100
AcDbEntity
  8
001
370
     9
100
AcDbLine
 10
241.310811
 20
93.208676
 30
0.0
 11
257.310811
 21
93.208676
 31
0.0
  0
LINE
  5
708
330
1F
100
AcDbEntity
  8
001
370
     9
100
AcDbLine
 10
257.010811
 20
92.145929
 30
0.0
 11
241.610811
 21
92.145929
 31
0.0
  0
LINE
  5
709
330
1F
100
AcDbEntity
  8
001
370
     9
100
AcDbLine
 10
240.310811
 20
131.145929
 30
0.0
 11
240.810811
 21
131.645929
 31
0.0
  0
LINE
  5
70A
330
1F
100
AcDbEntity
  8
001
370
     9
100
AcDbLine
 10
240.310811
 20
126.145929
 30
0.0
 11
240.310811
 21
131.145929
 31
0.0
  0
LINE
  5
70B
330
1F
100
AcDbEntity
  8
001
370
     9
100
AcDbLine
 10
240.810811
 20
125.645929
 30
0.0
 11
240.310811
 21
126.145929
 31
0.0
  0
LINE
  5
70C
330
1F
100
AcDbEntity
  8
001
370
     9
100
AcDbLine
 10
240.810811
 20
125.645929
 30
0.0
 11
257.810811
 21
125.645929
 31
0.0
  0
LINE
  5
70D
330
1F
100
AcDbEntity
  8
001
370
     9
100
AcDbLine
 10
242.310811
 20
125.645929
 30
0.0
 11
242.310811
 21
111.145929
 31
0.0
  0
LINE
  5
70E
330
1F
100
AcDbEntity
  8
001
  6
DASHED
370
     9
100
AcDbLine
 10
243.310811
 20
111.945929
 30
0.0
 11
255.310811
 21
111.945929
 31
0.0
  0
LINE
  5
70F
330
1F
100
AcDbEntity
  8
001
  6
DASHED
370
     9
100
AcDbLine
 10
243.310811
 20
111.945929
 30
0.0
 11
243.310811
 21
131.645929
 31
0.0
  0
LINE
  5
710
330
1F
100
AcDbEntity
  8
001
370
     9
100
AcDbLine
 10
240.810811
 20
131.645929
 30
0.0
 11
257.810811
 21
131.645929
 31
0.0
  0
LINE
  5
711
330
1F
100
AcDbEntity
  8
001
370
     9
100
AcDbLine
 10
257.810811
 20
131.645929
 30
0.0
 11
258.310811
 21
131.145929
 31
0.0
  0
CIRCLE
  5
712
330
1F
100
AcDbEntity
  8
001
370
     9
100
AcDbCircle
 10
249.310811
 20
128.645929
 30
0.0
 40
1.25
  0
CIRCLE
  5
713
330
1F
100
AcDbEntity
  8
001
370
     9
100
AcDbCircle
 10
249.310811
 20
128.645929
 30
0.0
 40
1.5
  0
LINE
  5
714
330
1F
100
AcDbEntity
  8
001
  6
CENTER
 62
     3
370
     9
100
AcDbLine
 10
252.310811
 20
128.645929
 30
0.0
 11
246.310811
 21
128.645929
 31
0.0
  0
LINE
  5
715
330
1F
100
AcDbEntity
  8
001
  6
CENTER
 62
     3
370
     9
100
AcDbLine
 10
249.310811
 20
135.145929
 30
0.0
 11
249.310811
 21
88.511322
 31
0.0
  0
LINE
  5
716
330
1F
100
AcDbEntity
  8
001
370
     9
100
AcDbLine
 10
258.310811
 20
131.145929
 30
0.0
 11
258.310811
 21
126.145929
 31
0.0
  0
LINE
  5
717
330
1F
100
AcDbEntity
  8
001
370
     9
100
AcDbLine
 10
257.810811
 20
125.645929
 30
0.0
 11
258.310811
 21
126.145929
 31
0.0
  0
LINE
  5
718
330
1F
100
AcDbEntity
  8
001
370
     9
100
AcDbLine
 10
256.310811
 20
125.645929
 30
0.0
 11
256.310811
 21
111.145929
 31
0.0
  0
LINE
  5
719
330
1F
100
AcDbEntity
  8
001
  6
DASHED
370
     9
100
AcDbLine
 10
255.310811
 20
111.945929
 30
0.0
 11
255.310811
 21
131.645929
 31
0.0
  0
LINE
  5
71A
330
1F
100
AcDbEntity
  8
001
370
     9
100
AcDbLine
 10
257.010811
 20
111.145929
 30
0.0
 11
241.610811
 21
111.145929
 31
0.0
  0
LINE
  5
71B
330
1F
100
AcDbEntity
  8
001
370
     9
100
AcDbLine
 10
257.310811
 20
110.845929
 30
0.0
 11
257.010811
 21
111.145929
 31
0.0
  0
LINE
  5
71C
330
1F
100
AcDbEntity
  8
001
370
     9
100
AcDbLine
 10
241.310811
 20
110.845929
 30
0.0
 11
241.610811
 21
111.145929
 31
0.0
  0
LINE
  5
71D
330
1F
100
AcDbEntity
  8
001
370
     9
100
AcDbLine
 10
187.057867
 20
113.845929
 30
0.0
 11
184.657867
 21
113.845929
 31
0.0
  0
LINE
  5
71E
330
1F
100
AcDbEntity
  8
001
370
     9
100
AcDbLine
 10
187.057867
 20
113.845929
 30
0.0
 11
187.657867
 21
113.245929
 31
0.0
  0
LINE
  5
71F
330
1F
100
AcDbEntity
  8
001
370
     9
100
AcDbLine
 10
184.657867
 20
113.395929
 30
0.0
 11
183.657867
 21
113.395929
 31
0.0
  0
LINE
  5
720
330
1F
100
AcDbEntity
  8
001
370
     9
100
AcDbLine
 10
184.657867
 20
113.395929
 30
0.0
 11
187.507867
 21
113.395929
 31
0.0
  0
LINE
  5
721
330
1F
100
AcDbEntity
  8
001
  6
CENTER
 62
     3
370
     9
100
AcDbLine
 10
48.3925
 20
101.145929
 30
0.0
 11
192.828401
 21
101.145929
 31
0.0
  0
LINE
  5
722
330
1F
100
AcDbEntity
  8
001
  6
CENTER
 62
     3
370
     9
100
AcDbLine
 10
23.966929
 20
101.145929
 30
0.0
 11
46.3925
 21
101.145929
 31
0.0
  0
LINE
  5
723
330
1F
100
AcDbEntity
  8
001
 62
   140
370
     9
100
AcDbLine
 10
118.067867
 20
123.145929
 30
0.0
 11
118.067867
 21
111.145929
 31
0.0
  0
LINE
  5
724
330
1F
100
AcDbEntity
  8
001
 62
   140
370
     9
100
AcDbLine
 10
132.067867
 20
123.145929
 30
0.0
 11
132.067867
 21
111.145929
 31
0.0
  0
LINE
  5
725
330
1F
100
AcDbEntity
  8
001
370
     9
100
AcDbLine
 10
217.638516
 20
168.571284
 30
0.0
 11
217.638516
 21
61.371019
 31
0.0
  0
LINE
  5
726
330
1F
100
AcDbEntity
  8
001
370
     9
100
AcDbLine
 10
217.638516
 20
61.371019
 30
0.0
 11
277.025568
 21
61.371019
 31
0.0
  0
LINE
  5
727
330
1F
100
AcDbEntity
  8
001
370
     9
100
AcDbLine
 10
217.638516
 20
168.571284
 30
0.0
 11
277.025568
 21
168.571284
 31
0.0
  0
LINE
  5
728
330
1F
100
AcDbEntity
  8
001
370
     9
100
AcDbLine
 10
277.025568
 20
168.571284
 30
0.0
 11
277.025568
 21
61.371019
 31
0.0
  0
TEXT
  5
729
330
1F
100
AcDbEntity
  8
001
370
    30
100
AcDbText
 10
226.226355
 20
77.548912
 30
0.0
 40
3.0
  1
製品名：ＫＣＭ－２Ｄ－１１０Ｃ
 41
0.843267
100
AcDbText
  0
TEXT
  5
72A
330
1F
100
AcDbEntity
  8
001
370
    30
100
AcDbText
 10
226.226355
 20
72.048912
 30
0.0
 40
3.0
  1
　　（カスタム対応可能）
 41
0.843267
100
AcDbText
  0
LINE
  5
72B
330
1F
100
AcDbEntity
  8
001
370
     9
100
AcDbLine
 10
232.514248
 20
157.277744
 30
0.0
 11
265.907608
 21
157.277744
 31
0.0
  0
LINE
  5
72C
330
1F
100
AcDbEntity
  8
001
370
     9
100
AcDbLine
 10
175.501175
 20
123.868536
 30
0.0
 11
145.364356
 21
123.868536
 31
0.0
  0
TEXT
  5
72D
330
1F
100
AcDbEntity
  8
001
370
    30
100
AcDbText
 10
145.364356
 20
124.868536
 30
0.0
 40
3.0
  1
%%c８ライトガイド用
 41
0.844606
100
AcDbText
  0
TEXT
  5
72E
330
1F
100
AcDbEntity
  8
001
370
    30
100
AcDbText
 10
232.514248
 20
158.277744
 30
0.0
 40
3.0
  1
%%c１２ライトガイド用
 41
0.830242
100
AcDbText
  0
LINE
  5
72F
330
1F
100
AcDbEntity
  8
001
370
     9
100
AcDbLine
 10
45.30059
 20
98.145929
 30
0.0
 11
47.484411
 21
104.145929
 31
0.0
  0
LINE
  5
730
330
1F
100
AcDbEntity
  8
001
370
     9
100
AcDbLine
 10
47.30059
 20
98.145929
 30
0.0
 11
49.484411
 21
104.145929
 31
0.0
  0
LINE
  5
731
330
1F
100
AcDbEntity
  8
001
370
     9
100
AcDbLine
 10
26.578055
 20
99.508689
 30
0.0
 11
26.578055
 21
65.432222
 31
0.0
  0
LINE
  5
732
330
1F
100
AcDbEntity
  8
001
370
     9
100
AcDbLine
 10
92.537867
 20
93.445929
 30
0.0
 11
92.537867
 21
65.432222
 31
0.0
  0
LINE
  5
733
330
1F
100
AcDbEntity
  8
001
370
     9
100
AcDbLine
 10
92.537867
 20
66.932222
 30
0.0
 11
26.578055
 21
66.932222
 31
0.0
  0
LINE
  5
734
330
1F
100
AcDbEntity
  8
001
370
     9
100
AcDbLine
 10
30.078055
 20
67.870044
 30
0.0
 11
26.578055
 21
66.932222
 31
0.0
  0
LINE
  5
735
330
1F
100
AcDbEntity
  8
001
370
     9
100
AcDbLine
 10
26.578055
 20
66.932222
 30
0.0
 11
30.078055
 21
65.9944
 31
0.0
  0
LINE
  5
736
330
1F
100
AcDbEntity
  8
001
370
     9
100
AcDbLine
 10
89.037867
 20
67.870044
 30
0.0
 11
92.537867
 21
66.932222
 31
0.0
  0
LINE
  5
737
330
1F
100
AcDbEntity
  8
001
370
     9
100
AcDbLine
 10
92.537867
 20
66.932222
 30
0.0
 11
89.037867
 21
65.9944
 31
0.0
  0
TEXT
  5
738
330
1F
100
AcDbEntity
  8
001
370
    30
100
AcDbText
 10
44.969427
 20
67.786054
 30
0.0
 40
4.0
  1
Ｗ．Ｄ．＝１１０%%p２
 41
0.863381
100
AcDbText
  0
ENDSEC
  0
SECTION
  2
OBJECTS
  0
DICTIONARY
  5
C
330
0
100
AcDbDictionary
281
     1
  3
ACAD_GROUP
350
D
  3
ACAD_LAYOUT
350
1A
  3
ACAD_MLEADERSTYLE
350
73B
  3
ACAD_MLINESTYLE
350
17
  3
ACAD_PLOTSETTINGS
350
19
  3
ACAD_PLOTSTYLENAME
350
E
  3
ACAD_SCALELIST
350
63
  3
ACAD_VISUALSTYLE
350
2A
  3
AcDbVariableDictionary
350
739
  0
DICTIONARY
  5
D
102
{ACAD_REACTORS
330
C
102
}
330
C
100
AcDbDictionary
281
     1
  0
DICTIONARY
  5
1A
102
{ACAD_REACTORS
330
C
102
}
330
C
100
AcDbDictionary
281
     1
  3
Layout1
350
1E
  3
Layout2
350
26
  3
Model
350
22
  0
DICTIONARY
  5
73B
102
{ACAD_REACTORS
330
C
102
}
330
C
100
AcDbDictionary
281
     1
  0
DICTIONARY
  5
17
102
{ACAD_REACTORS
330
C
102
}
330
C
100
AcDbDictionary
281
     1
  3
Standard
350
18
  0
DICTIONARY
  5
19
102
{ACAD_REACTORS
330
C
102
}
330
C
100
AcDbDictionary
281
     1
  0
ACDBDICTIONARYWDFLT
  5
E
102
{ACAD_REACTORS
330
C
102
}
330
C
100
AcDbDictionary
281
     1
  3
Normal
350
F
100
AcDbDictionaryWithDefault
340
F
  0
DICTIONARY
  5
63
102
{ACAD_REACTORS
330
C
102
}
330
C
100
AcDbDictionary
281
     1
  3
A0
350
64
  3
A1
350
65
  3
A2
350
66
  3
A3
350
67
  3
A4
350
68
  3
A5
350
69
  3
A6
350
6A
  3
A7
350
6B
  3
A8
350
6C
  3
A9
350
6D
  3
B0
350
6E
  3
B1
350
6F
  3
B2
350
70
  3
B3
350
71
  3
B4
350
72
  3
B5
350
73
  3
B6
350
74
  3
B7
350
75
  3
B8
350
76
  3
B9
350
77
  3
C0
350
78
  3
C1
350
79
  3
C2
350
7A
  3
C3
350
7B
  3
C4
350
7C
  3
C5
350
7D
  3
C6
350
7E
  3
C7
350
7F
  3
C8
350
80
  3
C9
350
81
  3
D0
350
82
  3
D1
350
83
  3
D2
350
84
  0
DICTIONARY
  5
2A
102
{ACAD_REACTORS
330
C
102
}
330
C
100
AcDbDictionary
281
     1
  3
2dWireframe
350
2F
  3
3D Hidden
350
31
  3
3dWireframe
350
30
  3
Basic
350
32
  3
Brighten
350
36
  3
ColorChange
350
3A
  3
Conceptual
350
34
  3
Dim
350
35
  3
Facepattern
350
39
  3
Flat
350
2B
  3
FlatWithEdges
350
2C
  3
Gouraud
350
2D
  3
GouraudWithEdges
350
2E
  3
Linepattern
350
38
  3
Realistic
350
33
  3
Thicken
350
37
  0
DICTIONARY
  5
739
102
{ACAD_REACTORS
330
C
102
}
330
C
100
AcDbDictionary
281
     1
  3
CANNOSCALE
350
73E
  3
PSOLHEIGHT
350
73D
  3
PSOLWIDTH
350
73C
  0
LAYOUT
  5
1E
102
{ACAD_REACTORS
330
1A
102
}
330
1A
100
AcDbPlotSettings
  1

  2
none_device
  4

  6

 40
0.0
 41
0.0
 42
0.0
 43
0.0
 44
0.0
 45
0.0
 46
0.0
 47
0.0
 48
0.0
 49
0.0
140
0.0
141
0.0
142
1.0
143
1.0
 70
   688
 72
     0
 73
     0
 74
     5
  7

 75
    16
147
1.0
148
0.0
149
0.0
100
AcDbLayout
  1
Layout1
 70
     1
 71
     1
 10
0.0
 20
0.0
 11
12.0
 21
9.0
 12
0.0
 22
0.0
 32
0.0
 14
1.000000E+20
 24
1.000000E+20
 34
0.0
 15
-1.000000E+20
 25
-1.000000E+20
 35
0.0
146
0.0
 13
0.0
 23
0.0
 33
0.0
 16
1.0
 26
0.0
 36
0.0
 17
0.0
 27
1.0
 37
0.0
 76
     0
330
1B
  0
LAYOUT
  5
26
102
{ACAD_REACTORS
330
1A
102
}
330
1A
100
AcDbPlotSettings
  1

  2
none_device
  4

  6

 40
0.0
 41
0.0
 42
0.0
 43
0.0
 44
0.0
 45
0.0
 46
0.0
 47
0.0
 48
0.0
 49
0.0
140
0.0
141
0.0
142
1.0
143
1.0
 70
   688
 72
     0
 73
     0
 74
     5
  7

 75
    16
147
1.0
148
0.0
149
0.0
100
AcDbLayout
  1
Layout2
 70
     1
 71
     2
 10
0.0
 20
0.0
 11
0.0
 21
0.0
 12
0.0
 22
0.0
 32
0.0
 14
0.0
 24
0.0
 34
0.0
 15
0.0
 25
0.0
 35
0.0
146
0.0
 13
0.0
 23
0.0
 33
0.0
 16
1.0
 26
0.0
 36
0.0
 17
0.0
 27
1.0
 37
0.0
 76
     0
330
23
  0
LAYOUT
  5
22
102
{ACAD_REACTORS
330
1A
102
}
330
1A
100
AcDbPlotSettings
  1

  2
none_device
  4

  6

 40
0.0
 41
0.0
 42
0.0
 43
0.0
 44
0.0
 45
0.0
 46
0.0
 47
0.0
 48
0.0
 49
0.0
140
0.0
141
0.0
142
1.0
143
1.0
 70
  1712
 72
     0
 73
     0
 74
     0
  7

 75
     0
147
1.0
148
0.0
149
0.0
100
AcDbLayout
  1
Model
 70
     1
 71
     0
 10
0.0
 20
0.0
 11
12.0
 21
9.0
 12
0.0
 22
0.0
 32
0.0
 14
0.0
 24
0.0
 34
0.0
 15
297.0
 25
210.0
 35
0.0
146
0.0
 13
0.0
 23
0.0
 33
0.0
 16
1.0
 26
0.0
 36
0.0
 17
0.0
 27
1.0
 37
0.0
 76
     0
330
1F
331
29
  0
MLINESTYLE
  5
18
102
{ACAD_REACTORS
330
17
102
}
330
17
100
AcDbMlineStyle
  2
Standard
 70
     0
  3

 62
   256
 51
90.0
 52
90.0
 71
     2
 49
0.5
 62
   256
  6
BYLAYER
 49
-0.5
 62
   256
  6
BYLAYER
  0
ACDBPLACEHOLDER
  5
F
102
{ACAD_REACTORS
330
E
102
}
330
E
  0
SCALE
  5
64
102
{ACAD_REACTORS
330
63
102
}
330
63
100
AcDbScale
 70
     0
300
1:1
140
1.0
141
1.0
290
     1
  0
SCALE
  5
65
102
{ACAD_REACTORS
330
63
102
}
330
63
100
AcDbScale
 70
     0
300
1:2
140
1.0
141
2.0
290
     0
  0
SCALE
  5
66
102
{ACAD_REACTORS
330
63
102
}
330
63
100
AcDbScale
 70
     0
300
1:4
140
1.0
141
4.0
290
     0
  0
SCALE
  5
67
102
{ACAD_REACTORS
330
63
102
}
330
63
100
AcDbScale
 70
     0
300
1:5
140
1.0
141
5.0
290
     0
  0
SCALE
  5
68
102
{ACAD_REACTORS
330
63
102
}
330
63
100
AcDbScale
 70
     0
300
1:8
140
1.0
141
8.0
290
     0
  0
SCALE
  5
69
102
{ACAD_REACTORS
330
63
102
}
330
63
100
AcDbScale
 70
     0
300
1:10
140
1.0
141
10.0
290
     0
  0
SCALE
  5
6A
102
{ACAD_REACTORS
330
63
102
}
330
63
100
AcDbScale
 70
     0
300
1:16
140
1.0
141
16.0
290
     0
  0
SCALE
  5
6B
102
{ACAD_REACTORS
330
63
102
}
330
63
100
AcDbScale
 70
     0
300
1:20
140
1.0
141
20.0
290
     0
  0
SCALE
  5
6C
102
{ACAD_REACTORS
330
63
102
}
330
63
100
AcDbScale
 70
     0
300
1:30
140
1.0
141
30.0
290
     0
  0
SCALE
  5
6D
102
{ACAD_REACTORS
330
63
102
}
330
63
100
AcDbScale
 70
     0
300
1:40
140
1.0
141
40.0
290
     0
  0
SCALE
  5
6E
102
{ACAD_REACTORS
330
63
102
}
330
63
100
AcDbScale
 70
     0
300
1:50
140
1.0
141
50.0
290
     0
  0
SCALE
  5
6F
102
{ACAD_REACTORS
330
63
102
}
330
63
100
AcDbScale
 70
     0
300
1:100
140
1.0
141
100.0
290
     0
  0
SCALE
  5
70
102
{ACAD_REACTORS
330
63
102
}
330
63
100
AcDbScale
 70
     0
300
2:1
140
2.0
141
1.0
290
     0
  0
SCALE
  5
71
102
{ACAD_REACTORS
330
63
102
}
330
63
100
AcDbScale
 70
     0
300
4:1
140
4.0
141
1.0
290
     0
  0
SCALE
  5
72
102
{ACAD_REACTORS
330
63
102
}
330
63
100
AcDbScale
 70
     0
300
8:1
140
8.0
141
1.0
290
     0
  0
SCALE
  5
73
102
{ACAD_REACTORS
330
63
102
}
330
63
100
AcDbScale
 70
     0
300
10:1
140
10.0
141
1.0
290
     0
  0
SCALE
  5
74
102
{ACAD_REACTORS
330
63
102
}
330
63
100
AcDbScale
 70
     0
300
100:1
140
100.0
141
1.0
290
     0
  0
SCALE
  5
75
102
{ACAD_REACTORS
330
63
102
}
330
63
100
AcDbScale
 70
     0
300
1/128" = 1'-0"
140
0.007812
141
12.0
290
     0
  0
SCALE
  5
76
102
{ACAD_REACTORS
330
63
102
}
330
63
100
AcDbScale
 70
     0
300
1/64" = 1'-0"
140
0.015625
141
12.0
290
     0
  0
SCALE
  5
77
102
{ACAD_REACTORS
330
63
102
}
330
63
100
AcDbScale
 70
     0
300
1/32" = 1'-0"
140
0.03125
141
12.0
290
     0
  0
SCALE
  5
78
102
{ACAD_REACTORS
330
63
102
}
330
63
100
AcDbScale
 70
     0
300
1/16" = 1'-0"
140
0.0625
141
12.0
290
     0
  0
SCALE
  5
79
102
{ACAD_REACTORS
330
63
102
}
330
63
100
AcDbScale
 70
     0
300
3/32" = 1'-0"
140
0.09375
141
12.0
290
     0
  0
SCALE
  5
7A
102
{ACAD_REACTORS
330
63
102
}
330
63
100
AcDbScale
 70
     0
300
1/8" = 1'-0"
140
0.125
141
12.0
290
     0
  0
SCALE
  5
7B
102
{ACAD_REACTORS
330
63
102
}
330
63
100
AcDbScale
 70
     0
300
3/16" = 1'-0"
140
0.1875
141
12.0
290
     0
  0
SCALE
  5
7C
102
{ACAD_REACTORS
330
63
102
}
330
63
100
AcDbScale
 70
     0
300
1/4" = 1'-0"
140
0.25
141
12.0
290
     0
  0
SCALE
  5
7D
102
{ACAD_REACTORS
330
63
102
}
330
63
100
AcDbScale
 70
     0
300
3/8" = 1'-0"
140
0.375
141
12.0
290
     0
  0
SCALE
  5
7E
102
{ACAD_REACTORS
330
63
102
}
330
63
100
AcDbScale
 70
     0
300
1/2" = 1'-0"
140
0.5
141
12.0
290
     0
  0
SCALE
  5
7F
102
{ACAD_REACTORS
330
63
102
}
330
63
100
AcDbScale
 70
     0
300
3/4" = 1'-0"
140
0.75
141
12.0
290
     0
  0
SCALE
  5
80
102
{ACAD_REACTORS
330
63
102
}
330
63
100
AcDbScale
 70
     0
300
1" = 1'-0"
140
1.0
141
12.0
290
     0
  0
SCALE
  5
81
102
{ACAD_REACTORS
330
63
102
}
330
63
100
AcDbScale
 70
     0
300
1-1/2" = 1'-0"
140
1.5
141
12.0
290
     0
  0
SCALE
  5
82
102
{ACAD_REACTORS
330
63
102
}
330
63
100
AcDbScale
 70
     0
300
3" = 1'-0"
140
3.0
141
12.0
290
     0
  0
SCALE
  5
83
102
{ACAD_REACTORS
330
63
102
}
330
63
100
AcDbScale
 70
     0
300
6" = 1'-0"
140
6.0
141
12.0
290
     0
  0
SCALE
  5
84
102
{ACAD_REACTORS
330
63
102
}
330
63
100
AcDbScale
 70
     0
300
1'-0" = 1'-0"
140
12.0
141
12.0
290
     0
  0
VISUALSTYLE
  5
2F
102
{ACAD_REACTORS
330
2A
102
}
330
2A
100
AcDbVisualStyle
  2
2dWireframe
 70
     4
 71
     0
 72
     2
 73
     0
 90
        0
 40
-0.6
 41
-30.0
 62
     5
 63
     7
 74
     1
 91
        4
 64
     7
 65
   257
 75
     1
175
     1
 42
1.0
 92
        0
 66
   257
 43
1.0
 76
     1
 77
     6
 78
     2
 67
     7
 79
     5
170
     0
171
     0
290
     0
174
     0
 93
        1
 44
0.0
173
     0
291
     0
 45
0.0
1001
ACAD
1000
AcDbSavedByObjectVersion
1070
     0
  0
VISUALSTYLE
  5
31
102
{ACAD_REACTORS
330
2A
102
}
330
2A
100
AcDbVisualStyle
  2
3D Hidden
 70
     6
 71
     1
 72
     2
 73
     2
 90
        0
 40
-0.6
 41
-30.0
 62
     5
 63
     7
 74
     2
 91
        2
 64
     7
 65
   257
 75
     2
175
     1
 42
40.0
 92
        0
 66
   257
 43
1.0
 76
     1
 77
     6
 78
     2
 67
     7
 79
     3
170
     0
171
     0
290
     0
174
     0
 93
        1
 44
0.0
173
     0
291
     0
 45
0.0
1001
ACAD
1000
AcDbSavedByObjectVersion
1070
     0
  0
VISUALSTYLE
  5
30
102
{ACAD_REACTORS
330
2A
102
}
330
2A
100
AcDbVisualStyle
  2
3dWireframe
 70
     5
 71
     0
 72
     2
 73
     0
 90
        0
 40
-0.6
 41
-30.0
 62
     5
 63
     7
 74
     1
 91
        4
 64
     7
 65
   257
 75
     1
175
     1
 42
1.0
 92
        0
 66
   257
 43
1.0
 76
     1
 77
     6
 78
     2
 67
     7
 79
     5
170
     0
171
     0
290
     0
174
     0
 93
        1
 44
0.0
173
     0
291
     0
 45
0.0
1001
ACAD
1000
AcDbSavedByObjectVersion
1070
     0
  0
VISUALSTYLE
  5
32
102
{ACAD_REACTORS
330
2A
102
}
330
2A
100
AcDbVisualStyle
  2
Basic
 70
     7
 71
     1
 72
     0
 73
     1
 90
        0
 40
-0.6
 41
-30.0
 62
     5
 63
     7
 74
     0
 91
        4
 64
     7
 65
   257
 75
     1
175
     1
 42
1.0
 92
        8
 66
     7
 43
1.0
 76
     1
 77
     6
 78
     2
 67
     7
 79
     5
170
     0
171
     0
290
     0
174
     0
 93
        1
 44
0.0
173
     0
291
     1
 45
0.0
1001
ACAD
1000
AcDbSavedByObjectVersion
1070
     0
  0
VISUALSTYLE
  5
36
102
{ACAD_REACTORS
330
2A
102
}
330
2A
100
AcDbVisualStyle
  2
Brighten
 70
    12
 71
     2
 72
     2
 73
     0
 90
        0
 40
-0.6
 41
-30.0
 62
     5
 63
     7
 74
     1
 91
        4
 64
     7
 65
   257
 75
     1
175
     1
 42
1.0
 92
        8
 66
     7
 43
1.0
 76
     1
 77
     6
 78
     2
 67
     7
 79
     5
170
     0
171
     0
290
     0
174
     0
 93
        1
 44
50.0
173
     0
291
     1
 45
0.0
1001
ACAD
1000
AcDbSavedByObjectVersion
1070
     0
  0
VISUALSTYLE
  5
3A
102
{ACAD_REACTORS
330
2A
102
}
330
2A
100
AcDbVisualStyle
  2
ColorChange
 70
    16
 71
     2
 72
     2
 73
     3
 90
        0
 40
-0.6
 41
-30.0
 62
     5
 63
     8
 74
     1
 91
        4
 64
     7
 65
   257
 75
     1
175
     1
 42
1.0
 92
        8
 66
     8
 43
1.0
 76
     1
 77
     6
 78
     2
 67
     7
 79
     5
170
     0
171
     0
290
     0
174
     0
 93
        1
 44
0.0
173
     0
291
     1
 45
0.0
1001
ACAD
1000
AcDbSavedByObjectVersion
1070
     0
  0
VISUALSTYLE
  5
34
102
{ACAD_REACTORS
330
2A
102
}
330
2A
100
AcDbVisualStyle
  2
Conceptual
 70
     9
 71
     3
 72
     2
 73
     0
 90
        0
 40
-0.6
 41
-30.0
 62
     5
 63
     7
 74
     2
 91
        2
 64
     7
 65
   257
 75
     1
175
     1
 42
40.0
 92
        8
 66
     7
 43
1.0
 76
     1
 77
     6
 78
     2
 67
     7
 79
     3
170
     0
171
     0
290
     0
174
     0
 93
        1
 44
0.0
173
     0
291
     0
 45
0.0
1001
ACAD
1000
AcDbSavedByObjectVersion
1070
     0
  0
VISUALSTYLE
  5
35
102
{ACAD_REACTORS
330
2A
102
}
330
2A
100
AcDbVisualStyle
  2
Dim
 70
    11
 71
     2
 72
     2
 73
     0
 90
        0
 40
-0.6
 41
-30.0
 62
     5
 63
     7
 74
     1
 91
        4
 64
     7
 65
   257
 75
     1
175
     1
 42
1.0
 92
        8
 66
     7
 43
1.0
 76
     1
 77
     6
 78
     2
 67
     7
 79
     5
170
     0
171
     0
290
     0
174
     0
 93
        1
 44
-50.0
173
     0
291
     1
 45
0.0
1001
ACAD
1000
AcDbSavedByObjectVersion
1070
     0
  0
VISUALSTYLE
  5
39
102
{ACAD_REACTORS
330
2A
102
}
330
2A
100
AcDbVisualStyle
  2
Facepattern
 70
    15
 71
     2
 72
     2
 73
     0
 90
        0
 40
-0.6
 41
-30.0
 62
     5
 63
     7
 74
     1
 91
        4
 64
     7
 65
   257
 75
     1
175
     1
 42
1.0
 92
        8
 66
     7
 43
1.0
 76
     1
 77
     6
 78
     2
 67
     7
 79
     5
170
     0
171
     0
290
     0
174
     0
 93
        1
 44
0.0
173
     0
291
     1
 45
0.0
1001
ACAD
1000
AcDbSavedByObjectVersion
1070
     0
  0
VISUALSTYLE
  5
2B
102
{ACAD_REACTORS
330
2A
102
}
330
2A
100
AcDbVisualStyle
  2
Flat
 70
     0
 71
     2
 72
     1
 73
     1
 90
        2
 40
-0.6
 41
30.0
 62
     5
 63
     7
 74
     0
 91
        4
 64
     7
 65
   257
 75
     1
175
     1
 42
1.0
 92
        8
 66
     7
 43
1.0
 76
     1
 77
     6
 78
     2
 67
     7
 79
     5
170
     0
171
     0
290
     0
174
     0
 93
       13
 44
0.0
173
     0
291
     1
 45
0.0
1001
ACAD
1000
AcDbSavedByObjectVersion
1070
     0
  0
VISUALSTYLE
  5
2C
102
{ACAD_REACTORS
330
2A
102
}
330
2A
100
AcDbVisualStyle
  2
FlatWithEdges
 70
     1
 71
     2
 72
     1
 73
     1
 90
        2
 40
-0.6
 41
30.0
 62
     5
 63
     7
 74
     1
 91
        4
 64
     7
 65
   257
 75
     1
175
     1
 42
1.0
 92
        0
 66
   257
 43
1.0
 76
     1
 77
     6
 78
     2
 67
     7
 79
     5
170
     0
171
     0
290
     0
174
     0
 93
       13
 44
0.0
173
     0
291
     1
 45
0.0
1001
ACAD
1000
AcDbSavedByObjectVersion
1070
     0
  0
VISUALSTYLE
  5
2D
102
{ACAD_REACTORS
330
2A
102
}
330
2A
100
AcDbVisualStyle
  2
Gouraud
 70
     2
 71
     2
 72
     2
 73
     1
 90
        2
 40
-0.6
 41
30.0
 62
     5
 63
     7
 74
     0
 91
        4
 64
     7
 65
   257
 75
     1
175
     1
 42
1.0
 92
        0
 66
     7
 43
1.0
 76
     1
 77
     6
 78
     2
 67
     7
 79
     5
170
     0
171
     0
290
     0
174
     0
 93
       13
 44
0.0
173
     0
291
     1
 45
0.0
1001
ACAD
1000
AcDbSavedByObjectVersion
1070
     0
  0
VISUALSTYLE
  5
2E
102
{ACAD_REACTORS
330
2A
102
}
330
2A
100
AcDbVisualStyle
  2
GouraudWithEdges
 70
     3
 71
     2
 72
     2
 73
     1
 90
        2
 40
-0.6
 41
30.0
 62
     5
 63
     7
 74
     1
 91
        4
 64
     7
 65
   257
 75
     1
175
     1
 42
1.0
 92
        0
 66
   257
 43
1.0
 76
     1
 77
     6
 78
     2
 67
     7
 79
     5
170
     0
171
     0
290
     0
174
     0
 93
       13
 44
0.0
173
     0
291
     1
 45
0.0
1001
ACAD
1000
AcDbSavedByObjectVersion
1070
     0
  0
VISUALSTYLE
  5
38
102
{ACAD_REACTORS
330
2A
102
}
330
2A
100
AcDbVisualStyle
  2
Linepattern
 70
    14
 71
     2
 72
     2
 73
     0
 90
        0
 40
-0.6
 41
-30.0
 62
     5
 63
     7
 74
     1
 91
        4
 64
     7
 65
   257
 75
     7
175
     7
 42
1.0
 92
        8
 66
     7
 43
1.0
 76
     1
 77
     6
 78
     2
 67
     7
 79
     5
170
     0
171
     0
290
     0
174
     0
 93
        1
 44
0.0
173
     0
291
     1
 45
0.0
1001
ACAD
1000
AcDbSavedByObjectVersion
1070
     0
  0
VISUALSTYLE
  5
33
102
{ACAD_REACTORS
330
2A
102
}
330
2A
100
AcDbVisualStyle
  2
Realistic
 70
     8
 71
     2
 72
     2
 73
     0
 90
        0
 40
-0.6
 41
-30.0
 62
     5
 63
     7
 74
     1
 91
        0
 64
     7
 65
   257
 75
     1
175
     1
 42
1.0
 92
        8
 66
     8
 43
1.0
 76
     1
 77
     6
 78
     2
 67
     7
 79
     5
170
     0
171
     0
290
     0
174
     0
 93
       13
 44
0.0
173
     0
291
     0
 45
0.0
1001
ACAD
1000
AcDbSavedByObjectVersion
1070
     0
  0
VISUALSTYLE
  5
37
102
{ACAD_REACTORS
330
2A
102
}
330
2A
100
AcDbVisualStyle
  2
Thicken
 70
    13
 71
     2
 72
     2
 73
     0
 90
        0
 40
-0.6
 41
-30.0
 62
     5
 63
     7
 74
     1
 91
        4
 64
     7
 65
   257
 75
     1
175
     1
 42
1.0
 92
       12
 66
     7
 43
1.0
 76
     1
 77
     6
 78
     2
 67
     7
 79
     5
170
     0
171
     0
290
     0
174
     0
 93
        1
 44
0.0
173
     0
291
     1
 45
0.0
1001
ACAD
1000
AcDbSavedByObjectVersion
1070
     0
  0
DICTIONARYVAR
  5
73E
102
{ACAD_REACTORS
330
739
102
}
330
739
100
DictionaryVariables
280
     0
  1
1:1
  0
DICTIONARYVAR
  5
73D
102
{ACAD_REACTORS
330
739
102
}
330
739
100
DictionaryVariables
280
     0
  1
80.000000
  0
DICTIONARYVAR
  5
73C
102
{ACAD_REACTORS
330
739
102
}
330
739
100
DictionaryVariables
280
     0
  1
5.000000
  0
ENDSEC
  0
EOF
