  0
SECTION
  2
HEADER
  9
$ACADVER
  1
AC1015
  9
$ACADMAINTVER
 70
     6
  9
$DWGCODEPAGE
  3
ANSI_932
  9
$INSBASE
 10
0.0
 20
0.0
 30
0.0
  9
$EXTMIN
 10
-130.1913341940266
 20
-135.0307504174916
 30
0.0
  9
$EXTMAX
 10
166.8086658059735
 20
74.96924958250837
 30
0.0
  9
$LIMMIN
 10
-130.1913299560547
 20
-135.0307464599609
  9
$LIMMAX
 10
166.8086700439453
 20
74.96925354003906
  9
$ORTHOMODE
 70
     0
  9
$REGENMODE
 70
     1
  9
$FILLMODE
 70
     1
  9
$QTEXTMODE
 70
     0
  9
$MIRRTEXT
 70
     1
  9
$LTSCALE
 40
1.0
  9
$ATTMODE
 70
     1
  9
$TEXTSIZE
 40
3.2
  9
$TRACEWID
 40
0.05
  9
$TEXTSTYLE
  7
Standard
  9
$CLAYER
  8
0
  9
$CELTYPE
  6
Continuous
  9
$CECOLOR
 62
   256
  9
$CELTSCALE
 40
1.0
  9
$DISPSILH
 70
     0
  9
$DIMSCALE
 40
1.0
  9
$DIMASZ
 40
1.0
  9
$DIMEXO
 40
2.54
  9
$DIMDLI
 40
0.38
  9
$DIMRND
 40
0.0
  9
$DIMDLE
 40
0.0
  9
$DIMEXE
 40
2.54
  9
$DIMTP
 40
0.0
  9
$DIMTM
 40
0.0
  9
$DIMTXT
 40
3.200000047683716
  9
$DIMCEN
 40
0.09
  9
$DIMTSZ
 40
0.0
  9
$DIMTOL
 70
     0
  9
$DIMLIM
 70
     0
  9
$DIMTIH
 70
     0
  9
$DIMTOH
 70
     0
  9
$DIMSE1
 70
     0
  9
$DIMSE2
 70
     0
  9
$DIMTAD
 70
     1
  9
$DIMZIN
 70
     0
  9
$DIMBLK
  1

  9
$DIMASO
 70
     1
  9
$DIMSHO
 70
     0
  9
$DIMPOST
  1

  9
$DIMAPOST
  1

  9
$DIMALT
 70
     0
  9
$DIMALTD
 70
     2
  9
$DIMALTF
 40
25.4
  9
$DIMLFAC
 40
1.0
  9
$DIMTOFL
 70
     0
  9
$DIMTVP
 40
1.0
  9
$DIMTIX
 70
     0
  9
$DIMSOXD
 70
     0
  9
$DIMSAH
 70
     1
  9
$DIMBLK1
  1

  9
$DIMBLK2
  1

  9
$DIMSTYLE
  2
DIMSTYLE
  9
$DIMCLRD
 70
     0
  9
$DIMCLRE
 70
     0
  9
$DIMCLRT
 70
     0
  9
$DIMTFAC
 40
1.0
  9
$DIMGAP
 40
1.600000023841858
  9
$DIMJUST
 70
     0
  9
$DIMSD1
 70
     0
  9
$DIMSD2
 70
     0
  9
$DIMTOLJ
 70
     1
  9
$DIMTZIN
 70
     0
  9
$DIMALTZ
 70
     0
  9
$DIMALTTZ
 70
     0
  9
$DIMUPT
 70
     0
  9
$DIMDEC
 70
     4
  9
$DIMTDEC
 70
     4
  9
$DIMALTU
 70
     2
  9
$DIMALTTD
 70
     2
  9
$DIMTXSTY
  7
Standard
  9
$DIMAUNIT
 70
     0
  9
$DIMADEC
 70
     0
  9
$DIMALTRND
 40
0.0
  9
$DIMAZIN
 70
     0
  9
$DIMDSEP
 70
    46
  9
$DIMATFIT
 70
     3
  9
$DIMFRAC
 70
     0
  9
$DIMLDRBLK
  1

  9
$DIMLUNIT
 70
     2
  9
$DIMLWD
 70
    -2
  9
$DIMLWE
 70
    -2
  9
$DIMTMOVE
 70
     0
  9
$LUNITS
 70
     2
  9
$LUPREC
 70
     4
  9
$SKETCHINC
 40
0.1
  9
$FILLETRAD
 40
0.0
  9
$AUNITS
 70
     0
  9
$AUPREC
 70
     0
  9
$MENU
  1
.
  9
$ELEVATION
 40
0.0
  9
$PELEVATION
 40
0.0
  9
$THICKNESS
 40
0.0
  9
$LIMCHECK
 70
     0
  9
$CHAMFERA
 40
0.0
  9
$CHAMFERB
 40
0.0
  9
$CHAMFERC
 40
0.0
  9
$CHAMFERD
 40
0.0
  9
$SKPOLY
 70
     0
  9
$TDCREATE
 40
2453354.092125822
  9
$TDUCREATE
 40
2453353.717125822
  9
$TDUPDATE
 40
2454434.783558611
  9
$TDUUPDATE
 40
2454434.408558611
  9
$TDINDWG
 40
0.0650704051
  9
$TDUSRTIMER
 40
0.0650704051
  9
$USRTIMER
 70
     1
  9
$ANGBASE
 50
0.0
  9
$ANGDIR
 70
     0
  9
$PDMODE
 70
     0
  9
$PDSIZE
 40
0.0
  9
$PLINEWID
 40
0.0
  9
$SPLFRAME
 70
     0
  9
$SPLINETYPE
 70
     6
  9
$SPLINESEGS
 70
     8
  9
$HANDSEED
  5
8D6
  9
$SURFTAB1
 70
     6
  9
$SURFTAB2
 70
     6
  9
$SURFTYPE
 70
     6
  9
$SURFU
 70
     6
  9
$SURFV
 70
     6
  9
$UCSBASE
  2

  9
$UCSNAME
  2

  9
$UCSORG
 10
0.0
 20
0.0
 30
0.0
  9
$UCSXDIR
 10
1.0
 20
0.0
 30
0.0
  9
$UCSYDIR
 10
0.0
 20
1.0
 30
0.0
  9
$UCSORTHOREF
  2

  9
$UCSORTHOVIEW
 70
     0
  9
$UCSORGTOP
 10
0.0
 20
0.0
 30
0.0
  9
$UCSORGBOTTOM
 10
0.0
 20
0.0
 30
0.0
  9
$UCSORGLEFT
 10
0.0
 20
0.0
 30
0.0
  9
$UCSORGRIGHT
 10
0.0
 20
0.0
 30
0.0
  9
$UCSORGFRONT
 10
0.0
 20
0.0
 30
0.0
  9
$UCSORGBACK
 10
0.0
 20
0.0
 30
0.0
  9
$PUCSBASE
  2

  9
$PUCSNAME
  2

  9
$PUCSORG
 10
0.0
 20
0.0
 30
0.0
  9
$PUCSXDIR
 10
1.0
 20
0.0
 30
0.0
  9
$PUCSYDIR
 10
0.0
 20
1.0
 30
0.0
  9
$PUCSORTHOREF
  2

  9
$PUCSORTHOVIEW
 70
     0
  9
$PUCSORGTOP
 10
0.0
 20
0.0
 30
0.0
  9
$PUCSORGBOTTOM
 10
0.0
 20
0.0
 30
0.0
  9
$PUCSORGLEFT
 10
0.0
 20
0.0
 30
0.0
  9
$PUCSORGRIGHT
 10
0.0
 20
0.0
 30
0.0
  9
$PUCSORGFRONT
 10
0.0
 20
0.0
 30
0.0
  9
$PUCSORGBACK
 10
0.0
 20
0.0
 30
0.0
  9
$USERI1
 70
     0
  9
$USERI2
 70
     0
  9
$USERI3
 70
     0
  9
$USERI4
 70
     0
  9
$USERI5
 70
     0
  9
$USERR1
 40
0.0
  9
$USERR2
 40
0.0
  9
$USERR3
 40
0.0
  9
$USERR4
 40
0.0
  9
$USERR5
 40
0.0
  9
$WORLDVIEW
 70
     1
  9
$SHADEDGE
 70
     3
  9
$SHADEDIF
 70
    70
  9
$TILEMODE
 70
     1
  9
$MAXACTVP
 70
    64
  9
$PINSBASE
 10
0.0
 20
0.0
 30
0.0
  9
$PLIMCHECK
 70
     0
  9
$PEXTMIN
 10
0.0
 20
0.0
 30
0.0
  9
$PEXTMAX
 10
0.0
 20
0.0
 30
0.0
  9
$PLIMMIN
 10
0.0
 20
0.0
  9
$PLIMMAX
 10
12.0
 20
9.0
  9
$UNITMODE
 70
     0
  9
$VISRETAIN
 70
     1
  9
$PLINEGEN
 70
     0
  9
$PSLTSCALE
 70
     1
  9
$TREEDEPTH
 70
  3020
  9
$CMLSTYLE
  2
Standard
  9
$CMLJUST
 70
     0
  9
$CMLSCALE
 40
1.0
  9
$PROXYGRAPHICS
 70
     1
  9
$MEASUREMENT
 70
     0
  9
$CELWEIGHT
370
    -1
  9
$ENDCAPS
280
     0
  9
$JOINSTYLE
280
     0
  9
$LWDISPLAY
290
     0
  9
$INSUNITS
 70
     0
  9
$HYPERLINKBASE
  1

  9
$STYLESHEET
  1

  9
$XEDIT
290
     0
  9
$CEPSNTYPE
380
     0
  9
$PSTYLEMODE
290
     1
  9
$FINGERPRINTGUID
  2
{36FD8EC5-E150-41C5-958C-836B69B9FF12}
  9
$VERSIONGUID
  2
{97DFD659-DC40-4CE6-B31C-14B7C7F0B3A2}
  9
$EXTNAMES
290
     1
  9
$PSVPSCALE
 40
0.0
  9
$OLESTARTUP
290
     0
  0
ENDSEC
  0
SECTION
  2
CLASSES
  0
CLASS
  1
ACDBDICTIONARYWDFLT
  2
AcDbDictionaryWithDefault
  3
ObjectDBX Classes
 90
        0
280
     0
281
     0
  0
CLASS
  1
ACDBPLACEHOLDER
  2
AcDbPlaceHolder
  3
ObjectDBX Classes
 90
        0
280
     0
281
     0
  0
CLASS
  1
LAYOUT
  2
AcDbLayout
  3
ObjectDBX Classes
 90
        0
280
     0
281
     0
  0
CLASS
  1
DICTIONARYVAR
  2
AcDbDictionaryVar
  3
ObjectDBX Classes
 90
        0
280
     0
281
     0
  0
CLASS
  1
TABLESTYLE
  2
AcDbTableStyle
  3
ObjectDBX Classes
 90
     2047
280
     0
281
     0
  0
ENDSEC
  0
SECTION
  2
TABLES
  0
TABLE
  2
VPORT
  5
8
330
0
100
AcDbSymbolTable
 70
     2
  0
VPORT
  5
97
330
8
100
AcDbSymbolTableRecord
100
AcDbViewportTableRecord
  2
*Active
 70
     0
 10
0.0
 20
0.0
 11
1.0
 21
1.0
 12
18.30866580597346
 22
-30.03075041749161
 13
0.0
 23
0.0
 14
1.0
 24
1.0
 15
0.0
 25
0.0
 16
0.0
 26
0.0
 36
1.0
 17
0.0
 27
0.0
 37
0.0
 40
214.2
 41
1.527918781725888
 42
50.0
 43
0.0
 44
0.0
 50
0.0
 51
0.0
 71
    16
 72
   100
 73
     1
 74
     1
 75
     0
 76
     0
 77
     0
 78
     0
281
     0
 65
     0
110
0.0
120
0.0
130
0.0
111
1.0
121
0.0
131
0.0
112
0.0
122
1.0
132
0.0
 79
     0
146
0.0
  0
ENDTAB
  0
TABLE
  2
LTYPE
  5
5
330
0
100
AcDbSymbolTable
 70
    39
  0
LTYPE
  5
14
330
5
100
AcDbSymbolTableRecord
100
AcDbLinetypeTableRecord
  2
ByBlock
 70
     0
  3

 72
    65
 73
     0
 40
0.0
  0
LTYPE
  5
15
330
5
100
AcDbSymbolTableRecord
100
AcDbLinetypeTableRecord
  2
ByLayer
 70
     0
  3

 72
    65
 73
     0
 40
0.0
  0
LTYPE
  5
16
330
5
100
AcDbSymbolTableRecord
100
AcDbLinetypeTableRecord
  2
Continuous
 70
     0
  3
Solid line
 72
    65
 73
     0
 40
0.0
  0
LTYPE
  5
83E
330
5
100
AcDbSymbolTableRecord
100
AcDbLinetypeTableRecord
  2
ACAD_ISO02W100
 70
     0
  3
ISO dash __ __ __ __ __ __ __ __ __ __ __ __ __
 72
    65
 73
     2
 40
15.0
 49
12.0
 74
     4
 75
     0
340
0
 46
1.0
 50
0.0
 44
0.0
 45
0.0
 49
-3.0
 74
     4
 75
     0
340
0
 46
1.0
 50
0.0
 44
0.0
 45
0.0
  0
LTYPE
  5
83F
330
5
100
AcDbSymbolTableRecord
100
AcDbLinetypeTableRecord
  2
ACAD_ISO03W100
 70
     0
  3
ISO dash space __    __    __    __    __    __
 72
    65
 73
     2
 40
30.0
 49
12.0
 74
     4
 75
     0
340
0
 46
1.0
 50
0.0
 44
0.0
 45
0.0
 49
-18.0
 74
     4
 75
     0
340
0
 46
1.0
 50
0.0
 44
0.0
 45
0.0
  0
LTYPE
  5
840
330
5
100
AcDbSymbolTableRecord
100
AcDbLinetypeTableRecord
  2
ACAD_ISO04W100
 70
     0
  3
ISO long-dash dot ____ . ____ . ____ . ____ . _
 72
    65
 73
     4
 40
30.0
 49
24.0
 74
     4
 75
     0
340
0
 46
1.0
 50
0.0
 44
0.0
 45
0.0
 49
-3.0
 74
     4
 75
     0
340
0
 46
1.0
 50
0.0
 44
0.0
 45
0.0
 49
0.0
 74
     4
 75
     0
340
0
 46
1.0
 50
0.0
 44
0.0
 45
0.0
 49
-3.0
 74
     4
 75
     0
340
0
 46
1.0
 50
0.0
 44
0.0
 45
0.0
  0
LTYPE
  5
841
330
5
100
AcDbSymbolTableRecord
100
AcDbLinetypeTableRecord
  2
ACAD_ISO05W100
 70
     0
  3
ISO long-dash double-dot ____ .. ____ .. ____ .
 72
    65
 73
     6
 40
33.0
 49
24.0
 74
     4
 75
     0
340
0
 46
1.0
 50
0.0
 44
0.0
 45
0.0
 49
-3.0
 74
     4
 75
     0
340
0
 46
1.0
 50
0.0
 44
0.0
 45
0.0
 49
0.0
 74
     4
 75
     0
340
0
 46
1.0
 50
0.0
 44
0.0
 45
0.0
 49
-3.0
 74
     4
 75
     0
340
0
 46
1.0
 50
0.0
 44
0.0
 45
0.0
 49
0.0
 74
     4
 75
     0
340
0
 46
1.0
 50
0.0
 44
0.0
 45
0.0
 49
-3.0
 74
     4
 75
     0
340
0
 46
1.0
 50
0.0
 44
0.0
 45
0.0
  0
LTYPE
  5
842
330
5
100
AcDbSymbolTableRecord
100
AcDbLinetypeTableRecord
  2
ACAD_ISO06W100
 70
     0
  3
ISO long-dash triple-dot ____ ... ____ ... ____
 72
    65
 73
     8
 40
36.0
 49
24.0
 74
     4
 75
     0
340
0
 46
1.0
 50
0.0
 44
0.0
 45
0.0
 49
-3.0
 74
     4
 75
     0
340
0
 46
1.0
 50
0.0
 44
0.0
 45
0.0
 49
0.0
 74
     4
 75
     0
340
0
 46
1.0
 50
0.0
 44
0.0
 45
0.0
 49
-3.0
 74
     4
 75
     0
340
0
 46
1.0
 50
0.0
 44
0.0
 45
0.0
 49
0.0
 74
     4
 75
     0
340
0
 46
1.0
 50
0.0
 44
0.0
 45
0.0
 49
-3.0
 74
     4
 75
     0
340
0
 46
1.0
 50
0.0
 44
0.0
 45
0.0
 49
0.0
 74
     4
 75
     0
340
0
 46
1.0
 50
0.0
 44
0.0
 45
0.0
 49
-3.0
 74
     4
 75
     0
340
0
 46
1.0
 50
0.0
 44
0.0
 45
0.0
  0
LTYPE
  5
843
330
5
100
AcDbSymbolTableRecord
100
AcDbLinetypeTableRecord
  2
ACAD_ISO07W100
 70
     0
  3
ISO dot . . . . . . . . . . . . . . . . . . . .
 72
    65
 73
     2
 40
3.0
 49
0.0
 74
     4
 75
     0
340
0
 46
1.0
 50
0.0
 44
0.0
 45
0.0
 49
-3.0
 74
     4
 75
     0
340
0
 46
1.0
 50
0.0
 44
0.0
 45
0.0
  0
LTYPE
  5
844
330
5
100
AcDbSymbolTableRecord
100
AcDbLinetypeTableRecord
  2
ACAD_ISO08W100
 70
     0
  3
ISO long-dash short-dash ____ __ ____ __ ____ _
 72
    65
 73
     4
 40
36.0
 49
24.0
 74
     4
 75
     0
340
0
 46
1.0
 50
0.0
 44
0.0
 45
0.0
 49
-3.0
 74
     4
 75
     0
340
0
 46
1.0
 50
0.0
 44
0.0
 45
0.0
 49
6.0
 74
     4
 75
     0
340
0
 46
1.0
 50
0.0
 44
0.0
 45
0.0
 49
-3.0
 74
     4
 75
     0
340
0
 46
1.0
 50
0.0
 44
0.0
 45
0.0
  0
LTYPE
  5
845
330
5
100
AcDbSymbolTableRecord
100
AcDbLinetypeTableRecord
  2
ACAD_ISO09W100
 70
     0
  3
ISO long-dash double-short-dash ____ __ __ ____
 72
    65
 73
     6
 40
45.0
 49
24.0
 74
     4
 75
     0
340
0
 46
1.0
 50
0.0
 44
0.0
 45
0.0
 49
-3.0
 74
     4
 75
     0
340
0
 46
1.0
 50
0.0
 44
0.0
 45
0.0
 49
6.0
 74
     4
 75
     0
340
0
 46
1.0
 50
0.0
 44
0.0
 45
0.0
 49
-3.0
 74
     4
 75
     0
340
0
 46
1.0
 50
0.0
 44
0.0
 45
0.0
 49
6.0
 74
     4
 75
     0
340
0
 46
1.0
 50
0.0
 44
0.0
 45
0.0
 49
-3.0
 74
     4
 75
     0
340
0
 46
1.0
 50
0.0
 44
0.0
 45
0.0
  0
LTYPE
  5
846
330
5
100
AcDbSymbolTableRecord
100
AcDbLinetypeTableRecord
  2
ACAD_ISO10W100
 70
     0
  3
ISO dash dot __ . __ . __ . __ . __ . __ . __ .
 72
    65
 73
     4
 40
18.0
 49
12.0
 74
     4
 75
     0
340
0
 46
1.0
 50
0.0
 44
0.0
 45
0.0
 49
-3.0
 74
     4
 75
     0
340
0
 46
1.0
 50
0.0
 44
0.0
 45
0.0
 49
0.0
 74
     4
 75
     0
340
0
 46
1.0
 50
0.0
 44
0.0
 45
0.0
 49
-3.0
 74
     4
 75
     0
340
0
 46
1.0
 50
0.0
 44
0.0
 45
0.0
  0
LTYPE
  5
847
330
5
100
AcDbSymbolTableRecord
100
AcDbLinetypeTableRecord
  2
ACAD_ISO11W100
 70
     0
  3
ISO double-dash dot __ __ . __ __ . __ __ . __ 
 72
    65
 73
     6
 40
33.0
 49
12.0
 74
     4
 75
     0
340
0
 46
1.0
 50
0.0
 44
0.0
 45
0.0
 49
-3.0
 74
     4
 75
     0
340
0
 46
1.0
 50
0.0
 44
0.0
 45
0.0
 49
12.0
 74
     4
 75
     0
340
0
 46
1.0
 50
0.0
 44
0.0
 45
0.0
 49
-3.0
 74
     4
 75
     0
340
0
 46
1.0
 50
0.0
 44
0.0
 45
0.0
 49
0.0
 74
     4
 75
     0
340
0
 46
1.0
 50
0.0
 44
0.0
 45
0.0
 49
-3.0
 74
     4
 75
     0
340
0
 46
1.0
 50
0.0
 44
0.0
 45
0.0
  0
LTYPE
  5
848
330
5
100
AcDbSymbolTableRecord
100
AcDbLinetypeTableRecord
  2
ACAD_ISO12W100
 70
     0
  3
ISO dash double-dot __ . . __ . . __ . . __ . .
 72
    65
 73
     6
 40
21.0
 49
12.0
 74
     4
 75
     0
340
0
 46
1.0
 50
0.0
 44
0.0
 45
0.0
 49
-3.0
 74
     4
 75
     0
340
0
 46
1.0
 50
0.0
 44
0.0
 45
0.0
 49
0.0
 74
     4
 75
     0
340
0
 46
1.0
 50
0.0
 44
0.0
 45
0.0
 49
-3.0
 74
     4
 75
     0
340
0
 46
1.0
 50
0.0
 44
0.0
 45
0.0
 49
0.0
 74
     4
 75
     0
340
0
 46
1.0
 50
0.0
 44
0.0
 45
0.0
 49
-3.0
 74
     4
 75
     0
340
0
 46
1.0
 50
0.0
 44
0.0
 45
0.0
  0
LTYPE
  5
849
330
5
100
AcDbSymbolTableRecord
100
AcDbLinetypeTableRecord
  2
ACAD_ISO13W100
 70
     0
  3
ISO double-dash double-dot __ __ . . __ __ . . 
 72
    65
 73
     8
 40
36.0
 49
12.0
 74
     4
 75
     0
340
0
 46
1.0
 50
0.0
 44
0.0
 45
0.0
 49
-3.0
 74
     4
 75
     0
340
0
 46
1.0
 50
0.0
 44
0.0
 45
0.0
 49
12.0
 74
     4
 75
     0
340
0
 46
1.0
 50
0.0
 44
0.0
 45
0.0
 49
-3.0
 74
     4
 75
     0
340
0
 46
1.0
 50
0.0
 44
0.0
 45
0.0
 49
0.0
 74
     4
 75
     0
340
0
 46
1.0
 50
0.0
 44
0.0
 45
0.0
 49
-3.0
 74
     4
 75
     0
340
0
 46
1.0
 50
0.0
 44
0.0
 45
0.0
 49
0.0
 74
     4
 75
     0
340
0
 46
1.0
 50
0.0
 44
0.0
 45
0.0
 49
-3.0
 74
     4
 75
     0
340
0
 46
1.0
 50
0.0
 44
0.0
 45
0.0
  0
LTYPE
  5
84A
330
5
100
AcDbSymbolTableRecord
100
AcDbLinetypeTableRecord
  2
ACAD_ISO14W100
 70
     0
  3
ISO dash triple-dot __ . . . __ . . . __ . . . 
 72
    65
 73
     8
 40
24.0
 49
12.0
 74
     4
 75
     0
340
0
 46
1.0
 50
0.0
 44
0.0
 45
0.0
 49
-3.0
 74
     4
 75
     0
340
0
 46
1.0
 50
0.0
 44
0.0
 45
0.0
 49
0.0
 74
     4
 75
     0
340
0
 46
1.0
 50
0.0
 44
0.0
 45
0.0
 49
-3.0
 74
     4
 75
     0
340
0
 46
1.0
 50
0.0
 44
0.0
 45
0.0
 49
0.0
 74
     4
 75
     0
340
0
 46
1.0
 50
0.0
 44
0.0
 45
0.0
 49
-3.0
 74
     4
 75
     0
340
0
 46
1.0
 50
0.0
 44
0.0
 45
0.0
 49
0.0
 74
     4
 75
     0
340
0
 46
1.0
 50
0.0
 44
0.0
 45
0.0
 49
-3.0
 74
     4
 75
     0
340
0
 46
1.0
 50
0.0
 44
0.0
 45
0.0
  0
LTYPE
  5
84B
330
5
100
AcDbSymbolTableRecord
100
AcDbLinetypeTableRecord
  2
ACAD_ISO15W100
 70
     0
  3
ISO double-dash triple-dot __ __ . . . __ __ . 
 72
    65
 73
    10
 40
39.0
 49
12.0
 74
     4
 75
     0
340
0
 46
1.0
 50
0.0
 44
0.0
 45
0.0
 49
-3.0
 74
     4
 75
     0
340
0
 46
1.0
 50
0.0
 44
0.0
 45
0.0
 49
12.0
 74
     4
 75
     0
340
0
 46
1.0
 50
0.0
 44
0.0
 45
0.0
 49
-3.0
 74
     4
 75
     0
340
0
 46
1.0
 50
0.0
 44
0.0
 45
0.0
 49
0.0
 74
     4
 75
     0
340
0
 46
1.0
 50
0.0
 44
0.0
 45
0.0
 49
-3.0
 74
     4
 75
     0
340
0
 46
1.0
 50
0.0
 44
0.0
 45
0.0
 49
0.0
 74
     4
 75
     0
340
0
 46
1.0
 50
0.0
 44
0.0
 45
0.0
 49
-3.0
 74
     4
 75
     0
340
0
 46
1.0
 50
0.0
 44
0.0
 45
0.0
 49
0.0
 74
     4
 75
     0
340
0
 46
1.0
 50
0.0
 44
0.0
 45
0.0
 49
-3.0
 74
     4
 75
     0
340
0
 46
1.0
 50
0.0
 44
0.0
 45
0.0
  0
LTYPE
  5
84C
330
5
100
AcDbSymbolTableRecord
100
AcDbLinetypeTableRecord
  2
BORDER
 70
     0
  3
Border __ __ . __ __ . __ __ . __ __ . __ __ .
 72
    65
 73
     6
 40
3.5
 49
1.0
 74
     4
 75
     0
340
0
 46
1.0
 50
0.0
 44
0.0
 45
0.0
 49
-0.5
 74
     4
 75
     0
340
0
 46
1.0
 50
0.0
 44
0.0
 45
0.0
 49
1.0
 74
     4
 75
     0
340
0
 46
1.0
 50
0.0
 44
0.0
 45
0.0
 49
-0.5
 74
     4
 75
     0
340
0
 46
1.0
 50
0.0
 44
0.0
 45
0.0
 49
0.0
 74
     4
 75
     0
340
0
 46
1.0
 50
0.0
 44
0.0
 45
0.0
 49
-0.5
 74
     4
 75
     0
340
0
 46
1.0
 50
0.0
 44
0.0
 45
0.0
  0
LTYPE
  5
84D
330
5
100
AcDbSymbolTableRecord
100
AcDbLinetypeTableRecord
  2
BORDER2
 70
     0
  3
Border (.5x) __.__.__.__.__.__.__.__.__.__.__.
 72
    65
 73
     6
 40
1.75
 49
0.5
 74
     4
 75
     0
340
0
 46
1.0
 50
0.0
 44
0.0
 45
0.0
 49
-0.25
 74
     4
 75
     0
340
0
 46
1.0
 50
0.0
 44
0.0
 45
0.0
 49
0.5
 74
     4
 75
     0
340
0
 46
1.0
 50
0.0
 44
0.0
 45
0.0
 49
-0.25
 74
     4
 75
     0
340
0
 46
1.0
 50
0.0
 44
0.0
 45
0.0
 49
0.0
 74
     4
 75
     0
340
0
 46
1.0
 50
0.0
 44
0.0
 45
0.0
 49
-0.25
 74
     4
 75
     0
340
0
 46
1.0
 50
0.0
 44
0.0
 45
0.0
  0
LTYPE
  5
84E
330
5
100
AcDbSymbolTableRecord
100
AcDbLinetypeTableRecord
  2
BORDERX2
 70
     0
  3
Border (2x) ____  ____  .  ____  ____  .  ___
 72
    65
 73
     6
 40
7.0
 49
2.0
 74
     4
 75
     0
340
0
 46
1.0
 50
0.0
 44
0.0
 45
0.0
 49
-1.0
 74
     4
 75
     0
340
0
 46
1.0
 50
0.0
 44
0.0
 45
0.0
 49
2.0
 74
     4
 75
     0
340
0
 46
1.0
 50
0.0
 44
0.0
 45
0.0
 49
-1.0
 74
     4
 75
     0
340
0
 46
1.0
 50
0.0
 44
0.0
 45
0.0
 49
0.0
 74
     4
 75
     0
340
0
 46
1.0
 50
0.0
 44
0.0
 45
0.0
 49
-1.0
 74
     4
 75
     0
340
0
 46
1.0
 50
0.0
 44
0.0
 45
0.0
  0
LTYPE
  5
84F
330
5
100
AcDbSymbolTableRecord
100
AcDbLinetypeTableRecord
  2
CENTER
 70
     0
  3
Center ____ _ ____ _ ____ _ ____ _ ____ _ ____
 72
    65
 73
     4
 40
12.0
 49
7.5
 74
     4
 75
     0
340
0
 46
1.0
 50
0.0
 44
0.0
 45
0.0
 49
-1.5
 74
     4
 75
     0
340
0
 46
1.0
 50
0.0
 44
0.0
 45
0.0
 49
1.5
 74
     4
 75
     0
340
0
 46
1.0
 50
0.0
 44
0.0
 45
0.0
 49
-1.5
 74
     4
 75
     0
340
0
 46
1.0
 50
0.0
 44
0.0
 45
0.0
  0
LTYPE
  5
850
330
5
100
AcDbSymbolTableRecord
100
AcDbLinetypeTableRecord
  2
CENTER2
 70
     0
  3
Center (.5x) ___ _ ___ _ ___ _ ___ _ ___ _ ___
 72
    65
 73
     4
 40
6.0
 49
3.75
 74
     4
 75
     0
340
0
 46
1.0
 50
0.0
 44
0.0
 45
0.0
 49
-0.75
 74
     4
 75
     0
340
0
 46
1.0
 50
0.0
 44
0.0
 45
0.0
 49
0.75
 74
     4
 75
     0
340
0
 46
1.0
 50
0.0
 44
0.0
 45
0.0
 49
-0.75
 74
     4
 75
     0
340
0
 46
1.0
 50
0.0
 44
0.0
 45
0.0
  0
LTYPE
  5
851
330
5
100
AcDbSymbolTableRecord
100
AcDbLinetypeTableRecord
  2
CENTERX2
 70
     0
  3
Center (2x) ________  __  ________  __  _____
 72
    65
 73
     4
 40
24.0
 49
15.0
 74
     4
 75
     0
340
0
 46
1.0
 50
0.0
 44
0.0
 45
0.0
 49
-3.0
 74
     4
 75
     0
340
0
 46
1.0
 50
0.0
 44
0.0
 45
0.0
 49
3.0
 74
     4
 75
     0
340
0
 46
1.0
 50
0.0
 44
0.0
 45
0.0
 49
-3.0
 74
     4
 75
     0
340
0
 46
1.0
 50
0.0
 44
0.0
 45
0.0
  0
LTYPE
  5
852
330
5
100
AcDbSymbolTableRecord
100
AcDbLinetypeTableRecord
  2
DASHDOT
 70
     0
  3
Dash dot __ . __ . __ . __ . __ . __ . __ . __
 72
    65
 73
     4
 40
6.0
 49
3.0
 74
     4
 75
     0
340
0
 46
1.0
 50
0.0
 44
0.0
 45
0.0
 49
-1.5
 74
     4
 75
     0
340
0
 46
1.0
 50
0.0
 44
0.0
 45
0.0
 49
0.0
 74
     4
 75
     0
340
0
 46
1.0
 50
0.0
 44
0.0
 45
0.0
 49
-1.5
 74
     4
 75
     0
340
0
 46
1.0
 50
0.0
 44
0.0
 45
0.0
  0
LTYPE
  5
853
330
5
100
AcDbSymbolTableRecord
100
AcDbLinetypeTableRecord
  2
DASHDOT2
 70
     0
  3
Dash dot (.5x) _._._._._._._._._._._._._._._.
 72
    65
 73
     4
 40
3.0
 49
1.5
 74
     4
 75
     0
340
0
 46
1.0
 50
0.0
 44
0.0
 45
0.0
 49
-0.75
 74
     4
 75
     0
340
0
 46
1.0
 50
0.0
 44
0.0
 45
0.0
 49
0.0
 74
     4
 75
     0
340
0
 46
1.0
 50
0.0
 44
0.0
 45
0.0
 49
-0.75
 74
     4
 75
     0
340
0
 46
1.0
 50
0.0
 44
0.0
 45
0.0
  0
LTYPE
  5
854
330
5
100
AcDbSymbolTableRecord
100
AcDbLinetypeTableRecord
  2
DASHDOTX2
 70
     0
  3
Dash dot (2x) ____  .  ____  .  ____  .  ___
 72
    65
 73
     4
 40
12.0
 49
6.0
 74
     4
 75
     0
340
0
 46
1.0
 50
0.0
 44
0.0
 45
0.0
 49
-3.0
 74
     4
 75
     0
340
0
 46
1.0
 50
0.0
 44
0.0
 45
0.0
 49
0.0
 74
     4
 75
     0
340
0
 46
1.0
 50
0.0
 44
0.0
 45
0.0
 49
-3.0
 74
     4
 75
     0
340
0
 46
1.0
 50
0.0
 44
0.0
 45
0.0
  0
LTYPE
  5
855
330
5
100
AcDbSymbolTableRecord
100
AcDbLinetypeTableRecord
  2
DASHED
 70
     0
  3
Dashed __ __ __ __ __ __ __ __ __ __ __ __ __ _
 72
    65
 73
     2
 40
4.5
 49
3.0
 74
     4
 75
     0
340
0
 46
1.0
 50
0.0
 44
0.0
 45
0.0
 49
-1.5
 74
     4
 75
     0
340
0
 46
1.0
 50
0.0
 44
0.0
 45
0.0
  0
LTYPE
  5
856
330
5
100
AcDbSymbolTableRecord
100
AcDbLinetypeTableRecord
  2
DASHED2
 70
     0
  3
Dashed (.5x) _ _ _ _ _ _ _ _ _ _ _ _ _ _ _ _ _
 72
    65
 73
     2
 40
2.25
 49
1.5
 74
     4
 75
     0
340
0
 46
1.0
 50
0.0
 44
0.0
 45
0.0
 49
-0.75
 74
     4
 75
     0
340
0
 46
1.0
 50
0.0
 44
0.0
 45
0.0
  0
LTYPE
  5
857
330
5
100
AcDbSymbolTableRecord
100
AcDbLinetypeTableRecord
  2
DASHEDX2
 70
     0
  3
Dashed (2x) ____  ____  ____  ____  ____  ___
 72
    65
 73
     2
 40
9.0
 49
6.0
 74
     4
 75
     0
340
0
 46
1.0
 50
0.0
 44
0.0
 45
0.0
 49
-3.0
 74
     4
 75
     0
340
0
 46
1.0
 50
0.0
 44
0.0
 45
0.0
  0
LTYPE
  5
858
330
5
100
AcDbSymbolTableRecord
100
AcDbLinetypeTableRecord
  2
DIVIDE
 70
     0
  3
Divide ____ . . ____ . . ____ . . ____ . . ____
 72
    65
 73
     6
 40
7.5
 49
3.0
 74
     4
 75
     0
340
0
 46
1.0
 50
0.0
 44
0.0
 45
0.0
 49
-1.5
 74
     4
 75
     0
340
0
 46
1.0
 50
0.0
 44
0.0
 45
0.0
 49
0.0
 74
     4
 75
     0
340
0
 46
1.0
 50
0.0
 44
0.0
 45
0.0
 49
-1.5
 74
     4
 75
     0
340
0
 46
1.0
 50
0.0
 44
0.0
 45
0.0
 49
0.0
 74
     4
 75
     0
340
0
 46
1.0
 50
0.0
 44
0.0
 45
0.0
 49
-1.5
 74
     4
 75
     0
340
0
 46
1.0
 50
0.0
 44
0.0
 45
0.0
  0
LTYPE
  5
859
330
5
100
AcDbSymbolTableRecord
100
AcDbLinetypeTableRecord
  2
DIVIDE2
 70
     0
  3
Divide (.5x) __..__..__..__..__..__..__..__.._
 72
    65
 73
     6
 40
3.75
 49
1.5
 74
     4
 75
     0
340
0
 46
1.0
 50
0.0
 44
0.0
 45
0.0
 49
-0.75
 74
     4
 75
     0
340
0
 46
1.0
 50
0.0
 44
0.0
 45
0.0
 49
0.0
 74
     4
 75
     0
340
0
 46
1.0
 50
0.0
 44
0.0
 45
0.0
 49
-0.75
 74
     4
 75
     0
340
0
 46
1.0
 50
0.0
 44
0.0
 45
0.0
 49
0.0
 74
     4
 75
     0
340
0
 46
1.0
 50
0.0
 44
0.0
 45
0.0
 49
-0.75
 74
     4
 75
     0
340
0
 46
1.0
 50
0.0
 44
0.0
 45
0.0
  0
LTYPE
  5
85A
330
5
100
AcDbSymbolTableRecord
100
AcDbLinetypeTableRecord
  2
DIVIDEX2
 70
     0
  3
Divide (2x) ________  .  .  ________  .  .  _
 72
    65
 73
     6
 40
15.0
 49
6.0
 74
     4
 75
     0
340
0
 46
1.0
 50
0.0
 44
0.0
 45
0.0
 49
-3.0
 74
     4
 75
     0
340
0
 46
1.0
 50
0.0
 44
0.0
 45
0.0
 49
0.0
 74
     4
 75
     0
340
0
 46
1.0
 50
0.0
 44
0.0
 45
0.0
 49
-3.0
 74
     4
 75
     0
340
0
 46
1.0
 50
0.0
 44
0.0
 45
0.0
 49
0.0
 74
     4
 75
     0
340
0
 46
1.0
 50
0.0
 44
0.0
 45
0.0
 49
-3.0
 74
     4
 75
     0
340
0
 46
1.0
 50
0.0
 44
0.0
 45
0.0
  0
LTYPE
  5
85B
330
5
100
AcDbSymbolTableRecord
100
AcDbLinetypeTableRecord
  2
DOT
 70
     0
  3
Dot . . . . . . . . . . . . . . . . . . . . . .
 72
    65
 73
     2
 40
1.5
 49
0.0
 74
     4
 75
     0
340
0
 46
1.0
 50
0.0
 44
0.0
 45
0.0
 49
-1.5
 74
     4
 75
     0
340
0
 46
1.0
 50
0.0
 44
0.0
 45
0.0
  0
LTYPE
  5
85C
330
5
100
AcDbSymbolTableRecord
100
AcDbLinetypeTableRecord
  2
DOT2
 70
     0
  3
Dot (.5x) .....................................
 72
    65
 73
     2
 40
0.75
 49
0.0
 74
     4
 75
     0
340
0
 46
1.0
 50
0.0
 44
0.0
 45
0.0
 49
-0.75
 74
     4
 75
     0
340
0
 46
1.0
 50
0.0
 44
0.0
 45
0.0
  0
LTYPE
  5
85D
330
5
100
AcDbSymbolTableRecord
100
AcDbLinetypeTableRecord
  2
DOTX2
 70
     0
  3
Dot (2x) .  .  .  .  .  .  .  .  .  .  .  .  . 
 72
    65
 73
     2
 40
3.0
 49
0.0
 74
     4
 75
     0
340
0
 46
1.0
 50
0.0
 44
0.0
 45
0.0
 49
-3.0
 74
     4
 75
     0
340
0
 46
1.0
 50
0.0
 44
0.0
 45
0.0
  0
LTYPE
  5
85E
330
5
100
AcDbSymbolTableRecord
100
AcDbLinetypeTableRecord
  2
HIDDEN
 70
     0
  3
Hidden __ __ __ __ __ __ __ __ __ __ __ __ __ _
 72
    65
 73
     2
 40
4.5
 49
3.0
 74
     4
 75
     0
340
0
 46
1.0
 50
0.0
 44
0.0
 45
0.0
 49
-1.5
 74
     4
 75
     0
340
0
 46
1.0
 50
0.0
 44
0.0
 45
0.0
  0
LTYPE
  5
85F
330
5
100
AcDbSymbolTableRecord
100
AcDbLinetypeTableRecord
  2
HIDDEN2
 70
     0
  3
Hidden (.5x) _ _ _ _ _ _ _ _ _ _ _ _ _ _ _ _ _
 72
    65
 73
     2
 40
2.25
 49
1.5
 74
     4
 75
     0
340
0
 46
1.0
 50
0.0
 44
0.0
 45
0.0
 49
-0.75
 74
     4
 75
     0
340
0
 46
1.0
 50
0.0
 44
0.0
 45
0.0
  0
LTYPE
  5
860
330
5
100
AcDbSymbolTableRecord
100
AcDbLinetypeTableRecord
  2
HIDDENX2
 70
     0
  3
Hidden (2x) ____ ____ ____ ____ ____ ____ ____
 72
    65
 73
     2
 40
9.0
 49
6.0
 74
     4
 75
     0
340
0
 46
1.0
 50
0.0
 44
0.0
 45
0.0
 49
-3.0
 74
     4
 75
     0
340
0
 46
1.0
 50
0.0
 44
0.0
 45
0.0
  0
LTYPE
  5
861
330
5
100
AcDbSymbolTableRecord
100
AcDbLinetypeTableRecord
  2
PHANTOM
 70
     0
  3
Phantom ______  __  __  ______  __  __  ______
 72
    65
 73
     6
 40
15.0
 49
7.5
 74
     4
 75
     0
340
0
 46
1.0
 50
0.0
 44
0.0
 45
0.0
 49
-1.5
 74
     4
 75
     0
340
0
 46
1.0
 50
0.0
 44
0.0
 45
0.0
 49
1.5
 74
     4
 75
     0
340
0
 46
1.0
 50
0.0
 44
0.0
 45
0.0
 49
-1.5
 74
     4
 75
     0
340
0
 46
1.0
 50
0.0
 44
0.0
 45
0.0
 49
1.5
 74
     4
 75
     0
340
0
 46
1.0
 50
0.0
 44
0.0
 45
0.0
 49
-1.5
 74
     4
 75
     0
340
0
 46
1.0
 50
0.0
 44
0.0
 45
0.0
  0
LTYPE
  5
862
330
5
100
AcDbSymbolTableRecord
100
AcDbLinetypeTableRecord
  2
PHANTOM2
 70
     0
  3
Phantom (.5x) ___ _ _ ___ _ _ ___ _ _ ___ _ _
 72
    65
 73
     6
 40
7.5
 49
3.75
 74
     4
 75
     0
340
0
 46
1.0
 50
0.0
 44
0.0
 45
0.0
 49
-0.75
 74
     4
 75
     0
340
0
 46
1.0
 50
0.0
 44
0.0
 45
0.0
 49
0.75
 74
     4
 75
     0
340
0
 46
1.0
 50
0.0
 44
0.0
 45
0.0
 49
-0.75
 74
     4
 75
     0
340
0
 46
1.0
 50
0.0
 44
0.0
 45
0.0
 49
0.75
 74
     4
 75
     0
340
0
 46
1.0
 50
0.0
 44
0.0
 45
0.0
 49
-0.75
 74
     4
 75
     0
340
0
 46
1.0
 50
0.0
 44
0.0
 45
0.0
  0
LTYPE
  5
863
330
5
100
AcDbSymbolTableRecord
100
AcDbLinetypeTableRecord
  2
PHANTOMX2
 70
     0
  3
Phantom (2x) ____________    ____    ____   _
 72
    65
 73
     6
 40
30.0
 49
15.0
 74
     4
 75
     0
340
0
 46
1.0
 50
0.0
 44
0.0
 45
0.0
 49
-3.0
 74
     4
 75
     0
340
0
 46
1.0
 50
0.0
 44
0.0
 45
0.0
 49
3.0
 74
     4
 75
     0
340
0
 46
1.0
 50
0.0
 44
0.0
 45
0.0
 49
-3.0
 74
     4
 75
     0
340
0
 46
1.0
 50
0.0
 44
0.0
 45
0.0
 49
3.0
 74
     4
 75
     0
340
0
 46
1.0
 50
0.0
 44
0.0
 45
0.0
 49
-3.0
 74
     4
 75
     0
340
0
 46
1.0
 50
0.0
 44
0.0
 45
0.0
  0
ENDTAB
  0
TABLE
  2
LAYER
  5
2
330
0
100
AcDbSymbolTable
 70
     7
  0
LAYER
  5
10
330
2
100
AcDbSymbolTableRecord
100
AcDbLayerTableRecord
  2
0
 70
     0
 62
     7
  6
Continuous
370
    -3
390
F
  0
LAYER
  5
48
330
2
100
AcDbSymbolTableRecord
100
AcDbLayerTableRecord
  2
1
 70
     0
 62
     7
  6
Continuous
370
    -3
390
F
  0
LAYER
  5
49
330
2
100
AcDbSymbolTableRecord
100
AcDbLayerTableRecord
  2
2
 70
     0
 62
     7
  6
Continuous
370
    -3
390
F
  0
LAYER
  5
4A
330
2
100
AcDbSymbolTableRecord
100
AcDbLayerTableRecord
  2
3
 70
     0
 62
     7
  6
Continuous
370
    -3
390
F
  0
LAYER
  5
4B
330
2
100
AcDbSymbolTableRecord
100
AcDbLayerTableRecord
  2
4
 70
     0
 62
     7
  6
Continuous
370
    -3
390
F
  0
LAYER
  5
4C
330
2
100
AcDbSymbolTableRecord
100
AcDbLayerTableRecord
  2
5
 70
     0
 62
     7
  6
Continuous
370
    -3
390
F
  0
LAYER
  5
4D
330
2
100
AcDbSymbolTableRecord
100
AcDbLayerTableRecord
  2
DEFPOINTS
 70
     0
 62
     7
  6
Continuous
290
     0
370
    -3
390
F
  0
ENDTAB
  0
TABLE
  2
STYLE
  5
3
330
0
100
AcDbSymbolTable
 70
     2
  0
STYLE
  5
11
330
3
100
AcDbSymbolTableRecord
100
AcDbTextStyleTableRecord
  2
Standard
 70
     0
 40
0.0
 41
1.0
 50
0.0
 71
     0
 42
0.2
  3
txt
  4
BIGFONT
  0
STYLE
  5
3D6
330
3
100
AcDbSymbolTableRecord
100
AcDbTextStyleTableRecord
  2
NewStyle1
 70
     0
 40
0.0
 41
1.0
 50
0.0
 71
     0
 42
0.2
  3
txt.shx
  4
spec_bar.shx
  0
ENDTAB
  0
TABLE
  2
VIEW
  5
6
330
0
100
AcDbSymbolTable
 70
     0
  0
ENDTAB
  0
TABLE
  2
UCS
  5
7
330
0
100
AcDbSymbolTable
 70
     0
  0
ENDTAB
  0
TABLE
  2
APPID
  5
9
330
0
100
AcDbSymbolTable
 70
     1
  0
APPID
  5
12
330
9
100
AcDbSymbolTableRecord
100
AcDbRegAppTableRecord
  2
ACAD
 70
     0
  0
ENDTAB
  0
TABLE
  2
DIMSTYLE
  5
A
330
0
100
AcDbSymbolTable
 70
     2
100
AcDbDimStyleTable
  0
DIMSTYLE
105
27
330
A
100
AcDbSymbolTableRecord
100
AcDbDimStyleTableRecord
  2
Standard
 70
     0
278
     0
340
11
  0
DIMSTYLE
105
4E
102
{ACAD_REACTORS
330
2EC
330
2ED
330
2EE
330
2EF
330
2F0
330
2F1
330
2F2
330
2F3
330
2F4
330
2F5
330
2F6
330
2F7
102
}
330
A
100
AcDbSymbolTableRecord
100
AcDbDimStyleTableRecord
  2
DIMSTYLE
 70
     0
 41
1.0
 42
1.0
 44
2.54
 73
     0
 74
     0
140
3.200000047683716
147
1.600000023841858
173
     1
279
     2
340
11
  0
ENDTAB
  0
TABLE
  2
BLOCK_RECORD
  5
1
330
0
100
AcDbSymbolTable
 70
    54
  0
BLOCK_RECORD
  5
1F
330
1
100
AcDbSymbolTableRecord
100
AcDbBlockTableRecord
  2
*Model_Space
340
22
  0
BLOCK_RECORD
  5
73
330
1
100
AcDbSymbolTableRecord
100
AcDbBlockTableRecord
  2
*Paper_Space
340
1D
  0
BLOCK_RECORD
  5
52
330
1
100
AcDbSymbolTableRecord
100
AcDbBlockTableRecord
  2
_NONE
340
0
  0
BLOCK_RECORD
  5
56
330
1
100
AcDbSymbolTableRecord
100
AcDbBlockTableRecord
  2
_OPEN30
340
0
102
{BLKREFS
331
5F
331
60
331
6D
331
6E
331
79
331
7A
331
85
331
90
331
91
331
9B
331
9C
331
A6
331
A7
331
B0
331
B1
331
BB
331
BC
331
C5
331
C6
331
D0
331
D1
331
DB
331
DC
102
}
  0
BLOCK_RECORD
  5
5C
330
1
100
AcDbSymbolTableRecord
100
AcDbBlockTableRecord
  2
*D2
340
0
  0
BLOCK_RECORD
  5
6A
330
1
100
AcDbSymbolTableRecord
100
AcDbBlockTableRecord
  2
*D3
340
0
  0
BLOCK_RECORD
  5
40E
330
1
100
AcDbSymbolTableRecord
100
AcDbBlockTableRecord
  2
*D4
340
0
  0
BLOCK_RECORD
  5
82
330
1
100
AcDbSymbolTableRecord
100
AcDbBlockTableRecord
  2
*D5
340
0
  0
BLOCK_RECORD
  5
8D
330
1
100
AcDbSymbolTableRecord
100
AcDbBlockTableRecord
  2
*D6
340
0
  0
BLOCK_RECORD
  5
415
330
1
100
AcDbSymbolTableRecord
100
AcDbBlockTableRecord
  2
*D7
340
0
  0
BLOCK_RECORD
  5
A3
330
1
100
AcDbSymbolTableRecord
100
AcDbBlockTableRecord
  2
*D8
340
0
  0
BLOCK_RECORD
  5
AD
330
1
100
AcDbSymbolTableRecord
100
AcDbBlockTableRecord
  2
*D9
340
0
  0
BLOCK_RECORD
  5
B8
330
1
100
AcDbSymbolTableRecord
100
AcDbBlockTableRecord
  2
*D10
340
0
  0
BLOCK_RECORD
  5
C2
330
1
100
AcDbSymbolTableRecord
100
AcDbBlockTableRecord
  2
*D11
340
0
  0
BLOCK_RECORD
  5
CD
330
1
100
AcDbSymbolTableRecord
100
AcDbBlockTableRecord
  2
*D12
340
0
  0
BLOCK_RECORD
  5
D8
330
1
100
AcDbSymbolTableRecord
100
AcDbBlockTableRecord
  2
*D13
340
0
  0
BLOCK_RECORD
  5
E4
330
1
100
AcDbSymbolTableRecord
100
AcDbBlockTableRecord
  2
KOZU0001
340
0
  0
BLOCK_RECORD
  5
E7
330
1
100
AcDbSymbolTableRecord
100
AcDbBlockTableRecord
  2
KOZU0029
340
0
102
{BLKREFS
331
E8
102
}
  0
BLOCK_RECORD
  5
EA
330
1
100
AcDbSymbolTableRecord
100
AcDbBlockTableRecord
  2
KOZU0002
340
0
  0
BLOCK_RECORD
  5
ED
330
1
100
AcDbSymbolTableRecord
100
AcDbBlockTableRecord
  2
KOZU0030
340
0
102
{BLKREFS
331
EE
102
}
  0
BLOCK_RECORD
  5
EF
330
1
100
AcDbSymbolTableRecord
100
AcDbBlockTableRecord
  2
KOZU0031
340
0
102
{BLKREFS
331
F0
102
}
  0
BLOCK_RECORD
  5
F2
330
1
100
AcDbSymbolTableRecord
100
AcDbBlockTableRecord
  2
KOZU0003
340
0
  0
BLOCK_RECORD
  5
F5
330
1
100
AcDbSymbolTableRecord
100
AcDbBlockTableRecord
  2
KOZU0032
340
0
102
{BLKREFS
331
F6
102
}
  0
BLOCK_RECORD
  5
F7
330
1
100
AcDbSymbolTableRecord
100
AcDbBlockTableRecord
  2
KOZU0033
340
0
102
{BLKREFS
331
F8
102
}
  0
BLOCK_RECORD
  5
F9
330
1
100
AcDbSymbolTableRecord
100
AcDbBlockTableRecord
  2
KOZU0034
340
0
102
{BLKREFS
331
FA
102
}
  0
BLOCK_RECORD
  5
FC
330
1
100
AcDbSymbolTableRecord
100
AcDbBlockTableRecord
  2
KOZU0004
340
0
  0
BLOCK_RECORD
  5
111
330
1
100
AcDbSymbolTableRecord
100
AcDbBlockTableRecord
  2
KOZU0005
340
0
  0
BLOCK_RECORD
  5
11F
330
1
100
AcDbSymbolTableRecord
100
AcDbBlockTableRecord
  2
KOZU0006
340
0
  0
BLOCK_RECORD
  5
124
330
1
100
AcDbSymbolTableRecord
100
AcDbBlockTableRecord
  2
KOZU0007
340
0
  0
BLOCK_RECORD
  5
128
330
1
100
AcDbSymbolTableRecord
100
AcDbBlockTableRecord
  2
KOZU0008
340
0
  0
BLOCK_RECORD
  5
12B
330
1
100
AcDbSymbolTableRecord
100
AcDbBlockTableRecord
  2
KOZU0035
340
0
102
{BLKREFS
331
12C
102
}
  0
BLOCK_RECORD
  5
12E
330
1
100
AcDbSymbolTableRecord
100
AcDbBlockTableRecord
  2
KOZU0009
340
0
  0
BLOCK_RECORD
  5
135
330
1
100
AcDbSymbolTableRecord
100
AcDbBlockTableRecord
  2
KOZU0010
340
0
  0
BLOCK_RECORD
  5
138
330
1
100
AcDbSymbolTableRecord
100
AcDbBlockTableRecord
  2
KOZU0036
340
0
102
{BLKREFS
331
139
102
}
  0
BLOCK_RECORD
  5
13B
330
1
100
AcDbSymbolTableRecord
100
AcDbBlockTableRecord
  2
KOZU0011
340
0
  0
BLOCK_RECORD
  5
13E
330
1
100
AcDbSymbolTableRecord
100
AcDbBlockTableRecord
  2
KOZU0037
340
0
102
{BLKREFS
331
13F
102
}
  0
BLOCK_RECORD
  5
141
330
1
100
AcDbSymbolTableRecord
100
AcDbBlockTableRecord
  2
KOZU0012
340
0
  0
BLOCK_RECORD
  5
144
330
1
100
AcDbSymbolTableRecord
100
AcDbBlockTableRecord
  2
KOZU0038
340
0
102
{BLKREFS
331
145
102
}
  0
BLOCK_RECORD
  5
147
330
1
100
AcDbSymbolTableRecord
100
AcDbBlockTableRecord
  2
KOZU0013
340
0
  0
BLOCK_RECORD
  5
14A
330
1
100
AcDbSymbolTableRecord
100
AcDbBlockTableRecord
  2
KOZU0039
340
0
102
{BLKREFS
331
14B
102
}
  0
BLOCK_RECORD
  5
14D
330
1
100
AcDbSymbolTableRecord
100
AcDbBlockTableRecord
  2
KOZU0014
340
0
  0
BLOCK_RECORD
  5
150
330
1
100
AcDbSymbolTableRecord
100
AcDbBlockTableRecord
  2
KOZU0040
340
0
102
{BLKREFS
331
151
102
}
  0
BLOCK_RECORD
  5
153
330
1
100
AcDbSymbolTableRecord
100
AcDbBlockTableRecord
  2
KOZU0015
340
0
  0
BLOCK_RECORD
  5
1A6
330
1
100
AcDbSymbolTableRecord
100
AcDbBlockTableRecord
  2
KOZU0016
340
0
102
{BLKREFS
331
391
102
}
  0
BLOCK_RECORD
  5
1A9
330
1
100
AcDbSymbolTableRecord
100
AcDbBlockTableRecord
  2
KOZU0017
340
0
  0
BLOCK_RECORD
  5
1DA
330
1
100
AcDbSymbolTableRecord
100
AcDbBlockTableRecord
  2
KOZU0018
340
0
  0
BLOCK_RECORD
  5
1E5
330
1
100
AcDbSymbolTableRecord
100
AcDbBlockTableRecord
  2
KOZU0019
340
0
  0
BLOCK_RECORD
  5
215
330
1
100
AcDbSymbolTableRecord
100
AcDbBlockTableRecord
  2
KOZU0020
340
0
  0
BLOCK_RECORD
  5
219
330
1
100
AcDbSymbolTableRecord
100
AcDbBlockTableRecord
  2
KOZU0021
340
0
  0
BLOCK_RECORD
  5
21D
330
1
100
AcDbSymbolTableRecord
100
AcDbBlockTableRecord
  2
KOZU0022
340
0
  0
BLOCK_RECORD
  5
221
330
1
100
AcDbSymbolTableRecord
100
AcDbBlockTableRecord
  2
KOZU0023
340
0
  0
BLOCK_RECORD
  5
225
330
1
100
AcDbSymbolTableRecord
100
AcDbBlockTableRecord
  2
KOZU0024
340
0
  0
BLOCK_RECORD
  5
229
330
1
100
AcDbSymbolTableRecord
100
AcDbBlockTableRecord
  2
KOZU0025
340
0
  0
BLOCK_RECORD
  5
22D
330
1
100
AcDbSymbolTableRecord
100
AcDbBlockTableRecord
  2
KOZU0026
340
0
  0
BLOCK_RECORD
  5
231
330
1
100
AcDbSymbolTableRecord
100
AcDbBlockTableRecord
  2
KOZU0027
340
0
  0
BLOCK_RECORD
  5
235
330
1
100
AcDbSymbolTableRecord
100
AcDbBlockTableRecord
  2
KOZU0028
340
0
  0
ENDTAB
  0
ENDSEC
  0
SECTION
  2
BLOCKS
  0
BLOCK
  5
20
330
1F
100
AcDbEntity
  8
0
100
AcDbBlockBegin
  2
*Model_Space
 70
     0
 71
     0
 10
0.0
 20
0.0
 30
0.0
  3
*Model_Space
  1

  0
ENDBLK
  5
21
330
1F
100
AcDbEntity
  8
0
100
AcDbBlockEnd
  0
BLOCK
  5
75
330
73
100
AcDbEntity
 67
     1
  8
0
100
AcDbBlockBegin
  2
*Paper_Space
 70
     0
 71
     0
 10
0.0
 20
0.0
 30
0.0
  3
*Paper_Space
  1

  0
ENDBLK
  5
76
330
73
100
AcDbEntity
 67
     1
  8
0
100
AcDbBlockEnd
  0
BLOCK
  5
865
330
52
100
AcDbEntity
  8
0
100
AcDbBlockBegin
  2
_NONE
 70
     0
 71
     0
 10
0.0
 20
0.0
 30
0.0
  3
_NONE
  1

  0
CIRCLE
  5
54
330
52
100
AcDbEntity
  8
0
  6
ByBlock
 62
     0
100
AcDbCircle
 10
0.0
 20
0.0
 30
0.0
 40
0.001
  0
ENDBLK
  5
866
330
52
100
AcDbEntity
  8
0
100
AcDbBlockEnd
  0
BLOCK
  5
867
330
56
100
AcDbEntity
  8
0
100
AcDbBlockBegin
  2
_OPEN30
 70
     0
 71
     0
 10
0.0
 20
0.0
 30
0.0
  3
_OPEN30
  1

  0
LINE
  5
58
330
56
100
AcDbEntity
  8
0
  6
ByBlock
 62
     0
100
AcDbLine
 10
0.0
 20
0.0
 30
0.0
 11
-2.999999954944514
 21
-0.9999999849815248
 31
0.0
  0
LINE
  5
474
330
56
100
AcDbEntity
  8
0
  6
ByBlock
 62
     0
100
AcDbLine
 10
0.0
 20
0.0
 30
0.0
 11
-2.999999954944526
 21
0.9999999849814885
 31
0.0
  0
LINE
  5
475
330
56
100
AcDbEntity
  8
0
  6
ByBlock
 62
     0
100
AcDbLine
 10
0.0
 20
0.0
 30
0.0
 11
-2.99999995494452
 21
0.0
 31
0.0
  0
ENDBLK
  5
868
330
56
100
AcDbEntity
  8
0
100
AcDbBlockEnd
  0
BLOCK
  5
869
330
5C
100
AcDbEntity
  8
0
100
AcDbBlockBegin
  2
*D2
 70
     1
 71
     0
 10
0.0
 20
0.0
 30
0.0
  3
*D2
  1

  0
LINE
  5
476
330
5C
100
AcDbEntity
  8
0
  6
Continuous
 62
     7
100
AcDbLine
 10
-47.29437462040796
 20
9.157138595361488
 30
0.0
 11
-47.29437462040799
 21
-8.842861494749467
 31
0.0
  0
INSERT
  5
5F
330
5C
100
AcDbEntity
  8
0
  6
Continuous
 62
     7
100
AcDbBlockReference
  2
_OPEN30
 10
-47.29437462040799
 20
12.15713855030601
 30
0.0
 50
90.0000000000002
  0
INSERT
  5
60
330
5C
100
AcDbEntity
  8
0
  6
Continuous
 62
     7
100
AcDbBlockReference
  2
_OPEN30
 10
-47.29437462040799
 20
-11.84286144969399
 30
0.0
 50
270.0000000000005
  0
LINE
  5
61
330
5C
100
AcDbEntity
  8
0
  6
Continuous
 62
     7
100
AcDbLine
 10
-41.08642232153868
 20
12.157138550306
 30
0.0
 11
-48.29437462040797
 21
12.15713855030601
 31
0.0
  0
LINE
  5
62
330
5C
100
AcDbEntity
  8
0
  6
Continuous
 62
     7
100
AcDbLine
 10
-41.08642232153868
 20
-11.84286144969399
 30
0.0
 11
-48.29437462040797
 21
-11.84286144969399
 31
0.0
  0
TEXT
  5
63
330
5C
100
AcDbEntity
  8
0
  6
Continuous
 62
     7
100
AcDbText
 10
-48.09437463232892
 20
-8.18586142954762
 30
0.0
 40
3.200000047683716
  1
%%C24
 50
90.00000000000006
 41
0.9501895996293136
100
AcDbText
  0
TEXT
  5
64
330
5C
100
AcDbEntity
  8
0
  6
Continuous
 62
     7
100
AcDbText
 10
-50.49437466809171
 20
1.414138534689592
 30
0.0
 40
1.600000023841858
  1
 0
 50
90.00000000000006
 41
1.928671846763464
100
AcDbText
  0
TEXT
  5
65
330
5C
100
AcDbEntity
  8
0
  6
Continuous
 62
     7
100
AcDbText
 10
-48.09437463232892
 20
1.414138534689593
 30
0.0
 40
1.600000023841858
  1
-0.05
 50
90.00000000000006
 41
1.285738614278592
100
AcDbText
  0
POINT
  5
66
330
5C
100
AcDbEntity
  8
DEFPOINTS
  6
Continuous
 62
     7
100
AcDbPoint
 10
-40.08642233655717
 20
12.15713855030601
 30
0.0
  0
POINT
  5
67
330
5C
100
AcDbEntity
  8
DEFPOINTS
  6
Continuous
 62
     7
100
AcDbPoint
 10
-40.08642233655718
 20
-11.84286144969399
 30
0.0
  0
POINT
  5
68
330
5C
100
AcDbEntity
  8
DEFPOINTS
  6
Continuous
 62
     7
100
AcDbPoint
 10
-47.29437462040799
 20
-11.84286144969399
 30
0.0
  0
ENDBLK
  5
86A
330
5C
100
AcDbEntity
  8
0
100
AcDbBlockEnd
  0
BLOCK
  5
86B
330
6A
100
AcDbEntity
  8
0
100
AcDbBlockBegin
  2
*D3
 70
     1
 71
     0
 10
0.0
 20
0.0
 30
0.0
  3
*D3
  1

  0
LINE
  5
477
330
6A
100
AcDbEntity
  8
0
  6
Continuous
 62
     7
100
AcDbLine
 10
148.1623728297226
 20
9.857135543603675
 30
0.0
 11
148.1623728297226
 21
-9.54286607238619
 31
0.0
  0
INSERT
  5
6D
330
6A
100
AcDbEntity
  8
0
  6
Continuous
 62
     7
100
AcDbBlockReference
  2
_OPEN30
 10
148.1623728297226
 20
12.8571354985482
 30
0.0
 50
90.0000000000002
  0
INSERT
  5
6E
330
6A
100
AcDbEntity
  8
0
  6
Continuous
 62
     7
100
AcDbBlockReference
  2
_OPEN30
 10
148.1623728297226
 20
-12.54286602733071
 30
0.0
 50
270.0000000000005
  0
LINE
  5
6F
330
6A
100
AcDbEntity
  8
0
  6
Continuous
 62
     7
100
AcDbLine
 10
128.913574574705
 20
12.8571354985482
 30
0.0
 11
149.1623728297226
 21
12.8571354985482
 31
0.0
  0
LINE
  5
70
330
6A
100
AcDbEntity
  8
0
  6
Continuous
 62
     7
100
AcDbLine
 10
128.913574574705
 20
-12.54286602733071
 30
0.0
 11
149.1623728297226
 21
-12.54286602733071
 31
0.0
  0
TEXT
  5
71
330
6A
100
AcDbEntity
  8
0
  6
Continuous
 62
     7
100
AcDbText
 10
147.3623728178017
 20
-13.78586522338326
 30
0.0
 40
3.200000047683716
  1
M25.4 CU1
 50
90.00000000000006
 41
1.22545896251002
100
AcDbText
  0
POINT
  5
72
330
6A
100
AcDbEntity
  8
DEFPOINTS
  6
Continuous
 62
     7
100
AcDbPoint
 10
127.9135745897235
 20
12.8571354985482
 30
0.0
  0
POINT
  5
478
330
6A
100
AcDbEntity
  8
DEFPOINTS
  6
Continuous
 62
     7
100
AcDbPoint
 10
127.9135745897235
 20
-12.54286602733071
 30
0.0
  0
POINT
  5
479
330
6A
100
AcDbEntity
  8
DEFPOINTS
  6
Continuous
 62
     7
100
AcDbPoint
 10
148.1623728297226
 20
-12.54286602733071
 30
0.0
  0
ENDBLK
  5
86C
330
6A
100
AcDbEntity
  8
0
100
AcDbBlockEnd
  0
BLOCK
  5
86D
330
40E
100
AcDbEntity
  8
0
100
AcDbBlockBegin
  2
*D4
 70
     1
 71
     0
 10
0.0
 20
0.0
 30
0.0
  3
*D4
  1

  0
LINE
  5
78
330
40E
100
AcDbEntity
  8
0
  6
Continuous
 62
     7
100
AcDbLine
 10
154.903814957488
 20
12.15713859536149
 30
0.0
 11
154.903814957488
 21
-11.84286149474947
 31
0.0
  0
INSERT
  5
79
330
40E
100
AcDbEntity
  8
0
  6
Continuous
 62
     7
100
AcDbBlockReference
  2
_OPEN30
 10
154.903814957488
 20
15.15713855030601
 30
0.0
 50
90.0000000000002
  0
INSERT
  5
7A
330
40E
100
AcDbEntity
  8
0
  6
Continuous
 62
     7
100
AcDbBlockReference
  2
_OPEN30
 10
154.903814957488
 20
-14.84286144969399
 30
0.0
 50
270.0000000000005
  0
LINE
  5
7B
330
40E
100
AcDbEntity
  8
0
  6
Continuous
 62
     7
100
AcDbLine
 10
121.2135776264628
 20
15.15713855030601
 30
0.0
 11
155.903814957488
 21
15.15713855030601
 31
0.0
  0
LINE
  5
7C
330
40E
100
AcDbEntity
  8
0
  6
Continuous
 62
     7
100
AcDbLine
 10
121.2135776264628
 20
-14.84286144969399
 30
0.0
 11
155.903814957488
 21
-14.84286144969399
 31
0.0
  0
TEXT
  5
7D
330
40E
100
AcDbEntity
  8
0
  6
Continuous
 62
     7
100
AcDbText
 10
154.1038149455671
 20
-4.185861444448784
 30
0.0
 40
3.200000047683716
  1
%%C30
 50
90.00000000000006
 41
0.9886432459113578
100
AcDbText
  0
POINT
  5
7E
330
40E
100
AcDbEntity
  8
DEFPOINTS
  6
Continuous
 62
     7
100
AcDbPoint
 10
120.2135776414813
 20
15.15713855030601
 30
0.0
  0
POINT
  5
7F
330
40E
100
AcDbEntity
  8
DEFPOINTS
  6
Continuous
 62
     7
100
AcDbPoint
 10
120.2135776414813
 20
-14.84286144969399
 30
0.0
  0
POINT
  5
80
330
40E
100
AcDbEntity
  8
DEFPOINTS
  6
Continuous
 62
     7
100
AcDbPoint
 10
154.903814957488
 20
-14.84286144969399
 30
0.0
  0
ENDBLK
  5
86E
330
40E
100
AcDbEntity
  8
0
100
AcDbBlockEnd
  0
BLOCK
  5
86F
330
82
100
AcDbEntity
  8
0
100
AcDbBlockBegin
  2
*D5
 70
     1
 71
     0
 10
0.0
 20
0.0
 30
0.0
  3
*D5
  1

  0
LINE
  5
84
330
82
100
AcDbEntity
  8
0
  6
Continuous
 62
     7
100
AcDbLine
 10
128.2135776414813
 20
24.63925354003908
 30
0.0
 11
124.2135776414813
 21
24.63925354003908
 31
0.0
  0
INSERT
  5
85
330
82
100
AcDbEntity
  8
0
  6
Continuous
 62
     7
100
AcDbBlockReference
  2
_OPEN30
 10
128.2135776414813
 20
24.63925354003908
 30
0.0
 50
180.0
  0
LINE
  5
86
330
82
100
AcDbEntity
  8
0
  6
Continuous
 62
     7
100
AcDbLine
 10
131.2135775964258
 20
24.63925354003908
 30
0.0
 11
134.5635775461139
 21
24.63925354003908
 31
0.0
  0
LINE
  5
87
330
82
100
AcDbEntity
  8
0
  6
Continuous
 62
     7
100
AcDbLine
 10
128.2135776414813
 20
13.55713536708785
 30
0.0
 11
128.2135776414813
 21
25.63925354003908
 31
0.0
  0
TEXT
  5
88
330
82
100
AcDbEntity
  8
0
  6
Continuous
 62
     7
100
AcDbText
 10
125.0705776348056
 20
25.43925355196001
 30
0.0
 40
3.200000047683716
  1
4
100
AcDbText
  0
POINT
  5
89
330
82
100
AcDbEntity
  8
DEFPOINTS
  6
Continuous
 62
     7
100
AcDbPoint
 10
128.2135776414813
 20
12.55713538210634
 30
0.0
  0
POINT
  5
8A
330
82
100
AcDbEntity
  8
DEFPOINTS
  6
Continuous
 62
     7
100
AcDbPoint
 10
124.2135776414813
 20
14.55714007618492
 30
0.0
  0
POINT
  5
8B
330
82
100
AcDbEntity
  8
DEFPOINTS
  6
Continuous
 62
     7
100
AcDbPoint
 10
124.2135776414813
 20
24.63925354003908
 30
0.0
  0
ENDBLK
  5
870
330
82
100
AcDbEntity
  8
0
100
AcDbBlockEnd
  0
BLOCK
  5
871
330
8D
100
AcDbEntity
  8
0
100
AcDbBlockBegin
  2
*D6
 70
     1
 71
     0
 10
0.0
 20
0.0
 30
0.0
  3
*D6
  1

  0
LINE
  5
8F
330
8D
100
AcDbEntity
  8
0
  6
Continuous
 62
     7
100
AcDbLine
 10
121.2135776865368
 20
24.63925354003906
 30
0.0
 11
102.2135775964258
 21
24.63925354003908
 31
0.0
  0
INSERT
  5
90
330
8D
100
AcDbEntity
  8
0
  6
Continuous
 62
     7
100
AcDbBlockReference
  2
_OPEN30
 10
124.2135776414813
 20
24.63925354003908
 30
0.0
  0
INSERT
  5
91
330
8D
100
AcDbEntity
  8
0
  6
Continuous
 62
     7
100
AcDbBlockReference
  2
_OPEN30
 10
99.21357764148128
 20
24.63925354003908
 30
0.0
 50
180.0000000000004
  0
LINE
  5
47A
330
8D
100
AcDbEntity
  8
0
  6
Continuous
 62
     7
100
AcDbLine
 10
99.21357764148128
 20
16.15713853528751
 30
0.0
 11
99.21357764148128
 21
25.63925354003908
 31
0.0
  0
TEXT
  5
47B
330
8D
100
AcDbEntity
  8
0
  6
Continuous
 62
     7
100
AcDbText
 10
108.970577640766
 20
25.43925355196001
 30
0.0
 40
3.200000047683716
  1
25
 41
1.028624984940514
100
AcDbText
  0
POINT
  5
94
330
8D
100
AcDbEntity
  8
DEFPOINTS
  6
Continuous
 62
     7
100
AcDbPoint
 10
124.2135776414813
 20
14.55714007618492
 30
0.0
  0
POINT
  5
95
330
8D
100
AcDbEntity
  8
DEFPOINTS
  6
Continuous
 62
     7
100
AcDbPoint
 10
99.21357764148128
 20
15.157138550306
 30
0.0
  0
POINT
  5
96
330
8D
100
AcDbEntity
  8
DEFPOINTS
  6
Continuous
 62
     7
100
AcDbPoint
 10
99.21357764148128
 20
24.63925354003908
 30
0.0
  0
ENDBLK
  5
872
330
8D
100
AcDbEntity
  8
0
100
AcDbBlockEnd
  0
BLOCK
  5
873
330
415
100
AcDbEntity
  8
0
100
AcDbBlockBegin
  2
*D7
 70
     1
 71
     0
 10
0.0
 20
0.0
 30
0.0
  3
*D7
  1

  0
LINE
  5
9A
330
415
100
AcDbEntity
  8
0
  6
Continuous
 62
     7
100
AcDbLine
 10
96.2135776865368
 20
24.63925354003906
 30
0.0
 11
64.21357759642581
 21
24.63925354003908
 31
0.0
  0
INSERT
  5
9B
330
415
100
AcDbEntity
  8
0
  6
Continuous
 62
     7
100
AcDbBlockReference
  2
_OPEN30
 10
99.21357764148128
 20
24.63925354003908
 30
0.0
  0
INSERT
  5
9C
330
415
100
AcDbEntity
  8
0
  6
Continuous
 62
     7
100
AcDbBlockReference
  2
_OPEN30
 10
61.21357764148129
 20
24.63925354003908
 30
0.0
 50
180.0000000000004
  0
LINE
  5
9D
330
415
100
AcDbEntity
  8
0
  6
Continuous
 62
     7
100
AcDbLine
 10
61.21357764148129
 20
13.15713853528752
 30
0.0
 11
61.21357764148129
 21
25.63925354003908
 31
0.0
  0
TEXT
  5
9E
330
415
100
AcDbEntity
  8
0
  6
Continuous
 62
     7
100
AcDbText
 10
77.47057764076605
 20
25.43925355196001
 30
0.0
 40
3.200000047683716
  1
38
 41
1.028624984940514
100
AcDbText
  0
POINT
  5
9F
330
415
100
AcDbEntity
  8
DEFPOINTS
  6
Continuous
 62
     7
100
AcDbPoint
 10
99.21357764148128
 20
15.157138550306
 30
0.0
  0
POINT
  5
A0
330
415
100
AcDbEntity
  8
DEFPOINTS
  6
Continuous
 62
     7
100
AcDbPoint
 10
61.21357764148129
 20
12.15713855030601
 30
0.0
  0
POINT
  5
A1
330
415
100
AcDbEntity
  8
DEFPOINTS
  6
Continuous
 62
     7
100
AcDbPoint
 10
61.21357764148129
 20
24.63925354003908
 30
0.0
  0
ENDBLK
  5
874
330
415
100
AcDbEntity
  8
0
100
AcDbBlockEnd
  0
BLOCK
  5
875
330
A3
100
AcDbEntity
  8
0
100
AcDbBlockBegin
  2
*D8
 70
     1
 71
     0
 10
0.0
 20
0.0
 30
0.0
  3
*D8
  1

  0
LINE
  5
A5
330
A3
100
AcDbEntity
  8
0
  6
Continuous
 62
     7
100
AcDbLine
 10
31.61357768653677
 20
24.63925354003906
 30
0.0
 11
-37.38642240357419
 21
24.63925354003908
 31
0.0
  0
INSERT
  5
A6
330
A3
100
AcDbEntity
  8
0
  6
Continuous
 62
     7
100
AcDbBlockReference
  2
_OPEN30
 10
34.61357764148129
 20
24.63925354003908
 30
0.0
  0
INSERT
  5
A7
330
A3
100
AcDbEntity
  8
0
  6
Continuous
 62
     7
100
AcDbBlockReference
  2
_OPEN30
 10
-40.38642235851871
 20
24.63925354003908
 30
0.0
 50
180.0000000000004
  0
TEXT
  5
A8
330
A3
100
AcDbEntity
  8
0
  6
Continuous
 62
     7
100
AcDbText
 10
-5.629422359233963
 20
25.43925355196001
 30
0.0
 40
3.200000047683716
  1
75
 41
1.028624984940514
100
AcDbText
  0
POINT
  5
A9
330
A3
100
AcDbEntity
  8
DEFPOINTS
  6
Continuous
 62
     7
100
AcDbPoint
 10
34.61357764148129
 20
12.15713855030601
 30
0.0
  0
POINT
  5
AA
330
A3
100
AcDbEntity
  8
DEFPOINTS
  6
Continuous
 62
     7
100
AcDbPoint
 10
-40.38642235851871
 20
12.15713855030601
 30
0.0
  0
POINT
  5
AB
330
A3
100
AcDbEntity
  8
DEFPOINTS
  6
Continuous
 62
     7
100
AcDbPoint
 10
-40.38642235851871
 20
24.63925354003908
 30
0.0
  0
ENDBLK
  5
876
330
A3
100
AcDbEntity
  8
0
100
AcDbBlockEnd
  0
BLOCK
  5
877
330
AD
100
AcDbEntity
  8
0
100
AcDbBlockBegin
  2
*D9
 70
     1
 71
     0
 10
0.0
 20
0.0
 30
0.0
  3
*D9
  1

  0
LINE
  5
AF
330
AD
100
AcDbEntity
  8
0
  6
Continuous
 62
     7
100
AcDbLine
 10
138.7435776865368
 20
31.56925354003907
 30
0.0
 11
127.2135775964258
 21
31.56925354003909
 31
0.0
  0
INSERT
  5
B0
330
AD
100
AcDbEntity
  8
0
  6
Continuous
 62
     7
100
AcDbBlockReference
  2
_OPEN30
 10
141.7435776414813
 20
31.56925354003909
 30
0.0
  0
INSERT
  5
B1
330
AD
100
AcDbEntity
  8
0
  6
Continuous
 62
     7
100
AcDbBlockReference
  2
_OPEN30
 10
124.2135776414813
 20
31.56925354003909
 30
0.0
 50
180.0000000000004
  0
LINE
  5
B2
330
AD
100
AcDbEntity
  8
0
  6
Continuous
 62
     7
100
AcDbLine
 10
124.2135776414813
 20
15.55714006116642
 30
0.0
 11
124.2135776414813
 21
32.56925354003909
 31
0.0
  0
TEXT
  5
B3
330
AD
100
AcDbEntity
  8
0
  6
Continuous
 62
     7
100
AcDbText
 10
125.4355776586474
 20
32.36925355196001
 30
0.0
 40
3.200000047683716
  1
17.53
 41
1.285738614278592
100
AcDbText
  0
POINT
  5
B4
330
AD
100
AcDbEntity
  8
DEFPOINTS
  6
Continuous
 62
     7
100
AcDbPoint
 10
141.7435776414813
 20
2.320569661417117
 30
0.0
  0
POINT
  5
B5
330
AD
100
AcDbEntity
  8
DEFPOINTS
  6
Continuous
 62
     7
100
AcDbPoint
 10
124.2135776414813
 20
14.55714007618492
 30
0.0
  0
POINT
  5
B6
330
AD
100
AcDbEntity
  8
DEFPOINTS
  6
Continuous
 62
     7
100
AcDbPoint
 10
124.2135776414813
 20
31.56925354003909
 30
0.0
  0
ENDBLK
  5
878
330
AD
100
AcDbEntity
  8
0
100
AcDbBlockEnd
  0
BLOCK
  5
879
330
B8
100
AcDbEntity
  8
0
100
AcDbBlockBegin
  2
*D10
 70
     1
 71
     0
 10
0.0
 20
0.0
 30
0.0
  3
*D10
  1

  0
LINE
  5
BA
330
B8
100
AcDbEntity
  8
0
  6
Continuous
 62
     7
100
AcDbLine
 10
-43.38642231346323
 20
31.56925354003907
 30
0.0
 11
-101.1863300011102
 21
31.56925354003909
 31
0.0
  0
INSERT
  5
BB
330
B8
100
AcDbEntity
  8
0
  6
Continuous
 62
     7
100
AcDbBlockReference
  2
_OPEN30
 10
-40.38642235851871
 20
31.56925354003909
 30
0.0
  0
INSERT
  5
BC
330
B8
100
AcDbEntity
  8
0
  6
Continuous
 62
     7
100
AcDbBlockReference
  2
_OPEN30
 10
-104.1863299560547
 20
31.56925354003909
 30
0.0
 50
180.0000000000004
  0
TEXT
  5
BD
330
B8
100
AcDbEntity
  8
0
  6
Continuous
 62
     7
100
AcDbText
 10
-84.62937612223917
 20
32.36925355196001
 30
0.0
 40
3.200000047683716
  1
WD=156%%P2
 41
0.981889036462726
100
AcDbText
  0
POINT
  5
BE
330
B8
100
AcDbEntity
  8
DEFPOINTS
  6
Continuous
 62
     7
100
AcDbPoint
 10
-40.38642235851871
 20
12.15713855030601
 30
0.0
  0
POINT
  5
BF
330
B8
100
AcDbEntity
  8
DEFPOINTS
  6
Continuous
 62
     7
100
AcDbPoint
 10
-104.1863299560547
 20
2.592795624207402
 30
0.0
  0
POINT
  5
C0
330
B8
100
AcDbEntity
  8
DEFPOINTS
  6
Continuous
 62
     7
100
AcDbPoint
 10
-104.1863299560547
 20
31.56925354003909
 30
0.0
  0
ENDBLK
  5
87A
330
B8
100
AcDbEntity
  8
0
100
AcDbBlockEnd
  0
BLOCK
  5
87B
330
C2
100
AcDbEntity
  8
0
100
AcDbBlockBegin
  2
*D11
 70
     1
 71
     0
 10
0.0
 20
0.0
 30
0.0
  3
*D11
  1

  0
LINE
  5
C4
330
C2
100
AcDbEntity
  8
0
  6
Continuous
 62
     7
100
AcDbLine
 10
37.61357759642581
 20
24.63925354003908
 30
0.0
 11
58.21357768653677
 21
24.63925354003906
 31
0.0
  0
INSERT
  5
C5
330
C2
100
AcDbEntity
  8
0
  6
Continuous
 62
     7
100
AcDbBlockReference
  2
_OPEN30
 10
34.61357764148129
 20
24.63925354003908
 30
0.0
 50
180.0000000000004
  0
INSERT
  5
C6
330
C2
100
AcDbEntity
  8
0
  6
Continuous
 62
     7
100
AcDbBlockReference
  2
_OPEN30
 10
61.21357764148129
 20
24.63925354003908
 30
0.0
  0
LINE
  5
C7
330
C2
100
AcDbEntity
  8
0
  6
Continuous
 62
     7
100
AcDbLine
 10
34.61357764148129
 20
13.15713853528752
 30
0.0
 11
34.61357764148129
 21
25.63925354003908
 31
0.0
  0
TEXT
  5
C8
330
C2
100
AcDbEntity
  8
0
  6
Continuous
 62
     7
100
AcDbText
 10
41.97057765268697
 20
25.43925355196001
 30
0.0
 40
3.200000047683716
  1
26.6
 41
1.238124979215985
100
AcDbText
  0
POINT
  5
C9
330
C2
100
AcDbEntity
  8
DEFPOINTS
  6
Continuous
 62
     7
100
AcDbPoint
 10
34.61357764148129
 20
12.15713855030601
 30
0.0
  0
POINT
  5
CA
330
C2
100
AcDbEntity
  8
DEFPOINTS
  6
Continuous
 62
     7
100
AcDbPoint
 10
61.21357764148129
 20
12.15713855030601
 30
0.0
  0
POINT
  5
CB
330
C2
100
AcDbEntity
  8
DEFPOINTS
  6
Continuous
 62
     7
100
AcDbPoint
 10
61.21357764148129
 20
24.63925354003908
 30
0.0
  0
ENDBLK
  5
87C
330
C2
100
AcDbEntity
  8
0
100
AcDbBlockEnd
  0
BLOCK
  5
87D
330
CD
100
AcDbEntity
  8
0
100
AcDbBlockBegin
  2
*D12
 70
     1
 71
     0
 10
0.0
 20
0.0
 30
0.0
  3
*D12
  1

  0
LINE
  5
CF
330
CD
100
AcDbEntity
  8
0
  6
Continuous
 62
     7
100
AcDbLine
 10
-37.38642240357419
 20
31.56925354003909
 30
0.0
 11
121.2135776865368
 21
31.56925354003907
 31
0.0
  0
INSERT
  5
D0
330
CD
100
AcDbEntity
  8
0
  6
Continuous
 62
     7
100
AcDbBlockReference
  2
_OPEN30
 10
-40.38642235851871
 20
31.56925354003909
 30
0.0
 50
180.0000000000004
  0
INSERT
  5
D1
330
CD
100
AcDbEntity
  8
0
  6
Continuous
 62
     7
100
AcDbBlockReference
  2
_OPEN30
 10
124.2135776414813
 20
31.56925354003909
 30
0.0
  0
LINE
  5
D2
330
CD
100
AcDbEntity
  8
0
  6
Continuous
 62
     7
100
AcDbLine
 10
-40.38642235851871
 20
13.15713853528752
 30
0.0
 11
-40.38642235851871
 21
32.56925354003909
 31
0.0
  0
TEXT
  5
D3
330
CD
100
AcDbEntity
  8
0
  6
Continuous
 62
     7
100
AcDbText
 10
34.37057765864743
 20
32.36925355196001
 30
0.0
 40
3.200000047683716
  1
164.6
 41
1.285738614278592
100
AcDbText
  0
POINT
  5
D4
330
CD
100
AcDbEntity
  8
DEFPOINTS
  6
Continuous
 62
     7
100
AcDbPoint
 10
-40.38642235851871
 20
12.15713855030601
 30
0.0
  0
POINT
  5
D5
330
CD
100
AcDbEntity
  8
DEFPOINTS
  6
Continuous
 62
     7
100
AcDbPoint
 10
124.2135776414813
 20
14.55714007618492
 30
0.0
  0
POINT
  5
D6
330
CD
100
AcDbEntity
  8
DEFPOINTS
  6
Continuous
 62
     7
100
AcDbPoint
 10
124.2135776414813
 20
31.56925354003909
 30
0.0
  0
ENDBLK
  5
87E
330
CD
100
AcDbEntity
  8
0
100
AcDbBlockEnd
  0
BLOCK
  5
87F
330
D8
100
AcDbEntity
  8
0
100
AcDbBlockBegin
  2
*D13
 70
     1
 71
     0
 10
0.0
 20
0.0
 30
0.0
  3
*D13
  1

  0
LINE
  5
DA
330
D8
100
AcDbEntity
  8
0
  6
Continuous
 62
     7
100
AcDbLine
 10
-101.1863300011102
 20
39.2692535400391
 30
0.0
 11
138.7435776865368
 21
39.26925354003907
 31
0.0
  0
INSERT
  5
DB
330
D8
100
AcDbEntity
  8
0
  6
Continuous
 62
     7
100
AcDbBlockReference
  2
_OPEN30
 10
-104.1863299560547
 20
39.2692535400391
 30
0.0
 50
180.0000000000004
  0
INSERT
  5
DC
330
D8
100
AcDbEntity
  8
0
  6
Continuous
 62
     7
100
AcDbBlockReference
  2
_OPEN30
 10
141.7435776414813
 20
39.2692535400391
 30
0.0
  0
LINE
  5
DD
330
D8
100
AcDbEntity
  8
0
  6
Continuous
 62
     7
100
AcDbLine
 10
-104.1863299560547
 20
3.592795609188909
 30
0.0
 11
-104.1863299560547
 21
40.2692535400391
 31
0.0
  0
LINE
  5
DE
330
D8
100
AcDbEntity
  8
0
  6
Continuous
 62
     7
100
AcDbLine
 10
141.7435776414813
 20
3.320569646398623
 30
0.0
 11
141.7435776414813
 21
40.2692535400391
 31
0.0
  0
TEXT
  5
DF
330
D8
100
AcDbEntity
  8
0
  6
Continuous
 62
     7
100
AcDbText
 10
9.635623865839886
 20
40.06925355196002
 30
0.0
 40
3.200000047683716
  1
338.13
 41
1.224508907227511
100
AcDbText
  0
POINT
  5
E0
330
D8
100
AcDbEntity
  8
DEFPOINTS
  6
Continuous
 62
     7
100
AcDbPoint
 10
-104.1863299560547
 20
2.592795624207402
 30
0.0
  0
POINT
  5
E1
330
D8
100
AcDbEntity
  8
DEFPOINTS
  6
Continuous
 62
     7
100
AcDbPoint
 10
141.7435776414813
 20
2.320569661417117
 30
0.0
  0
POINT
  5
E2
330
D8
100
AcDbEntity
  8
DEFPOINTS
  6
Continuous
 62
     7
100
AcDbPoint
 10
141.7435776414813
 20
39.2692535400391
 30
0.0
  0
ENDBLK
  5
880
330
D8
100
AcDbEntity
  8
0
100
AcDbBlockEnd
  0
BLOCK
  5
881
330
E4
100
AcDbEntity
  8
0
100
AcDbBlockBegin
  2
KOZU0001
 70
     0
 71
     0
 10
0.0
 20
0.0
 30
0.0
  3
KOZU0001
  1

  0
POINT
  5
E6
330
E4
100
AcDbEntity
  8
0
  6
Continuous
 62
     7
100
AcDbPoint
 10
2.4967041015625
 20
0.000244140625
 30
0.0
  0
INSERT
  5
E8
330
E4
100
AcDbEntity
  8
0
  6
Continuous
 62
     7
100
AcDbBlockReference
  2
KOZU0029
 10
0.0
 20
0.0
 30
0.0
 50
59.99999193204329
  0
ENDBLK
  5
882
330
E4
100
AcDbEntity
  8
0
100
AcDbBlockEnd
  0
BLOCK
  5
883
330
E7
100
AcDbEntity
  8
0
100
AcDbBlockBegin
  2
KOZU0029
 70
     0
 71
     0
 10
0.0
 20
0.0
 30
0.0
  3
KOZU0029
  1

  0
LWPOLYLINE
  5
23A
330
E7
100
AcDbEntity
  8
0
  6
Continuous
 62
     7
100
AcDbPolyline
 90
        3
 70
     1
 43
0.0
 10
0.0
 20
0.0
 10
2.5
 20
0.0
 10
1.25
 20
2.165063509461096
  0
ENDBLK
  5
884
330
E7
100
AcDbEntity
  8
0
100
AcDbBlockEnd
  0
BLOCK
  5
885
330
EA
100
AcDbEntity
  8
0
100
AcDbBlockBegin
  2
KOZU0002
 70
     0
 71
     0
 10
0.0
 20
0.0
 30
0.0
  3
KOZU0002
  1

  0
POINT
  5
EC
330
EA
100
AcDbEntity
  8
0
  6
Continuous
 62
     7
100
AcDbPoint
 10
1.24835205078125
 20
0.0001220703125
 30
0.0
  0
INSERT
  5
EE
330
EA
100
AcDbEntity
  8
0
  6
Continuous
 62
     7
100
AcDbBlockReference
  2
KOZU0030
 10
1.24835205078125
 20
0.0001220703125
 30
0.0
 50
59.99999193204329
  0
INSERT
  5
F0
330
EA
100
AcDbEntity
  8
0
  6
Continuous
 62
     7
100
AcDbBlockReference
  2
KOZU0031
 10
-1.24835205078125
 20
-0.0001220703125
 30
0.0
 50
59.99999193204329
  0
ENDBLK
  5
886
330
EA
100
AcDbEntity
  8
0
100
AcDbBlockEnd
  0
BLOCK
  5
887
330
ED
100
AcDbEntity
  8
0
100
AcDbBlockBegin
  2
KOZU0030
 70
     0
 71
     0
 10
0.0
 20
0.0
 30
0.0
  3
KOZU0030
  1

  0
LWPOLYLINE
  5
241
330
ED
100
AcDbEntity
  8
0
  6
Continuous
 62
     7
100
AcDbPolyline
 90
        3
 70
     1
 43
0.0
 10
0.0
 20
0.0
 10
2.5
 20
0.0
 10
1.25
 20
2.165063509461096
  0
ENDBLK
  5
888
330
ED
100
AcDbEntity
  8
0
100
AcDbBlockEnd
  0
BLOCK
  5
889
330
EF
100
AcDbEntity
  8
0
100
AcDbBlockBegin
  2
KOZU0031
 70
     0
 71
     0
 10
0.0
 20
0.0
 30
0.0
  3
KOZU0031
  1

  0
LWPOLYLINE
  5
248
330
EF
100
AcDbEntity
  8
0
  6
Continuous
 62
     7
100
AcDbPolyline
 90
        3
 70
     1
 43
0.0
 10
0.0
 20
0.0
 10
2.5
 20
0.0
 10
1.25
 20
2.165063509461096
  0
ENDBLK
  5
88A
330
EF
100
AcDbEntity
  8
0
100
AcDbBlockEnd
  0
BLOCK
  5
88B
330
F2
100
AcDbEntity
  8
0
100
AcDbBlockBegin
  2
KOZU0003
 70
     0
 71
     0
 10
0.0
 20
0.0
 30
0.0
  3
KOZU0003
  1

  0
POINT
  5
F4
330
F2
100
AcDbEntity
  8
0
  6
Continuous
 62
     7
100
AcDbPoint
 10
2.4967041015625
 20
0.000244140625
 30
0.0
  0
INSERT
  5
F6
330
F2
100
AcDbEntity
  8
0
  6
Continuous
 62
     7
100
AcDbBlockReference
  2
KOZU0032
 10
2.4967041015625
 20
0.000244140625
 30
0.0
 50
59.99999193204329
  0
INSERT
  5
F8
330
F2
100
AcDbEntity
  8
0
  6
Continuous
 62
     7
100
AcDbBlockReference
  2
KOZU0033
 10
0.0
 20
0.0
 30
0.0
 50
59.99999193204329
  0
INSERT
  5
FA
330
F2
100
AcDbEntity
  8
0
  6
Continuous
 62
     7
100
AcDbBlockReference
  2
KOZU0034
 10
-2.4967041015625
 20
0.000244140625
 30
0.0
 50
59.99999193204329
  0
ENDBLK
  5
88C
330
F2
100
AcDbEntity
  8
0
100
AcDbBlockEnd
  0
BLOCK
  5
88D
330
F5
100
AcDbEntity
  8
0
100
AcDbBlockBegin
  2
KOZU0032
 70
     0
 71
     0
 10
0.0
 20
0.0
 30
0.0
  3
KOZU0032
  1

  0
LWPOLYLINE
  5
24F
330
F5
100
AcDbEntity
  8
0
  6
Continuous
 62
     7
100
AcDbPolyline
 90
        3
 70
     1
 43
0.0
 10
0.0
 20
0.0
 10
2.5
 20
0.0
 10
1.25
 20
2.165063509461096
  0
ENDBLK
  5
88E
330
F5
100
AcDbEntity
  8
0
100
AcDbBlockEnd
  0
BLOCK
  5
88F
330
F7
100
AcDbEntity
  8
0
100
AcDbBlockBegin
  2
KOZU0033
 70
     0
 71
     0
 10
0.0
 20
0.0
 30
0.0
  3
KOZU0033
  1

  0
LWPOLYLINE
  5
256
330
F7
100
AcDbEntity
  8
0
  6
Continuous
 62
     7
100
AcDbPolyline
 90
        3
 70
     1
 43
0.0
 10
0.0
 20
0.0
 10
2.5
 20
0.0
 10
1.25
 20
2.165063509461096
  0
ENDBLK
  5
890
330
F7
100
AcDbEntity
  8
0
100
AcDbBlockEnd
  0
BLOCK
  5
891
330
F9
100
AcDbEntity
  8
0
100
AcDbBlockBegin
  2
KOZU0034
 70
     0
 71
     0
 10
0.0
 20
0.0
 30
0.0
  3
KOZU0034
  1

  0
LWPOLYLINE
  5
25D
330
F9
100
AcDbEntity
  8
0
  6
Continuous
 62
     7
100
AcDbPolyline
 90
        3
 70
     1
 43
0.0
 10
0.0
 20
0.0
 10
2.5
 20
0.0
 10
1.25
 20
2.165063509461096
  0
ENDBLK
  5
892
330
F9
100
AcDbEntity
  8
0
100
AcDbBlockEnd
  0
BLOCK
  5
893
330
FC
100
AcDbEntity
  8
0
100
AcDbBlockBegin
  2
KOZU0004
 70
     0
 71
     0
 10
0.0
 20
0.0
 30
0.0
  3
KOZU0004
  1

  0
LINE
  5
FE
330
FC
100
AcDbEntity
  8
0
  6
Continuous
 62
     7
100
AcDbLine
 10
-43.44632553897853
 20
5.133429503262494
 30
0.0
 11
-22.2331221033821
 21
26.34663293885892
 31
0.0
  0
LINE
  5
FF
330
FC
100
AcDbEntity
  8
0
  6
Continuous
 62
     7
100
AcDbLine
 10
-13.44638286635845
 20
-24.86642685261183
 30
0.0
 11
7.766820569237978
 21
-3.653223417015406
 31
0.0
  0
LINE
  5
100
330
FC
100
AcDbEntity
  8
0
  6
Continuous
 62
     7
100
AcDbLine
 10
-13.44621023286695
 20
5.133562350129001
 30
0.0
 11
7.766863727610851
 21
26.3466363106068
 31
0.0
  0
LINE
  5
101
330
FC
100
AcDbEntity
  8
0
  6
Continuous
 62
     7
100
AcDbLine
 10
16.55362049772348
 20
-24.86644101395293
 30
0.0
 11
37.76678077494704
 21
-3.653280736729382
 31
0.0
  0
LINE
  5
102
330
FC
100
AcDbEntity
  8
0
  6
Continuous
 62
     7
100
AcDbLine
 10
16.55364949475526
 20
5.133605508501876
 30
0.0
 11
37.76680977197881
 21
26.34676578572543
 31
0.0
  0
LINE
  5
103
330
FC
100
AcDbEntity
  8
0
  6
Continuous
 62
     7
100
AcDbLine
 10
-43.44619943560777
 20
-24.86642685261183
 30
0.0
 11
-22.23303915838423
 21
-3.653266575388281
 31
0.0
  0
LINE
  5
104
330
FC
100
AcDbEntity
  8
0
  6
Continuous
 62
     7
100
AcDbLine
 10
-58.44641926973664
 20
41.34665788596028
 30
0.0
 11
-37.23319425495377
 21
20.1334328711774
 31
0.0
  0
LINE
  5
105
330
FC
100
AcDbEntity
  8
0
  6
Continuous
 62
     7
100
AcDbLine
 10
-28.44643006699581
 20
11.34666868321943
 30
0.0
 11
-7.233226631399381
 21
-9.866534752376994
 31
0.0
  0
LINE
  5
106
330
FC
100
AcDbEntity
  8
0
  6
Continuous
 62
     7
100
AcDbLine
 10
1.553548346151807
 20
-18.65330972992818
 30
0.0
 11
22.76671941296858
 21
-39.86648079674495
 31
0.0
  0
LINE
  5
107
330
FC
100
AcDbEntity
  8
0
  6
Continuous
 62
     7
100
AcDbLine
 10
31.55346404478884
 20
11.34658438952241
 30
0.0
 11
52.76663511160561
 21
-9.866586677294356
 31
0.0
  0
LINE
  5
108
330
FC
100
AcDbEntity
  8
0
  6
Continuous
 62
     7
100
AcDbLine
 10
1.553496421234442
 20
41.34655201307681
 30
0.0
 11
22.76667827764443
 21
20.13337015666682
 31
0.0
  0
LINE
  5
109
330
FC
100
AcDbEntity
  8
0
  6
Continuous
 62
     7
100
AcDbLine
 10
1.55343303237428
 20
11.34649942147581
 30
0.0
 11
22.76660409919105
 21
-9.866671645340956
 31
0.0
  0
LINE
  5
10A
330
FC
100
AcDbEntity
  8
0
  6
Continuous
 62
     7
100
AcDbLine
 10
31.55337907674224
 20
-18.65344662289215
 30
0.0
 11
52.76658251233868
 21
-39.86665005848857
 31
0.0
  0
LINE
  5
10B
330
FC
100
AcDbEntity
  8
0
  6
Continuous
 62
     7
100
AcDbLine
 10
-28.44655617036655
 20
41.34648862421665
 30
0.0
 11
-7.233374313956563
 21
20.13330676780666
 31
0.0
  0
LINE
  5
10C
330
FC
100
AcDbEntity
  8
0
  6
Continuous
 62
     7
100
AcDbLine
 10
31.55346404478884
 20
41.34657359226324
 30
0.0
 11
52.76664590119883
 21
20.13339173585326
 31
0.0
  0
LINE
  5
10D
330
FC
100
AcDbEntity
  8
0
  6
Continuous
 62
     7
100
AcDbLine
 10
-58.44632014034895
 20
11.34668149586138
 30
0.0
 11
-37.23313828393896
 21
-9.866500360548613
 31
0.0
  0
LINE
  5
10E
330
FC
100
AcDbEntity
  8
0
  6
Continuous
 62
     7
100
AcDbLine
 10
-28.44635251679455
 20
-18.65328612769302
 30
0.0
 11
-7.233181449977781
 21
-39.86645719450978
 31
0.0
  0
LINE
  5
10F
330
FC
100
AcDbEntity
  8
0
  6
Continuous
 62
     7
100
AcDbLine
 10
-58.44641724668791
 20
-18.65340481321843
 30
0.0
 11
-37.23325696946436
 21
-39.86656509044197
 31
0.0
  0
ENDBLK
  5
894
330
FC
100
AcDbEntity
  8
0
100
AcDbBlockEnd
  0
BLOCK
  5
895
330
111
100
AcDbEntity
  8
0
100
AcDbBlockBegin
  2
KOZU0005
 70
     0
 71
     0
 10
0.0
 20
0.0
 30
0.0
  3
KOZU0005
  1

  0
POINT
  5
113
330
111
100
AcDbEntity
  8
0
  6
Continuous
 62
     7
100
AcDbPoint
 10
65.0
 20
0.0
 30
0.0
  0
POINT
  5
114
330
111
100
AcDbEntity
  8
0
  6
Continuous
 62
     7
100
AcDbPoint
 10
0.0
 20
0.0
 30
0.0
  0
LINE
  5
115
330
111
100
AcDbEntity
  8
0
  6
Continuous
 62
     7
100
AcDbLine
 10
65.0
 20
2.0
 30
0.0
 11
65.0
 21
0.0
 31
0.0
  0
LINE
  5
116
330
111
100
AcDbEntity
  8
0
  6
Continuous
 62
     7
100
AcDbLine
 10
65.0
 20
0.0
 30
0.0
 11
0.0
 21
0.0
 31
0.0
  0
LINE
  5
117
330
111
100
AcDbEntity
  8
0
  6
Continuous
 62
     7
100
AcDbLine
 10
0.0
 20
0.0
 30
0.0
 11
0.0
 21
65.0
 31
0.0
  0
LINE
  5
118
330
111
100
AcDbEntity
  8
0
  6
Continuous
 62
     7
100
AcDbLine
 10
0.0
 20
65.0
 30
0.0
 11
2.0
 21
65.0
 31
0.0
  0
LINE
  5
119
330
111
100
AcDbEntity
  8
0
  6
Continuous
 62
     7
100
AcDbLine
 10
6.0
 20
61.0
 30
0.0
 11
6.0
 21
14.5
 31
0.0
  0
LINE
  5
11A
330
111
100
AcDbEntity
  8
0
  6
Continuous
 62
     7
100
AcDbLine
 10
14.5
 20
6.0
 30
0.0
 11
61.0
 21
6.0
 31
0.0
  0
ARC
  5
11B
330
111
100
AcDbEntity
  8
0
  6
Continuous
 62
     7
100
AcDbCircle
 10
61.0
 20
2.0
 30
0.0
 40
4.0
100
AcDbArc
 50
0.0000359721780749
 51
89.99998201391065
  0
ARC
  5
11C
330
111
100
AcDbEntity
  8
0
  6
Continuous
 62
     7
100
AcDbCircle
 10
2.0
 20
61.0
 30
0.0
 40
4.0
100
AcDbArc
 50
0.0000359721780749
 51
89.99998201391065
  0
ARC
  5
11D
330
111
100
AcDbEntity
  8
0
  6
Continuous
 62
     7
100
AcDbCircle
 10
14.5
 20
14.5
 30
0.0
 40
8.5
100
AcDbArc
 50
179.9999640278213
 51
269.9999460417327
  0
ENDBLK
  5
896
330
111
100
AcDbEntity
  8
0
100
AcDbBlockEnd
  0
BLOCK
  5
897
330
11F
100
AcDbEntity
  8
0
100
AcDbBlockBegin
  2
KOZU0006
 70
     0
 71
     0
 10
0.0
 20
0.0
 30
0.0
  3
KOZU0006
  1

  0
CIRCLE
  5
121
330
11F
100
AcDbEntity
  8
0
  6
Continuous
 62
     7
100
AcDbCircle
 10
0.0
 20
0.0
 30
0.0
 40
8.75
  0
CIRCLE
  5
122
330
11F
100
AcDbEntity
  8
0
  6
Continuous
 62
     7
100
AcDbCircle
 10
0.0
 20
0.0
 30
0.0
 40
4.5
  0
ENDBLK
  5
898
330
11F
100
AcDbEntity
  8
0
100
AcDbBlockEnd
  0
BLOCK
  5
899
330
124
100
AcDbEntity
  8
0
100
AcDbBlockBegin
  2
KOZU0007
 70
     0
 71
     0
 10
0.0
 20
0.0
 30
0.0
  3
KOZU0007
  1

  0
CIRCLE
  5
126
330
124
100
AcDbEntity
  8
0
  6
Continuous
 62
     7
100
AcDbCircle
 10
0.0
 20
0.0
 30
0.0
 40
8.75
  0
ENDBLK
  5
89A
330
124
100
AcDbEntity
  8
0
100
AcDbBlockEnd
  0
BLOCK
  5
89B
330
128
100
AcDbEntity
  8
0
100
AcDbBlockBegin
  2
KOZU0008
 70
     0
 71
     0
 10
0.0
 20
0.0
 30
0.0
  3
KOZU0008
  1

  0
POINT
  5
12A
330
128
100
AcDbEntity
  8
0
  6
Continuous
 62
     7
100
AcDbPoint
 10
0.0
 20
0.0
 30
0.0
  0
INSERT
  5
12C
330
128
100
AcDbEntity
  8
0
  6
Continuous
 62
     7
100
AcDbBlockReference
  2
KOZU0035
 10
0.0
 20
0.0
 30
0.0
  0
ENDBLK
  5
89C
330
128
100
AcDbEntity
  8
0
100
AcDbBlockEnd
  0
BLOCK
  5
89D
330
12B
100
AcDbEntity
  8
0
100
AcDbBlockBegin
  2
KOZU0035
 70
     0
 71
     0
 10
0.0
 20
0.0
 30
0.0
  3
KOZU0035
  1

  0
LWPOLYLINE
  5
264
330
12B
100
AcDbEntity
  8
0
  6
Continuous
 62
     7
100
AcDbPolyline
 90
        2
 70
     1
 43
30.0
 10
-15.0
 20
0.0
 42
1.0
 10
15.0
 20
0.0
 42
1.0
  0
ENDBLK
  5
89E
330
12B
100
AcDbEntity
  8
0
100
AcDbBlockEnd
  0
BLOCK
  5
89F
330
12E
100
AcDbEntity
  8
0
100
AcDbBlockBegin
  2
KOZU0009
 70
     0
 71
     0
 10
0.0
 20
0.0
 30
0.0
  3
KOZU0009
  1

  0
POINT
  5
130
330
12E
100
AcDbEntity
  8
0
  6
Continuous
 62
     7
100
AcDbPoint
 10
0.0
 20
0.0
 30
0.0
  0
TEXT
  5
131
330
12E
100
AcDbEntity
  8
0
  6
Continuous
 62
     7
100
AcDbText
 10
-33.58189249038696
 20
14.5
 30
0.0
 40
3.0
  1
株式会社
 41
0.7932772975190165
100
AcDbText
  0
TEXT
  5
132
330
12E
100
AcDbEntity
  8
0
  6
Continuous
 62
     7
100
AcDbText
 10
-33.58189249038696
 20
8.699999809265138
 30
0.0
 40
3.0
  1
ゴス　　グラフィック
 41
0.7790205686619511
100
AcDbText
  0
TEXT
  5
133
330
12E
100
AcDbEntity
  8
0
  6
Continuous
 62
     7
100
AcDbText
 10
-33.58189249038696
 20
2.899999618530273
 30
0.0
 40
3.0
  1
システムズ　ジャパン
 41
0.7790205686619511
100
AcDbText
  0
ENDBLK
  5
8A0
330
12E
100
AcDbEntity
  8
0
100
AcDbBlockEnd
  0
BLOCK
  5
8A1
330
135
100
AcDbEntity
  8
0
100
AcDbBlockBegin
  2
KOZU0010
 70
     0
 71
     0
 10
0.0
 20
0.0
 30
0.0
  3
KOZU0010
  1

  0
POINT
  5
137
330
135
100
AcDbEntity
  8
0
  6
Continuous
 62
     7
100
AcDbPoint
 10
0.0
 20
0.0
 30
0.0
  0
INSERT
  5
139
330
135
100
AcDbEntity
  8
0
  6
Continuous
 62
     7
100
AcDbBlockReference
  2
KOZU0036
 10
0.0
 20
0.0
 30
0.0
  0
ENDBLK
  5
8A2
330
135
100
AcDbEntity
  8
0
100
AcDbBlockEnd
  0
BLOCK
  5
8A3
330
138
100
AcDbEntity
  8
0
100
AcDbBlockBegin
  2
KOZU0036
 70
     0
 71
     0
 10
0.0
 20
0.0
 30
0.0
  3
KOZU0036
  1

  0
LWPOLYLINE
  5
26A
330
138
100
AcDbEntity
  8
0
  6
Continuous
 62
     7
100
AcDbPolyline
 90
        2
 70
     1
 43
30.0
 10
-15.0
 20
0.0
 42
1.0
 10
15.0
 20
0.0
 42
1.0
  0
ENDBLK
  5
8A4
330
138
100
AcDbEntity
  8
0
100
AcDbBlockEnd
  0
BLOCK
  5
8A5
330
13B
100
AcDbEntity
  8
0
100
AcDbBlockBegin
  2
KOZU0011
 70
     0
 71
     0
 10
0.0
 20
0.0
 30
0.0
  3
KOZU0011
  1

  0
POINT
  5
13D
330
13B
100
AcDbEntity
  8
0
  6
Continuous
 62
     7
100
AcDbPoint
 10
0.0
 20
0.0
 30
0.0
  0
INSERT
  5
13F
330
13B
100
AcDbEntity
  8
0
  6
Continuous
 62
     7
100
AcDbBlockReference
  2
KOZU0037
 10
0.0
 20
0.0
 30
0.0
  0
ENDBLK
  5
8A6
330
13B
100
AcDbEntity
  8
0
100
AcDbBlockEnd
  0
BLOCK
  5
8A7
330
13E
100
AcDbEntity
  8
0
100
AcDbBlockBegin
  2
KOZU0037
 70
     0
 71
     0
 10
0.0
 20
0.0
 30
0.0
  3
KOZU0037
  1

  0
LWPOLYLINE
  5
270
330
13E
100
AcDbEntity
  8
0
  6
Continuous
 62
     7
100
AcDbPolyline
 90
        2
 70
     1
 43
30.0
 10
-15.0
 20
0.0
 42
1.0
 10
15.0
 20
0.0
 42
1.0
  0
ENDBLK
  5
8A8
330
13E
100
AcDbEntity
  8
0
100
AcDbBlockEnd
  0
BLOCK
  5
8A9
330
141
100
AcDbEntity
  8
0
100
AcDbBlockBegin
  2
KOZU0012
 70
     0
 71
     0
 10
0.0
 20
0.0
 30
0.0
  3
KOZU0012
  1

  0
POINT
  5
143
330
141
100
AcDbEntity
  8
0
  6
Continuous
 62
     7
100
AcDbPoint
 10
0.0
 20
0.0
 30
0.0
  0
INSERT
  5
145
330
141
100
AcDbEntity
  8
0
  6
Continuous
 62
     7
100
AcDbBlockReference
  2
KOZU0038
 10
0.0
 20
0.0
 30
0.0
  0
ENDBLK
  5
8AA
330
141
100
AcDbEntity
  8
0
100
AcDbBlockEnd
  0
BLOCK
  5
8AB
330
144
100
AcDbEntity
  8
0
100
AcDbBlockBegin
  2
KOZU0038
 70
     0
 71
     0
 10
0.0
 20
0.0
 30
0.0
  3
KOZU0038
  1

  0
LWPOLYLINE
  5
276
330
144
100
AcDbEntity
  8
0
  6
Continuous
 62
     7
100
AcDbPolyline
 90
        2
 70
     1
 43
30.0
 10
-15.0
 20
0.0
 42
1.0
 10
15.0
 20
0.0
 42
1.0
  0
ENDBLK
  5
8AC
330
144
100
AcDbEntity
  8
0
100
AcDbBlockEnd
  0
BLOCK
  5
8AD
330
147
100
AcDbEntity
  8
0
100
AcDbBlockBegin
  2
KOZU0013
 70
     0
 71
     0
 10
0.0
 20
0.0
 30
0.0
  3
KOZU0013
  1

  0
POINT
  5
149
330
147
100
AcDbEntity
  8
0
  6
Continuous
 62
     7
100
AcDbPoint
 10
0.0
 20
0.0
 30
0.0
  0
INSERT
  5
14B
330
147
100
AcDbEntity
  8
0
  6
Continuous
 62
     7
100
AcDbBlockReference
  2
KOZU0039
 10
0.0
 20
0.0
 30
0.0
  0
ENDBLK
  5
8AE
330
147
100
AcDbEntity
  8
0
100
AcDbBlockEnd
  0
BLOCK
  5
8AF
330
14A
100
AcDbEntity
  8
0
100
AcDbBlockBegin
  2
KOZU0039
 70
     0
 71
     0
 10
0.0
 20
0.0
 30
0.0
  3
KOZU0039
  1

  0
LWPOLYLINE
  5
27C
330
14A
100
AcDbEntity
  8
0
  6
Continuous
 62
     7
100
AcDbPolyline
 90
        2
 70
     1
 43
30.0
 10
-15.0
 20
0.0
 42
1.0
 10
15.0
 20
0.0
 42
1.0
  0
ENDBLK
  5
8B0
330
14A
100
AcDbEntity
  8
0
100
AcDbBlockEnd
  0
BLOCK
  5
8B1
330
14D
100
AcDbEntity
  8
0
100
AcDbBlockBegin
  2
KOZU0014
 70
     0
 71
     0
 10
0.0
 20
0.0
 30
0.0
  3
KOZU0014
  1

  0
POINT
  5
14F
330
14D
100
AcDbEntity
  8
0
  6
Continuous
 62
     7
100
AcDbPoint
 10
0.0
 20
0.0
 30
0.0
  0
INSERT
  5
151
330
14D
100
AcDbEntity
  8
0
  6
Continuous
 62
     7
100
AcDbBlockReference
  2
KOZU0040
 10
0.0
 20
0.0
 30
0.0
  0
ENDBLK
  5
8B2
330
14D
100
AcDbEntity
  8
0
100
AcDbBlockEnd
  0
BLOCK
  5
8B3
330
150
100
AcDbEntity
  8
0
100
AcDbBlockBegin
  2
KOZU0040
 70
     0
 71
     0
 10
0.0
 20
0.0
 30
0.0
  3
KOZU0040
  1

  0
LWPOLYLINE
  5
282
330
150
100
AcDbEntity
  8
0
  6
Continuous
 62
     7
100
AcDbPolyline
 90
        2
 70
     1
 43
30.0
 10
-15.0
 20
0.0
 42
1.0
 10
15.0
 20
0.0
 42
1.0
  0
ENDBLK
  5
8B4
330
150
100
AcDbEntity
  8
0
100
AcDbBlockEnd
  0
BLOCK
  5
8B5
330
153
100
AcDbEntity
  8
0
100
AcDbBlockBegin
  2
KOZU0015
 70
     0
 71
     0
 10
0.0
 20
0.0
 30
0.0
  3
KOZU0015
  1

  0
LINE
  5
155
330
153
100
AcDbEntity
  8
0
  6
Continuous
 62
     7
100
AcDbLine
 10
0.0
 20
0.55010986328125
 30
0.0
 11
0.0
 21
0.447906494140625
 31
0.0
  0
LINE
  5
156
330
153
100
AcDbEntity
  8
0
  6
Continuous
 62
     7
100
AcDbLine
 10
0.1496734619140625
 20
0.550628662109375
 30
0.0
 11
0.1496734619140625
 21
0.4473876953125
 31
0.0
  0
LINE
  5
157
330
153
100
AcDbEntity
  8
0
  6
Continuous
 62
     7
100
AcDbLine
 10
0.598785400390625
 20
0.550628662109375
 30
0.0
 11
0.598785400390625
 21
0.4473876953125
 31
0.0
  0
LINE
  5
158
330
153
100
AcDbEntity
  8
0
  6
Continuous
 62
     7
100
AcDbLine
 10
0.7484893798828125
 20
0.550628662109375
 30
0.0
 11
0.7484893798828125
 21
0.4473876953125
 31
0.0
  0
LWPOLYLINE
  5
159
330
153
100
AcDbEntity
  8
0
  6
Continuous
 62
     7
100
AcDbPolyline
 90
       17
 70
     0
 43
0.0
 10
0.7484851880796372
 20
0.5501098036766181
 42
0.0491268476851062
 10
0.7412941285837034
 20
0.6374893578170968
 42
0.0491268476851062
 10
0.7199972649852864
 20
0.7215109672691187
 42
0.0491268476851062
 10
0.6854130237399403
 20
0.7989457289739773
 42
0.0491268476851062
 10
0.6388704577314227
 20
0.8668178687165666
 42
0.0491268476851062
 10
0.5821581715190253
 20
0.922519098449978
 42
0.0491268476851062
 10
0.5174555862732271
 20
0.9639088513339312
 42
0.0491268476851062
 10
0.4472491858494183
 20
0.9893965425110584
 42
0.0491268476851062
 10
0.3742369626158441
 20
0.9980026943857988
 42
0.0491268476851062
 10
0.301224735128699
 20
0.9893965773959216
 42
0.0491268476851062
 10
0.2310183221076402
 20
0.9639089197630516
 42
0.0491268476851062
 10
0.1663157164050178
 20
0.9225191977936628
 42
0.0491268476851062
 10
0.1096034026623665
 20
0.8668179951570947
 42
0.0491268476851062
 10
0.0630608031081371
 20
0.7989458776523097
 42
0.0491268476851062
 10
0.0284765235907645
 20
0.7215111324716315
 42
0.0491268476851062
 10
0.0071796184647785
 20
0.6374895331951509
 42
0.0491268476851062
 10
-0.0000114842183858
 20
0.5501099824905334
 42
-1.0
  0
LWPOLYLINE
  5
16C
330
153
100
AcDbEntity
  8
0
  6
Continuous
 62
     7
100
AcDbPolyline
 90
       17
 70
     0
 43
0.0
 10
0.5987777227752895
 20
0.550628662109375
 42
0.0491268497694672
 10
0.5944417246481589
 20
0.6086997296019055
 42
0.0491268497694672
 10
0.5816427978124645
 20
0.664539158537328
 42
0.0491268497694672
 10
0.5608727978487814
 20
0.7160010709767664
 42
0.0491268497694672
 10
0.5329299042077635
 20
0.7611078144853464
 42
0.0491268497694672
 10
0.4988879466214801
 20
0.7981259622061865
 42
0.0491268497694672
 10
0.4600551384290222
 20
0.8256329274823908
 42
0.0491268497694672
 10
0.4179238026715361
 20
0.8425716330644791
 42
0.0491268497694672
 10
0.3741130229546568
 20
0.8482911339962671
 42
0.0491268497694672
 10
0.3303064229735355
 20
0.8425716330644791
 42
0.0491268497694672
 10
0.2881874657984227
 20
0.8256329274823908
 42
0.0491268497694672
 10
0.2493747593329747
 20
0.7981259622061865
 42
0.0491268497694672
 10
0.2153598541202417
 20
0.7611078144853465
 42
0.0491268497694672
 10
0.1874499238917707
 20
0.7160010709767664
 42
0.0491268497694672
 10
0.1667175316141727
 20
0.664539158537328
 42
0.0491268497694672
 10
0.153959411495816
 20
0.6086997296019055
 42
0.0491268497694672
 10
0.1496658509380131
 20
0.550628662109375
 42
-1.0
  0
LWPOLYLINE
  5
17F
330
153
100
AcDbEntity
  8
0
  6
Continuous
 62
     7
100
AcDbPolyline
 90
       17
 70
     0
 43
0.0
 10
-0.0000112211107969
 20
0.4479065239429394
 42
0.0491268487272869
 10
0.0071798454368174
 20
0.3605269603258108
 42
0.0491268487272869
 10
0.0284767131721659
 20
0.2765053430483931
 42
0.0491268487272869
 10
0.0630609554461574
 20
0.1990705756064548
 42
0.0491268487272869
 10
0.1096035192793864
 20
0.1311984325612232
 42
0.0491268487272869
 10
0.1663158001206343
 20
0.0754972021966581
 42
0.0491268487272869
 10
0.2310183769138089
 20
0.0341074514676772
 42
0.0491268487272869
 10
0.301224766023361
 20
0.0086197652159947
 42
0.0491268487272869
 10
0.3742369754019259
 20
0.0000136208892468
 42
0.0491268487272869
 10
0.4472491869072767
 20
0.0086197477735641
 42
0.0491268487272869
 10
0.5174555823154552
 20
0.0341074172531184
 42
0.0491268487272869
 10
0.582158169337045
 20
0.0754971525248176
 42
0.0491268487272869
 10
0.638870463943424
 20
0.1311983693409619
 42
0.0491268487272869
 10
0.6854130445495137
 20
0.1990705012672917
 42
0.0491268487272869
 10
0.7199973059595239
 20
0.2765052604471409
 42
0.0491268487272869
 10
0.7412941944586628
 20
0.3605268726367888
 42
0.0491268487272869
 10
0.7484852825998984
 20
0.4479064345359874
 42
-1.0
  0
LWPOLYLINE
  5
192
330
153
100
AcDbEntity
  8
0
  6
Continuous
 62
     7
100
AcDbPolyline
 90
       17
 70
     0
 43
0.0
 10
0.1496659576772763
 20
0.4473876953125002
 42
0.0491268482012981
 10
0.1539807340146741
 20
0.3893166370948513
 42
0.0491268482012981
 10
0.1667592511077331
 20
0.3334772169360964
 42
0.0491268482012981
 10
0.1875104377420417
 20
0.2820153123014926
 42
0.0491268482012981
 10
0.2154368375033088
 20
0.2369085752003304
 42
0.0491268482012981
 10
0.2494652545781989
 20
0.1998904321331258
 42
0.0491268482012981
 10
0.2882879960649637
 20
0.1723834694875548
 42
0.0491268482012981
 10
0.3304131258750996
 20
0.1554447643448439
 42
0.0491268482012981
 10
0.3742217989969003
 20
0.1497252616029348
 42
0.0491268482012981
 10
0.4180304727974447
 20
0.1554447585307003
 42
0.0491268482012981
 10
0.4601556046177275
 20
0.172383458082702
 42
0.0491268482012981
 10
0.4989783493687935
 20
0.1998904155758457
 42
0.0491268482012981
 10
0.5330067708366945
 20
0.2369085541269101
 42
0.0491268482012981
 10
0.5609331759508605
 20
0.2820152875217717
 42
0.0491268482012981
 10
0.5816843686922474
 20
0.3334771894023456
 42
0.0491268482012981
 10
0.5944628924118726
 20
0.389316607865177
 42
0.0491268482012981
 10
0.5987776756406693
 20
0.4473876655101824
 42
-1.0
  0
ENDBLK
  5
8B6
330
153
100
AcDbEntity
  8
0
100
AcDbBlockEnd
  0
BLOCK
  5
8B7
330
1A6
100
AcDbEntity
  8
0
100
AcDbBlockBegin
  2
KOZU0016
 70
     0
 71
     0
 10
0.0
 20
0.0
 30
0.0
  3
KOZU0016
  1

  0
ENDBLK
  5
8B8
330
1A6
100
AcDbEntity
  8
0
100
AcDbBlockEnd
  0
BLOCK
  5
8B9
330
1A9
100
AcDbEntity
  8
0
100
AcDbBlockBegin
  2
KOZU0017
 70
     0
 71
     0
 10
0.0
 20
0.0
 30
0.0
  3
KOZU0017
  1

  0
LINE
  5
1AB
330
1A9
100
AcDbEntity
  8
0
  6
Continuous
 62
     7
100
AcDbLine
 10
0.0
 20
0.0
 30
0.0
 11
0.69964599609375
 21
0.0
 31
0.0
  0
LINE
  5
1AC
330
1A9
100
AcDbEntity
  8
0
  6
Continuous
 62
     7
100
AcDbLine
 10
0.69964599609375
 20
0.149932861328125
 30
0.0
 11
0.69964599609375
 21
0.0
 31
0.0
  0
LINE
  5
1AD
330
1A9
100
AcDbEntity
  8
0
  6
Continuous
 62
     7
100
AcDbLine
 10
0.182830810546875
 20
0.149932861328125
 30
0.0
 11
0.69964599609375
 21
0.149932861328125
 31
0.0
  0
LINE
  5
1AE
330
1A9
100
AcDbEntity
  8
0
  6
Continuous
 62
     7
100
AcDbLine
 10
0.019989013671875
 20
0.699676513671875
 30
0.0
 11
0.1699066162109375
 21
0.699676513671875
 31
0.0
  0
LINE
  5
1AF
330
1A9
100
AcDbEntity
  8
0
  6
Continuous
 62
     7
100
AcDbLine
 10
0.5012409695434401
 20
0.5816915985492968
 30
0.0
 11
0.2550632969412037
 21
0.4404590138153239
 31
0.0
  0
LINE
  5
1B0
330
1A9
100
AcDbEntity
  8
0
  6
Continuous
 62
     7
100
AcDbLine
 10
0.5749653034799671
 20
0.4520909784490509
 30
0.0
 11
0.3290175653954674
 21
0.3100917927593054
 31
0.0
  0
ARC
  5
1B1
330
1A9
100
AcDbEntity
  8
0
  6
Continuous
 62
     7
100
AcDbCircle
 10
0.5077362060546875
 20
0.00006103515625
 30
0.0
 40
0.50773686170578
100
AcDbArc
 50
119.8429363091506
 51
180.0060838773183
  0
ARC
  5
1B2
330
1A9
100
AcDbEntity
  8
0
  6
Continuous
 62
     7
100
AcDbCircle
 10
0.50823974609375
 20
-0.00030517578125
 30
0.0
 40
0.35841304063797
100
AcDbArc
 50
120.000194584601
 51
155.2193273793414
  0
LWPOLYLINE
  5
1B3
330
1A9
100
AcDbEntity
  8
0
  6
Continuous
 62
     7
100
AcDbPolyline
 90
       17
 70
     0
 43
0.0
 10
0.5748726046250198
 20
0.4520955666078392
 42
0.0643547735545519
 10
0.6427997437583612
 20
0.5032348522470527
 42
0.0643547735545519
 10
0.6931142866557031
 20
0.5672841103376081
 42
0.0643547735545519
 10
0.7225096065075889
 20
0.6400340808578037
 42
0.0643547735545519
 10
0.7290538691543986
 20
0.7167037007380607
 42
0.0643547735545519
 10
0.7123169915014647
 20
0.7922543110545739
 42
0.0643547735545519
 10
0.6733989061958288
 20
0.8617207931923726
 42
0.0643547735545519
 10
0.6148572750353312
 20
0.9205378720049828
 42
0.0643547735545519
 10
0.5405394017202072
 20
0.9648401416185498
 42
0.0643547735545519
 10
0.4553293904909928
 20
0.9917160964526132
 42
0.0643547735545519
 10
0.3648271671611735
 20
0.9993994727657852
 42
0.0643547735545519
 10
0.2749804569955572
 20
0.9873853259309012
 42
0.0643547735545519
 10
0.1916939055194191
 20
0.9564632149448108
 42
0.0643547735545519
 10
0.1204410304896436
 20
0.908665313316477
 42
0.0643547735545519
 10
0.0659045071976463
 20
0.8471328564394611
 42
0.0643547735545519
 10
0.0316684272326089
 20
0.7759097024081596
 42
0.0643547735545519
 10
0.0199827551841736
 20
0.6996765732765197
 42
-1.0
  0
LWPOLYLINE
  5
1C6
330
1A9
100
AcDbEntity
  8
0
  6
Continuous
 62
     7
100
AcDbPolyline
 90
       17
 70
     0
 43
0.0
 10
0.50114781081335
 20
0.5816559532775413
 42
0.0633335972868038
 10
0.5375025989632389
 20
0.6085512093559967
 42
0.0633335972868038
 10
0.5634987802165671
 20
0.6412480979942741
 42
0.0633335972868038
 10
0.5774812677374374
 20
0.6776649215217555
 42
0.0633335972868038
 10
0.5785598449666032
 20
0.7154831468955233
 42
0.0633335972868038
 10
0.5666658426269849
 20
0.7522950186701458
 42
0.0633335972868038
 10
0.5425565106587413
 20
0.7857568524488575
 42
0.0633335972868038
 10
0.5077668067379276
 20
0.8137382491529461
 42
0.0633335972868038
 10
0.4645116708368029
 20
0.834457730153545
 42
0.0633335972868038
 10
0.4155450076661119
 20
0.8465961578466903
 42
0.0633335972868038
 10
0.3639843550988929
 20
0.849380720576407
 42
0.0633335972868038
 10
0.3131124013301034
 20
0.8426341348766054
 42
0.0633335972868038
 10
0.2661679874871615
 20
0.8267859324954367
 42
0.0633335972868038
 10
0.2261399018314362
 20
0.8028451135963518
 42
0.0633335972868038
 10
0.1955765939597884
 20
0.7723359072118516
 42
0.0633335972868038
 10
0.1764239238439918
 20
0.7372007288593763
 42
0.0633335972868038
 10
0.1699012756648244
 20
0.699676513671875
 42
-1.0
  0
ENDBLK
  5
8BA
330
1A9
100
AcDbEntity
  8
0
100
AcDbBlockEnd
  0
BLOCK
  5
8BB
330
1DA
100
AcDbEntity
  8
0
100
AcDbBlockBegin
  2
KOZU0018
 70
     0
 71
     0
 10
0.0
 20
0.0
 30
0.0
  3
KOZU0018
  1

  0
LINE
  5
1DC
330
1DA
100
AcDbEntity
  8
0
  6
Continuous
 62
     7
100
AcDbLine
 10
0.2298736572265625
 20
0.0
 30
0.0
 11
0.3798065185546875
 21
0.0
 31
0.0
  0
LINE
  5
1DD
330
1DA
100
AcDbEntity
  8
0
  6
Continuous
 62
     7
100
AcDbLine
 10
0.0
 20
0.8195953369140625
 30
0.0
 11
0.0
 21
0.729644775390625
 31
0.0
  0
LINE
  5
1DE
330
1DA
100
AcDbEntity
  8
0
  6
Continuous
 62
     7
100
AcDbLine
 10
0.0
 20
0.729644775390625
 30
0.0
 11
0.2298736572265625
 21
0.729644775390625
 31
0.0
  0
LINE
  5
1DF
330
1DA
100
AcDbEntity
  8
0
  6
Continuous
 62
     7
100
AcDbLine
 10
0.2298736572265625
 20
0.729644775390625
 30
0.0
 11
0.2298736572265625
 21
0.0
 31
0.0
  0
LINE
  5
1E0
330
1DA
100
AcDbEntity
  8
0
  6
Continuous
 62
     7
100
AcDbLine
 10
0.3798065185546875
 20
0.99951171875
 30
0.0
 11
0.3798065185546875
 21
0.0
 31
0.0
  0
LINE
  5
1E1
330
1DA
100
AcDbEntity
  8
0
  6
Continuous
 62
     7
100
AcDbLine
 10
0.269866943359375
 20
0.99951171875
 30
0.0
 11
0.3798065185546875
 21
0.99951171875
 31
0.0
  0
ARC
  5
1E2
330
1DA
100
AcDbEntity
  8
0
  6
Continuous
 62
     7
100
AcDbCircle
 10
0.0983734130859375
 20
1.015945434570313
 30
0.0
 40
0.1722868084907532
100
AcDbArc
 50
292.4592645809794
 51
354.5249510971698
  0
ARC
  5
1E3
330
1DA
100
AcDbEntity
  8
0
  6
Continuous
 62
     7
100
AcDbCircle
 10
0.0041656494140625
 20
1.18267822265625
 30
0.0
 40
0.3631128668785095
100
AcDbArc
 50
269.3421888067478
 51
296.1489327706203
  0
ENDBLK
  5
8BC
330
1DA
100
AcDbEntity
  8
0
100
AcDbBlockEnd
  0
BLOCK
  5
8BD
330
1E5
100
AcDbEntity
  8
0
100
AcDbBlockBegin
  2
KOZU0019
 70
     0
 71
     0
 10
0.0
 20
0.0
 30
0.0
  3
KOZU0019
  1

  0
LINE
  5
1E7
330
1E5
100
AcDbEntity
  8
0
  6
Continuous
 62
     7
100
AcDbLine
 10
0.0
 20
0.34930419921875
 30
0.0
 11
0.149932861328125
 21
0.34930419921875
 31
0.0
  0
LINE
  5
1E8
330
1E5
100
AcDbEntity
  8
0
  6
Continuous
 62
     7
100
AcDbLine
 10
0.024444580078125
 20
0.499755859375
 30
0.0
 11
0.22674560546875
 21
0.499755859375
 31
0.0
  0
LINE
  5
1E9
330
1E5
100
AcDbEntity
  8
0
  6
Continuous
 62
     7
100
AcDbLine
 10
0.2515411376953125
 20
0.849578857421875
 30
0.0
 11
0.6996612548828125
 21
0.849578857421875
 31
0.0
  0
LINE
  5
1EA
330
1E5
100
AcDbEntity
  8
0
  6
Continuous
 62
     7
100
AcDbLine
 10
0.1299591064453125
 20
0.99951171875
 30
0.0
 11
0.6996612548828125
 21
0.99951171875
 31
0.0
  0
LINE
  5
1EB
330
1E5
100
AcDbEntity
  8
0
  6
Continuous
 62
     7
100
AcDbLine
 10
0.024444342635095
 20
0.4997472006331586
 30
0.0
 11
0.1299570442125043
 21
0.999518013928292
 31
0.0
  0
LINE
  5
1EC
330
1E5
100
AcDbEntity
  8
0
  6
Continuous
 62
     7
100
AcDbLine
 10
0.6996612548828125
 20
0.99951171875
 30
0.0
 11
0.6996612548828125
 21
0.849578857421875
 31
0.0
  0
LINE
  5
1ED
330
1E5
100
AcDbEntity
  8
0
  6
Continuous
 62
     7
100
AcDbLine
 10
0.2124865266822817
 20
0.6646244195860755
 30
0.0
 11
0.2515365112287654
 21
0.8495883361970121
 31
0.0
  0
LWPOLYLINE
  5
1EE
330
1E5
100
AcDbEntity
  8
0
  6
Continuous
 62
     7
100
AcDbPolyline
 90
       17
 70
     0
 43
0.0
 10
0.0000029802322387
 20
0.3493043482303618
 42
0.0808055649786835
 10
0.0193108647076723
 20
0.2384247648574462
 42
0.0808055649786835
 10
0.075279085625734
 20
0.1389792448190796
 42
0.0808055649786835
 10
0.1621361127258265
 20
0.0612227652928017
 42
0.0808055649786835
 10
0.2709251138623011
 20
0.0131736957601159
 42
0.0808055649786835
 10
0.3904275975094307
 20
-0.0002130687644052
 42
0.0808055649786835
 10
0.5083202811102154
 20
0.022442935762537
 42
0.0808055649786835
 10
0.6124458871999828
 20
0.0788053868070723
 42
0.0808055649786835
 10
0.6920668208258778
 20
0.1630621004828991
 42
0.0808055649786835
 10
0.7389724470907929
 20
0.2665243930215903
 42
0.0808055649786835
 10
0.7483257846338854
 20
0.3785230713985543
 42
0.0808055649786835
 10
0.7191623026949838
 20
0.4875086571634069
 42
0.0808055649786835
 10
0.6544893850314022
 20
0.5822423866768383
 42
0.0808055649786835
 10
0.560976203812878
 20
0.6529551699513996
 42
0.0808055649786835
 10
0.4482659841824356
 20
0.6923549944523768
 42
0.0808055649786835
 10
0.3279815798346387
 20
0.6963788888070951
 42
0.0808055649786835
 10
0.2125269062090639
 20
0.6646119027517667
 42
-1.0
  0
LWPOLYLINE
  5
201
330
1E5
100
AcDbEntity
  8
0
  6
Continuous
 62
     7
100
AcDbPolyline
 90
       17
 70
     0
 43
0.0
 10
0.1499360203742981
 20
0.3493042290210724
 42
0.0850623041730979
 10
0.162745782731622
 20
0.2827477183347655
 42
0.0850623041730979
 10
0.1997554495124817
 20
0.2237861168423509
 42
0.0850623041730979
 10
0.2567417656434093
 20
0.1791476635230405
 42
0.0850623041730979
 10
0.3272018963341541
 20
0.153926151184232
 42
0.0850623041730979
 10
0.4030954799630114
 20
0.1509996624786578
 42
0.0850623041730979
 10
0.4757621315553736
 20
0.1707021455163197
 42
0.0850623041730979
 10
0.5369096985007752
 20
0.2107853063057745
 42
0.0850623041730979
 10
0.5795604964590284
 20
0.2666751665627262
 42
0.0850623041730979
 10
0.5988475483797541
 20
0.3319940105059662
 42
0.0850623041730979
 10
0.5925699660366743
 20
0.3992881601353722
 42
0.0850623041730979
 10
0.5614440982593131
 20
0.4608785309425678
 42
0.0850623041730979
 10
0.5090217867809441
 20
0.5097369092576381
 42
0.0850623041730979
 10
0.4412850577090935
 20
0.5402879572824257
 42
0.0850623041730979
 10
0.3659634992728759
 20
0.5490454272391699
 42
0.0850623041730979
 10
0.2916522213848113
 20
0.5350099848284146
 42
0.0850623041730979
 10
0.226831048605735
 20
0.499783245480003
 42
-1.0
  0
ENDBLK
  5
8BE
330
1E5
100
AcDbEntity
  8
0
100
AcDbBlockEnd
  0
BLOCK
  5
8BF
330
215
100
AcDbEntity
  8
0
100
AcDbBlockBegin
  2
KOZU0020
 70
     0
 71
     0
 10
0.0
 20
0.0
 30
0.0
  3
KOZU0020
  1

  0
CIRCLE
  5
217
330
215
100
AcDbEntity
  8
0
  6
Continuous
 62
     7
100
AcDbCircle
 10
0.0
 20
0.0
 30
0.0
 40
0.2199999690055847
  0
ENDBLK
  5
8C0
330
215
100
AcDbEntity
  8
0
100
AcDbBlockEnd
  0
BLOCK
  5
8C1
330
219
100
AcDbEntity
  8
0
100
AcDbBlockBegin
  2
KOZU0021
 70
     0
 71
     0
 10
0.0
 20
0.0
 30
0.0
  3
KOZU0021
  1

  0
CIRCLE
  5
21B
330
219
100
AcDbEntity
  8
0
  6
Continuous
 62
     7
100
AcDbCircle
 10
0.0
 20
0.0
 30
0.0
 40
0.2199999690055847
  0
ENDBLK
  5
8C2
330
219
100
AcDbEntity
  8
0
100
AcDbBlockEnd
  0
BLOCK
  5
8C3
330
21D
100
AcDbEntity
  8
0
100
AcDbBlockBegin
  2
KOZU0022
 70
     0
 71
     0
 10
0.0
 20
0.0
 30
0.0
  3
KOZU0022
  1

  0
CIRCLE
  5
21F
330
21D
100
AcDbEntity
  8
0
  6
Continuous
 62
     7
100
AcDbCircle
 10
0.0
 20
0.0
 30
0.0
 40
0.2199999690055847
  0
ENDBLK
  5
8C4
330
21D
100
AcDbEntity
  8
0
100
AcDbBlockEnd
  0
BLOCK
  5
8C5
330
221
100
AcDbEntity
  8
0
100
AcDbBlockBegin
  2
KOZU0023
 70
     0
 71
     0
 10
0.0
 20
0.0
 30
0.0
  3
KOZU0023
  1

  0
CIRCLE
  5
223
330
221
100
AcDbEntity
  8
0
  6
Continuous
 62
     7
100
AcDbCircle
 10
0.0
 20
0.0
 30
0.0
 40
0.2199999690055847
  0
ENDBLK
  5
8C6
330
221
100
AcDbEntity
  8
0
100
AcDbBlockEnd
  0
BLOCK
  5
8C7
330
225
100
AcDbEntity
  8
0
100
AcDbBlockBegin
  2
KOZU0024
 70
     0
 71
     0
 10
0.0
 20
0.0
 30
0.0
  3
KOZU0024
  1

  0
CIRCLE
  5
227
330
225
100
AcDbEntity
  8
0
  6
Continuous
 62
     7
100
AcDbCircle
 10
0.0
 20
0.0
 30
0.0
 40
0.2199999690055847
  0
ENDBLK
  5
8C8
330
225
100
AcDbEntity
  8
0
100
AcDbBlockEnd
  0
BLOCK
  5
8C9
330
229
100
AcDbEntity
  8
0
100
AcDbBlockBegin
  2
KOZU0025
 70
     0
 71
     0
 10
0.0
 20
0.0
 30
0.0
  3
KOZU0025
  1

  0
CIRCLE
  5
22B
330
229
100
AcDbEntity
  8
0
  6
Continuous
 62
     7
100
AcDbCircle
 10
0.0
 20
0.0
 30
0.0
 40
0.2199999690055847
  0
ENDBLK
  5
8CA
330
229
100
AcDbEntity
  8
0
100
AcDbBlockEnd
  0
BLOCK
  5
8CB
330
22D
100
AcDbEntity
  8
0
100
AcDbBlockBegin
  2
KOZU0026
 70
     0
 71
     0
 10
0.0
 20
0.0
 30
0.0
  3
KOZU0026
  1

  0
CIRCLE
  5
22F
330
22D
100
AcDbEntity
  8
0
  6
Continuous
 62
     7
100
AcDbCircle
 10
0.0
 20
0.0
 30
0.0
 40
0.2199999690055847
  0
ENDBLK
  5
8CC
330
22D
100
AcDbEntity
  8
0
100
AcDbBlockEnd
  0
BLOCK
  5
8CD
330
231
100
AcDbEntity
  8
0
100
AcDbBlockBegin
  2
KOZU0027
 70
     0
 71
     0
 10
0.0
 20
0.0
 30
0.0
  3
KOZU0027
  1

  0
CIRCLE
  5
233
330
231
100
AcDbEntity
  8
0
  6
Continuous
 62
     7
100
AcDbCircle
 10
0.0
 20
0.0
 30
0.0
 40
0.2199999690055847
  0
ENDBLK
  5
8CE
330
231
100
AcDbEntity
  8
0
100
AcDbBlockEnd
  0
BLOCK
  5
8CF
330
235
100
AcDbEntity
  8
0
100
AcDbBlockBegin
  2
KOZU0028
 70
     0
 71
     0
 10
0.0
 20
0.0
 30
0.0
  3
KOZU0028
  1

  0
CIRCLE
  5
237
330
235
100
AcDbEntity
  8
0
  6
Continuous
 62
     7
100
AcDbCircle
 10
0.0
 20
0.0
 30
0.0
 40
0.2199999690055847
  0
ENDBLK
  5
8D0
330
235
100
AcDbEntity
  8
0
100
AcDbBlockEnd
  0
ENDSEC
  0
SECTION
  2
ENTITIES
  0
POINT
  5
287
330
1F
100
AcDbEntity
  8
0
  6
Continuous
 62
     7
100
AcDbPoint
 10
141.7435776414813
 20
0.1571385503060085
 30
0.0
  0
POINT
  5
288
330
1F
100
AcDbEntity
  8
0
  6
Continuous
 62
     7
100
AcDbPoint
 10
-104.1863299560547
 20
0.1571385503060085
 30
0.0
  0
POINT
  5
289
330
1F
100
AcDbEntity
  8
0
  6
Continuous
 62
     7
100
AcDbPoint
 10
105.2135776414813
 20
0.1571385503060085
 30
0.0
  0
POINT
  5
28A
330
1F
100
AcDbEntity
  8
0
  6
Continuous
 62
     7
100
AcDbPoint
 10
124.2135776414813
 20
14.55714007618492
 30
0.0
  0
POINT
  5
28B
330
1F
100
AcDbEntity
  8
0
  6
Continuous
 62
     7
100
AcDbPoint
 10
99.21357764148128
 20
15.157138550306
 30
0.0
  0
POINT
  5
28C
330
1F
100
AcDbEntity
  8
0
  6
Continuous
 62
     7
100
AcDbPoint
 10
-40.38642235851871
 20
12.15713855030601
 30
0.0
  0
LINE
  5
28D
330
1F
100
AcDbEntity
  8
0
  6
Continuous
 62
     7
100
AcDbLine
 10
-40.38642235851871
 20
11.857138550306
 30
0.0
 11
-40.08642233655716
 21
12.15713855030601
 31
0.0
  0
LINE
  5
28E
330
1F
100
AcDbEntity
  8
0
  6
Continuous
 62
     7
100
AcDbLine
 10
-40.38642235851871
 20
11.85713855030601
 30
0.0
 11
-40.38642235851871
 21
-11.54286144969399
 31
0.0
  0
LINE
  5
28F
330
1F
100
AcDbEntity
  8
0
  6
Continuous
 62
     7
100
AcDbLine
 10
-40.0864223585187
 20
12.15713855030601
 30
0.0
 11
-40.0864223585187
 21
-11.84286144969399
 31
0.0
  0
LINE
  5
290
330
1F
100
AcDbEntity
  8
0
  6
Continuous
 62
     7
100
AcDbLine
 10
34.61357764148129
 20
12.15713855030601
 30
0.0
 11
34.61357764148129
 21
-11.84286144969399
 31
0.0
  0
LINE
  5
291
330
1F
100
AcDbEntity
  8
0
  6
Continuous
 62
     7
100
AcDbLine
 10
99.21357764148128
 20
-11.84286144969399
 30
0.0
 11
61.21357764148129
 21
-11.84286144969399
 31
0.0
  0
LINE
  5
292
330
1F
100
AcDbEntity
  8
0
  6
Continuous
 62
     7
100
AcDbLine
 10
34.61357764148129
 20
-11.84286144969399
 30
0.0
 11
61.21357764148129
 21
-11.84286144969399
 31
0.0
  0
LINE
  5
293
330
1F
100
AcDbEntity
  8
0
  6
Continuous
 62
     7
100
AcDbLine
 10
114.9135776414813
 20
-14.842861449694
 30
0.0
 11
115.2135776414813
 21
-14.54286142773249
 31
0.0
  0
LINE
  5
294
330
1F
100
AcDbEntity
  8
0
  6
Continuous
 62
     7
100
AcDbLine
 10
99.21357764148128
 20
-14.54286144969399
 30
0.0
 11
99.5135776634428
 21
-14.84286144969399
 31
0.0
  0
LINE
  5
295
330
1F
100
AcDbEntity
  8
0
  6
Continuous
 62
     7
100
AcDbLine
 10
114.9135776414813
 20
15.15713855030599
 30
0.0
 11
115.2135776414813
 21
14.85713852834448
 31
0.0
  0
LINE
  5
296
330
1F
100
AcDbEntity
  8
0
  6
CENTER
 62
     7
100
AcDbLine
 10
105.2135776414813
 20
2.468386873372405
 30
0.0
 11
105.2135776414813
 21
-2.20294645996093
 31
0.0
  0
LINE
  5
297
330
1F
100
AcDbEntity
  8
0
  6
Continuous
 62
     7
100
AcDbLine
 10
99.21357764148128
 20
14.85713855030598
 30
0.0
 11
99.51357766344282
 21
15.15713855030599
 31
0.0
  0
LINE
  5
298
330
1F
100
AcDbEntity
  8
0
  6
Continuous
 62
     7
100
AcDbLine
 10
34.61357764148129
 20
12.15713855030601
 30
0.0
 11
61.21357764148129
 21
12.15713855030601
 31
0.0
  0
LINE
  5
299
330
1F
100
AcDbEntity
  8
0
  6
Continuous
 62
     7
100
AcDbLine
 10
99.51357764148129
 20
15.157138550306
 30
0.0
 11
99.51357764148129
 21
-14.84286144969399
 31
0.0
  0
LINE
  5
29A
330
1F
100
AcDbEntity
  8
0
  6
Continuous
 62
     7
100
AcDbLine
 10
114.9135776414813
 20
15.157138550306
 30
0.0
 11
114.9135776414813
 21
-14.84286144969399
 31
0.0
  0
LINE
  5
29B
330
1F
100
AcDbEntity
  8
0
  6
Continuous
 62
     7
100
AcDbLine
 10
114.9135776414813
 20
15.157138550306
 30
0.0
 11
99.51357766344285
 21
15.157138550306
 31
0.0
  0
LINE
  5
29C
330
1F
100
AcDbEntity
  8
0
  6
Continuous
 62
     7
100
AcDbLine
 10
115.2135776414813
 20
14.85713852834447
 30
0.0
 11
115.2135776414813
 21
-14.54286142773248
 31
0.0
  0
LINE
  5
29D
330
1F
100
AcDbEntity
  8
0
  6
Continuous
 62
     7
100
AcDbLine
 10
114.9135776414813
 20
-14.84286144969399
 30
0.0
 11
99.51357766344282
 21
-14.84286144969399
 31
0.0
  0
LINE
  5
29E
330
1F
100
AcDbEntity
  8
0
  6
Continuous
 62
     7
100
AcDbLine
 10
-40.08642233655717
 20
12.15713855030601
 30
0.0
 11
34.61357764148129
 21
12.15713855030601
 31
0.0
  0
LINE
  5
29F
330
1F
100
AcDbEntity
  8
0
  6
Continuous
 62
     7
100
AcDbLine
 10
-40.08642233655718
 20
-11.84286144969399
 30
0.0
 11
34.61357764148129
 21
-11.84286144969399
 31
0.0
  0
LINE
  5
2A0
330
1F
100
AcDbEntity
  8
0
  6
CENTER
 62
     7
100
AcDbLine
 10
-106.0175874710848
 20
0.1571385503060085
 30
0.0
 11
-56.83132995605471
 21
0.1571385503060085
 31
0.0
  0
LINE
  5
2A1
330
1F
100
AcDbEntity
  8
0
  6
Continuous
 62
     7
100
AcDbLine
 10
99.21357764148128
 20
14.857138550306
 30
0.0
 11
99.21357764148128
 21
-14.54286144969399
 31
0.0
  0
LINE
  5
2A2
330
1F
100
AcDbEntity
  8
0
  6
Continuous
 62
     7
100
AcDbLine
 10
99.21357764148128
 20
12.157138550306
 30
0.0
 11
61.21357764148129
 21
12.157138550306
 31
0.0
  0
LINE
  5
2A3
330
1F
100
AcDbEntity
  8
0
  6
Continuous
 62
     7
100
AcDbLine
 10
61.21357764148129
 20
12.15713855030601
 30
0.0
 11
61.21357764148129
 21
-11.84286144969399
 31
0.0
  0
LINE
  5
2A4
330
1F
100
AcDbEntity
  8
0
  6
CENTER
 62
     7
100
AcDbLine
 10
141.7435776414813
 20
2.320569661417117
 30
0.0
 11
141.7435776414813
 21
-1.00416811636066
 31
0.0
  0
LINE
  5
2A5
330
1F
100
AcDbEntity
  8
0
  6
Continuous
 62
     7
100
AcDbLine
 10
-40.38642235851871
 20
-11.54286144969399
 30
0.0
 11
-40.08642233655717
 21
-11.84286144969399
 31
0.0
  0
LINE
  5
2A6
330
1F
100
AcDbEntity
  8
0
  6
Continuous
 62
     7
100
AcDbLine
 10
115.7135776414813
 20
15.15713855030601
 30
0.0
 11
120.2135776414813
 21
15.15713855030601
 31
0.0
  0
LINE
  5
2A7
330
1F
100
AcDbEntity
  8
0
  6
Continuous
 62
     7
100
AcDbLine
 10
115.7135776414813
 20
-14.84286144969399
 30
0.0
 11
120.2135776414813
 21
-14.84286144969399
 31
0.0
  0
LINE
  5
2A8
330
1F
100
AcDbEntity
  8
0
  6
Continuous
 62
     7
100
AcDbLine
 10
124.8135761156024
 20
12.8571354985482
 30
0.0
 11
127.9135745897235
 21
12.8571354985482
 31
0.0
  0
LINE
  5
2A9
330
1F
100
AcDbEntity
  8
0
  6
Continuous
 62
     7
100
AcDbLine
 10
124.2135776414813
 20
12.55714007618492
 30
0.0
 11
124.8135761156024
 21
12.55714007618492
 31
0.0
  0
LINE
  5
2AA
330
1F
100
AcDbEntity
  8
0
  6
Continuous
 62
     7
100
AcDbLine
 10
124.8135761156024
 20
12.8571354985482
 30
0.0
 11
124.8135761156024
 21
12.55714007618492
 31
0.0
  0
LINE
  5
2AB
330
1F
100
AcDbEntity
  8
0
  6
Continuous
 62
     7
100
AcDbLine
 10
124.8135761156024
 20
-12.54286602733071
 30
0.0
 11
127.9135745897235
 21
-12.54286602733071
 31
0.0
  0
LINE
  5
2AC
330
1F
100
AcDbEntity
  8
0
  6
Continuous
 62
     7
100
AcDbLine
 10
120.7135776414813
 20
14.55714007618492
 30
0.0
 11
123.7135776414813
 21
14.55714007618492
 31
0.0
  0
LINE
  5
2AD
330
1F
100
AcDbEntity
  8
0
  6
Continuous
 62
     7
100
AcDbLine
 10
120.7135776414813
 20
-14.2428629755729
 30
0.0
 11
123.7135776414813
 21
-14.2428629755729
 31
0.0
  0
LINE
  5
2AE
330
1F
100
AcDbEntity
  8
0
  6
Continuous
 62
     7
100
AcDbLine
 10
124.2135776414813
 20
-12.2428629755729
 30
0.0
 11
124.8135761156024
 21
-12.2428629755729
 31
0.0
  0
LINE
  5
2AF
330
1F
100
AcDbEntity
  8
0
  6
Continuous
 62
     7
100
AcDbLine
 10
127.9135745897235
 20
12.8571354985482
 30
0.0
 11
127.9135745897235
 21
-12.5428660273307
 31
0.0
  0
LINE
  5
2B0
330
1F
100
AcDbEntity
  8
0
  6
Continuous
 62
     7
100
AcDbLine
 10
128.2135776414813
 20
12.55713538210634
 30
0.0
 11
128.2135776414813
 21
-12.24286297557289
 31
0.0
  0
LINE
  5
2B1
330
1F
100
AcDbEntity
  8
0
  6
Continuous
 62
     7
100
AcDbLine
 10
120.7135776414813
 20
14.55714007618492
 30
0.0
 11
120.7135776414813
 21
-14.34286144969398
 31
0.0
  0
LINE
  5
2B2
330
1F
100
AcDbEntity
  8
0
  6
Continuous
 62
     7
100
AcDbLine
 10
124.2135776414813
 20
14.05713831195126
 30
0.0
 11
124.2135776414813
 21
-13.74286297557289
 31
0.0
  0
LINE
  5
2B3
330
1F
100
AcDbEntity
  8
0
  6
Continuous
 62
     7
100
AcDbLine
 10
124.8135761156024
 20
12.55714007618492
 30
0.0
 11
124.8135761156024
 21
-12.24286297557289
 31
0.0
  0
LINE
  5
2B4
330
1F
100
AcDbEntity
  8
0
  6
Continuous
 62
     7
100
AcDbLine
 10
124.8135761156024
 20
12.55714007618492
 30
0.0
 11
127.9135745897235
 21
12.55714007618492
 31
0.0
  0
LINE
  5
2B5
330
1F
100
AcDbEntity
  8
0
  6
Continuous
 62
     7
100
AcDbLine
 10
124.8135761156024
 20
-12.24286297557289
 30
0.0
 11
124.8135761156024
 21
-12.5428660273307
 31
0.0
  0
LINE
  5
2B6
330
1F
100
AcDbEntity
  8
0
  6
Continuous
 62
     7
100
AcDbLine
 10
124.8135761156024
 20
-12.2428629755729
 30
0.0
 11
127.9135745897235
 21
-12.2428629755729
 31
0.0
  0
LINE
  5
2B7
330
1F
100
AcDbEntity
  8
0
  6
Continuous
 62
     7
100
AcDbLine
 10
127.9135751995867
 20
12.8571378492893
 30
0.0
 11
128.2135744315945
 21
12.55713859199346
 31
0.0
  0
LINE
  5
2B8
330
1F
100
AcDbEntity
  8
0
  6
Continuous
 62
     7
100
AcDbLine
 10
115.2135780300424
 20
14.65713520116419
 30
0.0
 11
115.7135785904678
 21
15.15713571944264
 31
0.0
  0
LINE
  5
2B9
330
1F
100
AcDbEntity
  8
0
  6
Continuous
 62
     7
100
AcDbLine
 10
127.9135774910402
 20
-12.54286443933912
 30
0.0
 11
128.213576723048
 21
-12.24286518204328
 31
0.0
  0
LINE
  5
2BA
330
1F
100
AcDbEntity
  8
0
  6
Continuous
 62
     7
100
AcDbLine
 10
120.2135740037408
 20
15.15713687848115
 30
0.0
 11
120.7135745220192
 21
14.65713631805581
 31
0.0
  0
LINE
  5
2BB
330
1F
100
AcDbEntity
  8
0
  6
Continuous
 62
     7
100
AcDbLine
 10
123.7135776414813
 20
14.55714007618492
 30
0.0
 11
123.7135776414813
 21
-14.24286297557289
 31
0.0
  0
LINE
  5
2BC
330
1F
100
AcDbEntity
  8
0
  6
Continuous
 62
     7
100
AcDbLine
 10
123.713577753916
 20
14.5571382416634
 30
0.0
 11
124.2135782721944
 21
14.05713768123806
 31
0.0
  0
LINE
  5
2BD
330
1F
100
AcDbEntity
  8
0
  6
Continuous
 62
     7
100
AcDbLine
 10
115.7135776414813
 20
15.15713855030601
 30
0.0
 11
115.7135776414813
 21
-14.84286144969398
 31
0.0
  0
LINE
  5
2BE
330
1F
100
AcDbEntity
  8
0
  6
Continuous
 62
     7
100
AcDbLine
 10
115.7135776414813
 20
-14.34286144969399
 30
0.0
 11
120.2135776414813
 21
-14.34286144969399
 31
0.0
  0
LINE
  5
2BF
330
1F
100
AcDbEntity
  8
0
  6
Continuous
 62
     7
100
AcDbLine
 10
115.7135776414813
 20
-13.84286144969399
 30
0.0
 11
120.2135776414813
 21
-13.84286144969399
 31
0.0
  0
LINE
  5
2C0
330
1F
100
AcDbEntity
  8
0
  6
Continuous
 62
     7
100
AcDbLine
 10
120.2135776414813
 20
15.15713855030601
 30
0.0
 11
120.2135776414813
 21
-14.84286144969398
 31
0.0
  0
LINE
  5
2C1
330
1F
100
AcDbEntity
  8
0
  6
Continuous
 62
     7
100
AcDbLine
 10
123.713575999272
 20
-14.24286348301427
 30
0.0
 11
124.2135751688514
 21
-13.74286427128813
 31
0.0
  0
LINE
  5
2C2
330
1F
100
AcDbEntity
  8
0
  6
Continuous
 62
     7
100
AcDbLine
 10
120.2135729234464
 20
-14.84286144548241
 30
0.0
 11
120.7135734417248
 21
-14.34286088505707
 31
0.0
  0
LINE
  5
2C3
330
1F
100
AcDbEntity
  8
0
  6
Continuous
 62
     7
100
AcDbLine
 10
115.213575601049
 20
-14.34286381426296
 30
0.0
 11
115.7135761614743
 21
-14.8428643325414
 31
0.0
  0
LINE
  5
2C4
330
1F
100
AcDbEntity
  8
0
  6
Continuous
 62
     7
100
AcDbLine
 10
115.7135776414813
 20
-13.34286144969399
 30
0.0
 11
120.2135776414813
 21
-13.34286144969399
 31
0.0
  0
LINE
  5
2C5
330
1F
100
AcDbEntity
  8
0
  6
Continuous
 62
     7
100
AcDbLine
 10
115.7135776414813
 20
-12.84286144969399
 30
0.0
 11
120.2135776414813
 21
-12.84286144969399
 31
0.0
  0
LINE
  5
2C6
330
1F
100
AcDbEntity
  8
0
  6
Continuous
 62
     7
100
AcDbLine
 10
115.7135776414813
 20
-12.09286144969399
 30
0.0
 11
120.2135776414813
 21
-12.09286144969399
 31
0.0
  0
LINE
  5
2C7
330
1F
100
AcDbEntity
  8
0
  6
Continuous
 62
     7
100
AcDbLine
 10
115.7135776414813
 20
-11.34286144969399
 30
0.0
 11
120.2135776414813
 21
-11.34286144969399
 31
0.0
  0
LINE
  5
2C8
330
1F
100
AcDbEntity
  8
0
  6
Continuous
 62
     7
100
AcDbLine
 10
115.7135776414813
 20
-10.59286144969399
 30
0.0
 11
120.2135776414813
 21
-10.59286144969399
 31
0.0
  0
LINE
  5
2C9
330
1F
100
AcDbEntity
  8
0
  6
Continuous
 62
     7
100
AcDbLine
 10
115.7135776414813
 20
-9.592861449693991
 30
0.0
 11
120.2135776414813
 21
-9.592861449693991
 31
0.0
  0
LINE
  5
2CA
330
1F
100
AcDbEntity
  8
0
  6
Continuous
 62
     7
100
AcDbLine
 10
115.7135776414813
 20
-8.592861449693991
 30
0.0
 11
120.2135776414813
 21
-8.592861449693991
 31
0.0
  0
LINE
  5
2CB
330
1F
100
AcDbEntity
  8
0
  6
Continuous
 62
     7
100
AcDbLine
 10
115.7135776414813
 20
-7.592861449693992
 30
0.0
 11
120.2135776414813
 21
-7.592861449693992
 31
0.0
  0
LINE
  5
2CC
330
1F
100
AcDbEntity
  8
0
  6
Continuous
 62
     7
100
AcDbLine
 10
115.7135776414813
 20
-6.592861449693992
 30
0.0
 11
120.2135776414813
 21
-6.592861449693992
 31
0.0
  0
LINE
  5
2CD
330
1F
100
AcDbEntity
  8
0
  6
Continuous
 62
     7
100
AcDbLine
 10
115.7135776414813
 20
-5.592861449693992
 30
0.0
 11
120.2135776414813
 21
-5.592861449693992
 31
0.0
  0
LINE
  5
2CE
330
1F
100
AcDbEntity
  8
0
  6
Continuous
 62
     7
100
AcDbLine
 10
115.7135776414813
 20
-4.592861449693992
 30
0.0
 11
120.2135776414813
 21
-4.592861449693992
 31
0.0
  0
LINE
  5
2CF
330
1F
100
AcDbEntity
  8
0
  6
Continuous
 62
     7
100
AcDbLine
 10
115.7135776414813
 20
-3.592861449693991
 30
0.0
 11
120.2135776414813
 21
-3.592861449693991
 31
0.0
  0
LINE
  5
2D0
330
1F
100
AcDbEntity
  8
0
  6
Continuous
 62
     7
100
AcDbLine
 10
115.7135776414813
 20
-2.592861449693992
 30
0.0
 11
120.2135776414813
 21
-2.592861449693992
 31
0.0
  0
LINE
  5
2D1
330
1F
100
AcDbEntity
  8
0
  6
Continuous
 62
     7
100
AcDbLine
 10
115.7135776414813
 20
-1.592861449693992
 30
0.0
 11
120.2135776414813
 21
-1.592861449693992
 31
0.0
  0
LINE
  5
2D2
330
1F
100
AcDbEntity
  8
0
  6
Continuous
 62
     7
100
AcDbLine
 10
115.7135776414813
 20
-0.5928614496939915
 30
0.0
 11
120.2135776414813
 21
-0.5928614496939915
 31
0.0
  0
LINE
  5
2D3
330
1F
100
AcDbEntity
  8
0
  6
Continuous
 62
     7
100
AcDbLine
 10
120.7135776414813
 20
14.65713319859353
 30
0.0
 11
120.7135776414813
 21
14.55714007618492
 31
0.0
  0
LINE
  5
2D4
330
1F
100
AcDbEntity
  8
0
  6
CENTER
 62
     7
100
AcDbLine
 10
-48.68132995605468
 20
0.1571385503060085
 30
0.0
 11
142.5720283201442
 21
0.1571385503060085
 31
0.0
  0
LINE
  5
2D5
330
1F
100
AcDbEntity
  8
0
  6
CENTER
 62
     7
100
AcDbLine
 10
-104.1863299560547
 20
2.592795624207402
 30
0.0
 11
-104.1863299560547
 21
-1.382580127295604
 31
0.0
  0
LINE
  5
2D6
330
1F
100
AcDbEntity
  8
0
  6
Continuous
 62
     7
100
AcDbLine
 10
115.7135776414813
 20
14.65713855030601
 30
0.0
 11
120.2135776414813
 21
14.65713855030601
 31
0.0
  0
LINE
  5
2D7
330
1F
100
AcDbEntity
  8
0
  6
Continuous
 62
     7
100
AcDbLine
 10
115.7135776414813
 20
14.15713855030601
 30
0.0
 11
120.2135776414813
 21
14.15713855030601
 31
0.0
  0
LINE
  5
2D8
330
1F
100
AcDbEntity
  8
0
  6
Continuous
 62
     7
100
AcDbLine
 10
115.7135776414813
 20
13.65713855030601
 30
0.0
 11
120.2135776414813
 21
13.65713855030601
 31
0.0
  0
LINE
  5
2D9
330
1F
100
AcDbEntity
  8
0
  6
Continuous
 62
     7
100
AcDbLine
 10
115.7135776414813
 20
13.15713855030601
 30
0.0
 11
120.2135776414813
 21
13.15713855030601
 31
0.0
  0
LINE
  5
2DA
330
1F
100
AcDbEntity
  8
0
  6
Continuous
 62
     7
100
AcDbLine
 10
115.7135776414813
 20
12.40713855030601
 30
0.0
 11
120.2135776414813
 21
12.40713855030601
 31
0.0
  0
LINE
  5
2DB
330
1F
100
AcDbEntity
  8
0
  6
Continuous
 62
     7
100
AcDbLine
 10
115.7135776414813
 20
11.65713855030601
 30
0.0
 11
120.2135776414813
 21
11.65713855030601
 31
0.0
  0
LINE
  5
2DC
330
1F
100
AcDbEntity
  8
0
  6
Continuous
 62
     7
100
AcDbLine
 10
115.7135776414813
 20
10.90713855030601
 30
0.0
 11
120.2135776414813
 21
10.90713855030601
 31
0.0
  0
LINE
  5
2DD
330
1F
100
AcDbEntity
  8
0
  6
Continuous
 62
     7
100
AcDbLine
 10
115.7135776414813
 20
9.907138550306009
 30
0.0
 11
120.2135776414813
 21
9.907138550306009
 31
0.0
  0
LINE
  5
2DE
330
1F
100
AcDbEntity
  8
0
  6
Continuous
 62
     7
100
AcDbLine
 10
115.7135776414813
 20
8.907138550306009
 30
0.0
 11
120.2135776414813
 21
8.907138550306009
 31
0.0
  0
LINE
  5
2DF
330
1F
100
AcDbEntity
  8
0
  6
Continuous
 62
     7
100
AcDbLine
 10
115.7135776414813
 20
7.907138550306009
 30
0.0
 11
120.2135776414813
 21
7.907138550306009
 31
0.0
  0
LINE
  5
2E0
330
1F
100
AcDbEntity
  8
0
  6
Continuous
 62
     7
100
AcDbLine
 10
115.7135776414813
 20
6.907138550306009
 30
0.0
 11
120.2135776414813
 21
6.907138550306009
 31
0.0
  0
LINE
  5
2E1
330
1F
100
AcDbEntity
  8
0
  6
Continuous
 62
     7
100
AcDbLine
 10
115.7135776414813
 20
5.907138550306009
 30
0.0
 11
120.2135776414813
 21
5.907138550306009
 31
0.0
  0
LINE
  5
2E2
330
1F
100
AcDbEntity
  8
0
  6
Continuous
 62
     7
100
AcDbLine
 10
115.7135776414813
 20
4.907138550306009
 30
0.0
 11
120.2135776414813
 21
4.907138550306009
 31
0.0
  0
LINE
  5
2E3
330
1F
100
AcDbEntity
  8
0
  6
Continuous
 62
     7
100
AcDbLine
 10
115.7135776414813
 20
3.907138550306009
 30
0.0
 11
120.2135776414813
 21
3.907138550306009
 31
0.0
  0
LINE
  5
2E4
330
1F
100
AcDbEntity
  8
0
  6
Continuous
 62
     7
100
AcDbLine
 10
115.7135776414813
 20
2.907138550306009
 30
0.0
 11
120.2135776414813
 21
2.907138550306009
 31
0.0
  0
LINE
  5
2E5
330
1F
100
AcDbEntity
  8
0
  6
Continuous
 62
     7
100
AcDbLine
 10
115.7135776414813
 20
1.907138550306009
 30
0.0
 11
120.2135776414813
 21
1.907138550306009
 31
0.0
  0
LINE
  5
2E6
330
1F
100
AcDbEntity
  8
0
  6
Continuous
 62
     7
100
AcDbLine
 10
115.7135776414813
 20
0.9071385503060084
 30
0.0
 11
120.2135776414813
 21
0.9071385503060084
 31
0.0
  0
CIRCLE
  5
2E7
330
1F
100
AcDbEntity
  8
0
  6
Continuous
 62
     7
100
AcDbCircle
 10
141.7435776414813
 20
0.1571385503060085
 30
0.0
 40
0.3
  0
CIRCLE
  5
2E8
330
1F
100
AcDbEntity
  8
0
  6
Continuous
 62
     7
100
AcDbCircle
 10
105.2135776414813
 20
0.1571385503060085
 30
0.0
 40
1.5
  0
CIRCLE
  5
2E9
330
1F
100
AcDbEntity
  8
0
  6
Continuous
 62
     7
100
AcDbCircle
 10
105.2135776414813
 20
0.1571385503060085
 30
0.0
 40
1.25
  0
CIRCLE
  5
2EA
330
1F
100
AcDbEntity
  8
0
  6
Continuous
 62
     7
100
AcDbCircle
 10
-104.1863299560547
 20
0.1571385503060085
 30
0.0
 40
0.3
  0
TEXT
  5
2EB
330
1F
100
AcDbEntity
  8
0
  6
Continuous
 62
     7
100
AcDbText
 10
122.9737700439453
 20
-2.724821419429778
 30
0.0
 40
2.0
  1
X 2
 50
90.00000000000006
 41
1.357187420129776
100
AcDbText
  0
DIMENSION
  5
2EC
330
1F
100
AcDbEntity
  8
0
  6
Continuous
 62
     7
100
AcDbDimension
  2
*D2
 10
-47.29437462040799
 20
-11.84286144969399
 30
0.0
 11
-47.29437462040799
 21
0.1571385503060103
 31
0.0
 70
    32
 71
     5
 42
-1.0
  3
DIMSTYLE
100
AcDbAlignedDimension
 13
-40.08642233655717
 23
12.15713855030601
 33
0.0
 14
-40.08642233655718
 24
-11.84286144969399
 34
0.0
 50
90.0
100
AcDbRotatedDimension
1001
ACAD
1000
DSTYLE
1002
{
1070
    77
1070
     1
1070
   172
1070
     1
1002
}
  0
DIMENSION
  5
2ED
330
1F
100
AcDbEntity
  8
0
  6
Continuous
 62
     7
100
AcDbDimension
  2
*D3
 10
148.1623728297226
 20
-12.54286602733071
 30
0.0
 11
148.1623728297226
 21
0.1571347356087429
 31
0.0
 70
    32
 71
     5
 42
-1.0
  3
DIMSTYLE
100
AcDbAlignedDimension
 13
127.9135745897235
 23
12.8571354985482
 33
0.0
 14
127.9135745897235
 24
-12.54286602733071
 34
0.0
 50
90.0
100
AcDbRotatedDimension
1001
ACAD
1000
DSTYLE
1002
{
1070
    77
1070
     1
1070
   172
1070
     1
1002
}
  0
DIMENSION
  5
2EE
330
1F
100
AcDbEntity
  8
0
  6
Continuous
 62
     7
100
AcDbDimension
  2
*D4
 10
154.903814957488
 20
-14.84286144969399
 30
0.0
 11
154.903814957488
 21
0.1571385503060085
 31
0.0
 70
    32
 71
     5
 42
-1.0
  3
DIMSTYLE
100
AcDbAlignedDimension
 13
120.2135776414813
 23
15.15713855030601
 33
0.0
 14
120.2135776414813
 24
-14.84286144969399
 34
0.0
 50
90.0
100
AcDbRotatedDimension
1001
ACAD
1000
DSTYLE
1002
{
1070
    77
1070
     1
1070
   172
1070
     1
1002
}
  0
DIMENSION
  5
2EF
330
1F
100
AcDbEntity
  8
0
  6
Continuous
 62
     7
100
AcDbDimension
  2
*D5
 10
124.2135776414813
 20
24.63925354003908
 30
0.0
 11
126.2135776414813
 21
24.63925354003908
 31
0.0
 70
    32
 71
     5
 42
-1.0
  3
DIMSTYLE
100
AcDbAlignedDimension
 13
128.2135776414813
 23
12.55713538210634
 33
0.0
 14
124.2135776414813
 24
14.55714007618492
 34
0.0
100
AcDbRotatedDimension
1001
ACAD
1000
DSTYLE
1002
{
1070
     7
1000
_NONE
1070
    77
1070
     1
1070
   172
1070
     1
1070
    76
1070
     1
1002
}
  0
DIMENSION
  5
2F0
330
1F
100
AcDbEntity
  8
0
  6
Continuous
 62
     7
100
AcDbDimension
  2
*D6
 10
99.21357764148128
 20
24.63925354003908
 30
0.0
 11
111.7135776414813
 21
24.63925354003908
 31
0.0
 70
    32
 71
     5
 42
-1.0
  3
DIMSTYLE
100
AcDbAlignedDimension
 13
124.2135776414813
 23
14.55714007618492
 33
0.0
 14
99.21357764148128
 24
15.157138550306
 34
0.0
100
AcDbRotatedDimension
1001
ACAD
1000
DSTYLE
1002
{
1070
    77
1070
     1
1070
   172
1070
     1
1070
    75
1070
     1
1002
}
  0
DIMENSION
  5
2F1
330
1F
100
AcDbEntity
  8
0
  6
Continuous
 62
     7
100
AcDbDimension
  2
*D7
 10
61.21357764148129
 20
24.63925354003908
 30
0.0
 11
80.2135776414813
 21
24.63925354003908
 31
0.0
 70
    32
 71
     5
 42
-1.0
  3
DIMSTYLE
100
AcDbAlignedDimension
 13
99.21357764148128
 23
15.157138550306
 33
0.0
 14
61.21357764148129
 24
12.15713855030601
 34
0.0
100
AcDbRotatedDimension
1001
ACAD
1000
DSTYLE
1002
{
1070
    77
1070
     1
1070
   172
1070
     1
1070
    75
1070
     1
1002
}
  0
DIMENSION
  5
2F2
330
1F
100
AcDbEntity
  8
0
  6
Continuous
 62
     7
100
AcDbDimension
  2
*D8
 10
-40.38642235851871
 20
24.63925354003908
 30
0.0
 11
-2.886422358518708
 21
24.63925354003908
 31
0.0
 70
    32
 71
     5
 42
-1.0
  3
DIMSTYLE
100
AcDbAlignedDimension
 13
34.61357764148129
 23
12.15713855030601
 33
0.0
 14
-40.38642235851871
 24
12.15713855030601
 34
0.0
100
AcDbRotatedDimension
1001
ACAD
1000
DSTYLE
1002
{
1070
    77
1070
     1
1070
   172
1070
     1
1070
    75
1070
     1
1070
    76
1070
     1
1002
}
  0
DIMENSION
  5
2F3
330
1F
100
AcDbEntity
  8
0
  6
Continuous
 62
     7
100
AcDbDimension
  2
*D9
 10
124.2135776414813
 20
31.56925354003909
 30
0.0
 11
132.9785776414813
 21
31.56925354003909
 31
0.0
 70
    32
 71
     5
 42
-1.0
  3
DIMSTYLE
100
AcDbAlignedDimension
 13
141.7435776414813
 23
2.320569661417117
 33
0.0
 14
124.2135776414813
 24
14.55714007618492
 34
0.0
100
AcDbRotatedDimension
1001
ACAD
1000
DSTYLE
1002
{
1070
    77
1070
     1
1070
   172
1070
     1
1070
    75
1070
     1
1002
}
  0
DIMENSION
  5
2F4
330
1F
100
AcDbEntity
  8
0
  6
Continuous
 62
     7
100
AcDbDimension
  2
*D10
 10
-104.1863299560547
 20
31.56925354003909
 30
0.0
 11
-72.2863761572867
 21
31.56925354003909
 31
0.0
 70
    32
 71
     5
 42
-1.0
  3
DIMSTYLE
100
AcDbAlignedDimension
 13
-40.38642235851871
 23
12.15713855030601
 33
0.0
 14
-104.1863299560547
 24
2.592795624207402
 34
0.0
100
AcDbRotatedDimension
1001
ACAD
1000
DSTYLE
1002
{
1070
    77
1070
     1
1070
   172
1070
     1
1070
    75
1070
     1
1070
    76
1070
     1
1002
}
  0
DIMENSION
  5
2F5
330
1F
100
AcDbEntity
  8
0
  6
Continuous
 62
     7
100
AcDbDimension
  2
*D11
 10
61.21357764148129
 20
24.63925354003908
 30
0.0
 11
47.9135776414813
 21
24.63925354003908
 31
0.0
 70
    32
 71
     5
 42
-1.0
  3
DIMSTYLE
100
AcDbAlignedDimension
 13
34.61357764148129
 23
12.15713855030601
 33
0.0
 14
61.21357764148129
 24
12.15713855030601
 34
0.0
100
AcDbRotatedDimension
1001
ACAD
1000
DSTYLE
1002
{
1070
    77
1070
     1
1070
   172
1070
     1
1070
    76
1070
     1
1002
}
  0
DIMENSION
  5
2F6
330
1F
100
AcDbEntity
  8
0
  6
Continuous
 62
     7
100
AcDbDimension
  2
*D12
 10
124.2135776414813
 20
31.56925354003909
 30
0.0
 11
41.9135776414813
 21
31.56925354003909
 31
0.0
 70
    32
 71
     5
 42
-1.0
  3
DIMSTYLE
100
AcDbAlignedDimension
 13
-40.38642235851871
 23
12.15713855030601
 33
0.0
 14
124.2135776414813
 24
14.55714007618492
 34
0.0
100
AcDbRotatedDimension
1001
ACAD
1000
DSTYLE
1002
{
1070
    77
1070
     1
1070
   172
1070
     1
1070
    76
1070
     1
1002
}
  0
DIMENSION
  5
2F7
330
1F
100
AcDbEntity
  8
0
  6
Continuous
 62
     7
100
AcDbDimension
  2
*D13
 10
141.7435776414813
 20
39.2692535400391
 30
0.0
 11
18.77862384271329
 21
39.2692535400391
 31
0.0
 70
    32
 71
     5
 42
-1.0
  3
DIMSTYLE
100
AcDbAlignedDimension
 13
-104.1863299560547
 23
2.592795624207402
 33
0.0
 14
141.7435776414813
 24
2.320569661417117
 34
0.0
100
AcDbRotatedDimension
1001
ACAD
1000
DSTYLE
1002
{
1070
    77
1070
     1
1070
   172
1070
     1
1002
}
  0
POINT
  5
2FB
330
1F
100
AcDbEntity
  8
1
  6
Continuous
 62
     7
100
AcDbPoint
 10
166.8086658059735
 20
-135.0307504174916
 30
0.0
  0
LINE
  5
304
330
1F
100
AcDbEntity
  8
1
  6
Continuous
 62
     7
100
AcDbLine
 10
-115.1913341940266
 20
-125.5307504174916
 30
0.0
 11
159.8086505471844
 21
-125.5307504174916
 31
0.0
  0
LINE
  5
305
330
1F
100
AcDbEntity
  8
1
  6
Continuous
 62
     7
100
AcDbLine
 10
159.8086505471844
 20
65.46924958250838
 30
0.0
 11
159.8086505471844
 21
-125.5307504174916
 31
0.0
  0
LINE
  5
306
330
1F
100
AcDbEntity
  8
1
  6
Continuous
 62
     7
100
AcDbLine
 10
-20.19135326751288
 20
-74.5307656762807
 30
0.0
 11
-20.19135326751288
 21
-125.5307504174916
 31
0.0
  0
LINE
  5
307
330
1F
100
AcDbEntity
  8
1
  6
HIDDEN
 62
     7
100
AcDbLine
 10
-130.1913341940266
 20
-135.0307504174916
 30
0.0
 11
166.8086658059735
 21
-135.0307504174916
 31
0.0
  0
LINE
  5
308
330
1F
100
AcDbEntity
  8
1
  6
Continuous
 62
     7
100
AcDbLine
 10
-15.19135326751288
 20
-74.5307656762807
 30
0.0
 11
-15.19135326751288
 21
-84.5307656762807
 31
0.0
  0
LINE
  5
309
330
1F
100
AcDbEntity
  8
1
  6
Continuous
 62
     7
100
AcDbLine
 10
139.8086505471844
 20
-74.5307656762807
 30
0.0
 11
139.8086505471844
 21
-84.5307656762807
 31
0.0
  0
LINE
  5
30A
330
1F
100
AcDbEntity
  8
1
  6
Continuous
 62
     7
100
AcDbLine
 10
76.80865054718439
 20
-74.5307656762807
 30
0.0
 11
76.80865054718439
 21
-84.5307656762807
 31
0.0
  0
LINE
  5
30B
330
1F
100
AcDbEntity
  8
1
  6
Continuous
 62
     7
100
AcDbLine
 10
71.80864673248712
 20
-74.5307656762807
 30
0.0
 11
71.80864673248712
 21
-84.5307656762807
 31
0.0
  0
LINE
  5
30C
330
1F
100
AcDbEntity
  8
1
  6
Continuous
 62
     7
100
AcDbLine
 10
51.80864673248712
 20
-74.5307656762807
 30
0.0
 11
51.80864673248712
 21
-84.5307656762807
 31
0.0
  0
LINE
  5
30D
330
1F
100
AcDbEntity
  8
1
  6
Continuous
 62
     7
100
AcDbLine
 10
-20.19135326751288
 20
-79.5307656762807
 30
0.0
 11
159.8086505471844
 21
-79.5307656762807
 31
0.0
  0
LINE
  5
316
330
1F
100
AcDbEntity
  8
1
  6
Continuous
 62
     7
100
AcDbLine
 10
18.30864863983575
 20
-84.5307656762807
 30
0.0
 11
18.30864863983575
 21
-125.5307504174916
 31
0.0
  0
LINE
  5
320
330
1F
100
AcDbEntity
  8
1
  6
Continuous
 62
     7
100
AcDbLine
 10
60.80864923639685
 20
-83.7628209754446
 30
0.0
 11
62.8086492633192
 21
-80.29871937585047
 31
0.0
  0
LINE
  5
321
330
1F
100
AcDbEntity
  8
1
  6
Continuous
 62
     7
100
AcDbLine
 10
148.8086530510941
 20
-83.76282097544457
 30
0.0
 11
150.8086530780164
 21
-80.29871937585044
 31
0.0
  0
LINE
  5
324
330
1F
100
AcDbEntity
  8
1
  6
HIDDEN
 62
     7
100
AcDbLine
 10
166.8086658059735
 20
74.96924958250837
 30
0.0
 11
166.8086658059735
 21
-135.0307504174916
 31
0.0
  0
LINE
  5
325
330
1F
100
AcDbEntity
  8
1
  6
Continuous
 62
     7
100
AcDbLine
 10
-115.1913341940266
 20
65.46924958250838
 30
0.0
 11
159.8086505471844
 21
65.46924958250838
 31
0.0
  0
LINE
  5
326
330
1F
100
AcDbEntity
  8
1
  6
Continuous
 62
     7
100
AcDbLine
 10
-115.1913341940266
 20
65.46924958250838
 30
0.0
 11
-115.1913341940266
 21
-125.5307504174916
 31
0.0
  0
LINE
  5
328
330
1F
100
AcDbEntity
  8
1
  6
Continuous
 62
     7
100
AcDbLine
 10
-20.19135326751288
 20
-84.5307656762807
 30
0.0
 11
159.8086505471844
 21
-84.5307656762807
 31
0.0
  0
LINE
  5
329
330
1F
100
AcDbEntity
  8
1
  6
Continuous
 62
     7
100
AcDbLine
 10
-115.1913341940266
 20
-74.5307656762807
 30
0.0
 11
159.8086505471844
 21
-74.5307656762807
 31
0.0
  0
LINE
  5
32A
330
1F
100
AcDbEntity
  8
1
  6
Continuous
 62
     7
100
AcDbLine
 10
-115.1913341940266
 20
-80.5307656762807
 30
0.0
 11
-20.19135326751288
 21
-80.5307656762807
 31
0.0
  0
LINE
  5
32B
330
1F
100
AcDbEntity
  8
1
  6
Continuous
 62
     7
100
AcDbLine
 10
-115.1913341940266
 20
-89.5307656762807
 30
0.0
 11
-20.19135326751288
 21
-89.5307656762807
 31
0.0
  0
LINE
  5
32C
330
1F
100
AcDbEntity
  8
1
  6
Continuous
 62
     7
100
AcDbLine
 10
-115.1913341940266
 20
-98.5307656762807
 30
0.0
 11
-20.19135326751288
 21
-98.5307656762807
 31
0.0
  0
LINE
  5
32D
330
1F
100
AcDbEntity
  8
1
  6
Continuous
 62
     7
100
AcDbLine
 10
-115.1913341940266
 20
-107.5307656762807
 30
0.0
 11
-20.19135326751288
 21
-107.5307656762807
 31
0.0
  0
LINE
  5
32E
330
1F
100
AcDbEntity
  8
1
  6
Continuous
 62
     7
100
AcDbLine
 10
-115.1913341940266
 20
-116.5307656762807
 30
0.0
 11
-20.19135326751288
 21
-116.5307656762807
 31
0.0
  0
TEXT
  5
340
330
1F
100
AcDbEntity
  8
1
  6
Continuous
 62
     7
100
AcDbText
 10
-10.25825018294867
 20
-84.0307656762807
 30
0.0
 40
3.0
  1
図　　歴
 41
0.7924526497277711
100
AcDbText
  0
TEXT
  5
341
330
1F
100
AcDbEntity
  8
1
  6
Continuous
 62
     7
100
AcDbText
 10
8.919566804088989
 20
-83.7807656762807
 30
0.0
 40
2.5
  1
CHANGE NOTICE
 41
1.00261237008231
100
AcDbText
  0
TEXT
  5
344
330
1F
100
AcDbEntity
  8
1
  6
Continuous
 62
     7
100
AcDbText
 10
53.6685090600628
 20
-83.93076529481095
 30
0.0
 40
1.799999237060547
  1
DATE
 41
0.9430185615926484
100
AcDbText
  0
TEXT
  5
345
330
1F
100
AcDbEntity
  8
1
  6
Continuous
 62
     7
100
AcDbText
 10
63.6685090600628
 20
-83.93076529481095
 30
0.0
 40
1.799999237060547
  1
NAME
 41
0.9430185615926484
100
AcDbText
  0
TEXT
  5
34E
330
1F
100
AcDbEntity
  8
1
  6
Continuous
 62
     7
100
AcDbText
 10
-17.35261871735807
 20
-109.3277805434529
 30
0.0
 40
3.0
  1
特　　記
 41
0.7924526497277711
100
AcDbText
  0
TEXT
  5
370
330
1F
100
AcDbEntity
  8
1
  6
Continuous
 62
     7
100
AcDbText
 10
81.74175172439996
 20
-84.0307656762807
 30
0.0
 40
3.0
  1
図　　歴
 41
0.7924526497277711
100
AcDbText
  0
TEXT
  5
371
330
1F
100
AcDbEntity
  8
1
  6
Continuous
 62
     7
100
AcDbText
 10
100.9195687114376
 20
-83.7807656762807
 30
0.0
 40
2.5
  1
CHANGE NOTICE
 41
1.00261237008231
100
AcDbText
  0
TEXT
  5
376
330
1F
100
AcDbEntity
  8
1
  6
Continuous
 62
     7
100
AcDbText
 10
141.6685128747601
 20
-83.93076529481095
 30
0.0
 40
1.799999237060547
  1
DATE
 41
0.9430185615926484
100
AcDbText
  0
TEXT
  5
377
330
1F
100
AcDbEntity
  8
1
  6
Continuous
 62
     7
100
AcDbText
 10
151.6685128747601
 20
-83.93076529481095
 30
0.0
 40
1.799999237060547
  1
NAME
 41
0.9430185615926484
100
AcDbText
  0
TEXT
  5
37B
330
1F
100
AcDbEntity
  8
1
  6
Continuous
 62
     7
100
AcDbText
 10
108.4574703629616
 20
-113.130860046296
 30
0.0
 40
3.2
  1
KCM-2-156
100
AcDbText
  0
TEXT
  5
37E
330
1F
100
AcDbEntity
  8
1
  6
Continuous
 62
     7
100
AcDbText
 10
-82.26854441013653
 20
-79.688117804525
 30
0.0
 40
3.200000047683716
  1
光　学　仕　様
 41
0.8463497609256171
100
AcDbText
  0
TEXT
  5
37F
330
1F
100
AcDbEntity
  8
1
  6
Continuous
 62
     7
100
AcDbText
 10
-110.3343342007023
 20
-86.63076570012255
 30
0.0
 40
3.200000047683716
  1
倍率　　　Ｘ２
 41
0.8463497609256171
100
AcDbText
  0
TEXT
  5
380
330
1F
100
AcDbEntity
  8
1
  6
Continuous
 62
     7
100
AcDbText
 10
-110.3343342007023
 20
-95.63076570012255
 30
0.0
 40
3.200000047683716
  1
開口数　　ＮＡ０．０４（有効Ｆ値２５）
 41
0.8424838380691055
100
AcDbText
  0
TEXT
  5
381
330
1F
100
AcDbEntity
  8
1
  6
Continuous
 62
     7
100
AcDbText
 10
-110.3343342007022
 20
-104.6307657001225
 30
0.0
 40
3.200000047683716
  1
光学的分解能　　９μｍ
 41
0.8440946392593188
100
AcDbText
  0
TEXT
  5
382
330
1F
100
AcDbEntity
  8
1
  6
Continuous
 62
     7
100
AcDbText
 10
-110.3343342007022
 20
-113.6307657001225
 30
0.0
 40
3.200000047683716
  1
被写界深度　　０．４４ｍｍ
 41
0.8435011861892404
100
AcDbText
  0
TEXT
  5
383
330
1F
100
AcDbEntity
  8
1
  6
Continuous
 62
     7
100
AcDbText
 10
-110.3343342007022
 20
-122.6307657001225
 30
0.0
 40
3.200000047683716
  1
ディスト－ション　　＋０．０７％
 41
0.8428951064580962
100
AcDbText
  0
INSERT
  5
391
330
1F
100
AcDbEntity
  8
1
  6
Continuous
 62
     7
100
AcDbBlockReference
  2
KOZU0016
 10
115.0054235526422
 20
-124.1533463207693
 30
0.0
 41
6.0
 42
6.0
 43
6.0
  0
OLE2FRAME
  5
39E
330
1F
100
AcDbEntity
  8
0
  6
Continuous
100
AcDbOle2Frame
 70
     2
 10
-1.594853246296537
 20
-127.10038682174
 30
0.0
 11
37.55557627204407
 21
-132.9813526292161
 31
0.0
 72
     0
 73
   205
 90
    28288
310
005580356CD68484F9BFA914D9BC6CC65FC00000000000000000736E8F1F1DC7
310
4240A914D9BC6CC65FC00000000000000000736E8F1F1DC74240740AA13D679F
310
60C0000000000000000080356CD68484F9BF740AA13D679F60C0000000000000
310
00000000000001000000000100000100000001000000000001000000006E0000
310
D0CF11E0A1B11AE1000000000000000000000000000000003E000300FEFF0900
310
0600000000000000000000000100000001000000000000000010000002000000
310
01000000FEFFFFFF0000000000000000FFFFFFFFFFFFFFFFFFFFFFFFFFFFFFFF
310
FFFFFFFFFFFFFFFFFFFFFFFFFFFFFFFFFFFFFFFFFFFFFFFFFFFFFFFFFFFFFFFF
310
FFFFFFFFFFFFFFFFFFFFFFFFFFFFFFFFFFFFFFFFFFFFFFFFFFFFFFFFFFFFFFFF
310
FFFFFFFFFFFFFFFFFFFFFFFFFFFFFFFFFFFFFFFFFFFFFFFFFFFFFFFFFFFFFFFF
310
FFFFFFFFFFFFFFFFFFFFFFFFFFFFFFFFFFFFFFFFFFFFFFFFFFFFFFFFFFFFFFFF
310
FFFFFFFFFFFFFFFFFFFFFFFFFFFFFFFFFFFFFFFFFFFFFFFFFFFFFFFFFFFFFFFF
310
FFFFFFFFFFFFFFFFFFFFFFFFFFFFFFFFFFFFFFFFFFFFFFFFFFFFFFFFFFFFFFFF
310
FFFFFFFFFFFFFFFFFFFFFFFFFFFFFFFFFFFFFFFFFFFFFFFFFFFFFFFFFFFFFFFF
310
FFFFFFFFFFFFFFFFFFFFFFFFFFFFFFFFFFFFFFFFFFFFFFFFFFFFFFFFFFFFFFFF
310
FFFFFFFFFFFFFFFFFFFFFFFFFFFFFFFFFFFFFFFFFFFFFFFFFFFFFFFFFFFFFFFF
310
FFFFFFFFFFFFFFFFFFFFFFFFFFFFFFFFFFFFFFFFFFFFFFFFFFFFFFFFFFFFFFFF
310
FFFFFFFFFFFFFFFFFFFFFFFFFFFFFFFFFFFFFFFFFFFFFFFFFFFFFFFFFFFFFFFF
310
FFFFFFFFFFFFFFFFFFFFFFFFFFFFFFFFFFFFFFFFFFFFFFFFFFFFFFFFFFFFFFFF
310
FFFFFFFFFFFFFFFFFFFFFFFFFFFFFFFFFFFFFFFFFFFFFFFFFFFFFFFFFFFFFFFF
310
FDFFFFFF35000000FEFFFFFFFEFFFFFF05000000060000000700000008000000
310
090000000A0000000B0000000C0000000D0000000E0000000F00000010000000
310
1100000012000000130000001400000015000000160000001700000018000000
310
190000001A0000001B0000001C0000001D0000001E0000001F00000020000000
310
2100000022000000230000002400000025000000260000002700000028000000
310
290000002A0000002B0000002C0000002D0000002E0000002F00000030000000
310
31000000320000003300000034000000FEFFFFFFFEFFFFFFFFFFFFFFFFFFFFFF
310
FFFFFFFFFFFFFFFFFFFFFFFFFFFFFFFFFFFFFFFFFFFFFFFFFFFFFFFFFFFFFFFF
310
FFFFFFFFFFFFFFFFFFFFFFFFFFFFFFFFFFFFFFFFFFFFFFFFFFFFFFFFFFFFFFFF
310
FFFFFFFFFFFFFFFFFFFFFFFFFFFFFFFFFFFFFFFFFFFFFFFFFFFFFFFFFFFFFFFF
310
FFFFFFFFFFFFFFFFFFFFFFFFFFFFFFFFFFFFFFFFFFFFFFFFFFFFFFFFFFFFFFFF
310
FFFFFFFFFFFFFFFFFFFFFFFFFFFFFFFFFFFFFFFFFFFFFFFFFFFFFFFFFFFFFFFF
310
FFFFFFFFFFFFFFFFFFFFFFFFFFFFFFFFFFFFFFFFFFFFFFFFFFFFFFFFFFFFFFFF
310
FFFFFFFFFFFFFFFFFFFFFFFFFFFFFFFFFFFFFFFFFFFFFFFFFFFFFFFFFFFFFFFF
310
FFFFFFFFFFFFFFFFFFFFFFFFFFFFFFFFFFFFFFFFFFFFFFFFFFFFFFFFFFFFFFFF
310
FFFFFFFFFFFFFFFFFFFFFFFFFFFFFFFFFFFFFFFFFFFFFFFFFFFFFFFFFFFFFFFF
310
52006F006F007400200045006E00740072007900000000000000000000000000
310
0000000000000000000000000000000000000000000000000000000000000000
310
16000500FFFFFFFFFFFFFFFF020000000A00030000000000C000000000000046
310
0000000000000000000000004096421AEA2CC801030000000001000000000000
310
010043006F006D0070004F0062006A0000000000000000000000000000000000
310
0000000000000000000000000000000000000000000000000000000000000000
310
1200020104000000FFFFFFFFFFFFFFFF00000000000000000000000000000000
310
0000000000000000000000000000000000000000000000004D00000000000000
310
01004F006C006500310030004E00610074006900760065000000000000000000
310
0000000000000000000000000000000000000000000000000000000000000000
310
1A0002010100000003000000FFFFFFFF00000000000000000000000000000000
310
0000000000000000000000000000000000000000040000000460000000000000
310
01004F006C006500310030004900740065006D004E0061006D00650000000000
310
0000000000000000000000000000000000000000000000000000000000000000
310
1E000201FFFFFFFFFFFFFFFFFFFFFFFF00000000000000000000000000000000
310
0000000000000000000000000000000000000000020000000500000000000000
310
01000000FEFFFFFFFEFFFFFFFEFFFFFFFFFFFFFFFFFFFFFFFFFFFFFFFFFFFFFF
310
FFFFFFFFFFFFFFFFFFFFFFFFFFFFFFFFFFFFFFFFFFFFFFFFFFFFFFFFFFFFFFFF
310
FFFFFFFFFFFFFFFFFFFFFFFFFFFFFFFFFFFFFFFFFFFFFFFFFFFFFFFFFFFFFFFF
310
FFFFFFFFFFFFFFFFFFFFFFFFFFFFFFFFFFFFFFFFFFFFFFFFFFFFFFFFFFFFFFFF
310
FFFFFFFFFFFFFFFFFFFFFFFFFFFFFFFFFFFFFFFFFFFFFFFFFFFFFFFFFFFFFFFF
310
FFFFFFFFFFFFFFFFFFFFFFFFFFFFFFFFFFFFFFFFFFFFFFFFFFFFFFFFFFFFFFFF
310
FFFFFFFFFFFFFFFFFFFFFFFFFFFFFFFFFFFFFFFFFFFFFFFFFFFFFFFFFFFFFFFF
310
FFFFFFFFFFFFFFFFFFFFFFFFFFFFFFFFFFFFFFFFFFFFFFFFFFFFFFFFFFFFFFFF
310
FFFFFFFFFFFFFFFFFFFFFFFFFFFFFFFFFFFFFFFFFFFFFFFFFFFFFFFFFFFFFFFF
310
FFFFFFFFFFFFFFFFFFFFFFFFFFFFFFFFFFFFFFFFFFFFFFFFFFFFFFFFFFFFFFFF
310
FFFFFFFFFFFFFFFFFFFFFFFFFFFFFFFFFFFFFFFFFFFFFFFFFFFFFFFFFFFFFFFF
310
FFFFFFFFFFFFFFFFFFFFFFFFFFFFFFFFFFFFFFFFFFFFFFFFFFFFFFFFFFFFFFFF
310
FFFFFFFFFFFFFFFFFFFFFFFFFFFFFFFFFFFFFFFFFFFFFFFFFFFFFFFFFFFFFFFF
310
FFFFFFFFFFFFFFFFFFFFFFFFFFFFFFFFFFFFFFFFFFFFFFFFFFFFFFFFFFFFFFFF
310
FFFFFFFFFFFFFFFFFFFFFFFFFFFFFFFFFFFFFFFFFFFFFFFFFFFFFFFFFFFFFFFF
310
FFFFFFFFFFFFFFFFFFFFFFFFFFFFFFFFFFFFFFFFFFFFFFFFFFFFFFFFFFFFFFFF
310
0100FEFF030A0000FFFFFFFF0A00030000000000C00000000000004607000000
310
5042727573680007000000504272757368000700000050427275736800F439B2
310
710000000000000000000000004E6540A4AEABBE53A27ED1AECE7A36CBFD774B
310
90165D36A1EC2958B30D3599596F6349B8FA543F192A84433000000002000200
310
0100000064000000000000000000000000000000000000000000000000000000
310
0000000000000000000000000000000000000000000000000100000000000000
310
0100000200000000000000000000000000000000000000000100000000000000
310
00000000000000000100000000000000300C00000200020094CCBABED35C6246
310
A1E0F33199493669969DC9589B2FCE4291BE37EF1860F8820300020000000000
310
008A9E8A00000000000000000000000000000000000000000000000000000000
310
0000000000000000000000000000000000000000000000000000000000000000
310
9073995D20830A4088E535B0C120F90B50549DEDE6EB55428289F8A31E687228
310
04000200E2FFFFFFD830EB30D730280026004800290000000000000000000000
310
0000000000000000000000000000000000000000000000000000000000000000
310
000000000000000094CCBABED35C6246A1E0F33199493669070067004B000C00
310
1895210018F11F00900F4D05888D1C00708F1D0090741B00C8D32000F82E2100
310
00600000424DEA5F0000000000003600000028000000E9000000230000000100
310
180000000000B45F000000000000000000000000000000000000FFFFFFFFFFFF
310
FFFFFFFFFFFFFFFFFFFFFFFFFFFFFFFFFFFFFFFFFFFFFFFFFFFFFFFFFFFFFFFF
310
FFFFFFFFFFFFFFF5F5F5AEAEAE2B2B2B1D1D1D1D1D1D1D1D1D1D1D1D1D1D1D1E
310
1E1E2B2B2B7C7C7CF4F4F4FFFFFFFFFFFFFFFFFFFFFFFFFFFFFFFFFFFFFFFFFF
310
FFFFFFFFFFFFFFFFFFFFFFFFFFFFFFFFFFFFFFFFFFFFFFFFFFFFFFFDFDFDF2F2
310
F2CFCFCF8888884949492C2C2C23232320202020202020202020202020202020
310
2020212121212121222222222222232323242424252525252525262626272727
310
2828282828282828282929292A2A2A2B2B2B2C2C2C2D2D2D3333334444446969
310
69ABABABE4E4E4F4F4F4FFFFFFFFFFFFFFFFFFFFFFFFFFFFFFFFFFFFE7E7E78A
310
8A8A3939393C3C3C3E3E3E4040404040403F3F3F3F3F3F8A8A8AF9F9F9FFFFFF
310
FFFFFFFFFFFFFFFFFFFFFFFFFFFFFFFFFFFFFFFFFFFFFFFFFFFFFFFFFFFFFFFF
310
FFFFFFFFFFFFFFFFFFFFF4F4F4C3C3C37676765353535757575959595858585A
310
5A5A5B5B5B5D5D5D5E5E5E6060606262626060606767679C9C9CE4E4E4FFFFFF
310
FFFFFFFFFFFFF9F9F9A3A3A36969696C6C6C6C6C6C6E6E6E6E6E6E6F6F6F6E6E
310
6EC2C2C2FEFEFEFFFFFFFFFFFFFEFEFEAAAAAA7878787A7A7A7C7C7C7E7E7E7E
310
7E7E808080808080C4C4C4F8F8F8FFFFFFFFFFFFFFFFFFFFFFFFFFFFFFFFFFFF
310
FFFFFFFFFFFFFFFFFFFFFFFFFFFFFFFFFFFFFFFFFFFFFFFFFFFFFFFFFFFFFFFF
310
FFFFFFFFFFFFFFFFFFFFFFFFFFFDFDFDC5C5C5ABABABABABABADADADAEAEAEAE
310
AEAEAFAFAFB1B1B1D5D5D5F7F7F7FFFFFFFFFFFFFFFFFFFFFFFFFFFFFFFEFEFE
310
F1F1F1E4E4E4DDDDDDCECECEC6C6C6C5C5C5C6C6C6C7C7C7C9C9C9C9C9C9CACA
310
CACACACACCCCCCCCCCCCCDCDCDCFCFCFD0D0D0D0D0D0D2D2D2D2D2D2D3D3D3D5
310
D5D5D5D5D5D6D6D6D7D7D7D8D8D8D9D9D9D9D9D9DBDBDBDBDBDBDCDCDCDCDCDC
310
DEDEDEDEDEDEDFDFDFDFDFDFDFDFDFDFDFDFE3E3E300FFFFFFFFFFFFFFFFFFFF
310
FFFFFFFFFFFFFFFFFFFFFFFFFFFFFFFFFFFFFFFFFFFFFFFFFFFFFFFFFFFFFFFF
310
FFFFFFF5F5F5A6A6A61212120404040404040404040404040404040303031010
310
106E6E6EF3F3F3FFFFFFFFFFFFFFFFFFFFFFFFFFFFFFFFFFFFFFFFFFFFFFFFFF
310
FFFFFFFFFFFFFFFFFFFFFFFFFFFFFFFFFFFFFFFFFCFCFCE3E3E38F8F8F282828
310
1212120808080303030303030202020202020202020202020202020202020202
310
0202020202020203030303030303030302020202020202020203030303030303
310
03030303030303030303030303030303030303030404040707070D0D0D181818
310
3F3F3F9E9E9EEDEDEDFFFFFFFFFFFFFFFFFFFFFFFFFFFFFFE1E1E16D6D6D0505
310
05050505060606060606060606060606050505686868F7F7F7FFFFFFFFFFFFFF
310
FFFFFFFFFFFFFFFFFFFFFFFFFFFFFFFFFFFFFFFFFFFFFFFFFFFFFFFFFFFFFFFF
310
FCFCFCEDEDEDA0A0A03939390F0F0F0909090A0A0A0A0A0A0A0A0A0A0A0A0B0B
310
0B0B0B0B0B0B0B0B0B0B131313232323787878D9D9D9FBFBFBFFFFFFFFFFFFFF
310
FFFFF7F7F76F6F6F0C0C0C0D0D0D0D0D0D0E0E0E0E0E0E0E0E0E0E0E0E9A9A9A
310
FCFCFCFFFFFFFFFFFFFDFDFD6969690F0F0F1010101010101010101010101111
310
111313138E8E8EEFEFEFFFFFFFFFFFFFFFFFFFFFFFFFFFFFFFFFFFFFFFFFFFFF
310
FFFFFFFFFFFFFFFFFFFFFFFFFFFFFFFFFFFFFFFFFFFFFFFFFFFFFFFFFFFFFFFF
310
FFFFFFFFFFFFFFFFFFF8F8F86262621C1C1C1818181818181818181818181818
310
181E1E1E7E7E7EE6E6E6FFFFFFFFFFFFFFFFFFFFFFFFFBFBFBE0E0E08A8A8A3E
310
3E3E2323231E1E1E1C1C1C1C1C1C1C1C1C1C1C1C1D1D1D1D1D1D1D1D1D1D1D1D
310
1D1D1D1D1D1D1D1D1D1E1E1E1E1E1E1E1E1E1E1E1E1E1E1E1E1E1E1F1F1F1F1F
310
1F1F1F1F1F1F1F1F1F1F1F1F1F1F1F1F20202020202020202020202020202020
310
202020202020202020202020202039393900FFFFFFFFFFFFFFFFFFFFFFFFFFFF
310
FFFFFFFFFFFFFFFFFFFFFFFFFFFFFFFFFFFFFFFFFFFFFFFFFFFFFFFFFFFFFFF5
310
F5F5A8A8A81212120404040404040505050404040404040303031010106E6E6E
310
F2F2F2FFFFFFFFFFFFFFFFFFFFFFFFFFFFFFFFFFFFFFFFFFFFFFFFFFFFFFFFFF
310
FFFFFFFFFFFFFFFFFFFFFFFFFFFEFEFEE5E5E57E7E7E18181803030304040404
310
0404050505050505050505050505050505050505050505050505050505050505
310
0505050505050505050505050505050505050505050505050505050505050505
310
0505050505050505050504040404040404040404040404040403030307070721
310
21217F7F7FF0F0F0FFFFFFFFFFFFFFFFFFFFFFFFE0E0E06B6B6B030303040404
310
040404040404040404040404020202666666F7F7F7FFFFFFFFFFFFFFFFFFFFFF
310
FFFFFFFFFFFFFFFFFFFFFFFFFFFFFFFFFFFFFFFFFFFFFFFFFFF8F8F8D8D8D875
310
7575191919070707040404040404040404040404040404040404040404030303
310
0303031010104D4D4DAFAFAFECECECFBFBFBFFFFFFFFFFFFFFFFFFFFFFFFF7F7
310
F7696969020202040404040404040404040404040404030303959595FCFCFCFF
310
FFFFFFFFFFFDFDFD606060020202040404040404040404040404040404040404
310
888888EFEFEFFFFFFFFFFFFFFFFFFFFFFFFFFFFFFFFFFFFFFFFFFFFFFFFFFFFF
310
FFFFFFFFFFFFFFFFFFFFFFFFFFFFFFFFFFFFFFFFFFFFFFFFFFFFFFFFFFFFFFFF
310
FFFFFFFFFFF7F7F7575757070707030303040404040404040404040404070707
310
737373E5E5E5FFFFFFFFFFFFFFFFFFFDFDFDCFCFCF4646461212120606060303
310
0304040404040404040404040404040404040404040404040404040404040404
310
0404040404040404040404040404040404040404040404040404040404040404
310
0404040404040404040404040303030303030303030303030303030303030303
310
030303030303030202021D1D1D00FFFFFFFFFFFFFFFFFFFFFFFFFFFFFFFFFFFF
310
FFFFFFFFFFFFFFFFFFFFFFFFFFFFFFFFFFFFFFFFFFFFFFFFFFFFFFF5F5F5A7A7
310
A71212120404040404040404040505050505050404041010106D6D6DF2F2F2FF
310
FFFFFFFFFFFFFFFFFFFFFFFFFFFFFFFFFFFFFFFFFFFFFFFFFFFFFFFFFFFFFFFF
310
FFFFFFFFFFFFFFFFFFF6F6F6AAAAAA1919190303030404040505050505050505
310
0505050505050505050505050505050505050505050505050505050505050505
310
0505050505050505050505050505050505050505050505050505050505050505
310
0505050505050505050505050404040505050404040505050404040505052828
310
28999999FBFBFBFFFFFFFFFFFFFFFFFFE1E1E16C6C6C03030305050504040404
310
0404050505050505020202666666F7F7F7FFFFFFFFFFFFFFFFFFFFFFFFFFFFFF
310
FFFFFFFFFFFFFFFFFFFFFFFFFFFFFFFFFFFFF3F3F3B6B6B65050500F0F0F0303
310
030404040505050505050505050505050505050505050404040A0A0A22222280
310
8080DBDBDBF7F7F7FFFFFFFFFFFFFFFFFFFFFFFFFFFFFFFFFFFFF7F7F7696969
310
020202050505050505040404050505040404030303949494FBFBFBFFFFFFFFFF
310
FFFDFDFD606060020202040404050505050505050505040404040404898989EF
310
EFEFFFFFFFFFFFFFFFFFFFFFFFFFFFFFFFFFFFFFFFFFFFFFFFFFFFFFFFFFFFFF
310
FFFFFFFFFFFFFFFFFFFFFFFFFFFFFFFFFFFFFFFFFFFFFFFFFFFFFFFFFFFFFFFF
310
FFF7F7F7595959080808040404050505050505050505050505070707707070E3
310
E3E3FFFFFFFFFFFFFEFEFEE9E9E94D4D4D080808030303040404050505050505
310
0505050505050505050505050505050505050505050505050505050505050505
310
0505050505050505050505050505050505050505050505050505050505050505
310
0505050505050505050505050505050505040404050505040404050505050505
310
0505050404041D1D1D00FFFFFFFFFFFFFFFFFFFFFFFFFFFFFFFFFFFFFFFFFFFF
310
FFFFFFFFFFFFFFFFFFFFFFFFFFFFFFFFFFFFFFFFFFFFFFF5F5F5A7A7A7121212
310
0404040404040505050505050505050404040F0F0F6A6A6AF2F2F2FFFFFFFFFF
310
FFFFFFFFFFFFFFFFFFFFFFFFFFFFFFFFFFFFFFFFFFFFFFFFFFFFFFFFFFFFFFFF
310
FFFFFFFFFFD5D5D5454545050505040404050505050505050505050505050505
310
0505050404040404040404040404040404040404040404040404040404040404
310
0404040404040404040404040404040404040404040404040404040404040404
310
0404040404050505050505040404050505050505050505040404060606535353
310
E0E0E0FFFFFFFFFFFFFFFFFFE0E0E06B6B6B0303030404040505050505050505
310
05050505020202666666F7F7F7FFFFFFFFFFFFFFFFFFFFFFFFFFFFFFFFFFFFFF
310
FFFFFFFFFFFFFFFFFAFAFAE9E9E99494942C2C2C0A0A0A030303040404050505
310
050505050505050505050505040404050505131313545454B6B6B6EFEFEFFDFD
310
FDFFFFFFFFFFFFFFFFFFFFFFFFFFFFFFFFFFFFFFFFFFF7F7F769696902020204
310
0404050505040404050505040404030303939393FBFBFBFFFFFFFFFFFFFDFDFD
310
606060020202040404050505050505050505040404040404898989EFEFEFFFFF
310
FFFFFFFFFFFFFFFFFFFFFFFFFFFFFFFFFFFFFFFFFFFFFFFFFFFFFFFFFFFFFFFF
310
FFFFFFFFFFFFFFFFFFFFFFFFFFFFFFFFFFFFFFFFFFFFFFFFFFFFFFFFFFF7F7F7
310
575757070707040404050505050505050505040404070707707070E4E4E4FFFF
310
FFFFFFFFF9F9F99F9F9F21212103030305050505050505050505050505050505
310
0505050505050505050505050505050505050505050505050505050505050505
310
0505050505050505050505050505050505050505050505050505050505050505
310
0505050505050505050505050504040405050504040405050505050505050504
310
04041D1D1D00FFFFFFFFFFFFFFFFFFFFFFFFFFFFFFFFFFFFFFFFFFFFFFFFFFFF
310
FFFFFFFFFFFFFFFFFFFFFFFFFFFFFFFFFFFFFFF5F5F5A9A9A912121204040405
310
05050505050505050505050404040E0E0E686868F2F2F2FFFFFFFFFFFFFFFFFF
310
FFFFFFFFFFFFFFFFFFFFFFFFFFFFFFFFFFFFFFFFFFFFFFFFFFFFFFFFFFFFFCFC
310
FCBBBBBB1313130303030505050505050505050505050505050404040505050C
310
0C0C0D0D0D0D0D0D0C0C0C0C0C0C0C0C0C0C0C0C0C0C0C0B0B0B0B0B0B0B0B0B
310
0B0B0B0B0B0B0A0A0A0A0A0A0A0A0A0A0A0A0909090909090909090909090808
310
080404040404040505050505050505050505050404040303032424249B9B9BFD
310
FDFDFFFFFFFFFFFFE0E0E06B6B6B030303040404050505050505050505050505
310
020202656565F6F6F6FFFFFFFFFFFFFFFFFFFFFFFFFFFFFFFFFFFFFFFFFFFFFF
310
FFF6F6F6CACACA66666614141405050504040405050505050504040405050505
310
05050404040303030B0B0B2B2B2B8C8C8CE2E2E2F8F8F8FFFFFFFFFFFFFFFFFF
310
FFFFFFFFFFFFFFFFFFFFFFFFFFFFFFFFFFFFF7F7F76969690202020505050505
310
05050505040404040404030303949494FBFBFBFFFFFFFFFFFFFDFDFD60606002
310
0202040404050505050505050505040404040404868686EDEDEDFFFFFFFFFFFF
310
FFFFFFFFFFFFFFFFFFFFFFFFFFFFFFFFFFFFFFFFFFFFFFFFFFFFFFFFFFFFFFFF
310
FFFFFFFFFFFFFFFFFFFFFFFFFFFFFFFFFFFFFFFFFFFFFFFFFFF7F7F757575707
310
07070404040505050505050505050505050707076E6E6EE3E3E3FFFFFFFFFFFF
310
F4F4F45C5C5C0B0B0B0404040505050505050505050505050505050303030303
310
0302020203030303030303030303030303030303030303030303030303030303
310
0303030303030303030303030303040404040404040404040404040404040404
310
0404040404040404040505050404040505050505050505050505050404041D1D
310
1D00FFFFFFFFFFFFFFFFFFFFFFFFFFFFFFFFFFFFFFFFFFFFFFFFFFFFFFFFFFFF
310
FFFFFFFFFFFFFFFFFFFFFFFFFFFFFFF6F6F6A9A9A91212120404040404040505
310
050505050505050404040E0E0E686868F2F2F2FFFFFFFFFFFFFFFFFFFFFFFFFF
310
FFFFFFFFFFFFFFFFFFFFFFFFFFFFFFFFFFFFFFFFFFFFFFFFFFFFF1F1F1979797
310
0A0A0A0404040505050505050505050505050404040808082B2B2B6161616969
310
696767676666666666666565656565656464646161616060605F5F5F5E5E5E5D
310
5D5D5B5B5B5A5A5A5757575757575454545353535252525151514949492A2A2A
310
0A0A0A0404040505050505050505050404040303030909096D6D6DFDFDFDFFFF
310
FFFFFFFFE0E0E06B6B6B03030304040405050505050505050505050502020265
310
6565F7F7F7FFFFFFFFFFFFFFFFFFFFFFFFFFFFFFFFFFFFFDFDFDEFEFEFA8A8A8
310
4040400D0D0D0202020404040505050505050505050505050404040404040707
310
071515155B5B5BBEBEBEF1F1F1FEFEFEFFFFFFFFFFFFFFFFFFFFFFFFFFFFFFFF
310
FFFFFFFFFFFFFFFFFFFFFFFFFFFFF7F7F7696969020202050505050505050505
310
050505040404030303949494FBFBFBFFFFFFFFFFFFFDFDFD6060600202020404
310
04050505050505050505040404040404878787EEEEEEFFFFFFFFFFFFFFFFFFFF
310
FFFFFFFFFFFFFFFFFFFFFFFFFFFFFFFFFFFFFFFFFFFFFFFFFFFFFFFFFFFFFFFF
310
FFFFFFFFFFFFFFFFFFFFFFFFFFFFFFFFFFFFFFFFFFF7F7F75757570707070404
310
040505050505050505050505050707076D6D6DE3E3E3FFFFFFFFFFFFF2F2F245
310
45450505050404040505050505050505050505050505051616161F1F1F202020
310
2020202020202020202020202020202020202020202020202020202020202020
310
202020202020202020202020202020201F1F1F1F1F1F1F1F1F1F1F1F1F1F1F1F
310
1F1F1A1A1A0808080505050505050505050505050505050404041D1D1D00FFFF
310
FFFFFFFFFFFFFFFFFFFFFFFFFFFFFFFFFFFFFFFFFFFFFFFFFFFFFFFFFFFFFFFF
310
FFFFFFFFFFFFFFFFFFFFFFF6F6F6AAAAAA121212040404050505050505050505
310
0404040303030E0E0E666666F2F2F2FFFFFFFFFFFFFFFFFFFFFFFFFFFFFFFFFF
310
FFFFFFFFFFFFFFFFFFFFFFFFFFFFFFFFFFFFFFFFFFFFEDEDED89898909090904
310
04040505050505050505050505050303032F2F2FBBBBBBE9E9E9EBEBEBEBEBEB
310
EBEBEBEBEBEBEBEBEBEBEBEBEBEBEBEAEAEAEAEAEAEAEAEAEAEAEAE9E9E9E9E9
310
E9E9E9E9E8E8E8E8E8E8E8E8E8E8E8E8E8E8E8E7E7E7E6E6E6B7B7B742424203
310
0303040404050505040404050505030303020202606060FCFCFCFFFFFFFFFFFF
310
E0E0E06A6A6A030303040404050505050505050505050505020202646464F5F5
310
F5FFFFFFFFFFFFFFFFFFFFFFFFFFFFFFF8F8F8DDDDDD8080801E1E1E08080804
310
04040505050505050505050505050505050404040202020C0C0C3737379A9A9A
310
E8E8E8F9F9F9FFFFFFFFFFFFFFFFFFFFFFFFFFFFFFFFFFFFFFFFFFFFFFFFFFFF
310
FFFFFFFFFFFFFFFFFFFFF8F8F869696902020205050505050505050505050504
310
0404030303949494FBFBFBFFFFFFFFFFFFFDFDFD606060020202040404050505
310
050505050505040404040404868686EEEEEEFFFFFFFFFFFFFFFFFFFFFFFFFFFF
310
FFFFFFFFFFFFFFFFFFFFFFFFFFFFFFFFFFFFFFFFFFFFFFFFFFFFFFFFFFFFFFFF
310
FFFFFFFFFFFFFFFFFFFFFFFFFFFFFFFFFFF7F7F7585858070707040404050505
310
0505050505050505050707076D6D6DE2E2E2FFFFFFFFFFFFF2F2F24242420303
310
030404040505050505050505050404040C0C0C8F8F8FD6D6D6DFDFDFDFDFDFDF
310
DFDFDFDFDFDFDFDFDFDFDFDFDFDFDFDFDFDFDFDFDFDFDFDFDFDFDEDEDEDDDDDD
310
DCDCDCDBDBDBDBDBDBDADADAD9D9D9D8D8D8D8D8D8D7D7D7D6D6D6D6D6D6B3B3
310
B31E1E1E0404040505050505050505050505050404041C1C1C00FFFFFFFFFFFF
310
FFFFFFFFFFFFFFFFFFFFFFFFFFFFFFFFFFFFFFFFFFFFFFFFFFFFFFFFFFFFFFFF
310
FFFFFFFFFFFFFFF6F6F6AAAAAA12121204040405050505050504040405050503
310
03030E0E0E676767F2F2F2FFFFFFFFFFFFFFFFFFFFFFFFFFFFFFFFFFFFFFFFFF
310
FFFFFFFFFFFFFFFFFFFFFFFFFFFFFFFFFFFFECECEC8888880909090404040505
310
05050505050505040404020202424242F0F0F0FFFFFFFFFFFFFFFFFFFFFFFFFF
310
FFFFFFFFFFFFFFFFFFFFFFFFFFFFFFFFFFFFFFFFFFFFFFFFFFFFFFFFFFFFFFFF
310
FFFFFFFFFFFFFFFFFFFFFFFFFFFFFFFFFFFFFFFFFFEAEAEA8181810505050404
310
040404040505050404040404040202025F5F5FFCFCFCFFFFFFFFFFFFE0E0E06A
310
6A6A030303040404050505050505050505050505020202656565F6F6F6FFFFFF
310
FFFFFFFFFFFFFFFFFFF4F4F4BBBBBB5656561010100303030404040505050404
310
04050505050505050505040404080808171717666666C9C9C9F4F4F4FFFFFFFF
310
FFFFFFFFFFFFFFFFFFFFFFFFFFFFFFFFFFFFFFFFFFFFFFFFFFFFFFFFFFFFFFFF
310
FFFFFFFFFFFFF7F7F76969690202020505050505050505050505050404040303
310
03939393FAFAFAFFFFFFFFFFFFFDFDFD60606002020204040405050505050505
310
0505040404040404858585EDEDEDFFFFFFFFFFFFFFFFFFFFFFFFFFFFFFFFFFFF
310
FFFFFFFFFFFFFFFFFFFFFFFFFFFFFFFFFFFFFFFFFFFFFFFFFFFFFFFFFFFFFFFF
310
FFFFFFFFFFFFFFFFFFFFFFFFFFF7F7F758585807070704040405050505050505
310
05050505050707076D6D6DE3E3E3FFFFFFFFFFFFF2F2F2434343040404040404
310
0505050505050505050404040D0D0DA3A3A3F4F4F4FFFFFFFFFFFFFFFFFFFFFF
310
FFFFFFFFFFFFFFFFFFFFFFFFFFFFFFFFFFFFFFFFFFFFFFFFFFFFFFFFFFFFFFFE
310
FEFEFEFEFEFEFEFEFEFEFEFEFEFEFEFEFEFEFEFEFEFEFEFDFDFDDBDBDB242424
310
0404040505050505050505050505050404041C1C1C00FFFFFFFFFFFFFFFFFFFF
310
FFFFFFFFFFFFFFFFFFFFFFFFFFFFFFFFFFFFFFFFFFFFFFFFFFFFFFFFFFFFFFFF
310
FFFFFFF6F6F6ABABAB1212120404040505050404040505050404040404040E0E
310
0E666666F2F2F2FFFFFFFFFFFFFFFFFFFFFFFFFFFFFFFFFFFFFFFFFFFFFFFFFF
310
FFFFFFFFFFFFFFFFFFFFFFFFFFFFECECEC888888090909040404050505050505
310
050505040404020202464646F5F5F5FFFFFFFFFFFFFFFFFFFFFFFFFFFFFFFFFF
310
FFFFFFFFFFFFFFFFFFFFFFFFFFFFFFFFFFFFFFFFFFFFFFFFFFFFFFFFFFFFFFFF
310
FFFFFFFFFFFFFFFFFFFFFFFFFFFFFFFFFFEFEFEF898989050505040404050505
310
0404040505050303030101015E5E5EFCFCFCFFFFFFFFFFFFE0E0E06B6B6B0303
310
03040404050505050505050505050505020202636363F4F4F4FFFFFFFFFFFFFB
310
FBFBECECEC9B9B9B2F2F2F0B0B0B030303040404050505050505040404050505
310
0505050404040F0F0F414141A3A3A3EBEBEBFBFBFBFFFFFFFFFFFFFFFFFFFFFF
310
FFFFFFFFFFFFFFFFFFFFFFFFFFFFFFFFFFFFFFFFFFFFFFFFFFFFFFFFFFFFFFFF
310
FFFFF7F7F7696969020202050505050505050505050505040404030303939393
310
FAFAFAFFFFFFFFFFFFFDFDFD6060600202020404040505050505050505050404
310
04040404858585EDEDEDFFFFFFFFFFFFFFFFFFFFFFFFFFFFFFFFFFFFFFFFFFFF
310
FFFFFFFFFFFFFFFFFFFFFFFFFFFFFFFFFFFFFFFFFFFFFFFFFFFFFFFFFFFFFFFF
310
FFFFFFFFFFFFFFFFFFF7F7F75858580808080404040505050505050505050505
310
050707076D6D6DE3E3E3FFFFFFFFFFFFF2F2F242424203030304040405050505
310
05050505050404040D0D0DA2A2A2F4F4F4FFFFFFFFFFFFFFFFFFFFFFFFFFFFFF
310
FFFFFFFFFFFFFFFFFFFFFFFFFFFFFFFFFFFFFFFFFFFFFFFFFFFFFFFFFFFFFFFF
310
FFFFFFFFFFFFFFFFFFFFFFFFFFFFFFFFFFFFFFFEFEFEDDDDDD24242404040405
310
05050505050505050505050404041D1D1D00FFFFFFFFFFFFFFFFFFFFFFFFFFFF
310
FFFFFFFFFFFFFFFFFFFFFFFFFFFFFFFFFFFFFFFFFFFFFFFFFFFFFFFFFFFFFFF6
310
F6F6ABABAB1212120404040505050505050404040505050404040E0E0E656565
310
F2F2F2FFFFFFFFFFFFFFFFFFFFFFFFFFFFFFFFFFFFFFFFFFFFFFFFFFFFFFFFFF
310
FFFFFFFFFFFFFFFFFFFFECECEC88888809090904040405050505050505050504
310
0404020202454545F5F5F5FFFFFFFFFFFFFFFFFFFFFFFFFFFFFFFFFFFFFFFFFF
310
FFFFFFFFFFFFFFFFFFFFFFFFFFFFFFFFFFFFFFFFFFFFFFFFFFFFFFFFFFFFFFFF
310
FFFFFFFFFFFFFFFFFFFFFFFFFFEFEFEF8A8A8A05050504040405050504040404
310
04040404040101015E5E5EFCFCFCFFFFFFFFFFFFE0E0E06A6A6A030303040404
310
050505050505050505050505020202646464F5F5F5FFFFFFF6F6F6CCCCCC6A6A
310
6A1515150606060404040505050505050404040404040505050404040A0A0A20
310
2020757575D5D5D5F5F5F5FFFFFFFFFFFFFFFFFFFFFFFFFFFFFFFFFFFFFFFFFF
310
FFFFFFFFFFFFFFFFFFFFFFFFFFFFFFFFFFFFFFFFFFFFFFFFFFFFFFFFFFFFF8F8
310
F8696969020202050505050505050505050505040404030303939393FBFBFBFF
310
FFFFFFFFFFFDFDFD606060020202040404050505050505050505040404040404
310
858585EDEDEDFFFFFFFFFFFFFFFFFFFFFFFFFFFFFFFFFFFFFFFFFFFFFFFFFFFF
310
FFFFFFFFFFFFFFFFFFFFFFFFFFFFFFFFFFFFFFFFFFFFFFFFFFFFFFFFFFFFFFFF
310
FFFFFFFFFFF7F7F7585858070707040404050505050505050505050505070707
310
6C6C6CE2E2E2FFFFFFFFFFFFF3F3F34343430404040404040505050505050505
310
050505050D0D0D979797DDDDDDE5E5E5E6E6E6E6E6E6E6E6E6E6E6E6E7E7E7E7
310
E7E7E7E7E7E7E7E7E7E7E7E8E8E8E7E7E7E8E8E8E8E8E8E8E8E8E8E8E8E8E8E8
310
E8E8E8E9E9E9E9E9E9E9E9E9E9E9E9E9E9E9CFCFCF2222220404040505050505
310
050505050505050404041C1C1C00FFFFFFFFFFFFFFFFFFFFFFFFFFFFFFFFFFFF
310
FFFFFFFFFFFFFFFFFFFFFFFFFFFFFFFFFFFFFFFFFFFFFFFFFFFFFFF6F6F6ADAD
310
AD1313130404040404040505050505050404040404040E0E0E656565F2F2F2FF
310
FFFFFFFFFFFFFFFFFFFFFFFFFFFFFFFFFFFFFFFFFFFFFFFFFFFFFFFFFFFFFFFF
310
FFFFFFFFFFFFEDEDED8A8A8A0909090404040404040505050505050404040303
310
03454545F5F5F5FFFFFFFFFFFFFFFFFFFFFFFFFFFFFFFFFFFFFFFFFFFFFFFFFF
310
FFFFFFFFFFFFFFFFFFFFFFFFFFFFFFFFFFFFFFFFFFFFFFFFFFFFFFFFFFFFFFFF
310
FFFFFFFFFFFFFFFFFFEFEFEF8A8A8A0505050404040404040505050404040404
310
040202025E5E5EFCFCFCFFFFFFFFFFFFDFDFDF6A6A6A03030304040405050505
310
0505050505050505020202646464F3F3F3F0F0F0A9A9A93F3F3F0E0E0E020202
310
0404040505050505050505050505050505050505051111114D4D4DB1B1B1EDED
310
EDFCFCFCFFFFFFFFFFFFFFFFFFFFFFFFFFFFFFFFFFFFFFFFFFFFFFFFFFFFFFFF
310
FFFFFFFFFFFFFFFFFFFFFFFFFFFFFFFFFFFFFFFFFFFFFFFFFFFFF8F8F8696969
310
020202050505050505050505050505040404030303939393FAFAFAFFFFFFFFFF
310
FFFDFDFD606060020202040404050505050505050505040404040404858585ED
310
EDEDFFFFFFFFFFFFFFFFFFFFFFFFFFFFFFFFFFFFFFFFFFFFFFFFFFFFFFFFFFFF
310
FFFFFFFFFFFFFFFFFFFFFFFFFFFFFFFFFFFFFFFFFFFFFFFFFFFFFFFFFFFFFFFF
310
FFF7F7F75858580707070404040505050505050505050505050707076C6C6CE2
310
E2E2FFFFFFFFFFFFF2F2F2454545040404040404050505050505050505050505
310
0505052A2A2A4242424545454646464646464A4A4A4B4B4B4D4D4D4D4D4D4E4E
310
4E4F4F4F51515152525251515153535354545454545457575757575757575759
310
59595A5A5A5A5A5A5B5B5B5C5C5C5050500D0D0D040404050505050505050505
310
0505050404041C1C1C00FFFFFFFFFFFFFFFFFFFFFFFFFFFFFFFFFFFFFFFFFFFF
310
FFFFFFFFFFFFFFFFFFFFFFFFFFFFFFFFFFFFFFFFFFFFFFF6F6F6ADADAD131313
310
0404040505050404040404040505050303030D0D0D646464F1F1F1FFFFFFFFFF
310
FFFFFFFFFFFFFFFFFFFFFFFFFFFFFFFFFFFFFFFFFFFFFFFFFFFFFFFFFFFFFFFF
310
FFFFEDEDED8A8A8A0A0A0A040404050505040404050505040404030303454545
310
F5F5F5FFFFFFFFFFFFFFFFFFFFFFFFFFFFFFFFFFFFFFFFFFFFFFFFFFFFFFFFFF
310
FFFFFFFFFFFFFFFFFFFFFFFFFFFFFFFFFFFFFFFFFFFFFFFFFFFFFFFFFFFFFFFF
310
FFFFFFFFFFEFEFEF8A8A8A050505040404040404050505040404040404020202
310
5E5E5EFCFCFCFFFFFFFFFFFFDFDFDF6969690303030404040505050505050505
310
050505050202025F5F5FD5D5D58282821D1D1D08080804040405050505050505
310
05050505050505050404040C0C0C2A2A2A848484DFDFDFF7F7F7FFFFFFFFFFFF
310
FFFFFFFFFFFFFFFFFFFFFFFFFFFFFFFFFFFFFFFFFFFFFFFFFFFFFFFFFFFFFFFF
310
FFFFFFFFFFFFFFFFFFFFFFFFFFFFFFFFFFFFFFFFFFFFF8F8F869696902020205
310
0505050505050505050505040404030303939393FAFAFAFFFFFFFFFFFFFDFDFD
310
606060020202040404050505050505050505040404040404848484ECECECFFFF
310
FFFFFFFFFFFFFFFFFFFFFFFFFFFFFFFFFFFFFFFFFFFFFFFFFFFFFFFFFFFFFFFF
310
FFFFFFFFFFFFFFFFFFFFFFFFFFFFFFFFFFFFFFFFFFFFFFFFFFFFFFFFFFF7F7F7
310
5858580707070404040505050505050505050505050707076A6A6AE2E2E2FFFF
310
FFFFFFFFF5F5F56060600C0C0C04040405050505050505050505050505050505
310
0505070707070707070707070707080808080808080808080808080808090909
310
0909090909090909090909090909090909090A0A0A0A0A0A0A0A0A0A0A0A0A0A
310
0A0A0A0A0B0B0B0B0B0B09090905050505050505050505050505050505050504
310
04041C1C1C00FFFFFFFFFFFFFFFFFFFFFFFFFFFFFFFFFFFFFFFFFFFFFFFFFFFF
310
FFFFFFFFFFFFFFFFFFFFFFFFFFFFFFFFFFFFFFF6F6F6ADADAD13131304040404
310
04040505050505050404040404040D0D0D626262F1F1F1FFFFFFFFFFFFFFFFFF
310
FFFFFFFFFFFFFFFFFFFFFFFFFFFFFFFFFFFFFFFFFFFFFFFFFFFFFFFFFFFFEDED
310
ED8B8B8B0A0A0A040404040404050505050505040404030303454545F5F5F5FF
310
FFFFFFFFFFFFFFFFFFFFFFFFFFFFFFFFFFFFFFFFFFFFFFFFFFFFFFFFFFFFFFFF
310
FFFFFFFFFFFFFFFFFFFFFFFFFFFFFFFFFFFFFFFFFFFFFFFFFFFFFFFFFFFFFFFF
310
FFEFEFEF8A8A8A0505050404040404040505050505050303030101015E5E5EFC
310
FCFCFFFFFFFFFFFFDEDEDE686868030303040404050505050505050505050505
310
0202021D1D1D3333331010100303030404040505050505050505050505050505
310
05040404030303434343B7B7B7F0F0F0FEFEFEFFFFFFFFFFFFFFFFFFFFFFFFFF
310
FFFFFFFFFFFFFFFFFFFFFFFFFFFFFFFFFFFFFFFFFFFFFFFFFFFFFFFFFFFFFFFF
310
FFFFFFFFFFFFFFFFFFFFFFFFFFFFFFFFFFFFF8F8F86969690202020505050505
310
05050505050505040404030303939393FAFAFAFFFFFFFFFFFFFDFDFD60606002
310
0202040404050505050505050505040404040404848484ECECECFFFFFFFFFFFF
310
FFFFFFFFFFFFFFFFFFFFFFFFFFFFFFFFFFFFFFFFFFFFFFFFFFFFFFFFFFFFFFFF
310
FFFFFFFFFFFFFFFFFFFFFFFFFFFFFFFFFFFFFFFFFFFFFFFFFFF7F7F758585808
310
08080404040505050505050505050505050707076A6A6AE1E1E1FFFFFFFFFFFF
310
FAFAFAA5A5A52323230303030505050505050505050505050505050505050404
310
0404040404040404040404040404040404040404040404040404040404040404
310
0404040404040404040404040404040404040404040404040404040404040404
310
0404040404040404040505050505050505050505050505050505050404041C1C
310
1C00FFFFFFFFFFFFFFFFFFFFFFFFFFFFFFFFFFFFFFFFFFFFFFFFFFFFFFFFFFFF
310
FFFFFFFFFFFFFFFFFFFFFFFFFFFFFFF7F7F7AFAFAF1313130404040404040505
310
050505050505050404040D0D0D626262F1F1F1FFFFFFFFFFFFFFFFFFFFFFFFFF
310
FFFFFFFFFFFFFFFFFFFFFFFFFFFFFFFFFFFFFFFFFFFFFFFFFFFFEDEDED8A8A8A
310
0A0A0A040404050505050505050505040404020202434343F5F5F5FFFFFFFFFF
310
FFFFFFFFFFFFFFFFFFFFFFFFFFFFFFFFFFFFFFFFFFFFFFFFFFFFFFFFFFFFFFFF
310
FFFFFFFFFFFFFFFFFFFFFFFFFFFFFFFFFFFFFFFFFFFFFFFFFFFFFFFFFFEFEFEF
310
8A8A8A0505050505050505050404040404040404040101015E5E5EFCFCFCFFFF
310
FFFFFFFFDFDFDF6A6A6A0303030404040505050505050505050404040303031E
310
1E1E373737141414050505040404050505050505050505050505050505040404
310
0303033E3E3EB1B1B1EFEFEFFEFEFEFFFFFFFFFFFFFFFFFFFFFFFFFFFFFFFFFF
310
FFFFFFFFFFFFFFFFFFFFFFFFFFFFFFFFFFFFFFFFFFFFFFFFFFFFFFFFFFFFFFFF
310
FFFFFFFFFFFFFFFFFFFFFFFFFFFFF8F8F8696969020202050505050505050505
310
050505040404030303929292FAFAFAFFFFFFFFFFFFFDFDFD6060600202020404
310
04050505050505050505040404040404838383ECECECFFFFFFFFFFFFFFFFFFFF
310
FFFFFFFFFFFFFFFFFFFFFFFFFFFFFFFFFFFFFFFFFFFFFFFFFFFFFFFFFFFFFFFF
310
FFFFFFFFFFFFFFFFFFFFFFFFFFFFFFFFFFFFFFFFFFF7F7F75757570707070404
310
040505050505050505050404040707076C6C6CE2E2E2FFFFFFFFFFFFFEFEFEEB
310
EBEB5555550A0A0A030303040404050505050505050505050505050505050505
310
0505050505050505050505050505050505050505050505050505050505050505
310
0505050505050505050505050505050505050505050505050505050505050505
310
05050505050505050505050505050505050505050505050404041C1C1C00FFFF
310
FFFFFFFFFFFFFFFFFFFFFFFFFFFFFFFFFFFFFFFFFFFFFFFFFFFFFFFFFFFFFFFF
310
FFFFFFFFFFFFFFFFFFFFFFF7F7F7AEAEAE131313040404040404050505050505
310
0505050303030D0D0D626262F1F1F1FFFFFFFFFFFFFFFFFFFFFFFFFFFFFFFFFF
310
FFFFFFFFFFFFFFFFFFFFFEFEFEFCFCFCFFFFFFFFFFFFEDEDED8A8A8A0A0A0A04
310
0404050505040404050505040404020202444444F5F5F5FFFFFFFFFFFFFFFFFF
310
FFFFFFFFFFFFFFFFFFFFFFFFFFFFFFFFFFFFFFFFFFFFFFFFFFFFFFFFFFFFFFFF
310
FFFFFFFFFFFFFFFFFFFFFFFFFFFFFFFFFFFFFFFFFFFFFFFFFFEFEFEF8A8A8A05
310
05050404040505050505050505050303030101015E5E5EFCFCFCFFFFFFFFFFFF
310
E0E0E06A6A6A0303030404040505050505050505050505050202025E5E5EDDDD
310
DD9898982D2D2D0B0B0B0404040505050505050505050505050505050404040B
310
0B0B2424247E7E7EDEDEDEF7F7F7FFFFFFFFFFFFFFFFFFFFFFFFFFFFFFFFFFFF
310
FFFFFFFFFFFFFFFFFFFFFFFFFFFFFFFFFFFFFFFFFFFFFFFFFFFFFFFFFFFFFFFF
310
FFFFFFFFFFFFFFFFFFFFF8F8F869696902020205050505050505050505050504
310
0404030303929292FAFAFAFFFFFFFFFFFFFDFDFD606060020202040404050505
310
050505050505040404040404858585EDEDEDFFFFFFFFFFFFFFFFFFFFFFFFFFFF
310
FFFFFFFFFFFFFFFFFFFFFFFFFFFFFFFFFFFFFFFFFFFFFFFFFFFFFFFFFFFFFFFF
310
FFFFFFFFFFFFFFFFFFFFFFFFFFFFFFFFFFF7F7F7585858080808040404050505
310
0505050505050505050707076B6B6BE2E2E2FFFFFFFFFFFFFFFFFFFEFEFED9D9
310
D94D4D4D15151505050503030304040404040404040404040404040404040404
310
0404040404040404040404040404040404040404040404040404040404040404
310
0404040404040404040404040404040404040404040404040404040404040404
310
040505050505050505050505050505050505050404041C1C1C00FFFFFFFFFFFF
310
FFFFFFFFFFFFFFFFFFFFFFFFFFFFFFFFFFFFFFFFFFFFFFFFFFFFFFFFFFFFFFFF
310
FFFFFFFFFFFFFFF7F7F7AEAEAE13131304040405050505050505050505050504
310
04040E0E0E646464F2F2F2FFFFFFFFFFFFFFFFFFFFFFFFFFFFFFFFFFFFFFFFFF
310
FFFFFFFFFFFFFFFFFFFFFFFFFFFFFFFFFFFFEDEDED8A8A8A0909090404040404
310
04050505040404040404020202454545F5F5F5FFFFFFFFFFFFFFFFFFFFFFFFFF
310
FFFFFFFFFFFFFFFFFFFFFFFFFFFFFFFFFFFFFFFFFFFFFFFFFFFFFFFFFFFFFFFF
310
FFFFFFFFFFFFFFFFFFFFFFFFFFFFFFFFFFFFFFFFFFEFEFEF8A8A8A0606060606
310
060505050606060505050303030101015E5E5EFCFCFCFFFFFFFFFFFFDEDEDE68
310
6868030303040404050505050505050505050505020202636363F3F3F3F3F3F3
310
BCBCBC5858581212120404040404040505050505050505050505050505050404
310
041010104F4F4FB4B4B4EFEFEFFEFEFEFFFFFFFFFFFFFFFFFFFFFFFFFFFFFFFF
310
FFFFFFFFFFFFFFFFFFFFFFFFFFFFFFFFFFFFFFFFFFFFFFFFFFFFFFFFFFFFFFFF
310
FFFFFFFFFFFFF8F8F86969690202020505050505050505050505050404040303
310
03929292FAFAFAFFFFFFFFFFFFFDFDFD60606002020204040405050505050505
310
0505040404040404848484ECECECFFFFFFFFFFFFFFFFFFFFFFFFFFFFFFFFFFFF
310
FFFFFFFFFFFFFFFFFFFFFFFFFFFFFFFFFFFFFFFFFFFFFFFFFFFFFFFFFFFFFFFF
310
FFFFFFFFFFFFFFFFFFFFFFFFFFF7F7F758585808080804040405050505050505
310
05050505050707076B6B6BE2E2E2FFFFFFFFFFFFFFFFFFFFFFFFFDFDFDE2E2E2
310
9494943C3C3C2121211C1C1C1919191919191919191919191818181818181818
310
1818181818181818181817171717171717171717171717171717171717171716
310
1616161616161616161616161616161616161616161616151515121212060606
310
0505050505050505050505050505050404041C1C1C00FFFFFFFFFFFFFFFFFFFF
310
FFFFFFFFFFFFFFFFFFFFFFFFFFFFFFFFFFFFFFFFFFFFFFFFFFFFFFFFFFFFFFFF
310
FFFFFFF6F6F6ACACAC1212120404040404040505050505050505050303030D0D
310
0D646464F1F1F1FFFFFFFFFFFFFFFFFFFFFFFFFFFFFFFFFFFFFFFFFFFFFFFFFF
310
FFFFFFFFFFFFFFFFFFFFFFFFFFFFECECEC898989090909040404050505040404
310
050505040404030303454545F5F5F5FFFFFFFFFFFFFFFFFFFFFFFFFFFFFFFFFF
310
FFFFFFFFFFFFFFFFFFFFFFFFFFFFFFFFFFFFFFFFFFFFFFFFFFFFFFFFFFFFFFFF
310
FFFFFFFFFFFFFFFFFFFFFFFFFFFFFFFFFFEFEFEF8A8A8A050505040404040404
310
0404040404040404040101015E5E5EFCFCFCFFFFFFFFFFFFDEDEDE6868680303
310
03040404050505050505050505050505020202616161F1F1F1FFFFFFF9F9F9E0
310
E0E0878787232323090909040404050505050505050505050505050505040404
310
0A0A0A252525818181DEDEDEF7F7F7FFFFFFFFFFFFFFFFFFFFFFFFFFFFFFFFFF
310
FFFFFFFFFFFFFFFFFFFFFFFFFFFFFFFFFFFFFFFFFFFFFFFFFFFFFFFFFFFFFFFF
310
FFFFF7F7F7696969020202050505050505050505050505040404030303929292
310
FAFAFAFFFFFFFFFFFFFDFDFD6060600202020404040505050505050505050404
310
04040404848484ECECECFFFFFFFFFFFFFFFFFFFFFFFFFFFFFFFFFFFFFFFFFFFF
310
FFFFFFFFFFFFFFFFFFFFFFFFFFFFFFFFFFFFFFFFFFFFFFFFFFFFFFFFFFFFFFFF
310
FFFFFFFFFFFFFFFFFFF7F7F75757570707070404040505050505050505050505
310
050707076A6A6AE2E2E2FFFFFFFFFFFFFFFFFFFFFFFFFFFFFFFEFEFEF2F2F2E3
310
E3E3D6D6D6C3C3C3B5B5B5B3B3B3B1B1B1B0B0B0AEAEAEAEAEAEACACACABABAB
310
ABABABABABABA9A9A9A8A8A8A8A8A8A6A6A6A5A5A5A5A5A5A4A4A4A3A3A3A2A2
310
A2A2A2A2A0A0A09F9F9F9E9E9E9E9E9E9D9D9D9C9C9C83838316161603030305
310
05050505050505050505050404041C1C1C00FFFFFFFFFFFFFFFFFFFFFFFFFFFF
310
FFFFFFFFFFFFFFFFFFFFFFFFFFFFFFFFFFFFFFFFFFFFFFFFFFFFFFFFFFFFFFF6
310
F6F6ACACAC1313130404040404040505050505050505050303030D0D0D636363
310
F1F1F1FFFFFFFFFFFFFFFFFFFFFFFFFFFFFFFFFFFFFFFFFFFFFFFFFFFFFFFFFF
310
FFFFFFFFFFFFFFFFFFFFEDEDED8989890A0A0A04040405050505050505050504
310
0404020202424242F1F1F1FFFFFFFFFFFFFFFFFFFFFFFFFFFFFFFFFFFFFFFFFF
310
FFFFFFFFFFFFFFFFFFFFFFFFFFFFFFFFFFFFFFFFFFFFFFFFFFFFFFFFFFFFFFFF
310
FFFFFFFFFFFFFFFFFFFFFFFFFFEDEDED86868605050504040405050505050505
310
05050303030202025F5F5FFCFCFCFFFFFFFFFFFFDEDEDE686868030303040404
310
050505050505050505050505020202636363F3F3F3FFFFFFFFFFFFFEFEFEF0F0
310
F0B3B3B34D4D4D10101003030304040405050505050505050505050505050504
310
04041111114F4F4FB2B2B2EFEFEFFDFDFDFFFFFFFFFFFFFFFFFFFFFFFFFFFFFF
310
FFFFFFFFFFFFFFFFFFFFFFFFFFFFFFFFFFFFFFFFFFFFFFFFFFFFFFFFFFFFF8F8
310
F8696969020202050505050505050505050505040404030303939393FAFAFAFF
310
FFFFFFFFFFFDFDFD606060020202040404050505050505050505040404040404
310
838383ECECECFFFFFFFFFFFFFFFFFFFFFFFFFFFFFFFFFFFFFFFFFFFFFFFFFFFF
310
FFFFFFFFFFFFFFFFFFFFFFFFFFFFFFFFFFFFFFFFFFFFFFFFFFFFFFFFFFFFFFFF
310
FFFFFFFFFFF7F7F7585858080808040404050505050505050505050505070707
310
6A6A6AE2E2E2FFFFFFFFFFFFFFFFFFFFFFFFFFFFFFFFFFFFFFFFFFFFFFFFFDFD
310
FDFAFAFAF8F8F8F8F8F8F7F7F7F7F7F7F7F7F7F7F7F7F7F7F7F6F6F6F6F6F6F6
310
F6F6F6F6F6F6F6F6F6F6F6F6F6F6F5F5F5F5F5F5F5F5F5F5F5F5F5F5F5F5F5F5
310
F5F5F5F4F4F4F4F4F4F4F4F4F4F4F4F4F4F4D8D8D82323230404040909090505
310
050505050505050404041C1C1C00FFFFFFFFFFFFFFFFFFFFFFFFFFFFFFFFFFFF
310
FFFFFFFFFFFFFFFFFFFFFFFFFFFFFFFFFFFFFFFFFFFFFFFFFFFFFFF6F6F6AAAA
310
AA1212120404040404040505050505050505050303030D0D0D646464F1F1F1FF
310
FFFFFFFFFFFFFFFFFFFFFFFFFFFFFFFFFFFFFFFFFFFFFFFFFFFFFFFFFFFFFFFF
310
FFFFFFFFFFFFECECEC8888880909090404040505050505050505050505050303
310
03303030BFBFBFEAEAEAEDEDEDEDEDEDEDEDEDEEEEEEEEEEEEEEEEEEEEEEEEEE
310
EEEEEFEFEFEFEFEFEFEFEFEFEFEFF0F0F0F0F0F0F0F0F0F0F0F0F1F1F1F0F0F0
310
F1F1F1F1F1F1F0F0F0CBCBCB5B5B5B0404040404040505050505050404040404
310
040101015E5E5EFCFCFCFFFFFFFFFFFFDEDEDE67676703030304040405050505
310
0505050505050505020202646464F4F4F4FFFFFFFFFFFFFFFFFFFFFFFFF7F7F7
310
D7D7D77A7A7A1C1C1C0808080404040505050505050505050505050505050404
310
040A0A0A242424818181DDDDDDF7F7F7FFFFFFFFFFFFFFFFFFFFFFFFFFFFFFFF
310
FFFFFFFFFFFFFFFFFFFFFFFFFFFFFFFFFFFFFFFFFFFFFFFFFFFFF8F8F8696969
310
020202050505050505050505050505040404030303939393FAFAFAFFFFFFFFFF
310
FFFDFDFD606060020202040404050505050505050505040404040404848484EC
310
ECECFFFFFFFFFFFFFFFFFFFFFFFFFFFFFFFFFFFFFFFFFFFFFFFFFFFFFFFFFFFF
310
FFFFFFFFFFFFFFFFFFFFFFFFFFFFFFFFFFFFFFFFFFFFFFFFFFFFFFFFFFFFFFFF
310
FFEFEFEF4C4C4C0505050404040505050505050505050505050707076A6A6AE2
310
E2E2FFFFFFFFFFFFFFFFFFFFFFFFFFFFFFFFFFFFFFFFFFFFFFFFFFFFFFFFFFFF
310
FFFFFFFFFFFFFFFFFFFFFFFFFFFFFFFFFFFFFFFFFFFFFFFFFFFFFFFFFFFFFFFF
310
FFFFFFFFFFFFFFFFFFFFFFFFFFFFFFFFFFFFFFFFFFFFFFFFFFFFFFFFFFFFFFFF
310
FFFFFFFFFFFFFFFFFFFFFFFFFFFFE2E2E2252525030303050505050505050505
310
0505050404041C1C1C00FFFFFFFFFFFFFFFFFFFFFFFFFFFFFFFFFFFFFFFFFFFF
310
FFFFFFFFFFFFFFFFFFFFFFFFFFFFFFFFFFFFFFFFFFFFFFF6F6F6A9A9A9121212
310
0404040505050505050505050505050303030E0E0E656565F2F2F2FFFFFFFFFF
310
FFFFFFFFFFFFFFFFFFFFFFFFFFFFFFFFFFFFFFFFFFFFFFFFFFFFFFFFFFFFFFFF
310
FFFFF0F0F09494940A0A0A040404050505050505050505050505040404090909
310
2D2D2D6767677272727373737575757676767878787979797979797B7B7B7C7C
310
7C7E7E7E7E7E7E7F7F7F8282828585858484848686868989898787878A8A8A8A
310
8A8A8484845252520F0F0F040404050505050505040404050505040404030303
310
626262FCFCFCFFFFFFFFFFFFDFDFDF6969690303030404040505050505050505
310
05050505020202636363F3F3F3FFFFFFFFFFFFFFFFFFFFFFFFFFFFFFFCFCFCEE
310
EEEEA9A9A94343430E0E0E030303040404050505050505050505050505050505
310
0404041111114E4E4EB2B2B2EFEFEFFDFDFDFFFFFFFFFFFFFFFFFFFFFFFFFFFF
310
FFFFFFFFFFFFFFFFFFFFFFFFFFFFFFFFFFFFFFFFFFFFF6F6F668686802020205
310
0505050505050505050505040404030303939393FAFAFAFFFFFFFFFFFFFDFDFD
310
606060020202040404050505050505050505040404040404777777D1D1D1DFDF
310
DFDFDFDFDFDFDFDFDFDFDFDFDFE0E0E0E0E0E0E0E0E0E0E0E0E0E0E0E0E0E0E0
310
E0E0E1E1E1E1E1E1E1E1E1E1E1E1E1E1E1E1E1E1E1E1E1E2E2E2DFDFDFADADAD
310
2E2E2E0404040505050505050505050505050505050707076C6C6CE2E2E2FFFF
310
FFFFFFFFFFFFFFFFFFFFFFFFFFFFFFFFFFFFFFFFFFFFFFFFFFFFFFFFFFFFFFFF
310
FFFFFFFFFFFFFFFFFFFFFFFFFFFFFFFFFFFFFFFFFFFFFFFFFFFFFFFFFFFFFFFF
310
FFFFFFFFFFFFFFFFFFFFFFFFFFFFFFFFFFFFFFFFFFFFFFFFFFFFFFFFFFFFFFFF
310
FFFFFFFFFFFFFFFCFCFCCDCDCD21212104040405050505050505050505050504
310
04041C1C1C00FFFFFFFFFFFFFFFFFFFFFFFFFFFFFFFFFFFFFFFFFFFFFFFFFFFF
310
FFFFFFFFFFFFFFFFFFFFFFFFFFFFFFFFFFFFFFF6F6F6AAAAAA12121204040405
310
05050505050505050505050404040D0D0D636363F1F1F1FFFFFFFFFFFFFFFFFF
310
FFFFFFFFFFFFFFFFFFFFFFFFFFFFFFFFFFFFFFFFFFFFFFFFFFFFFFFFFFFFFBFB
310
FBB9B9B91212120303030505050505050505050505050505050404040505050D
310
0D0D0E0E0E0E0E0E0F0F0F0F0F0F0F0F0F101010101010101010101010101010
310
1010101010101111111111111111111212121212121212121212121212121111
310
110B0B0B040404050505050505050505050505040404030303151515818181FD
310
FDFDFFFFFFFFFFFFDEDEDE676767030303040404050505050505050505050505
310
020202656565F5F5F5FFFFFFFFFFFFFFFFFFFFFFFFFFFFFFFFFFFFFFFFFFF6F6
310
F6D2D2D272727218181807070704040405050505050505050505050505050504
310
04040A0A0A2323237D7D7DDADADAF7F7F7FFFFFFFFFFFFFFFFFFFFFFFFFFFFFF
310
FFFFFFFFFFFFFFFFFFFFFFFFFFFFFFFFFFFFF6F6F66868680202020505050505
310
05050505050505040404030303939393FAFAFAFFFFFFFFFFFFFCFCFC60606002
310
02020404040505050505050505050505050404041212121E1E1E202020202020
310
2121212121212222222222222323232424242424242525252727272727272828
310
282A2A2A2A2A2A2B2B2B2B2B2B2C2C2C2D2D2D2F2F2F2B2B2B1B1B1B09090905
310
0505050505050505050505050505040404080808868686EBEBEBFFFFFFFFFFFF
310
FEFEFEF2F2F2E2E2E2DEDEDEDEDEDEDFDFDFDFDFDFDFDFDFDFDFDFDFDFDFDFDF
310
DFDFDFDFDFDFDFDFDFDFDFDFDFDFDFDFDFDFDFDFDFDFDFDFDFDFDFDFDFDFDFDF
310
DFDFDFDFDFDFDFDFDFDFDFDFDFDFDFDFDFE0E0E0E0E0E0E0E0E0E0E0E0E0E0E0
310
E0E0E0D1D1D16363630E0E0E0404040505050505050505050505050404041E1E
310
1E00FFFFFFFFFFFFFFFFFFFFFFFFFFFFFFFFFFFFFFFFFFFFFFFFFFFFFFFFFFFF
310
FFFFFFFFFFFFFFFFFFFFFFFFFFFFFFF5F5F5A9A9A91212120404040505050505
310
050505050505050404040D0D0D646464F1F1F1FFFFFFFFFFFFFFFFFFFFFFFFFF
310
FFFFFFFFFFFFFFFFFFFFFFFFFFFFFFFFFFFFFFFFFFFFFFFFFFFFFFFFFFD2D2D2
310
3F3F3F0505050505050505050505050505050505050505050505050404040505
310
0504040404040404040404040404040404040404040404040404040404040404
310
0404040404040404040404040404040404040404040404040404040404050505
310
050505050505050505050505050505050505030303383838BDBDBDFEFEFEFFFF
310
FFFFFFFFDDDDDD67676703030304040405050505050505050505050502020264
310
6464F5F5F5FFFFFFFFFFFFFFFFFFFFFFFFFFFFFFFFFFFFFFFFFFFFFFFFFCFCFC
310
EDEDEDA3A3A33C3C3C0E0E0E0303030505050505050505050505050505050404
310
040404041010104A4A4AAEAEAEEEEEEEFCFCFCFFFFFFFFFFFFFFFFFFFFFFFFFF
310
FFFFFFFFFFFFFFFFFFFFFFFFFFFFF6F6F6686868020202050505050505050505
310
050505040404030303939393FAFAFAFFFFFFFFFFFFFDFDFD6060600202020404
310
0405050505050505050505050505050504040402020202020202020202020202
310
0202020202030303020202020202020202020202030303030303030303030303
310
0303030303030303030303030303030303030303030303030505050505050505
310
05050505050505050505040404111111B3B3B3FAFAFAFFFFFFFFFFFFFAFAFAA6
310
A6A63A3A3A202020202020202020202020202020202020202020202020202020
310
2020202020202020202020202020202020202020202020202020202020202020
310
202020202121212222222222222323232323232424242525252525252727271F
310
1F1F0C0C0C0505050505050505050505050505050505050303032A2A2A00FFFF
310
FFFFFFFFFFFFFFFFFFFFFFFFFFFFFFFFFFFFFFFFFFFFFFFFFFFFFFFFFFFFFFFF
310
FFFFFFFFFFFFFFFFFFFFFFF6F6F6AAAAAA121212040404050505050505050505
310
0505050404040D0D0D616161F1F1F1FFFFFFFFFFFFFFFFFFFFFFFFFFFFFFFFFF
310
FFFFFFFFFFFFFFFFFFFFFFFFFFFFFFFFFFFFFFFFFFFFFFFFFFF3F3F3A3A3A317
310
1717040404050505050505050505050505050505050505050505060606040404
310
0505050505050505050505050505050505050505050505050505050505050505
310
0505050504040405050504040405050505050505050505050505050505050505
310
05050505050505050505050303030C0C0C6C6C6CF4F4F4FFFFFFFFFFFFFFFFFF
310
DEDEDE676767030303040404050505050505050505050505020202626262F2F2
310
F2FFFFFFFFFFFFFFFFFFFFFFFFFFFFFFFFFFFFFFFFFFFFFFFFFFFFFFFFFFFFF5
310
F5F5CCCCCC6A6A6A151515070707040404050505050505050505050505050505
310
040404090909202020797979D5D5D5F6F6F6FFFFFFFFFFFFFFFFFFFFFFFFFFFF
310
FFFFFFFFFFFFFFFFFFFFF7F7F769696902020205050505050505050505050504
310
0404030303929292FAFAFAFFFFFFFFFFFFFCFCFC606060020202040404050505
310
0505050505050505050505050505050505050505050505050505050505050505
310
0505050505050505050505050505050505050505050505050505050505050504
310
0404040404040404040404040404050505050505050505050505050505050505
310
050505050505050505414141D2D2D2FFFFFFFFFFFFFFFFFFF9F9F99E9E9E2020
310
2002020204040403030303030303030303030303030303030303030303030303
310
0303030303030303030303020202020202020202020202020202020202020202
310
0202020202020202020202020303030202020202020202020303030303030404
310
040505050505050505050505050505050404040F0F0F76767600FFFFFFFFFFFF
310
FFFFFFFFFFFFFFFFFFFFFFFFFFFFFFFFFFFFFFFFFFFFFFFFFFFFFFFFFFFFFFFF
310
FFFFFFFFFFFFFFF6F6F6AAAAAA12121204040404040405050505050505050504
310
04040C0C0C606060F1F1F1FFFFFFFFFFFFFFFFFFFFFFFFFFFFFFFFFFFFFFFFFF
310
FFFFFFFFFFFFFFFFFFFFFFFFFFFFFFFFFFFFFFFFFFFEFEFEE1E1E17777771616
310
1603030304040405050505050505050505050505050504040405050505050505
310
0505050505050505050505050505050505050505050505050505050505040404
310
0505050404040505050505050505050505050505050505050505050505050505
310
050404040303030A0A0A555555D3D3D3FEFEFEFFFFFFFFFFFFFFFFFFDEDEDE67
310
6767030303040404050505050505050505050505020202626262F2F2F2FFFFFF
310
FFFFFFFFFFFFFFFFFFFFFFFFFFFFFFFFFFFFFFFFFFFFFFFFFFFFFFFFFFFFFBFB
310
FBEBEBEB9C9C9C3636360C0C0C03030305050505050505050505050505050504
310
04040404040F0F0F464646AAAAAAEDEDEDFCFCFCFFFFFFFFFFFFFFFFFFFFFFFF
310
FFFFFFFFFFFFF7F7F76969690202020505050505050505050505050404040303
310
03929292FAFAFAFFFFFFFFFFFFFDFDFD60606002020204040405050505050505
310
0505050505050505050505050505050505050505050505050505050505050505
310
0505050505050505050505050505050505050505050505050505050505050505
310
0505050505050505050505050505050505050505050505050505050505050503
310
03031B1B1BABABABF6F6F6FFFFFFFFFFFFFFFFFFF9F9F99F9F9F202020040404
310
0505050505050505050505050505050505050505050505050505050505050505
310
0505050505050505050505050505050505050505050505050505050505050505
310
0505050505050505050505050505050505050505050505050505050505050505
310
050505050505050505050505040404303030D4D4D400FFFFFFFFFFFFFFFFFFFF
310
FFFFFFFFFFFFFFFFFFFFFFFFFFFFFFFFFFFFFFFFFFFFFFFFFFFFFFFFFFFFFFFF
310
FFFFFFF6F6F6ACACAC1212120404040505050505050505050505050404040C0C
310
0C5F5F5FF1F1F1FFFFFFFFFFFFFFFFFFFFFFFFFFFFFFFFFFFFFFFFFFFFFFFFFF
310
FFFFFFFFFFFFFFFFFFFFFFFFFFFFFFFFFFFFFFFFFCFCFCDFDFDF858585222222
310
1010100606060202020303030404040404040404040404040404040404040404
310
0404040404040404040404040404040404040404040404040404040404040404
310
0404040404040404040404040404040404040404040404040404030303090909
310
181818595959D0D0D0FAFAFAFFFFFFFFFFFFFFFFFFFFFFFFE0E0E06A6A6A0303
310
03040404050505050505050505050505020202636363F4F4F4FFFFFFFFFFFFFF
310
FFFFFFFFFFFFFFFFFFFFFFFFFFFFFFFFFFFFFFFFFFFFFFFFFFFFFFFFFFFFFFFF
310
F4F4F4C5C5C56262621414140606060404040404040404040404040404040404
310
040303030808081C1C1C757575D2D2D2F5F5F5FFFFFFFFFFFFFFFFFFFFFFFFFF
310
FFFFF7F7F7696969020202040404040404040404040404040404030303929292
310
FAFAFAFFFFFFFFFFFFFDFDFD6060600202020404040404040404040404040404
310
0404040404040404040404040404040404040404040404040404040404040404
310
0404040404040404040404040404040404040404040404040404040404040404
310
0404040404040404040404040404040404040404040404040606061C1C1C8B8B
310
8BE9E9E9FFFFFFFFFFFFFFFFFFFFFFFFF9F9F9A0A0A021212104040405050505
310
0505050505050505050505050505050505050505050505050505050505050505
310
0505050505050505050505050505050505050505050505050505050505050505
310
0505050505050505050505050505050505050505050505050505050505050504
310
04040404040505052A2A2AABABABF6F6F600E7E7E7E7E7E7E7E7E7E7E7E7E7E7
310
E7E7E7E7E7E7E7E7E7E7E8E8E8E8E8E8E8E8E8E8E8E8E8E8E8E8E8E8E8E8E8E2
310
E2E2A3A3A31111110404040505050505050505050505050404040B0B0B595959
310
E2E2E2EFEFEFEFEFEFF0F0F0F0F0F0F0F0F0F0F0F0F0F0F0F1F1F1F1F1F1F1F1
310
F1F1F1F1F2F2F2F2F2F2F2F2F2F2F2F2F4F4F4F9F9F9EFEFEFCACACA7B7B7B3D
310
3D3D2121211E1E1E1D1D1D1D1D1D1D1D1D1D1D1D1D1D1D1C1C1C1C1C1C1C1C1C
310
1C1C1C1C1C1C1C1C1C1B1B1B1B1B1B1B1B1B1B1B1B1B1B1B1B1B1B1B1B1B1A1A
310
1A1A1A1A1A1A1A1A1A1A1A1A1A1919191A1A1A1C1C1C272727525252A6A6A6E8
310
E8E8FBFBFBFFFFFFFFFFFFFFFFFFFFFFFFFFFFFFDFDFDF696969030303040404
310
050505050505050505050505020202636363F4F4F4FFFFFFFFFFFFFFFFFFFFFF
310
FFFFFFFFFFFFFFFFFFFFFFFFFFFFFFFFFFFFFFFFFFFFFFFFFFFFFFFFFFFFFFFA
310
FAFAE8E8E8959595323232131313121212121212111111111111111111111111
310
1010101010101E1E1E4B4B4BB2B2B2F8F8F8FFFFFFFFFFFFFFFFFFFFFFFFF7F7
310
F77070700D0D0D0E0E0E0E0E0E0D0D0D0D0D0D0D0D0D0D0D0D979797FAFAFAFF
310
FFFFFFFFFFFDFDFD6767670B0B0B0B0B0B0B0B0B0B0B0B0B0B0B0B0B0B0A0A0A
310
0A0A0A0A0A0A0A0A0A0A0A0A0909090909090909090808080808080808080808
310
0807070707070707070707070707070706060606060606060606060606060605
310
05050505050505050606060909090F0F0F191919393939A4A4A4EAEAEAFDFDFD
310
FFFFFFFFFFFFFFFFFFFFFFFFF9F9F99F9F9F2121210202020303030303030202
310
0202020203030303030303030302020202020202020202020202020202020203
310
0303020202030303030303030303030303030303030303030303030303030303
310
0303030303030303030303030404040404040404040303030303030A0A0A1515
310
15373737B1B1B1F1F1F1FEFEFE004E4E4E4C4C4C4E4E4E4E4E4E4E4E4E4F4F4F
310
4F4F4F5151515353535454545454545555555656565656565757575656563B3B
310
3B0707070404040505050505050505050505050404040707072D2D2D7B7B7B81
310
81818181818282828484848484848585858787878A8A8A8B8B8B8B8B8B8D8D8D
310
8E8E8E909090939393929292A5A5A5E3E3E3FEFEFEFBFBFBEEEEEEE4E4E4DCDC
310
DCD1D1D1CCCCCCCBCBCBC9C9C9C9C9C9C8C8C8C6C6C6C6C6C6C4C4C4C3C3C3C3
310
C3C3C2C2C2C0C0C0C0C0C0C0C0C0BEBEBEBDBDBDBDBDBDBCBCBCBABABAB9B9B9
310
B8B8B8B7B7B7B6B6B6B5B5B5B8B8B8C6C6C6DADADAE8E8E8F6F6F6FFFFFFFFFF
310
FFFFFFFFFFFFFFFFFFFFFFFFFFFFFFFFE0E0E06B6B6B03030304040405050504
310
0404050505050505020202636363F4F4F4FFFFFFFFFFFFFFFFFFFFFFFFFFFFFF
310
FFFFFFFFFFFFFFFFFFFFFFFFFFFFFFFFFFFFFFFFFFFFFFFFFFFFFFFFFFFFFFFF
310
FFF3F3F3C2C2C29191918686868787878484848484848282828181817F7F7F7C
310
7C7C7B7B7B7C7C7C939393D7D7D7FFFFFFFFFFFFFFFFFFFFFFFFFBFBFBA9A9A9
310
6F6F6F6F6F6F6D6D6D6C6C6C6C6C6C6B6B6B676767BDBDBDFCFCFCFFFFFFFFFF
310
FFFDFDFD9B9B9B6060606060605F5F5F5D5D5D5D5D5D5C5C5C5A5A5A5A5A5A57
310
57575656565656565353535151515050504E4E4E4D4D4D4B4B4B4B4B4B484848
310
4747474646464545454444444242424141414040403F3F3F3D3D3D3C3C3C3B3B
310
3B3A3A3A3F3F3F525252757575ACACACDADADAF5F5F5FEFEFEFFFFFFFFFFFFFF
310
FFFFFFFFFFFFFFFFFBFBFBB0B0B03F3F3F272727282828272727252525252525
310
2222222323232222222121212020202020202020202020202020202020202020
310
2020202020202020202020202020202020202020202020202020202020202020
310
20202020202020202020202020202020202121212A2A2A575757999999DADADA
310
F7F7F7FEFEFEFFFFFF000D0D0D08080808080808080808080808080808080809
310
09090909090909090909090909090A0A0A0A0A0A0A0A0A0A0A0A080808040404
310
0505050505050505050505050505050505050404040707071010101111111111
310
1111111111111111111112121212121212121212121212121213131313131313
310
1313141414131313393939BFBFBFFBFBFBFFFFFFFFFFFFFFFFFFFFFFFFFDFDFD
310
FCFCFCFCFCFCFBFBFBFBFBFBFBFBFBFBFBFBFBFBFBFBFBFBFAFAFAFAFAFAFAFA
310
FAFAFAFAFAFAFAFAFAFAFAFAFAF9F9F9F9F9F9F9F9F9F9F9F9F9F9F9F9F9F9F8
310
F8F8F8F8F8F8F8F8F9F9F9FBFBFBFEFEFEFFFFFFFFFFFFFFFFFFFFFFFFFFFFFF
310
FFFFFFFFFFFFFFFFFFFFFFFFE0E0E06B6B6B0303030606060606060505050404
310
04050505020202636363F4F4F4FFFFFFFFFFFFFFFFFFFFFFFFFFFFFFFFFFFFFF
310
FFFFFFFFFFFFFFFFFFFFFFFFFFFFFFFFFFFFFFFFFFFFFFFFFFFFFFFFFFFFFFFF
310
FAFAFAF2F2F2F0F0F0F0F0F0F0F0F0F0F0F0F0F0F0EFEFEFEFEFEFEFEFEFEEEE
310
EEEEEEEEEFEFEFF8F8F8FFFFFFFFFFFFFFFFFFFFFFFFFFFFFFF4F4F4ECECECEC
310
ECECECECECECECECECECECECECECEBEBEBF6F6F6FFFFFFFFFFFFFFFFFFFFFFFF
310
F2F2F2EAEAEAEAEAEAEAEAEAE9E9E9E9E9E9E9E9E9E9E9E9E9E9E9E8E8E8E8E8
310
E8E8E8E8E8E8E8E7E7E7E7E7E7E7E7E7E7E7E7E6E6E6E6E6E6E6E6E6E6E6E6E6
310
E6E6E5E5E5E5E5E5E5E5E5E5E5E5E5E5E5E4E4E4E4E4E4E4E4E4E4E4E4E4E4E4
310
E4E4E4E8E8E8EDEDEDF6F6F6FDFDFDFFFFFFFFFFFFFFFFFFFFFFFFFFFFFFFFFF
310
FFFFFFFFFEFEFEF4F4F4E4E4E4E0E0E0E1E1E1E0E0E0E0E0E0E0E0E0E0E0E0E0
310
E0E0E0E0E0DFDFDFDFDFDFDFDFDFDFDFDFDFDFDFDFDFDFDFDFDFDFDFDFDFDFDF
310
DFDFDFDFDFDFDFDFDFDFDFDFDFDFDFDFDFDFDFDFDFDFDFDFDFDFDFDEDEDEDDDD
310
DDDCDCDCDCDCDCDCDCDCDCDCDCDFDFDFE1E1E1E8E8E8F3F3F3FEFEFEFFFFFFFF
310
FFFFFFFFFF000707070404040404040404040404040404040404040404040404
310
0404040404040404040404040404040404040404040405050505050505050505
310
0505050505050505050505040404050505040404040404040404040404040404
310
0404040404040404040404040404040404040404040404040404040404040404
310
040303032A2A2ABBBBBBFBFBFBFFFFFFFFFFFFFFFFFFFFFFFFFFFFFFFFFFFFFF
310
FFFFFFFFFFFFFFFFFFFFFFFFFFFFFFFFFFFFFFFFFFFFFFFFFFFFFFFFFFFFFFFF
310
FFFFFFFFFFFFFFFFFFFFFFFFFFFFFFFFFFFFFFFFFFFFFFFFFFFFFFFFFFFFFFFF
310
FFFFFFFFFFFFFFFFFFFFFFFFFFFFFFFFFFFFFFFFFFFFFFFFFFFFFFFFFFFFFFFF
310
FFFFFFFFFFFFFFFFE0E0E06B6B6B030303040404040404040404040404050505
310
020202636363F4F4F4FFFFFFFFFFFFFFFFFFFFFFFFFFFFFFFFFFFFFFFFFFFFFF
310
FFFFFFFFFFFFFFFFFFFFFFFFFFFFFFFFFFFFFFFFFFFFFFFFFFFFFFFFFFFFFFFF
310
FFFFFFFFFFFFFFFFFFFFFFFFFFFFFFFFFFFFFFFFFFFFFFFFFFFFFFFFFFFFFFFF
310
FFFFFFFFFFFFFFFFFFFFFFFFFFFFFFFFFFFFFEFEFEECECECDFDFDFDFDFDFDFDF
310
DFDFDFDFDFDFDFDFDFDFDFDFDFF1F1F1FEFEFEFFFFFFFFFFFFFFFFFFFFFFFFFF
310
FFFFFFFFFFFFFFFFFFFFFFFFFFFFFFFFFFFFFFFFFFFFFFFFFFFFFFFFFFFFFFFF
310
FFFFFFFFFFFFFFFFFFFFFFFFFFFFFFFFFFFFFFFFFFFFFFFFFFFFFFFFFFFFFFFF
310
FFFFFFFFFFFFFFFFFFFFFFFFFFFFFFFFFFFFFFFFFFFFFFFFFFFFFFFFFFFFFFFF
310
FFFFFFFFFFFFFFFFFFFFFFFFFFFFFFFFFFFFFFFFFFFFFFFFFFFFFFFFFFFFFFFF
310
FFFFFFFFFFFFFFFFFFFFFFFFFFFFFFFFFFFFFFFFFFFFFFFFFFFFFFFFFFFFFFFF
310
FFFFFFFFFFFFFFFFFFFFFFFFFFFFFFFFFFFFFFFFFFFFFFFFFFFFFFFFFFFFFFFF
310
FFFFFFFFFFFFFFFFFFFFFFFFFFFFFFFFFFFFFFFFFFFFFFFFFFFFFFFFFFFFFFFF
310
FFFFFFFFFFFFFFFFFFFFFFFFFFFFFFFFFFFFFFFFFFFFFFFFFFFFFFFFFFFFFFFF
310
FF00060606040404040404040404050505050505050505050505050505050505
310
0505050505050505050505050505050505050505050505050505050505050505
310
0505050505050505050507070704040404040405050505050505050505050505
310
0505050505050505050505050505050505050505050505050505050505030303
310
2A2A2ABBBBBBFBFBFBFFFFFFFFFFFFFFFFFFFFFFFFFFFFFFFFFFFFFFFFFFFFFF
310
FFFFFFFFFFFFFFFFFFFFFFFFFFFFFFFFFFFFFFFFFFFFFFFFFFFFFFFFFFFFFFFF
310
FFFFFFFFFFFFFFFFFFFFFFFFFFFFFFFFFFFFFFFFFFFFFFFFFFFFFFFFFFFFFFFF
310
FFFFFFFFFFFFFFFFFFFFFFFFFFFFFFFFFFFFFFFFFFFFFFFFFFFFFFFFFFFFFFFF
310
FFFFFFFFE0E0E06B6B6B03030304040404040404040405050505050502020263
310
6363F4F4F4FFFFFFFFFFFFFFFFFFFFFFFFFFFFFFFFFFFFFFFFFFFFFFFFFFFFFF
310
FFFFFFFFFFFFFFFFFFFFFFFFFFFFFFFFFFFFFFFFFFFFFFFFFFFFFFFFFFFFFFFF
310
FFFFFFFFFFFFFFFFFFFFFFFFFFFFFFFFFFFFFFFFFFFFFFFFFFFFFFFFFFFFFFFF
310
FFFFFFFFFFFFFFFFFFFFFFFFFFFFF8F8F87C7C7C202020202020202020202020
310
212121222222222222A0A0A0FBFBFBFFFFFFFFFFFFFFFFFFFFFFFFFFFFFFFFFF
310
FFFFFFFFFFFFFFFFFFFFFFFFFFFFFFFFFFFFFFFFFFFFFFFFFFFFFFFFFFFFFFFF
310
FFFFFFFFFFFFFFFFFFFFFFFFFFFFFFFFFFFFFFFFFFFFFFFFFFFFFFFFFFFFFFFF
310
FFFFFFFFFFFFFFFFFFFFFFFFFFFFFFFFFFFFFFFFFFFFFFFFFFFFFFFFFFFFFFFF
310
FFFFFFFFFFFFFFFFFFFFFFFFFFFFFFFFFFFFFFFFFFFFFFFFFFFFFFFFFFFFFFFF
310
FFFFFFFFFFFFFFFFFFFFFFFFFFFFFFFFFFFFFFFFFFFFFFFFFFFFFFFFFFFFFFFF
310
FFFFFFFFFFFFFFFFFFFFFFFFFFFFFFFFFFFFFFFFFFFFFFFFFFFFFFFFFFFFFFFF
310
FFFFFFFFFFFFFFFFFFFFFFFFFFFFFFFFFFFFFFFFFFFFFFFFFFFFFFFFFFFFFFFF
310
FFFFFFFFFFFFFFFFFFFFFFFFFFFFFFFFFFFFFFFFFFFFFFFFFFFFFFFFFF000606
310
0606060605050504040405050505050505050505050505050505050505050505
310
0505050505050505050505050505050505050505050505050505050505050505
310
0505050505050505050404040505050505050505050505050505050505050505
310
050505050505050505050505050505050505050505050404040303032A2A2ABD
310
BDBDFBFBFBFFFFFFFFFFFFFFFFFFFFFFFFFFFFFFFFFFFFFFFFFFFFFFFFFFFFFF
310
FFFFFFFFFFFFFFFFFFFFFFFFFFFFFFFFFFFFFFFFFFFFFFFFFFFFFFFFFFFFFFFF
310
FFFFFFFFFFFFFFFFFFFFFFFFFFFFFFFFFFFFFFFFFFFFFFFFFFFFFFFFFFFFFFFF
310
FFFFFFFFFFFFFFFFFFFFFFFFFFFFFFFFFFFFFFFFFFFFFFFFFFFFFFFFFFFFFFFF
310
E1E1E16C6C6C030303040404050505050505050505050505020202646464F5F5
310
F5FFFFFFFFFFFFFFFFFFFFFFFFFFFFFFFFFFFFFFFFFFFFFFFFFFFFFFFFFFFFFF
310
FFFFFFFFFFFFFFFFFFFFFFFFFFFFFFFFFFFFFFFFFFFFFFFFFFFFFFFFFFFFFFFF
310
FFFFFFFFFFFFFFFFFFFFFFFFFFFFFFFFFFFFFFFFFFFFFFFFFFFFFFFFFFFFFFFF
310
FFFFFFFFFFFFFFFFFFFFF9F9F96A6A6A01010102020202020202020202020202
310
0202020202939393FAFAFAFFFFFFFFFFFFFFFFFFFFFFFFFFFFFFFFFFFFFFFFFF
310
FFFFFFFFFFFFFFFFFFFFFFFFFFFFFFFFFFFFFFFFFFFFFFFFFFFFFFFFFFFFFFFF
310
FFFFFFFFFFFFFFFFFFFFFFFFFFFFFFFFFFFFFFFFFFFFFFFFFFFFFFFFFFFFFFFF
310
FFFFFFFFFFFFFFFFFFFFFFFFFFFFFFFFFFFFFFFFFFFFFFFFFFFFFFFFFFFFFFFF
310
FFFFFFFFFFFFFFFFFFFFFFFFFFFFFFFFFFFFFFFFFFFFFFFFFFFFFFFFFFFFFFFF
310
FFFFFFFFFFFFFFFFFFFFFFFFFFFFFFFFFFFFFFFFFFFFFFFFFFFFFFFFFFFFFFFF
310
FFFFFFFFFFFFFFFFFFFFFFFFFFFFFFFFFFFFFFFFFFFFFFFFFFFFFFFFFFFFFFFF
310
FFFFFFFFFFFFFFFFFFFFFFFFFFFFFFFFFFFFFFFFFFFFFFFFFFFFFFFFFFFFFFFF
310
FFFFFFFFFFFFFFFFFFFFFFFFFFFFFFFFFFFFFFFFFFFFFFFFFF00060606040404
310
0404040505050505050505050404040505050505050505050505050505050505
310
0505050505050505050505050505050505050505050505050505050505050505
310
0505050505050505050505050505050505050505050505050505050505050505
310
0505050505050505050505050505050404040505050303032A2A2ABDBDBDFBFB
310
FBFFFFFFFFFFFFFFFFFFFFFFFFFFFFFFFFFFFFFFFFFFFFFFFFFFFFFFFFFFFFFF
310
FFFFFFFFFFFFFFFFFFFFFFFFFFFFFFFFFFFFFFFFFFFFFFFFFFFFFFFFFFFFFFFF
310
FFFFFFFFFFFFFFFFFFFFFFFFFFFFFFFFFFFFFFFFFFFFFFFFFFFFFFFFFFFFFFFF
310
FFFFFFFFFFFFFFFFFFFFFFFFFFFFFFFFFFFFFFFFFFFFFFFFFFFFFFFFE0E0E06B
310
6B6B030303040404050505050505050505040404020202636363F4F4F4FFFFFF
310
FFFFFFFFFFFFFFFFFFFFFFFFFFFFFFFFFFFFFFFFFFFFFFFFFFFFFFFFFFFFFFFF
310
FFFFFFFFFFFFFFFFFFFFFFFFFFFFFFFFFFFFFFFFFFFFFFFFFFFFFFFFFFFFFFFF
310
FFFFFFFFFFFFFFFFFFFFFFFFFFFFFFFFFFFFFFFFFFFFFFFFFFFFFFFFFFFFFFFF
310
FFFFFFFFFFFFF9F9F96A6A6A0202020505050505050505050505050404040303
310
03939393FBFBFBFFFFFFFFFFFFFFFFFFFFFFFFFFFFFFFFFFFFFFFFFFFFFFFFFF
310
FFFFFFFFFFFFFFFFFFFFFFFFFFFFFFFFFFFFFFFFFFFFFFFFFFFFFFFFFFFFFFFF
310
FFFFFFFFFFFFFFFFFFFFFFFFFFFFFFFFFFFFFFFFFFFFFFFFFFFFFFFFFFFFFFFF
310
FFFFFFFFFFFFFFFFFFFFFFFFFFFFFFFFFFFFFFFFFFFFFFFFFFFFFFFFFFFFFFFF
310
FFFFFFFFFFFFFFFFFFFFFFFFFFFFFFFFFFFFFFFFFFFFFFFFFFFFFFFFFFFFFFFF
310
FFFFFFFFFFFFFFFFFFFFFFFFFFFFFFFFFFFFFFFFFFFFFFFFFFFFFFFFFFFFFFFF
310
FFFFFFFFFFFFFFFFFFFFFFFFFFFFFFFFFFFFFFFFFFFFFFFFFFFFFFFFFFFFFFFF
310
FFFFFFFFFFFFFFFFFFFFFFFFFFFFFFFFFFFFFFFFFFFFFFFFFFFFFFFFFFFFFFFF
310
FFFFFFFFFFFFFFFFFFFFFFFFFFFFFFFFFFFFFFFFFF0006060602020203030303
310
0303030303030303030303030303030303030303040404040404040404040404
310
0404040404040404040404040404040404040404040404040404040404040404
310
0404040404040404040404040404040404040404040404040404040404040404
310
04040404040404040404040404040404040303032B2B2BBEBEBEFCFCFCFFFFFF
310
FFFFFFFFFFFFFFFFFFFFFFFFFFFFFFFFFFFFFFFFFFFFFFFFFFFFFFFFFFFFFFFF
310
FFFFFFFFFFFFFFFFFFFFFFFFFFFFFFFFFFFFFFFFFFFFFFFFFFFFFFFFFFFFFFFF
310
FFFFFFFFFFFFFFFFFFFFFFFFFFFFFFFFFFFFFFFFFFFFFFFFFFFFFFFFFFFFFFFF
310
FFFFFFFFFFFFFFFFFFFFFFFFFFFFFFFFFFFFFFFFFFFFFFFFE1E1E16C6C6C0303
310
03040404040404040404040404040404020202636363F4F4F4FFFFFFFFFFFFFF
310
FFFFFFFFFFFFFFFFFFFFFFFFFFFFFFFFFFFFFFFFFFFFFFFFFFFFFFFFFFFFFFFF
310
FFFFFFFFFFFFFFFFFFFFFFFFFFFFFFFFFFFFFFFFFFFFFFFFFFFFFFFFFFFFFFFF
310
FFFFFFFFFFFFFFFFFFFFFFFFFFFFFFFFFFFFFFFFFFFFFFFFFFFFFFFFFFFFFFFF
310
FFFFFAFAFA6B6B6B020202040404040404040404040404040404030303939393
310
FAFAFAFFFFFFFFFFFFFFFFFFFFFFFFFFFFFFFFFFFFFFFFFFFFFFFFFFFFFFFFFF
310
FFFFFFFFFFFFFFFFFFFFFFFFFFFFFFFFFFFFFFFFFFFFFFFFFFFFFFFFFFFFFFFF
310
FFFFFFFFFFFFFFFFFFFFFFFFFFFFFFFFFFFFFFFFFFFFFFFFFFFFFFFFFFFFFFFF
310
FFFFFFFFFFFFFFFFFFFFFFFFFFFFFFFFFFFFFFFFFFFFFFFFFFFFFFFFFFFFFFFF
310
FFFFFFFFFFFFFFFFFFFFFFFFFFFFFFFFFFFFFFFFFFFFFFFFFFFFFFFFFFFFFFFF
310
FFFFFFFFFFFFFFFFFFFFFFFFFFFFFFFFFFFFFFFFFFFFFFFFFFFFFFFFFFFFFFFF
310
FFFFFFFFFFFFFFFFFFFFFFFFFFFFFFFFFFFFFFFFFFFFFFFFFFFFFFFFFFFFFFFF
310
FFFFFFFFFFFFFFFFFFFFFFFFFFFFFFFFFFFFFFFFFFFFFFFFFFFFFFFFFFFFFFFF
310
FFFFFFFFFFFFFFFFFFFFFFFFFFFFFFFFFF002222221E1E1E1E1E1E1E1E1E1E1E
310
1E1E1E1E1E1E1E1D1D1D1D1D1D1D1D1D1D1D1D1C1C1C1C1C1C1C1C1C1C1C1C1C
310
1C1C1C1C1C1B1B1B1B1B1B1B1B1B1B1B1B1B1B1B1A1A1A1A1A1A1A1A1A1A1A1A
310
1A1A1A1A1A1A1919191919191919191919191919191818181818181818181818
310
181818181818181717171717171717173D3D3DC2C2C2FCFCFCFFFFFFFFFFFFFF
310
FFFFFFFFFFFFFFFFFFFFFFFFFFFFFFFFFFFFFFFFFFFFFFFFFFFFFFFFFFFFFFFF
310
FFFFFFFFFFFFFFFFFFFFFFFFFFFFFFFFFFFFFFFFFFFFFFFFFFFFFFFFFFFFFFFF
310
FFFFFFFFFFFFFFFFFFFFFFFFFFFFFFFFFFFFFFFFFFFFFFFFFFFFFFFFFFFFFFFF
310
FFFFFFFFFFFFFFFFFFFFFFFFFFFFFFFFFFFFFFFFE1E1E17373731010100F0F0F
310
0F0F0F0F0F0F0E0E0E0E0E0E0D0D0D6A6A6AF4F4F4FFFFFFFFFFFFFFFFFFFFFF
310
FFFFFFFFFFFFFFFFFFFFFFFFFFFFFFFFFFFFFFFFFFFFFFFFFFFFFFFFFFFFFFFF
310
FFFFFFFFFFFFFFFFFFFFFFFFFFFFFFFFFFFFFFFFFFFFFFFFFFFFFFFFFFFFFFFF
310
FFFFFFFFFFFFFFFFFFFFFFFFFFFFFFFFFFFFFFFFFFFFFFFFFFFFFFFFFFFFF9F9
310
F96D6D6D050505060606050505050505050505050505040404949494FAFAFAFF
310
FFFFFFFFFFFFFFFFFFFFFFFFFFFFFFFFFFFFFFFFFFFFFFFFFFFFFFFFFFFFFFFF
310
FFFFFFFFFFFFFFFFFFFFFFFFFFFFFFFFFFFFFFFFFFFFFFFFFFFFFFFFFFFFFFFF
310
FFFFFFFFFFFFFFFFFFFFFFFFFFFFFFFFFFFFFFFFFFFFFFFFFFFFFFFFFFFFFFFF
310
FFFFFFFFFFFFFFFFFFFFFFFFFFFFFFFFFFFFFFFFFFFFFFFFFFFFFFFFFFFFFFFF
310
FFFFFFFFFFFFFFFFFFFFFFFFFFFFFFFFFFFFFFFFFFFFFFFFFFFFFFFFFFFFFFFF
310
FFFFFFFFFFFFFFFFFFFFFFFFFFFFFFFFFFFFFFFFFFFFFFFFFFFFFFFFFFFFFFFF
310
FFFFFFFFFFFFFFFFFFFFFFFFFFFFFFFFFFFFFFFFFFFFFFFFFFFFFFFFFFFFFFFF
310
FFFFFFFFFFFFFFFFFFFFFFFFFFFFFFFFFFFFFFFFFFFFFFFFFFFFFFFFFFFFFFFF
310
FFFFFFFFFFFFFFFFFFFFFFFFFF00000000000000000000000000000000000000
310
0000000000000000000000000000000000000000000000000000000000000000
310
0000000000000000000000000000000000000000000000000000000000000000
310
0000000000000000000000000000000000000000000000000000000000000000
310
0000000000000000000000000000000000000000000000000000000000000000
310
0000000000000000000000000000000000000000000000000000000000000000
310
0000000000000000000000000000000000000000000000000000000000000000
310
0000000000000000000000000000000000000000000000000000000000000000
310
0000000000000000000000000000000000000000000000000000000000000000
310
0000000000000000000000000000000000000000000000000000000000000000
310
0000000000000000000000000000000000000000000000000000000000000000
310
0000000000000000000000000000000000000000000000000000000000000000
310
0000000000000000000000000000000000000000000000000000000000000000
310
0000000000000000000000000000000000000000000000000000000000000000
310
0000000000000000000000000000000000000000000000000000000000000000
310
0000000000000000000000000000000000000000000000000000000000000000
310
0000000000000000000000000000000000000000000000000000000000000000
310
01004F006C006500000000000000000000000000000000000000000000000000
310
0000000000000000000000000000000000000000000000000000000000000000
310
0A000200FFFFFFFFFFFFFFFFFFFFFFFF00000000000000000000000000000000
310
0000000000000000000000000000000000000000030000001400000000000000
310
0000000000000000000000000000000000000000000000000000000000000000
310
0000000000000000000000000000000000000000000000000000000000000000
310
00000000FFFFFFFFFFFFFFFFFFFFFFFF00000000000000000000000000000000
310
0000000000000000000000000000000000000000000000000000000000000000
310
0000000000000000000000000000000000000000000000000000000000000000
310
0000000000000000000000000000000000000000000000000000000000000000
310
00000000FFFFFFFFFFFFFFFFFFFFFFFF00000000000000000000000000000000
310
0000000000000000000000000000000000000000000000000000000000000000
310
0000000000000000000000000000000000000000000000000000000000000000
310
0000000000000000000000000000000000000000000000000000000000000000
310
00000000FFFFFFFFFFFFFFFFFFFFFFFF00000000000000000000000000000000
310
0000000000000000000000000000000000000000000000000000000000000000
  1
OLE
  0
LINE
  5
3A4
330
1F
100
AcDbEntity
  8
1
  6
Continuous
 62
     7
100
AcDbLine
 10
154.8125349110143
 20
-125.5307321480712
 30
0.0
 11
159.809066883724
 21
-125.5307321480712
 31
0.0
  0
LINE
  5
3A5
330
1F
100
AcDbEntity
  8
1
  6
Continuous
 62
     7
100
AcDbLine
 10
159.809066883724
 20
-120.4873263257046
 30
0.0
 11
159.809066883724
 21
-125.5307321480712
 31
0.0
  0
LINE
  5
3A6
330
1F
100
AcDbEntity
  8
1
  6
Continuous
 62
     7
100
AcDbLine
 10
139.809066883724
 20
-84.53074740686033
 30
0.0
 11
139.809066883724
 21
-103.6735958304093
 31
0.0
  0
LINE
  5
3A7
330
1F
100
AcDbEntity
  8
1
  6
Continuous
 62
     7
100
AcDbLine
 10
95.80906688372397
 20
-114.8491169725243
 30
0.0
 11
159.7758126106845
 21
-114.8491169725243
 31
0.0
  0
LINE
  5
3A8
330
1F
100
AcDbEntity
  8
1
  6
Continuous
 62
     7
100
AcDbLine
 10
95.80906688372397
 20
-84.53074740686033
 30
0.0
 11
95.80906688372397
 21
-125.5307321480712
 31
0.0
  0
LINE
  5
3A9
330
1F
100
AcDbEntity
  8
1
  6
Continuous
 62
     7
100
AcDbLine
 10
114.809066883724
 20
-84.53074740686033
 30
0.0
 11
114.809066883724
 21
-103.6735958304094
 31
0.0
  0
LINE
  5
3AA
330
1F
100
AcDbEntity
  8
1
  6
Continuous
 62
     7
100
AcDbLine
 10
127.309066883724
 20
-84.53074740686033
 30
0.0
 11
127.309066883724
 21
-103.6735958304094
 31
0.0
  0
LINE
  5
3AB
330
1F
100
AcDbEntity
  8
1
  6
Continuous
 62
     7
100
AcDbLine
 10
57.80906306902667
 20
-103.6735958304093
 30
0.0
 11
57.80906306902667
 21
-125.5307321480712
 31
0.0
  0
LINE
  5
3AC
330
1F
100
AcDbEntity
  8
1
  6
Continuous
 62
     7
100
AcDbLine
 10
38.3090649763753
 20
-103.6735958304093
 30
0.0
 11
38.3090649763753
 21
-125.5307321480712
 31
0.0
  0
LINE
  5
3AD
330
1F
100
AcDbEntity
  8
1
  6
CENTER
 62
     7
100
AcDbLine
 10
144.5328149254123
 20
-94.46979565316055
 30
0.0
 11
144.5328149254123
 21
-102.8041614978871
 31
0.0
  0
LINE
  5
3AE
330
1F
100
AcDbEntity
  8
1
  6
CENTER
 62
     7
100
AcDbLine
 10
140.3862847740451
 20
-98.80013317757464
 30
0.0
 11
158.7218865806857
 21
-98.80013317757464
 31
0.0
  0
LINE
  5
3AF
330
1F
100
AcDbEntity
  8
1
  6
Continuous
 62
     7
100
AcDbLine
 10
151.0328149254123
 20
-96.80013317757461
 30
0.0
 11
151.0328149254123
 21
-100.8001331775746
 31
0.0
  0
LINE
  5
3B0
330
1F
100
AcDbEntity
  8
1
  6
Continuous
 62
     7
100
AcDbLine
 10
157.5328149254123
 20
-95.30013317757461
 30
0.0
 11
157.5328149254123
 21
-102.3001331775746
 31
0.0
  0
LINE
  5
3B1
330
1F
100
AcDbEntity
  8
1
  6
Continuous
 62
     7
100
AcDbLine
 10
157.5328021605648
 20
-95.30015395864221
 30
0.0
 11
151.0327968959792
 21
-96.80015502826491
 31
0.0
  0
LINE
  5
3B2
330
1F
100
AcDbEntity
  8
1
  6
Continuous
 62
     7
100
AcDbLine
 10
157.5328198616015
 20
-102.300152721282
 30
0.0
 11
151.0328294650458
 21
-100.8001550827427
 31
0.0
  0
LINE
  5
3B3
330
1F
100
AcDbEntity
  8
1
  6
Continuous
 62
     7
100
AcDbLine
 10
130.0935448070438
 20
-101.6349246018652
 30
0.0
 11
137.0246261604736
 21
-94.4265996128287
 31
0.0
  0
LINE
  5
3B4
330
1F
100
AcDbEntity
  8
1
  6
Continuous
 62
     7
100
AcDbLine
 10
-20.19135326751288
 20
-103.6735958304093
 30
0.0
 11
159.809066883724
 21
-103.6735958304093
 31
0.0
  0
CIRCLE
  5
3B5
330
1F
100
AcDbEntity
  8
1
  6
Continuous
 62
     7
100
AcDbCircle
 10
144.5328149254123
 20
-98.80013317757464
 30
0.0
 40
2.0
  0
CIRCLE
  5
3B6
330
1F
100
AcDbEntity
  8
1
  6
Continuous
 62
     7
100
AcDbCircle
 10
144.5328149254123
 20
-98.80013317757464
 30
0.0
 40
3.5
  0
TEXT
  5
3B7
330
1F
100
AcDbEntity
  8
1
  6
Continuous
 62
     7
100
AcDbText
 10
96.94789201107548
 20
-117.6364591596861
 30
0.0
 40
2.0
  1
図面番号
 41
1.116756992340088
100
AcDbText
  0
TEXT
  5
3B8
330
1F
100
AcDbEntity
  8
1
  6
Continuous
 62
     7
100
AcDbText
 10
144.9199858824423
 20
-87.78074740686033
 30
0.0
 40
2.5
  1
第三角法
 41
0.7924525623015541
100
AcDbText
  0
TEXT
  5
3B9
330
1F
100
AcDbEntity
  8
1
  6
Continuous
 62
     7
100
AcDbText
 10
129.4921699682882
 20
-88.03074740686033
 30
0.0
 40
3.0
  1
尺　度
 41
0.8011275980652882
100
AcDbText
  0
TEXT
  5
3BA
330
1F
100
AcDbEntity
  8
1
  6
Continuous
 62
     7
100
AcDbText
 10
116.9921699682882
 20
-88.03074740686033
 30
0.0
 40
3.0
  1
個　数
 41
0.8011275980652882
100
AcDbText
  0
TEXT
  5
3BB
330
1F
100
AcDbEntity
  8
1
  6
Continuous
 62
     7
100
AcDbText
 10
100.042173020046
 20
-88.03074740686033
 30
0.0
 40
3.0
  1
材　　質
 41
0.7924526497277711
100
AcDbText
  0
TEXT
  5
3BC
330
1F
100
AcDbEntity
  8
1
  6
Continuous
 62
     7
100
AcDbText
 10
42.60436983442439
 20
-107.5757333327217
 30
0.0
 40
3.0
  1
製　　図
 41
0.7924526497277711
100
AcDbText
  0
TEXT
  5
3BD
330
1F
100
AcDbEntity
  8
1
  6
Continuous
 62
     7
100
AcDbText
 10
98.86891090075275
 20
-90.93074702539054
 30
0.0
 40
1.799999237060547
  1
MATERIAL
 41
0.9708675251408886
100
AcDbText
  0
TEXT
  5
3BE
330
1F
100
AcDbEntity
  8
1
  6
Continuous
 62
     7
100
AcDbText
 10
117.8689414183308
 20
-90.93074702539054
 30
0.0
 40
1.799999237060547
  1
QTY.
 41
1.073090087329566
100
AcDbText
  0
TEXT
  5
3BF
330
1F
100
AcDbEntity
  8
1
  6
Continuous
 62
     7
100
AcDbText
 10
129.2689658323934
 20
-90.93074702539054
 30
0.0
 40
1.799999237060547
  1
SCALE
 41
0.9371196086724451
100
AcDbText
  0
TEXT
  5
3C0
330
1F
100
AcDbEntity
  8
1
  6
Continuous
 62
     7
100
AcDbText
 10
97.22614865304502
 20
-108.593118295676
 30
0.0
 40
2.699999809265137
  1
型　　番
 41
0.7924525761883141
100
AcDbText
  0
TEXT
  5
3C1
330
1F
100
AcDbEntity
  8
1
  6
Continuous
 62
     7
100
AcDbText
 10
22.53531075101739
 20
-107.5446881701879
 30
0.0
 40
3.0
  1
設　　計
 41
0.7924526497277711
100
AcDbText
  0
TEXT
  5
3C2
330
1F
100
AcDbEntity
  8
1
  6
Continuous
 62
     7
100
AcDbText
 10
129.689353577297
 20
-97.03074740686033
 30
0.0
 40
3.5
  1
１
 41
0.8965522015080446
100
AcDbText
  0
TEXT
  5
3C3
330
1F
100
AcDbEntity
  8
1
  6
Continuous
 62
     7
100
AcDbText
 10
119.5770813147236
 20
-100.1143393448791
 30
0.0
 40
4.167183876037599
  1
1
 41
0.6666666666666666
100
AcDbText
  0
TEXT
  5
3C4
330
1F
100
AcDbEntity
  8
1
  6
Continuous
 62
     7
100
AcDbText
 10
134.439353577297
 20
-103.0307474068603
 30
0.0
 40
3.5
  1
１
 41
0.8965522015080446
100
AcDbText
  0
TEXT
  5
3C5
330
1F
100
AcDbEntity
  8
1
  6
Continuous
 62
     7
100
AcDbText
 10
141.1662102858236
 20
-90.93074702539054
 30
0.0
 40
1.799999237060547
  1
THIRD ANGLE
 41
0.9934187309461456
100
AcDbText
  0
TEXT
  5
3C6
330
1F
100
AcDbEntity
  8
1
  6
Continuous
 62
     7
100
AcDbText
 10
141.1662102858236
 20
-93.63074492730705
 30
0.0
 40
1.799999237060547
  1
PROJECTION
 41
0.9336612321840694
100
AcDbText
  0
TEXT
  5
3C7
330
1F
100
AcDbEntity
  8
1
  6
Continuous
 62
     7
100
AcDbText
 10
80.96460628128239
 20
-107.3975111033611
 30
0.0
 40
3.0
  1
承　　認
 41
0.7924526497277711
100
AcDbText
  0
TEXT
  5
3C8
330
1F
100
AcDbEntity
  8
1
  6
Continuous
 62
     7
100
AcDbText
 10
108.4183248498727
 20
-123.6518729492961
 30
0.0
 40
3.2
  1
TSTM-008
100
AcDbText
  0
LINE
  5
3CB
330
1F
100
AcDbEntity
  8
0
  6
Continuous
100
AcDbLine
 10
18.3090649763753
 20
-109.9536002546705
 30
0.0
 11
95.80906688372397
 21
-109.9536002546705
 31
0.0
  0
TEXT
  5
3CC
330
1F
100
AcDbEntity
  8
1
  6
Continuous
 62
     7
100
AcDbText
 10
61.31712900687593
 20
-107.436605011737
 30
0.0
 40
3.0
  1
検　　図
 41
0.7924526497277711
100
AcDbText
  0
LINE
  5
3CD
330
1F
100
AcDbEntity
  8
1
  6
Continuous
 62
     7
100
AcDbLine
 10
76.80906688372394
 20
-103.6735958304093
 30
0.0
 11
76.80906688372394
 21
-125.5307321480712
 31
0.0
  0
TEXT
  5
3CE
330
1F
100
AcDbEntity
  8
1
  6
Continuous
 62
     7
100
AcDbText
 10
21.40554327471488
 20
-89.48707502150957
 30
0.0
 40
3.0
  1
名　　称
 41
0.7924526497277711
100
AcDbText
  0
TEXT
  5
3CF
330
1F
100
AcDbEntity
  8
1
  6
Continuous
 62
     7
100
AcDbText
 10
109.156202295844
 20
-108.0584355635824
 30
0.0
 40
1.799999237060547
  1
STYLE NUMBER
 41
0.9708675251408886
100
AcDbText
  0
TEXT
  5
3D0
330
1F
100
AcDbEntity
  8
1
  6
Continuous
 62
     7
100
AcDbText
 10
108.4955426528114
 20
-117.3582025177165
 30
0.0
 40
1.799999237060547
  1
DRAWING NUMBER
 41
0.9708675251408886
100
AcDbText
  0
TEXT
  5
3D1
330
1F
100
AcDbEntity
  8
1
  6
Continuous
 62
     7
100
AcDbText
 10
36.22277796591574
 20
-88.7173153490419
 30
0.0
 40
1.799999237060547
  1
PRODUCT NAME
 41
0.9708675251408886
100
AcDbText
  0
TEXT
  5
3D2
330
1F
100
AcDbEntity
  8
1
  6
Continuous
 62
     7
100
AcDbText
 10
23.11522578369285
 20
-109.6452270335032
 30
0.0
 40
1.6
  1
DESIGNED
 41
0.7800000000000001
100
AcDbText
  0
TEXT
  5
3D3
330
1F
100
AcDbEntity
  8
1
  6
Continuous
 62
     7
100
AcDbText
 10
44.4649469644668
 20
-109.6666223102056
 30
0.0
 40
1.6
  1
DRAWN
 41
0.782
100
AcDbText
  0
TEXT
  5
3D5
330
1F
100
AcDbEntity
  8
1
  6
Continuous
 62
     7
100
AcDbText
 10
60.50076584523845
 20
-118.3043709128861
 30
0.0
 40
1.799999237060547
  1
M.Matsumoto
 41
0.8
100
AcDbText
  0
TEXT
  5
3D7
330
1F
100
AcDbEntity
  8
1
  6
Continuous
 62
     7
100
AcDbText
 10
80.46869687570123
 20
-118.2342731400226
 30
0.0
 40
1.799999237060547
  1
M.Saito
 41
1.2
  7
NewStyle1
100
AcDbText
  0
TEXT
  5
3D8
330
1F
100
AcDbEntity
  8
1
  6
Continuous
 62
     7
100
AcDbText
 10
81.79617822121256
 20
-123.9473193027341
 30
0.0
 40
1.6
  1
2007.11.30
 41
0.7800000000000001
100
AcDbText
  0
TEXT
  5
3D9
330
1F
100
AcDbEntity
  8
1
  6
Continuous
 62
     7
100
AcDbText
 10
62.38174864185446
 20
-123.9473193027341
 30
0.0
 40
1.6
  1
2007.11.30
 41
0.7800000000000001
100
AcDbText
  0
TEXT
  5
3DB
330
1F
100
AcDbEntity
  8
1
  6
Continuous
 62
     7
100
AcDbText
 10
62.11892099736907
 20
-109.6452270335032
 30
0.0
 40
1.6
  1
CHECKED
 41
0.7800000000000001
100
AcDbText
  0
TEXT
  5
3DC
330
1F
100
AcDbEntity
  8
1
  6
Continuous
 62
     7
100
AcDbText
 10
81.42250467971894
 20
-109.5549680572894
 30
0.0
 40
1.6
  1
APPROVED
 41
0.7800000000000001
100
AcDbText
  0
TEXT
  5
3DD
330
1F
100
AcDbEntity
  8
1
  6
Continuous
 62
     7
100
AcDbText
 10
77.91893736530508
 20
-132.1136810554269
 30
0.0
 40
4.0
  1
株式会社 トキナー
100
AcDbText
  0
TEXT
  5
3DE
330
1F
100
AcDbEntity
  8
1
  6
Continuous
 62
     7
100
AcDbText
 10
123.927582179674
 20
-131.7881652415394
 30
0.0
 40
4.0
  1
Tokina Co. ,Ltd.
 41
0.7000000000000001
100
AcDbText
  0
TEXT
  5
483
330
1F
100
AcDbEntity
  8
1
  6
Continuous
 62
     7
100
AcDbText
 10
22.24495983353854
 20
-96.94774888609803
 30
0.0
 40
3.2
  1
物体側テレセントリックレンズ
100
AcDbText
  0
POINT
  5
6ED
330
1F
100
AcDbEntity
  8
1
  6
Continuous
 62
     7
100
AcDbPoint
 10
-17.69135326751289
 20
-77.0307656762807
 30
0.0
  0
LINE
  5
6EF
330
1F
100
AcDbEntity
  8
1
  6
Continuous
 62
     7
100
AcDbLine
 10
-15.52108473076684
 20
-78.98614995638955
 30
0.0
 11
-17.68614824022794
 21
-75.23614995638953
 31
0.0
  0
LINE
  5
6F0
330
1F
100
AcDbEntity
  8
1
  6
Continuous
 62
     7
100
AcDbLine
 10
-17.68614824022791
 20
-75.23614995638955
 30
0.0
 11
-19.851211749689
 21
-78.98614995638955
 31
0.0
  0
LINE
  5
6F1
330
1F
100
AcDbEntity
  8
1
  6
Continuous
 62
     7
100
AcDbLine
 10
-15.52108473076682
 20
-78.98614995638955
 30
0.0
 11
-19.851211749689
 21
-78.98614995638955
 31
0.0
  0
TEXT
  5
6F2
330
1F
100
AcDbEntity
  8
1
  6
Continuous
 62
     7
100
AcDbText
 10
-19.08574449850843
 20
-84.0307656762807
 30
0.0
 40
3.0
  1
No
 41
0.6000000000000001
100
AcDbText
  0
TEXT
  5
6F3
330
1F
100
AcDbEntity
  8
1
  6
Continuous
 62
     7
100
AcDbText
 10
-9.387818264201552
 20
-102.4713500040021
 30
0.0
 40
2.0
  1
250-1000
 41
0.917513907425047
100
AcDbText
  0
TEXT
  5
6F4
330
1F
100
AcDbEntity
  8
1
  6
Continuous
 62
     7
100
AcDbText
 10
-7.565788490090902
 20
-99.44514131087347
 30
0.0
 40
1.999999999999999
  1
63- 250
 41
0.8547865309805239
100
AcDbText
  0
TEXT
  5
6F5
330
1F
100
AcDbEntity
  8
1
  6
Continuous
 62
     7
100
AcDbText
 10
-7.286358750187553
 20
-96.48083371826085
 30
0.0
 40
1.999999999999999
  1
16-  63
 41
0.924393960407802
100
AcDbText
  0
TEXT
  5
6F6
330
1F
100
AcDbEntity
  8
1
  6
Continuous
 62
     7
100
AcDbText
 10
-6.088002027639018
 20
-93.5768383493362
 30
0.0
 40
2.0
  1
4-  16
 41
0.9801621437072754
100
AcDbText
  0
TEXT
  5
6F7
330
1F
100
AcDbEntity
  8
1
  6
Continuous
 62
     7
100
AcDbText
 10
6.630923979946694
 20
-90.87174784187307
 30
0.0
 40
2.0
  1
%%P０．０５
 41
0.6471658811992815
100
AcDbText
  0
TEXT
  5
6F8
330
1F
100
AcDbEntity
  8
1
  6
Continuous
 62
     7
100
AcDbText
 10
6.630923979946694
 20
-93.75147618720113
 30
0.0
 40
2.0
  1
%%P０．０５
 41
0.6471658811992815
100
AcDbText
  0
TEXT
  5
6F9
330
1F
100
AcDbEntity
  8
1
  6
Continuous
 62
     7
100
AcDbText
 10
6.630923979946694
 20
-96.55930281842144
 30
0.0
 40
2.0
  1
%%P０．１
 41
0.6586746918144255
100
AcDbText
  0
TEXT
  5
6FA
330
1F
100
AcDbEntity
  8
1
  6
Continuous
 62
     7
100
AcDbText
 10
6.630923979946694
 20
-99.40307267730107
 30
0.0
 40
2.0
  1
%%P０．２
 41
0.6586746918144255
100
AcDbText
  0
TEXT
  5
6FB
330
1F
100
AcDbEntity
  8
1
  6
Continuous
 62
     7
100
AcDbText
 10
6.630923979946694
 20
-102.4625019021369
 30
0.0
 40
2.0
  1
%%P０．３
 41
0.6586746918144255
100
AcDbText
  0
TEXT
  5
6FC
330
1F
100
AcDbEntity
  8
1
  6
Continuous
 62
     7
100
AcDbText
 10
-5.724493014448869
 20
-90.85174377138902
 30
0.0
 40
2.000000000000001
  1
1-  4
 41
1.166124701499939
100
AcDbText
  0
TEXT
  5
6FD
330
1F
100
AcDbEntity
  8
1
  6
Continuous
 62
     7
100
AcDbText
 10
-1.540668477233292
 20
-87.43333628332341
 30
0.0
 40
1.899999618530273
  1
TOLERANCE
 41
0.967401567883914
100
AcDbText
  0
TEXT
  5
6FE
330
1F
100
AcDbEntity
  8
1
  6
Continuous
 62
     7
100
AcDbText
 10
-19.02126759359248
 20
-78.91829355129865
 30
0.0
 40
3.0
  1
１
 41
0.9004726129419663
100
AcDbText
  0
TEXT
  5
6FF
330
1F
100
AcDbEntity
  8
1
  6
Continuous
 62
     7
100
AcDbText
 10
72.7978879720811
 20
-79.04746950963796
 30
0.0
 40
3.0
  1
２
 41
0.9004726129419663
100
AcDbText
  0
LINE
  5
700
330
1F
100
AcDbEntity
  8
1
  6
Continuous
 62
     7
100
AcDbLine
 10
76.45753313554484
 20
-78.93447957305382
 30
0.0
 11
74.29246962608373
 21
-75.18447957305379
 31
0.0
  0
LINE
  5
701
330
1F
100
AcDbEntity
  8
1
  6
Continuous
 62
     7
100
AcDbLine
 10
74.29246962608376
 20
-75.18447957305382
 30
0.0
 11
72.12740611662267
 21
-78.93447957305382
 31
0.0
  0
LINE
  5
702
330
1F
100
AcDbEntity
  8
1
  6
Continuous
 62
     7
100
AcDbLine
 10
76.45753313554485
 20
-78.93447957305382
 30
0.0
 11
72.12740611662267
 21
-78.93447957305382
 31
0.0
  0
TEXT
  5
703
330
1F
100
AcDbEntity
  8
1
  6
Continuous
 62
     7
100
AcDbText
 10
-17.9576799228271
 20
-87.60259963656465
 30
0.0
 40
2.5
  1
一般交差
 41
0.967401567883914
100
AcDbText
  0
TEXT
  5
704
330
1F
100
AcDbEntity
  8
1
  6
Continuous
 62
     7
100
AcDbText
 10
72.9354289541771
 20
-84.0307656762807
 30
0.0
 40
3.0
  1
No
 41
0.6000000000000001
100
AcDbText
  0
LINE
  5
705
330
1F
100
AcDbEntity
  8
0
  6
Continuous
100
AcDbLine
 10
159.8086505471844
 20
-74.5307656762807
 30
0.0
 11
159.8086505471844
 21
-79.5307656762807
 31
0.0
  0
LINE
  5
706
330
1F
100
AcDbEntity
  8
0
  6
Continuous
100
AcDbLine
 10
159.8086505471844
 20
-74.5307656762807
 30
0.0
 11
139.8086505471844
 21
-74.5307656762807
 31
0.0
  0
TEXT
  5
7A2
330
1F
100
AcDbEntity
  8
1
  6
Continuous
 62
     7
100
AcDbText
 10
39.83690011877253
 20
-121.1370157990711
 30
0.0
 40
1.799999237060547
  1
図番登録
 41
0.8
100
AcDbText
  0
TEXT
  5
7A3
330
1F
100
AcDbEntity
  8
1
  6
Continuous
 62
     7
100
AcDbText
 10
39.80962253464132
 20
-124.0956768416575
 30
0.0
 40
1.6
  1
2007.11.30　Takeishi
 41
0.7000000000000001
100
AcDbText
  0
ENDSEC
  0
SECTION
  2
OBJECTS
  0
DICTIONARY
  5
C
330
0
100
AcDbDictionary
281
     1
  3
ACAD_COLOR
350
6C
  3
ACAD_GROUP
350
D
  3
ACAD_LAYOUT
350
1A
  3
ACAD_MATERIAL
350
6B
  3
ACAD_MLINESTYLE
350
17
  3
ACAD_PLOTSETTINGS
350
19
  3
ACAD_PLOTSTYLENAME
350
E
  3
ACAD_TABLESTYLE
350
92
  3
ACDBHEADERROUNDTRIPXREC
350
8D2
  3
AcDbVariableDictionary
350
59
  3
DWGPROPS
350
8D5
  0
DICTIONARY
  5
6C
102
{ACAD_REACTORS
330
C
102
}
330
C
100
AcDbDictionary
281
     1
  0
DICTIONARY
  5
D
102
{ACAD_REACTORS
330
C
102
}
330
C
100
AcDbDictionary
281
     1
  0
DICTIONARY
  5
1A
102
{ACAD_REACTORS
330
C
102
}
330
C
100
AcDbDictionary
281
     1
  3
Model
350
22
  3
ﾚｲｱｳﾄ1
350
1D
  0
DICTIONARY
  5
6B
102
{ACAD_REACTORS
330
C
102
}
330
C
100
AcDbDictionary
281
     1
  0
DICTIONARY
  5
17
102
{ACAD_REACTORS
330
C
102
}
330
C
100
AcDbDictionary
281
     1
  3
Standard
350
18
  0
DICTIONARY
  5
19
102
{ACAD_REACTORS
330
C
102
}
330
C
100
AcDbDictionary
281
     1
  0
ACDBDICTIONARYWDFLT
  5
E
102
{ACAD_REACTORS
330
C
102
}
330
C
100
AcDbDictionary
281
     1
  3
Normal
350
F
100
AcDbDictionaryWithDefault
340
F
  0
DICTIONARY
  5
92
102
{ACAD_REACTORS
330
C
102
}
330
C
100
AcDbDictionary
281
     1
  0
DICTIONARY
  5
8D2
102
{ACAD_REACTORS
330
C
102
}
330
C
100
AcDbDictionary
281
     1
  3
COLORDICT
350
8D3
  3
MATERIALDICT
350
8D4
  0
DICTIONARY
  5
59
102
{ACAD_REACTORS
330
C
102
}
330
C
100
AcDbDictionary
281
     1
  3
DIMASSOC
350
8D1
  0
XRECORD
  5
8D5
102
{ACAD_REACTORS
330
C
102
}
330
C
100
AcDbXrecord
280
     1
  1
DWGPROPS COOKIE
  2

  3

  4

  6

  7

  8
fottrem
  9

300
=
301
=
302
=
303
=
304
=
305
=
306
=
307
=
308
=
309
=
 40
0.0
 41
2453353.717125822
 42
2454434.408558611
  1

 90
        0
  0
LAYOUT
  5
22
102
{ACAD_REACTORS
330
1A
102
}
330
1A
100
AcDbPlotSettings
  1

  2
Brother HL-5040 series
  4
A4
  6

 40
5.027083396911621
 41
5.027085304260254
 42
5.027084350585938
 43
5.027069091796875
 44
209.9733276367188
 45
296.9259948730469
 46
0.0
 47
0.0
 48
0.0
 49
0.0
140
0.0
141
0.0
142
1.0
143
1.050424582197948
 70
 11952
 72
     1
 73
     1
 74
     2
  7

 75
     0
147
0.951995999472482
148
130.1913299560547
149
135.0307464599609
100
AcDbLayout
  1
Model
 70
     1
 71
     0
 10
-130.1913299560547
 20
-135.0307464599609
 11
166.8086700439453
 21
74.96925354003906
 12
0.0
 22
0.0
 32
0.0
 14
-130.1913341940266
 24
-135.0307504174916
 34
0.0
 15
166.8086658059735
 25
74.96924958250837
 35
0.0
146
0.0
 13
0.0
 23
0.0
 33
0.0
 16
1.0
 26
0.0
 36
0.0
 17
0.0
 27
1.0
 37
0.0
 76
     0
330
1F
  0
LAYOUT
  5
1D
102
{ACAD_REACTORS
330
1A
102
}
330
1A
100
AcDbPlotSettings
  1

  2
\\NOBE\(Colour) EPSON PM-D750
  4

  6

 40
0.0
 41
0.0
 42
0.0
 43
0.0
 44
0.0
 45
0.0
 46
0.0
 47
0.0
 48
0.0
 49
0.0
140
0.0
141
0.0
142
1.0
143
1.0
 70
   688
 72
     0
 73
     0
 74
     5
  7

 75
    16
147
1.0
148
0.0
149
0.0
100
AcDbLayout
  1
ﾚｲｱｳﾄ1
 70
     1
 71
     1
 10
-130.1913299560547
 20
-135.0307464599609
 11
166.8086700439453
 21
74.96925354003906
 12
0.0
 22
0.0
 32
0.0
 14
1.000000000000000E+20
 24
1.000000000000000E+20
 34
1.000000000000000E+20
 15
-1.000000000000000E+20
 25
-1.000000000000000E+20
 35
-1.000000000000000E+20
146
0.0
 13
0.0
 23
0.0
 33
0.0
 16
1.0
 26
0.0
 36
0.0
 17
0.0
 27
1.0
 37
0.0
 76
     0
330
73
  0
MLINESTYLE
  5
18
102
{ACAD_REACTORS
330
17
102
}
330
17
100
AcDbMlineStyle
  2
Standard
 70
     0
  3

 62
   256
 51
90.0
 52
90.0
 71
     2
 49
0.5
 62
   256
  6
BYLAYER
 49
-0.5
 62
   256
  6
BYLAYER
  0
ACDBPLACEHOLDER
  5
F
102
{ACAD_REACTORS
330
E
102
}
330
E
  0
XRECORD
  5
8D3
102
{ACAD_REACTORS
330
8D2
102
}
330
8D2
100
AcDbXrecord
280
     1
340
6C
  0
XRECORD
  5
8D4
102
{ACAD_REACTORS
330
8D2
102
}
330
8D2
100
AcDbXrecord
280
     1
340
6B
  0
DICTIONARYVAR
  5
8D1
102
{ACAD_REACTORS
330
59
102
}
330
59
100
DictionaryVariables
280
     0
  1
1
  0
ENDSEC
  0
EOF
