  0
SECTION
  2
HEADER
  9
$ACADVER
  1
AC1015
  9
$ACADMAINTVER
 70
     6
  9
$DWGCODEPAGE
  3
ANSI_932
  9
$INSBASE
 10
0.0
 20
0.0
 30
0.0
  9
$EXTMIN
 10
-110.5062713623047
 20
-112.0657958984375
 30
0.0
  9
$EXTMAX
 10
308.4932250976563
 20
183.9342041015625
 30
0.0
  9
$LIMMIN
 10
-110.5062866210938
 20
-112.0657958984375
  9
$LIMMAX
 10
308.4932250976563
 20
183.9342041015625
  9
$ORTHOMODE
 70
     0
  9
$REGENMODE
 70
     1
  9
$FILLMODE
 70
     1
  9
$QTEXTMODE
 70
     0
  9
$MIRRTEXT
 70
     1
  9
$LTSCALE
 40
1.0
  9
$ATTMODE
 70
     1
  9
$TEXTSIZE
 40
3.2
  9
$TRACEWID
 40
0.05
  9
$TEXTSTYLE
  7
Standard
  9
$CLAYER
  8
0
  9
$CELTYPE
  6
Continuous
  9
$CECOLOR
 62
   256
  9
$CELTSCALE
 40
1.0
  9
$DISPSILH
 70
     0
  9
$DIMSCALE
 40
1.0
  9
$DIMASZ
 40
1.0
  9
$DIMEXO
 40
2.54
  9
$DIMDLI
 40
0.38
  9
$DIMRND
 40
0.0
  9
$DIMDLE
 40
0.0
  9
$DIMEXE
 40
2.54
  9
$DIMTP
 40
0.0
  9
$DIMTM
 40
0.0
  9
$DIMTXT
 40
3.200000047683716
  9
$DIMCEN
 40
0.09
  9
$DIMTSZ
 40
0.0
  9
$DIMTOL
 70
     0
  9
$DIMLIM
 70
     0
  9
$DIMTIH
 70
     0
  9
$DIMTOH
 70
     0
  9
$DIMSE1
 70
     0
  9
$DIMSE2
 70
     0
  9
$DIMTAD
 70
     1
  9
$DIMZIN
 70
     0
  9
$DIMBLK
  1

  9
$DIMASO
 70
     1
  9
$DIMSHO
 70
     0
  9
$DIMPOST
  1

  9
$DIMAPOST
  1

  9
$DIMALT
 70
     0
  9
$DIMALTD
 70
     2
  9
$DIMALTF
 40
25.4
  9
$DIMLFAC
 40
1.0
  9
$DIMTOFL
 70
     0
  9
$DIMTVP
 40
1.0
  9
$DIMTIX
 70
     0
  9
$DIMSOXD
 70
     0
  9
$DIMSAH
 70
     1
  9
$DIMBLK1
  1

  9
$DIMBLK2
  1

  9
$DIMSTYLE
  2
DIMSTYLE
  9
$DIMCLRD
 70
     0
  9
$DIMCLRE
 70
     0
  9
$DIMCLRT
 70
     0
  9
$DIMTFAC
 40
1.0
  9
$DIMGAP
 40
1.600000023841858
  9
$DIMJUST
 70
     0
  9
$DIMSD1
 70
     0
  9
$DIMSD2
 70
     0
  9
$DIMTOLJ
 70
     1
  9
$DIMTZIN
 70
     0
  9
$DIMALTZ
 70
     0
  9
$DIMALTTZ
 70
     0
  9
$DIMUPT
 70
     0
  9
$DIMDEC
 70
     4
  9
$DIMTDEC
 70
     4
  9
$DIMALTU
 70
     2
  9
$DIMALTTD
 70
     2
  9
$DIMTXSTY
  7
Standard
  9
$DIMAUNIT
 70
     0
  9
$DIMADEC
 70
     0
  9
$DIMALTRND
 40
0.0
  9
$DIMAZIN
 70
     0
  9
$DIMDSEP
 70
    46
  9
$DIMATFIT
 70
     3
  9
$DIMFRAC
 70
     0
  9
$DIMLDRBLK
  1

  9
$DIMLUNIT
 70
     2
  9
$DIMLWD
 70
    -2
  9
$DIMLWE
 70
    -2
  9
$DIMTMOVE
 70
     0
  9
$LUNITS
 70
     2
  9
$LUPREC
 70
     4
  9
$SKETCHINC
 40
0.1
  9
$FILLETRAD
 40
0.0
  9
$AUNITS
 70
     0
  9
$AUPREC
 70
     0
  9
$MENU
  1
.
  9
$ELEVATION
 40
0.0
  9
$PELEVATION
 40
0.0
  9
$THICKNESS
 40
0.0
  9
$LIMCHECK
 70
     0
  9
$CHAMFERA
 40
0.0
  9
$CHAMFERB
 40
0.0
  9
$CHAMFERC
 40
0.0
  9
$CHAMFERD
 40
0.0
  9
$SKPOLY
 70
     0
  9
$TDCREATE
 40
2453354.092125822
  9
$TDUCREATE
 40
2453353.717125822
  9
$TDUPDATE
 40
2454434.798290301
  9
$TDUUPDATE
 40
2454434.423290301
  9
$TDINDWG
 40
0.0527988194
  9
$TDUSRTIMER
 40
0.0527756944
  9
$USRTIMER
 70
     1
  9
$ANGBASE
 50
0.0
  9
$ANGDIR
 70
     0
  9
$PDMODE
 70
     0
  9
$PDSIZE
 40
0.0
  9
$PLINEWID
 40
0.0
  9
$SPLFRAME
 70
     0
  9
$SPLINETYPE
 70
     6
  9
$SPLINESEGS
 70
     8
  9
$HANDSEED
  5
752
  9
$SURFTAB1
 70
     6
  9
$SURFTAB2
 70
     6
  9
$SURFTYPE
 70
     6
  9
$SURFU
 70
     6
  9
$SURFV
 70
     6
  9
$UCSBASE
  2

  9
$UCSNAME
  2

  9
$UCSORG
 10
0.0
 20
0.0
 30
0.0
  9
$UCSXDIR
 10
1.0
 20
0.0
 30
0.0
  9
$UCSYDIR
 10
0.0
 20
1.0
 30
0.0
  9
$UCSORTHOREF
  2

  9
$UCSORTHOVIEW
 70
     0
  9
$UCSORGTOP
 10
0.0
 20
0.0
 30
0.0
  9
$UCSORGBOTTOM
 10
0.0
 20
0.0
 30
0.0
  9
$UCSORGLEFT
 10
0.0
 20
0.0
 30
0.0
  9
$UCSORGRIGHT
 10
0.0
 20
0.0
 30
0.0
  9
$UCSORGFRONT
 10
0.0
 20
0.0
 30
0.0
  9
$UCSORGBACK
 10
0.0
 20
0.0
 30
0.0
  9
$PUCSBASE
  2

  9
$PUCSNAME
  2

  9
$PUCSORG
 10
0.0
 20
0.0
 30
0.0
  9
$PUCSXDIR
 10
1.0
 20
0.0
 30
0.0
  9
$PUCSYDIR
 10
0.0
 20
1.0
 30
0.0
  9
$PUCSORTHOREF
  2

  9
$PUCSORTHOVIEW
 70
     0
  9
$PUCSORGTOP
 10
0.0
 20
0.0
 30
0.0
  9
$PUCSORGBOTTOM
 10
0.0
 20
0.0
 30
0.0
  9
$PUCSORGLEFT
 10
0.0
 20
0.0
 30
0.0
  9
$PUCSORGRIGHT
 10
0.0
 20
0.0
 30
0.0
  9
$PUCSORGFRONT
 10
0.0
 20
0.0
 30
0.0
  9
$PUCSORGBACK
 10
0.0
 20
0.0
 30
0.0
  9
$USERI1
 70
     0
  9
$USERI2
 70
     0
  9
$USERI3
 70
     0
  9
$USERI4
 70
     0
  9
$USERI5
 70
     0
  9
$USERR1
 40
0.0
  9
$USERR2
 40
0.0
  9
$USERR3
 40
0.0
  9
$USERR4
 40
0.0
  9
$USERR5
 40
0.0
  9
$WORLDVIEW
 70
     1
  9
$SHADEDGE
 70
     3
  9
$SHADEDIF
 70
    70
  9
$TILEMODE
 70
     1
  9
$MAXACTVP
 70
    64
  9
$PINSBASE
 10
0.0
 20
0.0
 30
0.0
  9
$PLIMCHECK
 70
     0
  9
$PEXTMIN
 10
0.0
 20
0.0
 30
0.0
  9
$PEXTMAX
 10
0.0
 20
0.0
 30
0.0
  9
$PLIMMIN
 10
0.0
 20
0.0
  9
$PLIMMAX
 10
12.0
 20
9.0
  9
$UNITMODE
 70
     0
  9
$VISRETAIN
 70
     1
  9
$PLINEGEN
 70
     0
  9
$PSLTSCALE
 70
     1
  9
$TREEDEPTH
 70
  3020
  9
$CMLSTYLE
  2
Standard
  9
$CMLJUST
 70
     0
  9
$CMLSCALE
 40
1.0
  9
$PROXYGRAPHICS
 70
     1
  9
$MEASUREMENT
 70
     0
  9
$CELWEIGHT
370
    -1
  9
$ENDCAPS
280
     0
  9
$JOINSTYLE
280
     0
  9
$LWDISPLAY
290
     0
  9
$INSUNITS
 70
     0
  9
$HYPERLINKBASE
  1

  9
$STYLESHEET
  1

  9
$XEDIT
290
     0
  9
$CEPSNTYPE
380
     0
  9
$PSTYLEMODE
290
     1
  9
$FINGERPRINTGUID
  2
{16D3C5FE-373D-4D4A-BBED-2A78E82AE699}
  9
$VERSIONGUID
  2
{B83E3542-338F-4954-9D19-4A49C7B01B3A}
  9
$EXTNAMES
290
     1
  9
$PSVPSCALE
 40
0.0
  9
$OLESTARTUP
290
     0
  0
ENDSEC
  0
SECTION
  2
CLASSES
  0
CLASS
  1
ACDBDICTIONARYWDFLT
  2
AcDbDictionaryWithDefault
  3
ObjectDBX Classes
 90
        0
280
     0
281
     0
  0
CLASS
  1
ACDBPLACEHOLDER
  2
AcDbPlaceHolder
  3
ObjectDBX Classes
 90
        0
280
     0
281
     0
  0
CLASS
  1
LAYOUT
  2
AcDbLayout
  3
ObjectDBX Classes
 90
        0
280
     0
281
     0
  0
CLASS
  1
DICTIONARYVAR
  2
AcDbDictionaryVar
  3
ObjectDBX Classes
 90
        0
280
     0
281
     0
  0
CLASS
  1
TABLESTYLE
  2
AcDbTableStyle
  3
ObjectDBX Classes
 90
     2047
280
     0
281
     0
  0
ENDSEC
  0
SECTION
  2
TABLES
  0
TABLE
  2
VPORT
  5
8
330
0
100
AcDbSymbolTable
 70
     2
  0
VPORT
  5
97
330
8
100
AcDbSymbolTableRecord
100
AcDbViewportTableRecord
  2
*Active
 70
     0
 10
0.0
 20
0.0
 11
1.0
 21
1.0
 12
98.99347686767581
 22
35.9342041015625
 13
0.0
 23
0.0
 14
1.0
 24
1.0
 15
0.0
 25
0.0
 16
0.0
 26
0.0
 36
1.0
 17
0.0
 27
0.0
 37
0.0
 40
301.92
 41
1.527918781725888
 42
50.0
 43
0.0
 44
0.0
 50
0.0
 51
0.0
 71
    16
 72
   100
 73
     1
 74
     1
 75
     0
 76
     0
 77
     0
 78
     0
281
     0
 65
     0
110
0.0
120
0.0
130
0.0
111
1.0
121
0.0
131
0.0
112
0.0
122
1.0
132
0.0
 79
     0
146
0.0
  0
ENDTAB
  0
TABLE
  2
LTYPE
  5
5
330
0
100
AcDbSymbolTable
 70
    39
  0
LTYPE
  5
14
330
5
100
AcDbSymbolTableRecord
100
AcDbLinetypeTableRecord
  2
ByBlock
 70
     0
  3

 72
    65
 73
     0
 40
0.0
  0
LTYPE
  5
15
330
5
100
AcDbSymbolTableRecord
100
AcDbLinetypeTableRecord
  2
ByLayer
 70
     0
  3

 72
    65
 73
     0
 40
0.0
  0
LTYPE
  5
16
330
5
100
AcDbSymbolTableRecord
100
AcDbLinetypeTableRecord
  2
Continuous
 70
     0
  3
Solid line
 72
    65
 73
     0
 40
0.0
  0
LTYPE
  5
6CA
330
5
100
AcDbSymbolTableRecord
100
AcDbLinetypeTableRecord
  2
ACAD_ISO02W100
 70
     0
  3
ISO dash __ __ __ __ __ __ __ __ __ __ __ __ __
 72
    65
 73
     2
 40
15.0
 49
12.0
 74
     4
 75
     0
340
0
 46
1.0
 50
0.0
 44
0.0
 45
0.0
 49
-3.0
 74
     4
 75
     0
340
0
 46
1.0
 50
0.0
 44
0.0
 45
0.0
  0
LTYPE
  5
6CB
330
5
100
AcDbSymbolTableRecord
100
AcDbLinetypeTableRecord
  2
ACAD_ISO03W100
 70
     0
  3
ISO dash space __    __    __    __    __    __
 72
    65
 73
     2
 40
30.0
 49
12.0
 74
     4
 75
     0
340
0
 46
1.0
 50
0.0
 44
0.0
 45
0.0
 49
-18.0
 74
     4
 75
     0
340
0
 46
1.0
 50
0.0
 44
0.0
 45
0.0
  0
LTYPE
  5
6CC
330
5
100
AcDbSymbolTableRecord
100
AcDbLinetypeTableRecord
  2
ACAD_ISO04W100
 70
     0
  3
ISO long-dash dot ____ . ____ . ____ . ____ . _
 72
    65
 73
     4
 40
30.0
 49
24.0
 74
     4
 75
     0
340
0
 46
1.0
 50
0.0
 44
0.0
 45
0.0
 49
-3.0
 74
     4
 75
     0
340
0
 46
1.0
 50
0.0
 44
0.0
 45
0.0
 49
0.0
 74
     4
 75
     0
340
0
 46
1.0
 50
0.0
 44
0.0
 45
0.0
 49
-3.0
 74
     4
 75
     0
340
0
 46
1.0
 50
0.0
 44
0.0
 45
0.0
  0
LTYPE
  5
6CD
330
5
100
AcDbSymbolTableRecord
100
AcDbLinetypeTableRecord
  2
ACAD_ISO05W100
 70
     0
  3
ISO long-dash double-dot ____ .. ____ .. ____ .
 72
    65
 73
     6
 40
33.0
 49
24.0
 74
     4
 75
     0
340
0
 46
1.0
 50
0.0
 44
0.0
 45
0.0
 49
-3.0
 74
     4
 75
     0
340
0
 46
1.0
 50
0.0
 44
0.0
 45
0.0
 49
0.0
 74
     4
 75
     0
340
0
 46
1.0
 50
0.0
 44
0.0
 45
0.0
 49
-3.0
 74
     4
 75
     0
340
0
 46
1.0
 50
0.0
 44
0.0
 45
0.0
 49
0.0
 74
     4
 75
     0
340
0
 46
1.0
 50
0.0
 44
0.0
 45
0.0
 49
-3.0
 74
     4
 75
     0
340
0
 46
1.0
 50
0.0
 44
0.0
 45
0.0
  0
LTYPE
  5
6CE
330
5
100
AcDbSymbolTableRecord
100
AcDbLinetypeTableRecord
  2
ACAD_ISO06W100
 70
     0
  3
ISO long-dash triple-dot ____ ... ____ ... ____
 72
    65
 73
     8
 40
36.0
 49
24.0
 74
     4
 75
     0
340
0
 46
1.0
 50
0.0
 44
0.0
 45
0.0
 49
-3.0
 74
     4
 75
     0
340
0
 46
1.0
 50
0.0
 44
0.0
 45
0.0
 49
0.0
 74
     4
 75
     0
340
0
 46
1.0
 50
0.0
 44
0.0
 45
0.0
 49
-3.0
 74
     4
 75
     0
340
0
 46
1.0
 50
0.0
 44
0.0
 45
0.0
 49
0.0
 74
     4
 75
     0
340
0
 46
1.0
 50
0.0
 44
0.0
 45
0.0
 49
-3.0
 74
     4
 75
     0
340
0
 46
1.0
 50
0.0
 44
0.0
 45
0.0
 49
0.0
 74
     4
 75
     0
340
0
 46
1.0
 50
0.0
 44
0.0
 45
0.0
 49
-3.0
 74
     4
 75
     0
340
0
 46
1.0
 50
0.0
 44
0.0
 45
0.0
  0
LTYPE
  5
6CF
330
5
100
AcDbSymbolTableRecord
100
AcDbLinetypeTableRecord
  2
ACAD_ISO07W100
 70
     0
  3
ISO dot . . . . . . . . . . . . . . . . . . . .
 72
    65
 73
     2
 40
3.0
 49
0.0
 74
     4
 75
     0
340
0
 46
1.0
 50
0.0
 44
0.0
 45
0.0
 49
-3.0
 74
     4
 75
     0
340
0
 46
1.0
 50
0.0
 44
0.0
 45
0.0
  0
LTYPE
  5
6D0
330
5
100
AcDbSymbolTableRecord
100
AcDbLinetypeTableRecord
  2
ACAD_ISO08W100
 70
     0
  3
ISO long-dash short-dash ____ __ ____ __ ____ _
 72
    65
 73
     4
 40
36.0
 49
24.0
 74
     4
 75
     0
340
0
 46
1.0
 50
0.0
 44
0.0
 45
0.0
 49
-3.0
 74
     4
 75
     0
340
0
 46
1.0
 50
0.0
 44
0.0
 45
0.0
 49
6.0
 74
     4
 75
     0
340
0
 46
1.0
 50
0.0
 44
0.0
 45
0.0
 49
-3.0
 74
     4
 75
     0
340
0
 46
1.0
 50
0.0
 44
0.0
 45
0.0
  0
LTYPE
  5
6D1
330
5
100
AcDbSymbolTableRecord
100
AcDbLinetypeTableRecord
  2
ACAD_ISO09W100
 70
     0
  3
ISO long-dash double-short-dash ____ __ __ ____
 72
    65
 73
     6
 40
45.0
 49
24.0
 74
     4
 75
     0
340
0
 46
1.0
 50
0.0
 44
0.0
 45
0.0
 49
-3.0
 74
     4
 75
     0
340
0
 46
1.0
 50
0.0
 44
0.0
 45
0.0
 49
6.0
 74
     4
 75
     0
340
0
 46
1.0
 50
0.0
 44
0.0
 45
0.0
 49
-3.0
 74
     4
 75
     0
340
0
 46
1.0
 50
0.0
 44
0.0
 45
0.0
 49
6.0
 74
     4
 75
     0
340
0
 46
1.0
 50
0.0
 44
0.0
 45
0.0
 49
-3.0
 74
     4
 75
     0
340
0
 46
1.0
 50
0.0
 44
0.0
 45
0.0
  0
LTYPE
  5
6D2
330
5
100
AcDbSymbolTableRecord
100
AcDbLinetypeTableRecord
  2
ACAD_ISO10W100
 70
     0
  3
ISO dash dot __ . __ . __ . __ . __ . __ . __ .
 72
    65
 73
     4
 40
18.0
 49
12.0
 74
     4
 75
     0
340
0
 46
1.0
 50
0.0
 44
0.0
 45
0.0
 49
-3.0
 74
     4
 75
     0
340
0
 46
1.0
 50
0.0
 44
0.0
 45
0.0
 49
0.0
 74
     4
 75
     0
340
0
 46
1.0
 50
0.0
 44
0.0
 45
0.0
 49
-3.0
 74
     4
 75
     0
340
0
 46
1.0
 50
0.0
 44
0.0
 45
0.0
  0
LTYPE
  5
6D3
330
5
100
AcDbSymbolTableRecord
100
AcDbLinetypeTableRecord
  2
ACAD_ISO11W100
 70
     0
  3
ISO double-dash dot __ __ . __ __ . __ __ . __ 
 72
    65
 73
     6
 40
33.0
 49
12.0
 74
     4
 75
     0
340
0
 46
1.0
 50
0.0
 44
0.0
 45
0.0
 49
-3.0
 74
     4
 75
     0
340
0
 46
1.0
 50
0.0
 44
0.0
 45
0.0
 49
12.0
 74
     4
 75
     0
340
0
 46
1.0
 50
0.0
 44
0.0
 45
0.0
 49
-3.0
 74
     4
 75
     0
340
0
 46
1.0
 50
0.0
 44
0.0
 45
0.0
 49
0.0
 74
     4
 75
     0
340
0
 46
1.0
 50
0.0
 44
0.0
 45
0.0
 49
-3.0
 74
     4
 75
     0
340
0
 46
1.0
 50
0.0
 44
0.0
 45
0.0
  0
LTYPE
  5
6D4
330
5
100
AcDbSymbolTableRecord
100
AcDbLinetypeTableRecord
  2
ACAD_ISO12W100
 70
     0
  3
ISO dash double-dot __ . . __ . . __ . . __ . .
 72
    65
 73
     6
 40
21.0
 49
12.0
 74
     4
 75
     0
340
0
 46
1.0
 50
0.0
 44
0.0
 45
0.0
 49
-3.0
 74
     4
 75
     0
340
0
 46
1.0
 50
0.0
 44
0.0
 45
0.0
 49
0.0
 74
     4
 75
     0
340
0
 46
1.0
 50
0.0
 44
0.0
 45
0.0
 49
-3.0
 74
     4
 75
     0
340
0
 46
1.0
 50
0.0
 44
0.0
 45
0.0
 49
0.0
 74
     4
 75
     0
340
0
 46
1.0
 50
0.0
 44
0.0
 45
0.0
 49
-3.0
 74
     4
 75
     0
340
0
 46
1.0
 50
0.0
 44
0.0
 45
0.0
  0
LTYPE
  5
6D5
330
5
100
AcDbSymbolTableRecord
100
AcDbLinetypeTableRecord
  2
ACAD_ISO13W100
 70
     0
  3
ISO double-dash double-dot __ __ . . __ __ . . 
 72
    65
 73
     8
 40
36.0
 49
12.0
 74
     4
 75
     0
340
0
 46
1.0
 50
0.0
 44
0.0
 45
0.0
 49
-3.0
 74
     4
 75
     0
340
0
 46
1.0
 50
0.0
 44
0.0
 45
0.0
 49
12.0
 74
     4
 75
     0
340
0
 46
1.0
 50
0.0
 44
0.0
 45
0.0
 49
-3.0
 74
     4
 75
     0
340
0
 46
1.0
 50
0.0
 44
0.0
 45
0.0
 49
0.0
 74
     4
 75
     0
340
0
 46
1.0
 50
0.0
 44
0.0
 45
0.0
 49
-3.0
 74
     4
 75
     0
340
0
 46
1.0
 50
0.0
 44
0.0
 45
0.0
 49
0.0
 74
     4
 75
     0
340
0
 46
1.0
 50
0.0
 44
0.0
 45
0.0
 49
-3.0
 74
     4
 75
     0
340
0
 46
1.0
 50
0.0
 44
0.0
 45
0.0
  0
LTYPE
  5
6D6
330
5
100
AcDbSymbolTableRecord
100
AcDbLinetypeTableRecord
  2
ACAD_ISO14W100
 70
     0
  3
ISO dash triple-dot __ . . . __ . . . __ . . . 
 72
    65
 73
     8
 40
24.0
 49
12.0
 74
     4
 75
     0
340
0
 46
1.0
 50
0.0
 44
0.0
 45
0.0
 49
-3.0
 74
     4
 75
     0
340
0
 46
1.0
 50
0.0
 44
0.0
 45
0.0
 49
0.0
 74
     4
 75
     0
340
0
 46
1.0
 50
0.0
 44
0.0
 45
0.0
 49
-3.0
 74
     4
 75
     0
340
0
 46
1.0
 50
0.0
 44
0.0
 45
0.0
 49
0.0
 74
     4
 75
     0
340
0
 46
1.0
 50
0.0
 44
0.0
 45
0.0
 49
-3.0
 74
     4
 75
     0
340
0
 46
1.0
 50
0.0
 44
0.0
 45
0.0
 49
0.0
 74
     4
 75
     0
340
0
 46
1.0
 50
0.0
 44
0.0
 45
0.0
 49
-3.0
 74
     4
 75
     0
340
0
 46
1.0
 50
0.0
 44
0.0
 45
0.0
  0
LTYPE
  5
6D7
330
5
100
AcDbSymbolTableRecord
100
AcDbLinetypeTableRecord
  2
ACAD_ISO15W100
 70
     0
  3
ISO double-dash triple-dot __ __ . . . __ __ . 
 72
    65
 73
    10
 40
39.0
 49
12.0
 74
     4
 75
     0
340
0
 46
1.0
 50
0.0
 44
0.0
 45
0.0
 49
-3.0
 74
     4
 75
     0
340
0
 46
1.0
 50
0.0
 44
0.0
 45
0.0
 49
12.0
 74
     4
 75
     0
340
0
 46
1.0
 50
0.0
 44
0.0
 45
0.0
 49
-3.0
 74
     4
 75
     0
340
0
 46
1.0
 50
0.0
 44
0.0
 45
0.0
 49
0.0
 74
     4
 75
     0
340
0
 46
1.0
 50
0.0
 44
0.0
 45
0.0
 49
-3.0
 74
     4
 75
     0
340
0
 46
1.0
 50
0.0
 44
0.0
 45
0.0
 49
0.0
 74
     4
 75
     0
340
0
 46
1.0
 50
0.0
 44
0.0
 45
0.0
 49
-3.0
 74
     4
 75
     0
340
0
 46
1.0
 50
0.0
 44
0.0
 45
0.0
 49
0.0
 74
     4
 75
     0
340
0
 46
1.0
 50
0.0
 44
0.0
 45
0.0
 49
-3.0
 74
     4
 75
     0
340
0
 46
1.0
 50
0.0
 44
0.0
 45
0.0
  0
LTYPE
  5
6D8
330
5
100
AcDbSymbolTableRecord
100
AcDbLinetypeTableRecord
  2
BORDER
 70
     0
  3
Border __ __ . __ __ . __ __ . __ __ . __ __ .
 72
    65
 73
     6
 40
3.5
 49
1.0
 74
     4
 75
     0
340
0
 46
1.0
 50
0.0
 44
0.0
 45
0.0
 49
-0.5
 74
     4
 75
     0
340
0
 46
1.0
 50
0.0
 44
0.0
 45
0.0
 49
1.0
 74
     4
 75
     0
340
0
 46
1.0
 50
0.0
 44
0.0
 45
0.0
 49
-0.5
 74
     4
 75
     0
340
0
 46
1.0
 50
0.0
 44
0.0
 45
0.0
 49
0.0
 74
     4
 75
     0
340
0
 46
1.0
 50
0.0
 44
0.0
 45
0.0
 49
-0.5
 74
     4
 75
     0
340
0
 46
1.0
 50
0.0
 44
0.0
 45
0.0
  0
LTYPE
  5
6D9
330
5
100
AcDbSymbolTableRecord
100
AcDbLinetypeTableRecord
  2
BORDER2
 70
     0
  3
Border (.5x) __.__.__.__.__.__.__.__.__.__.__.
 72
    65
 73
     6
 40
1.75
 49
0.5
 74
     4
 75
     0
340
0
 46
1.0
 50
0.0
 44
0.0
 45
0.0
 49
-0.25
 74
     4
 75
     0
340
0
 46
1.0
 50
0.0
 44
0.0
 45
0.0
 49
0.5
 74
     4
 75
     0
340
0
 46
1.0
 50
0.0
 44
0.0
 45
0.0
 49
-0.25
 74
     4
 75
     0
340
0
 46
1.0
 50
0.0
 44
0.0
 45
0.0
 49
0.0
 74
     4
 75
     0
340
0
 46
1.0
 50
0.0
 44
0.0
 45
0.0
 49
-0.25
 74
     4
 75
     0
340
0
 46
1.0
 50
0.0
 44
0.0
 45
0.0
  0
LTYPE
  5
6DA
330
5
100
AcDbSymbolTableRecord
100
AcDbLinetypeTableRecord
  2
BORDERX2
 70
     0
  3
Border (2x) ____  ____  .  ____  ____  .  ___
 72
    65
 73
     6
 40
7.0
 49
2.0
 74
     4
 75
     0
340
0
 46
1.0
 50
0.0
 44
0.0
 45
0.0
 49
-1.0
 74
     4
 75
     0
340
0
 46
1.0
 50
0.0
 44
0.0
 45
0.0
 49
2.0
 74
     4
 75
     0
340
0
 46
1.0
 50
0.0
 44
0.0
 45
0.0
 49
-1.0
 74
     4
 75
     0
340
0
 46
1.0
 50
0.0
 44
0.0
 45
0.0
 49
0.0
 74
     4
 75
     0
340
0
 46
1.0
 50
0.0
 44
0.0
 45
0.0
 49
-1.0
 74
     4
 75
     0
340
0
 46
1.0
 50
0.0
 44
0.0
 45
0.0
  0
LTYPE
  5
6DB
330
5
100
AcDbSymbolTableRecord
100
AcDbLinetypeTableRecord
  2
CENTER
 70
     0
  3
Center ____ _ ____ _ ____ _ ____ _ ____ _ ____
 72
    65
 73
     4
 40
12.0
 49
7.5
 74
     4
 75
     0
340
0
 46
1.0
 50
0.0
 44
0.0
 45
0.0
 49
-1.5
 74
     4
 75
     0
340
0
 46
1.0
 50
0.0
 44
0.0
 45
0.0
 49
1.5
 74
     4
 75
     0
340
0
 46
1.0
 50
0.0
 44
0.0
 45
0.0
 49
-1.5
 74
     4
 75
     0
340
0
 46
1.0
 50
0.0
 44
0.0
 45
0.0
  0
LTYPE
  5
6DC
330
5
100
AcDbSymbolTableRecord
100
AcDbLinetypeTableRecord
  2
CENTER2
 70
     0
  3
Center (.5x) ___ _ ___ _ ___ _ ___ _ ___ _ ___
 72
    65
 73
     4
 40
6.0
 49
3.75
 74
     4
 75
     0
340
0
 46
1.0
 50
0.0
 44
0.0
 45
0.0
 49
-0.75
 74
     4
 75
     0
340
0
 46
1.0
 50
0.0
 44
0.0
 45
0.0
 49
0.75
 74
     4
 75
     0
340
0
 46
1.0
 50
0.0
 44
0.0
 45
0.0
 49
-0.75
 74
     4
 75
     0
340
0
 46
1.0
 50
0.0
 44
0.0
 45
0.0
  0
LTYPE
  5
6DD
330
5
100
AcDbSymbolTableRecord
100
AcDbLinetypeTableRecord
  2
CENTERX2
 70
     0
  3
Center (2x) ________  __  ________  __  _____
 72
    65
 73
     4
 40
24.0
 49
15.0
 74
     4
 75
     0
340
0
 46
1.0
 50
0.0
 44
0.0
 45
0.0
 49
-3.0
 74
     4
 75
     0
340
0
 46
1.0
 50
0.0
 44
0.0
 45
0.0
 49
3.0
 74
     4
 75
     0
340
0
 46
1.0
 50
0.0
 44
0.0
 45
0.0
 49
-3.0
 74
     4
 75
     0
340
0
 46
1.0
 50
0.0
 44
0.0
 45
0.0
  0
LTYPE
  5
6DE
330
5
100
AcDbSymbolTableRecord
100
AcDbLinetypeTableRecord
  2
DASHDOT
 70
     0
  3
Dash dot __ . __ . __ . __ . __ . __ . __ . __
 72
    65
 73
     4
 40
6.0
 49
3.0
 74
     4
 75
     0
340
0
 46
1.0
 50
0.0
 44
0.0
 45
0.0
 49
-1.5
 74
     4
 75
     0
340
0
 46
1.0
 50
0.0
 44
0.0
 45
0.0
 49
0.0
 74
     4
 75
     0
340
0
 46
1.0
 50
0.0
 44
0.0
 45
0.0
 49
-1.5
 74
     4
 75
     0
340
0
 46
1.0
 50
0.0
 44
0.0
 45
0.0
  0
LTYPE
  5
6DF
330
5
100
AcDbSymbolTableRecord
100
AcDbLinetypeTableRecord
  2
DASHDOT2
 70
     0
  3
Dash dot (.5x) _._._._._._._._._._._._._._._.
 72
    65
 73
     4
 40
3.0
 49
1.5
 74
     4
 75
     0
340
0
 46
1.0
 50
0.0
 44
0.0
 45
0.0
 49
-0.75
 74
     4
 75
     0
340
0
 46
1.0
 50
0.0
 44
0.0
 45
0.0
 49
0.0
 74
     4
 75
     0
340
0
 46
1.0
 50
0.0
 44
0.0
 45
0.0
 49
-0.75
 74
     4
 75
     0
340
0
 46
1.0
 50
0.0
 44
0.0
 45
0.0
  0
LTYPE
  5
6E0
330
5
100
AcDbSymbolTableRecord
100
AcDbLinetypeTableRecord
  2
DASHDOTX2
 70
     0
  3
Dash dot (2x) ____  .  ____  .  ____  .  ___
 72
    65
 73
     4
 40
12.0
 49
6.0
 74
     4
 75
     0
340
0
 46
1.0
 50
0.0
 44
0.0
 45
0.0
 49
-3.0
 74
     4
 75
     0
340
0
 46
1.0
 50
0.0
 44
0.0
 45
0.0
 49
0.0
 74
     4
 75
     0
340
0
 46
1.0
 50
0.0
 44
0.0
 45
0.0
 49
-3.0
 74
     4
 75
     0
340
0
 46
1.0
 50
0.0
 44
0.0
 45
0.0
  0
LTYPE
  5
6E1
330
5
100
AcDbSymbolTableRecord
100
AcDbLinetypeTableRecord
  2
DASHED
 70
     0
  3
Dashed __ __ __ __ __ __ __ __ __ __ __ __ __ _
 72
    65
 73
     2
 40
4.5
 49
3.0
 74
     4
 75
     0
340
0
 46
1.0
 50
0.0
 44
0.0
 45
0.0
 49
-1.5
 74
     4
 75
     0
340
0
 46
1.0
 50
0.0
 44
0.0
 45
0.0
  0
LTYPE
  5
6E2
330
5
100
AcDbSymbolTableRecord
100
AcDbLinetypeTableRecord
  2
DASHED2
 70
     0
  3
Dashed (.5x) _ _ _ _ _ _ _ _ _ _ _ _ _ _ _ _ _
 72
    65
 73
     2
 40
2.25
 49
1.5
 74
     4
 75
     0
340
0
 46
1.0
 50
0.0
 44
0.0
 45
0.0
 49
-0.75
 74
     4
 75
     0
340
0
 46
1.0
 50
0.0
 44
0.0
 45
0.0
  0
LTYPE
  5
6E3
330
5
100
AcDbSymbolTableRecord
100
AcDbLinetypeTableRecord
  2
DASHEDX2
 70
     0
  3
Dashed (2x) ____  ____  ____  ____  ____  ___
 72
    65
 73
     2
 40
9.0
 49
6.0
 74
     4
 75
     0
340
0
 46
1.0
 50
0.0
 44
0.0
 45
0.0
 49
-3.0
 74
     4
 75
     0
340
0
 46
1.0
 50
0.0
 44
0.0
 45
0.0
  0
LTYPE
  5
6E4
330
5
100
AcDbSymbolTableRecord
100
AcDbLinetypeTableRecord
  2
DIVIDE
 70
     0
  3
Divide ____ . . ____ . . ____ . . ____ . . ____
 72
    65
 73
     6
 40
7.5
 49
3.0
 74
     4
 75
     0
340
0
 46
1.0
 50
0.0
 44
0.0
 45
0.0
 49
-1.5
 74
     4
 75
     0
340
0
 46
1.0
 50
0.0
 44
0.0
 45
0.0
 49
0.0
 74
     4
 75
     0
340
0
 46
1.0
 50
0.0
 44
0.0
 45
0.0
 49
-1.5
 74
     4
 75
     0
340
0
 46
1.0
 50
0.0
 44
0.0
 45
0.0
 49
0.0
 74
     4
 75
     0
340
0
 46
1.0
 50
0.0
 44
0.0
 45
0.0
 49
-1.5
 74
     4
 75
     0
340
0
 46
1.0
 50
0.0
 44
0.0
 45
0.0
  0
LTYPE
  5
6E5
330
5
100
AcDbSymbolTableRecord
100
AcDbLinetypeTableRecord
  2
DIVIDE2
 70
     0
  3
Divide (.5x) __..__..__..__..__..__..__..__.._
 72
    65
 73
     6
 40
3.75
 49
1.5
 74
     4
 75
     0
340
0
 46
1.0
 50
0.0
 44
0.0
 45
0.0
 49
-0.75
 74
     4
 75
     0
340
0
 46
1.0
 50
0.0
 44
0.0
 45
0.0
 49
0.0
 74
     4
 75
     0
340
0
 46
1.0
 50
0.0
 44
0.0
 45
0.0
 49
-0.75
 74
     4
 75
     0
340
0
 46
1.0
 50
0.0
 44
0.0
 45
0.0
 49
0.0
 74
     4
 75
     0
340
0
 46
1.0
 50
0.0
 44
0.0
 45
0.0
 49
-0.75
 74
     4
 75
     0
340
0
 46
1.0
 50
0.0
 44
0.0
 45
0.0
  0
LTYPE
  5
6E6
330
5
100
AcDbSymbolTableRecord
100
AcDbLinetypeTableRecord
  2
DIVIDEX2
 70
     0
  3
Divide (2x) ________  .  .  ________  .  .  _
 72
    65
 73
     6
 40
15.0
 49
6.0
 74
     4
 75
     0
340
0
 46
1.0
 50
0.0
 44
0.0
 45
0.0
 49
-3.0
 74
     4
 75
     0
340
0
 46
1.0
 50
0.0
 44
0.0
 45
0.0
 49
0.0
 74
     4
 75
     0
340
0
 46
1.0
 50
0.0
 44
0.0
 45
0.0
 49
-3.0
 74
     4
 75
     0
340
0
 46
1.0
 50
0.0
 44
0.0
 45
0.0
 49
0.0
 74
     4
 75
     0
340
0
 46
1.0
 50
0.0
 44
0.0
 45
0.0
 49
-3.0
 74
     4
 75
     0
340
0
 46
1.0
 50
0.0
 44
0.0
 45
0.0
  0
LTYPE
  5
6E7
330
5
100
AcDbSymbolTableRecord
100
AcDbLinetypeTableRecord
  2
DOT
 70
     0
  3
Dot . . . . . . . . . . . . . . . . . . . . . .
 72
    65
 73
     2
 40
1.5
 49
0.0
 74
     4
 75
     0
340
0
 46
1.0
 50
0.0
 44
0.0
 45
0.0
 49
-1.5
 74
     4
 75
     0
340
0
 46
1.0
 50
0.0
 44
0.0
 45
0.0
  0
LTYPE
  5
6E8
330
5
100
AcDbSymbolTableRecord
100
AcDbLinetypeTableRecord
  2
DOT2
 70
     0
  3
Dot (.5x) .....................................
 72
    65
 73
     2
 40
0.75
 49
0.0
 74
     4
 75
     0
340
0
 46
1.0
 50
0.0
 44
0.0
 45
0.0
 49
-0.75
 74
     4
 75
     0
340
0
 46
1.0
 50
0.0
 44
0.0
 45
0.0
  0
LTYPE
  5
6E9
330
5
100
AcDbSymbolTableRecord
100
AcDbLinetypeTableRecord
  2
DOTX2
 70
     0
  3
Dot (2x) .  .  .  .  .  .  .  .  .  .  .  .  . 
 72
    65
 73
     2
 40
3.0
 49
0.0
 74
     4
 75
     0
340
0
 46
1.0
 50
0.0
 44
0.0
 45
0.0
 49
-3.0
 74
     4
 75
     0
340
0
 46
1.0
 50
0.0
 44
0.0
 45
0.0
  0
LTYPE
  5
6EA
330
5
100
AcDbSymbolTableRecord
100
AcDbLinetypeTableRecord
  2
HIDDEN
 70
     0
  3
Hidden __ __ __ __ __ __ __ __ __ __ __ __ __ _
 72
    65
 73
     2
 40
4.5
 49
3.0
 74
     4
 75
     0
340
0
 46
1.0
 50
0.0
 44
0.0
 45
0.0
 49
-1.5
 74
     4
 75
     0
340
0
 46
1.0
 50
0.0
 44
0.0
 45
0.0
  0
LTYPE
  5
6EB
330
5
100
AcDbSymbolTableRecord
100
AcDbLinetypeTableRecord
  2
HIDDEN2
 70
     0
  3
Hidden (.5x) _ _ _ _ _ _ _ _ _ _ _ _ _ _ _ _ _
 72
    65
 73
     2
 40
2.25
 49
1.5
 74
     4
 75
     0
340
0
 46
1.0
 50
0.0
 44
0.0
 45
0.0
 49
-0.75
 74
     4
 75
     0
340
0
 46
1.0
 50
0.0
 44
0.0
 45
0.0
  0
LTYPE
  5
6EC
330
5
100
AcDbSymbolTableRecord
100
AcDbLinetypeTableRecord
  2
HIDDENX2
 70
     0
  3
Hidden (2x) ____ ____ ____ ____ ____ ____ ____
 72
    65
 73
     2
 40
9.0
 49
6.0
 74
     4
 75
     0
340
0
 46
1.0
 50
0.0
 44
0.0
 45
0.0
 49
-3.0
 74
     4
 75
     0
340
0
 46
1.0
 50
0.0
 44
0.0
 45
0.0
  0
LTYPE
  5
6ED
330
5
100
AcDbSymbolTableRecord
100
AcDbLinetypeTableRecord
  2
PHANTOM
 70
     0
  3
Phantom ______  __  __  ______  __  __  ______
 72
    65
 73
     6
 40
15.0
 49
7.5
 74
     4
 75
     0
340
0
 46
1.0
 50
0.0
 44
0.0
 45
0.0
 49
-1.5
 74
     4
 75
     0
340
0
 46
1.0
 50
0.0
 44
0.0
 45
0.0
 49
1.5
 74
     4
 75
     0
340
0
 46
1.0
 50
0.0
 44
0.0
 45
0.0
 49
-1.5
 74
     4
 75
     0
340
0
 46
1.0
 50
0.0
 44
0.0
 45
0.0
 49
1.5
 74
     4
 75
     0
340
0
 46
1.0
 50
0.0
 44
0.0
 45
0.0
 49
-1.5
 74
     4
 75
     0
340
0
 46
1.0
 50
0.0
 44
0.0
 45
0.0
  0
LTYPE
  5
6EE
330
5
100
AcDbSymbolTableRecord
100
AcDbLinetypeTableRecord
  2
PHANTOM2
 70
     0
  3
Phantom (.5x) ___ _ _ ___ _ _ ___ _ _ ___ _ _
 72
    65
 73
     6
 40
7.5
 49
3.75
 74
     4
 75
     0
340
0
 46
1.0
 50
0.0
 44
0.0
 45
0.0
 49
-0.75
 74
     4
 75
     0
340
0
 46
1.0
 50
0.0
 44
0.0
 45
0.0
 49
0.75
 74
     4
 75
     0
340
0
 46
1.0
 50
0.0
 44
0.0
 45
0.0
 49
-0.75
 74
     4
 75
     0
340
0
 46
1.0
 50
0.0
 44
0.0
 45
0.0
 49
0.75
 74
     4
 75
     0
340
0
 46
1.0
 50
0.0
 44
0.0
 45
0.0
 49
-0.75
 74
     4
 75
     0
340
0
 46
1.0
 50
0.0
 44
0.0
 45
0.0
  0
LTYPE
  5
6EF
330
5
100
AcDbSymbolTableRecord
100
AcDbLinetypeTableRecord
  2
PHANTOMX2
 70
     0
  3
Phantom (2x) ____________    ____    ____   _
 72
    65
 73
     6
 40
30.0
 49
15.0
 74
     4
 75
     0
340
0
 46
1.0
 50
0.0
 44
0.0
 45
0.0
 49
-3.0
 74
     4
 75
     0
340
0
 46
1.0
 50
0.0
 44
0.0
 45
0.0
 49
3.0
 74
     4
 75
     0
340
0
 46
1.0
 50
0.0
 44
0.0
 45
0.0
 49
-3.0
 74
     4
 75
     0
340
0
 46
1.0
 50
0.0
 44
0.0
 45
0.0
 49
3.0
 74
     4
 75
     0
340
0
 46
1.0
 50
0.0
 44
0.0
 45
0.0
 49
-3.0
 74
     4
 75
     0
340
0
 46
1.0
 50
0.0
 44
0.0
 45
0.0
  0
ENDTAB
  0
TABLE
  2
LAYER
  5
2
330
0
100
AcDbSymbolTable
 70
     7
  0
LAYER
  5
10
330
2
100
AcDbSymbolTableRecord
100
AcDbLayerTableRecord
  2
0
 70
     0
 62
     7
  6
Continuous
370
    -3
390
F
  0
LAYER
  5
48
330
2
100
AcDbSymbolTableRecord
100
AcDbLayerTableRecord
  2
1
 70
     0
 62
     7
  6
Continuous
370
    -3
390
F
  0
LAYER
  5
49
330
2
100
AcDbSymbolTableRecord
100
AcDbLayerTableRecord
  2
2
 70
     0
 62
     7
  6
Continuous
370
    -3
390
F
  0
LAYER
  5
4A
330
2
100
AcDbSymbolTableRecord
100
AcDbLayerTableRecord
  2
3
 70
     0
 62
     7
  6
Continuous
370
    -3
390
F
  0
LAYER
  5
4B
330
2
100
AcDbSymbolTableRecord
100
AcDbLayerTableRecord
  2
4
 70
     0
 62
     7
  6
Continuous
370
    -3
390
F
  0
LAYER
  5
4C
330
2
100
AcDbSymbolTableRecord
100
AcDbLayerTableRecord
  2
5
 70
     0
 62
     7
  6
Continuous
370
    -3
390
F
  0
LAYER
  5
4D
330
2
100
AcDbSymbolTableRecord
100
AcDbLayerTableRecord
  2
DEFPOINTS
 70
     0
 62
     7
  6
Continuous
290
     0
370
    -3
390
F
  0
ENDTAB
  0
TABLE
  2
STYLE
  5
3
330
0
100
AcDbSymbolTable
 70
     2
  0
STYLE
  5
11
330
3
100
AcDbSymbolTableRecord
100
AcDbTextStyleTableRecord
  2
Standard
 70
     0
 40
0.0
 41
1.0
 50
0.0
 71
     0
 42
0.2
  3
txt
  4
BIGFONT
  0
STYLE
  5
45F
330
3
100
AcDbSymbolTableRecord
100
AcDbTextStyleTableRecord
  2
NewStyle1
 70
     0
 40
0.0
 41
1.0
 50
0.0
 71
     0
 42
0.2
  3
txt.shx
  4
spec_bar.shx
  0
ENDTAB
  0
TABLE
  2
VIEW
  5
6
330
0
100
AcDbSymbolTable
 70
     0
  0
ENDTAB
  0
TABLE
  2
UCS
  5
7
330
0
100
AcDbSymbolTable
 70
     0
  0
ENDTAB
  0
TABLE
  2
APPID
  5
9
330
0
100
AcDbSymbolTable
 70
     1
  0
APPID
  5
12
330
9
100
AcDbSymbolTableRecord
100
AcDbRegAppTableRecord
  2
ACAD
 70
     0
  0
ENDTAB
  0
TABLE
  2
DIMSTYLE
  5
A
330
0
100
AcDbSymbolTable
 70
     2
100
AcDbDimStyleTable
  0
DIMSTYLE
105
27
330
A
100
AcDbSymbolTableRecord
100
AcDbDimStyleTableRecord
  2
Standard
 70
     0
278
     0
340
11
  0
DIMSTYLE
105
4E
102
{ACAD_REACTORS
330
332
330
333
330
334
330
335
330
336
330
337
330
338
330
339
330
33A
330
33B
330
33C
330
33D
330
33E
330
33F
330
340
330
341
330
342
102
}
330
A
100
AcDbSymbolTableRecord
100
AcDbDimStyleTableRecord
  2
DIMSTYLE
 70
     0
 41
1.0
 42
1.0
 44
2.54
 73
     0
 74
     0
140
3.200000047683716
147
1.600000023841858
173
     1
279
     2
340
11
  0
ENDTAB
  0
TABLE
  2
BLOCK_RECORD
  5
1
330
0
100
AcDbSymbolTable
 70
    47
  0
BLOCK_RECORD
  5
1F
330
1
100
AcDbSymbolTableRecord
100
AcDbBlockTableRecord
  2
*Model_Space
340
22
  0
BLOCK_RECORD
  5
73
330
1
100
AcDbSymbolTableRecord
100
AcDbBlockTableRecord
  2
*Paper_Space
340
1D
  0
BLOCK_RECORD
  5
52
330
1
100
AcDbSymbolTableRecord
100
AcDbBlockTableRecord
  2
_NONE
340
0
  0
BLOCK_RECORD
  5
56
330
1
100
AcDbSymbolTableRecord
100
AcDbBlockTableRecord
  2
_OPEN30
340
0
102
{BLKREFS
331
5F
331
60
331
4F1
331
4F2
331
78
331
79
331
86
331
87
331
94
331
95
331
A0
331
A1
331
AC
331
AD
331
B7
331
B8
331
C2
331
C3
331
CD
331
CE
331
D8
331
D9
331
E3
331
EE
331
EF
331
FA
331
FB
331
105
331
106
331
110
331
111
331
11B
331
11D
102
}
  0
BLOCK_RECORD
  5
5C
330
1
100
AcDbSymbolTableRecord
100
AcDbBlockTableRecord
  2
*D2
340
0
  0
BLOCK_RECORD
  5
68
330
1
100
AcDbSymbolTableRecord
100
AcDbBlockTableRecord
  2
*D3
340
0
  0
BLOCK_RECORD
  5
497
330
1
100
AcDbSymbolTableRecord
100
AcDbBlockTableRecord
  2
*D4
340
0
  0
BLOCK_RECORD
  5
83
330
1
100
AcDbSymbolTableRecord
100
AcDbBlockTableRecord
  2
*D5
340
0
  0
BLOCK_RECORD
  5
91
330
1
100
AcDbSymbolTableRecord
100
AcDbBlockTableRecord
  2
*D6
340
0
  0
BLOCK_RECORD
  5
9D
330
1
100
AcDbSymbolTableRecord
100
AcDbBlockTableRecord
  2
*D7
340
0
  0
BLOCK_RECORD
  5
A9
330
1
100
AcDbSymbolTableRecord
100
AcDbBlockTableRecord
  2
*D8
340
0
  0
BLOCK_RECORD
  5
B4
330
1
100
AcDbSymbolTableRecord
100
AcDbBlockTableRecord
  2
*D9
340
0
  0
BLOCK_RECORD
  5
BF
330
1
100
AcDbSymbolTableRecord
100
AcDbBlockTableRecord
  2
*D10
340
0
  0
BLOCK_RECORD
  5
CA
330
1
100
AcDbSymbolTableRecord
100
AcDbBlockTableRecord
  2
*D11
340
0
  0
BLOCK_RECORD
  5
D5
330
1
100
AcDbSymbolTableRecord
100
AcDbBlockTableRecord
  2
*D12
340
0
  0
BLOCK_RECORD
  5
DF
330
1
100
AcDbSymbolTableRecord
100
AcDbBlockTableRecord
  2
*D13
340
0
  0
BLOCK_RECORD
  5
EB
330
1
100
AcDbSymbolTableRecord
100
AcDbBlockTableRecord
  2
*D14
340
0
  0
BLOCK_RECORD
  5
F7
330
1
100
AcDbSymbolTableRecord
100
AcDbBlockTableRecord
  2
*D15
340
0
  0
BLOCK_RECORD
  5
102
330
1
100
AcDbSymbolTableRecord
100
AcDbBlockTableRecord
  2
*D16
340
0
  0
BLOCK_RECORD
  5
10D
330
1
100
AcDbSymbolTableRecord
100
AcDbBlockTableRecord
  2
*D17
340
0
  0
BLOCK_RECORD
  5
118
330
1
100
AcDbSymbolTableRecord
100
AcDbBlockTableRecord
  2
*D18
340
0
  0
BLOCK_RECORD
  5
126
330
1
100
AcDbSymbolTableRecord
100
AcDbBlockTableRecord
  2
KOZU0001
340
0
  0
BLOCK_RECORD
  5
129
330
1
100
AcDbSymbolTableRecord
100
AcDbBlockTableRecord
  2
KOZU0022
340
0
102
{BLKREFS
331
12A
102
}
  0
BLOCK_RECORD
  5
12C
330
1
100
AcDbSymbolTableRecord
100
AcDbBlockTableRecord
  2
KOZU0002
340
0
  0
BLOCK_RECORD
  5
12F
330
1
100
AcDbSymbolTableRecord
100
AcDbBlockTableRecord
  2
KOZU0023
340
0
102
{BLKREFS
331
130
102
}
  0
BLOCK_RECORD
  5
131
330
1
100
AcDbSymbolTableRecord
100
AcDbBlockTableRecord
  2
KOZU0024
340
0
102
{BLKREFS
331
132
102
}
  0
BLOCK_RECORD
  5
134
330
1
100
AcDbSymbolTableRecord
100
AcDbBlockTableRecord
  2
KOZU0003
340
0
  0
BLOCK_RECORD
  5
137
330
1
100
AcDbSymbolTableRecord
100
AcDbBlockTableRecord
  2
KOZU0025
340
0
102
{BLKREFS
331
138
102
}
  0
BLOCK_RECORD
  5
139
330
1
100
AcDbSymbolTableRecord
100
AcDbBlockTableRecord
  2
KOZU0026
340
0
102
{BLKREFS
331
13A
102
}
  0
BLOCK_RECORD
  5
13B
330
1
100
AcDbSymbolTableRecord
100
AcDbBlockTableRecord
  2
KOZU0027
340
0
102
{BLKREFS
331
13C
102
}
  0
BLOCK_RECORD
  5
13E
330
1
100
AcDbSymbolTableRecord
100
AcDbBlockTableRecord
  2
KOZU0004
340
0
  0
BLOCK_RECORD
  5
15C
330
1
100
AcDbSymbolTableRecord
100
AcDbBlockTableRecord
  2
KOZU0005
340
0
  0
BLOCK_RECORD
  5
16A
330
1
100
AcDbSymbolTableRecord
100
AcDbBlockTableRecord
  2
KOZU0006
340
0
  0
BLOCK_RECORD
  5
178
330
1
100
AcDbSymbolTableRecord
100
AcDbBlockTableRecord
  2
KOZU0007
340
0
  0
BLOCK_RECORD
  5
18A
330
1
100
AcDbSymbolTableRecord
100
AcDbBlockTableRecord
  2
KOZU0008
340
0
  0
BLOCK_RECORD
  5
1A2
330
1
100
AcDbSymbolTableRecord
100
AcDbBlockTableRecord
  2
KOZU0028
340
0
102
{BLKREFS
331
1A3
102
}
  0
BLOCK_RECORD
  5
1A5
330
1
100
AcDbSymbolTableRecord
100
AcDbBlockTableRecord
  2
KOZU0009
340
0
  0
BLOCK_RECORD
  5
1F8
330
1
100
AcDbSymbolTableRecord
100
AcDbBlockTableRecord
  2
KOZU0010
340
0
  0
BLOCK_RECORD
  5
229
330
1
100
AcDbSymbolTableRecord
100
AcDbBlockTableRecord
  2
KOZU0011
340
0
  0
BLOCK_RECORD
  5
234
330
1
100
AcDbSymbolTableRecord
100
AcDbBlockTableRecord
  2
KOZU0012
340
0
  0
BLOCK_RECORD
  5
288
330
1
100
AcDbSymbolTableRecord
100
AcDbBlockTableRecord
  2
KOZU0013
340
0
  0
BLOCK_RECORD
  5
28C
330
1
100
AcDbSymbolTableRecord
100
AcDbBlockTableRecord
  2
KOZU0014
340
0
  0
BLOCK_RECORD
  5
290
330
1
100
AcDbSymbolTableRecord
100
AcDbBlockTableRecord
  2
KOZU0015
340
0
  0
BLOCK_RECORD
  5
294
330
1
100
AcDbSymbolTableRecord
100
AcDbBlockTableRecord
  2
KOZU0016
340
0
  0
BLOCK_RECORD
  5
298
330
1
100
AcDbSymbolTableRecord
100
AcDbBlockTableRecord
  2
KOZU0017
340
0
  0
BLOCK_RECORD
  5
29C
330
1
100
AcDbSymbolTableRecord
100
AcDbBlockTableRecord
  2
KOZU0018
340
0
  0
BLOCK_RECORD
  5
2A0
330
1
100
AcDbSymbolTableRecord
100
AcDbBlockTableRecord
  2
KOZU0019
340
0
  0
BLOCK_RECORD
  5
2A4
330
1
100
AcDbSymbolTableRecord
100
AcDbBlockTableRecord
  2
KOZU0020
340
0
  0
BLOCK_RECORD
  5
2A8
330
1
100
AcDbSymbolTableRecord
100
AcDbBlockTableRecord
  2
KOZU0021
340
0
  0
ENDTAB
  0
ENDSEC
  0
SECTION
  2
BLOCKS
  0
BLOCK
  5
20
330
1F
100
AcDbEntity
  8
0
100
AcDbBlockBegin
  2
*Model_Space
 70
     0
 71
     0
 10
0.0
 20
0.0
 30
0.0
  3
*Model_Space
  1

  0
ENDBLK
  5
21
330
1F
100
AcDbEntity
  8
0
100
AcDbBlockEnd
  0
BLOCK
  5
75
330
73
100
AcDbEntity
 67
     1
  8
0
100
AcDbBlockBegin
  2
*Paper_Space
 70
     0
 71
     0
 10
0.0
 20
0.0
 30
0.0
  3
*Paper_Space
  1

  0
ENDBLK
  5
76
330
73
100
AcDbEntity
 67
     1
  8
0
100
AcDbBlockEnd
  0
BLOCK
  5
6F0
330
52
100
AcDbEntity
  8
0
100
AcDbBlockBegin
  2
_NONE
 70
     0
 71
     0
 10
0.0
 20
0.0
 30
0.0
  3
_NONE
  1

  0
CIRCLE
  5
54
330
52
100
AcDbEntity
  8
0
  6
ByBlock
 62
     0
100
AcDbCircle
 10
0.0
 20
0.0
 30
0.0
 40
0.001
  0
ENDBLK
  5
6F1
330
52
100
AcDbEntity
  8
0
100
AcDbBlockEnd
  0
BLOCK
  5
6F2
330
56
100
AcDbEntity
  8
0
100
AcDbBlockBegin
  2
_OPEN30
 70
     0
 71
     0
 10
0.0
 20
0.0
 30
0.0
  3
_OPEN30
  1

  0
LINE
  5
58
330
56
100
AcDbEntity
  8
0
  6
ByBlock
 62
     0
100
AcDbLine
 10
0.0
 20
0.0
 30
0.0
 11
-2.999999954944514
 21
-0.9999999849815248
 31
0.0
  0
LINE
  5
4EE
330
56
100
AcDbEntity
  8
0
  6
ByBlock
 62
     0
100
AcDbLine
 10
0.0
 20
0.0
 30
0.0
 11
-2.999999954944526
 21
0.9999999849814885
 31
0.0
  0
LINE
  5
4EF
330
56
100
AcDbEntity
  8
0
  6
ByBlock
 62
     0
100
AcDbLine
 10
0.0
 20
0.0
 30
0.0
 11
-2.99999995494452
 21
0.0
 31
0.0
  0
ENDBLK
  5
6F3
330
56
100
AcDbEntity
  8
0
100
AcDbBlockEnd
  0
BLOCK
  5
6F4
330
5C
100
AcDbEntity
  8
0
100
AcDbBlockBegin
  2
*D2
 70
     1
 71
     0
 10
0.0
 20
0.0
 30
0.0
  3
*D2
  1

  0
LINE
  5
4F0
330
5C
100
AcDbEntity
  8
0
  6
Continuous
 62
     7
100
AcDbLine
 10
264.1679953208812
 20
55.96089277923743
 30
0.0
 11
264.1679953208812
 21
31.96089268912646
 31
0.0
  0
INSERT
  5
5F
330
5C
100
AcDbEntity
  8
0
  6
Continuous
 62
     7
100
AcDbBlockReference
  2
_OPEN30
 10
264.1679953208812
 20
58.96089273418194
 30
0.0
 50
90.0000000000002
  0
INSERT
  5
60
330
5C
100
AcDbEntity
  8
0
  6
Continuous
 62
     7
100
AcDbBlockReference
  2
_OPEN30
 10
264.1679953208812
 20
28.96089273418194
 30
0.0
 50
270.0000000000005
  0
LINE
  5
61
330
5C
100
AcDbEntity
  8
0
  6
Continuous
 62
     7
100
AcDbLine
 10
229.5551825675791
 20
58.96089273418194
 30
0.0
 11
265.1679953208815
 21
58.96089273418194
 31
0.0
  0
LINE
  5
62
330
5C
100
AcDbEntity
  8
0
  6
Continuous
 62
     7
100
AcDbLine
 10
229.5551825675791
 20
28.96089273418194
 30
0.0
 11
265.1679953208815
 21
28.96089273418194
 31
0.0
  0
TEXT
  5
63
330
5C
100
AcDbEntity
  8
0
  6
Continuous
 62
     7
100
AcDbText
 10
263.3679953089603
 20
39.61789273942715
 30
0.0
 40
3.200000047683716
  1
%%C30
 50
90.00000000000006
 41
0.9886432459113578
100
AcDbText
  0
POINT
  5
64
330
5C
100
AcDbEntity
  8
DEFPOINTS
  6
Continuous
 62
     7
100
AcDbPoint
 10
228.5551825825976
 20
58.96089273418194
 30
0.0
  0
POINT
  5
65
330
5C
100
AcDbEntity
  8
DEFPOINTS
  6
Continuous
 62
     7
100
AcDbPoint
 10
228.5551825825976
 20
28.96089273418194
 30
0.0
  0
POINT
  5
66
330
5C
100
AcDbEntity
  8
DEFPOINTS
  6
Continuous
 62
     7
100
AcDbPoint
 10
264.1679953208812
 20
28.96089273418194
 30
0.0
  0
ENDBLK
  5
6F5
330
5C
100
AcDbEntity
  8
0
100
AcDbBlockEnd
  0
BLOCK
  5
6F6
330
68
100
AcDbEntity
  8
0
100
AcDbBlockBegin
  2
*D3
 70
     1
 71
     0
 10
0.0
 20
0.0
 30
0.0
  3
*D3
  1

  0
LINE
  5
6A
330
68
100
AcDbEntity
  8
0
  6
Continuous
 62
     7
100
AcDbLine
 10
256.9963147920995
 20
53.66089258850256
 30
0.0
 11
256.9963147920995
 21
34.26089287986132
 31
0.0
  0
INSERT
  5
4F1
330
68
100
AcDbEntity
  8
0
  6
Continuous
 62
     7
100
AcDbBlockReference
  2
_OPEN30
 10
256.9963147920995
 20
56.66089254344708
 30
0.0
 50
90.0000000000002
  0
INSERT
  5
4F2
330
68
100
AcDbEntity
  8
0
  6
Continuous
 62
     7
100
AcDbBlockReference
  2
_OPEN30
 10
256.9963147920995
 20
31.2608929249168
 30
0.0
 50
270.0000000000005
  0
LINE
  5
6D
330
68
100
AcDbEntity
  8
0
  6
Continuous
 62
     7
100
AcDbLine
 10
233.7551833305186
 20
56.66089254344708
 30
0.0
 11
257.9963147920997
 21
56.66089254344708
 31
0.0
  0
LINE
  5
6E
330
68
100
AcDbEntity
  8
0
  6
Continuous
 62
     7
100
AcDbLine
 10
233.7551833305186
 20
31.2608929249168
 30
0.0
 11
257.9963147920997
 21
31.2608929249168
 31
0.0
  0
TEXT
  5
6F
330
68
100
AcDbEntity
  8
0
  6
Continuous
 62
     7
100
AcDbText
 10
256.1963147801786
 20
36.4096039052083
 30
0.0
 40
3.200000047683716
  1
Ｃマウント
 50
90.00000000000006
 41
0.8489270562463692
100
AcDbText
  0
POINT
  5
70
330
68
100
AcDbEntity
  8
DEFPOINTS
  6
Continuous
 62
     7
100
AcDbPoint
 10
232.755183345537
 20
56.66089254344708
 30
0.0
  0
POINT
  5
71
330
68
100
AcDbEntity
  8
DEFPOINTS
  6
Continuous
 62
     7
100
AcDbPoint
 10
232.755183345537
 20
31.2608929249168
 30
0.0
  0
POINT
  5
72
330
68
100
AcDbEntity
  8
DEFPOINTS
  6
Continuous
 62
     7
100
AcDbPoint
 10
256.9963147920995
 20
31.2608929249168
 30
0.0
  0
ENDBLK
  5
6F7
330
68
100
AcDbEntity
  8
0
100
AcDbBlockEnd
  0
BLOCK
  5
6F8
330
497
100
AcDbEntity
  8
0
100
AcDbBlockBegin
  2
*D4
 70
     1
 71
     0
 10
0.0
 20
0.0
 30
0.0
  3
*D4
  1

  0
LINE
  5
4F3
330
497
100
AcDbEntity
  8
0
  6
Continuous
 62
     7
100
AcDbLine
 10
163.8370465040629
 20
60.20763212510077
 30
0.0
 11
163.8370465040629
 21
76.8246730692491
 31
0.0
  0
LINE
  5
77
330
497
100
AcDbEntity
  8
0
  6
Continuous
 62
     7
100
AcDbLine
 10
163.8370465040629
 20
57.20763217015625
 30
0.0
 11
163.8370465040629
 21
36.20763208004529
 31
0.0
  0
INSERT
  5
78
330
497
100
AcDbEntity
  8
0
  6
Continuous
 62
     7
100
AcDbBlockReference
  2
_OPEN30
 10
163.8370465040629
 20
60.20763212510077
 30
0.0
 50
90.0000000000002
  0
INSERT
  5
79
330
497
100
AcDbEntity
  8
0
  6
Continuous
 62
     7
100
AcDbBlockReference
  2
_OPEN30
 10
163.8370465040629
 20
33.20763212510078
 30
0.0
 50
270.0000000000005
  0
LINE
  5
7A
330
497
100
AcDbEntity
  8
0
  6
Continuous
 62
     7
100
AcDbLine
 10
173.1220916543405
 20
57.71971177539736
 30
0.0
 11
162.8370465040629
 21
60.47558131753189
 31
0.0
  0
LINE
  5
7B
330
497
100
AcDbEntity
  8
0
  6
Continuous
 62
     7
100
AcDbLine
 10
173.1220916543405
 20
30.71971177539739
 30
0.0
 11
162.8370465040629
 21
33.47558131753191
 31
0.0
  0
TEXT
  5
7C
330
497
100
AcDbEntity
  8
0
  6
Continuous
 62
     7
100
AcDbText
 10
163.037046492142
 20
61.73867310358136
 30
0.0
 40
3.200000047683716
  1
%%C27
 50
90.00000000000006
 41
0.9501895996293136
100
AcDbText
  0
TEXT
  5
7D
330
497
100
AcDbEntity
  8
0
  6
Continuous
 62
     7
100
AcDbText
 10
160.6370464563792
 20
71.33867306781858
 30
0.0
 40
1.600000023841858
  1
 0
 50
90.00000000000006
 41
1.928671846763464
100
AcDbText
  0
TEXT
  5
7E
330
497
100
AcDbEntity
  8
0
  6
Continuous
 62
     7
100
AcDbText
 10
163.037046492142
 20
71.33867306781858
 30
0.0
 40
1.600000023841858
  1
-0.1
 50
90.00000000000006
 41
1.422526571865174
100
AcDbText
  0
POINT
  5
7F
330
497
100
AcDbEntity
  8
DEFPOINTS
  6
Continuous
 62
     7
100
AcDbPoint
 10
174.0880174661228
 20
57.46089273418192
 30
0.0
  0
POINT
  5
80
330
497
100
AcDbEntity
  8
DEFPOINTS
  6
Continuous
 62
     7
100
AcDbPoint
 10
174.0880174661228
 20
30.46089273418194
 30
0.0
  0
POINT
  5
81
330
497
100
AcDbEntity
  8
DEFPOINTS
  6
Continuous
 62
     7
100
AcDbPoint
 10
163.8370465040629
 20
33.20763212510078
 30
0.0
  0
ENDBLK
  5
6F9
330
497
100
AcDbEntity
  8
0
100
AcDbBlockEnd
  0
BLOCK
  5
6FA
330
83
100
AcDbEntity
  8
0
100
AcDbBlockBegin
  2
*D5
 70
     1
 71
     0
 10
0.0
 20
0.0
 30
0.0
  3
*D5
  1

  0
LINE
  5
85
330
83
100
AcDbEntity
  8
0
  6
Continuous
 62
     7
100
AcDbLine
 10
4.193238529481489
 20
33.46089268912646
 30
0.0
 11
4.193238529481524
 21
54.46089277923743
 31
0.0
  0
INSERT
  5
86
330
83
100
AcDbEntity
  8
0
  6
Continuous
 62
     7
100
AcDbBlockReference
  2
_OPEN30
 10
4.193238529481498
 20
30.46089273418194
 30
0.0
 50
270.0000000000005
  0
INSERT
  5
87
330
83
100
AcDbEntity
  8
0
  6
Continuous
 62
     7
100
AcDbBlockReference
  2
_OPEN30
 10
4.193238529481498
 20
57.46089273418194
 30
0.0
 50
90.0000000000002
  0
LINE
  5
88
330
83
100
AcDbEntity
  8
0
  6
Continuous
 62
     7
100
AcDbLine
 10
12.07518259761606
 20
30.46089273418193
 30
0.0
 11
3.193238529481498
 21
30.46089273418194
 31
0.0
  0
LINE
  5
89
330
83
100
AcDbEntity
  8
0
  6
Continuous
 62
     7
100
AcDbLine
 10
12.07518259761606
 20
57.46089273418193
 30
0.0
 11
3.193238529481498
 21
57.46089273418194
 31
0.0
  0
TEXT
  5
8A
330
83
100
AcDbEntity
  8
0
  6
Continuous
 62
     7
100
AcDbText
 10
3.393238517560572
 20
36.41789275134808
 30
0.0
 40
3.200000047683716
  1
%%C27
 50
90.00000000000006
 41
0.9501895996293136
100
AcDbText
  0
TEXT
  5
8B
330
83
100
AcDbEntity
  8
0
  6
Continuous
 62
     7
100
AcDbText
 10
0.9932384817977812
 20
46.01789271558529
 30
0.0
 40
1.600000023841858
  1
 0
 50
90.00000000000006
 41
1.928671846763464
100
AcDbText
  0
TEXT
  5
8C
330
83
100
AcDbEntity
  8
0
  6
Continuous
 62
     7
100
AcDbText
 10
3.393238517560568
 20
46.01789271558529
 30
0.0
 40
1.600000023841858
  1
-0.1
 50
90.00000000000006
 41
1.422526571865174
100
AcDbText
  0
POINT
  5
8D
330
83
100
AcDbEntity
  8
DEFPOINTS
  6
Continuous
 62
     7
100
AcDbPoint
 10
13.07518258259756
 20
30.46089273418194
 30
0.0
  0
POINT
  5
8E
330
83
100
AcDbEntity
  8
DEFPOINTS
  6
Continuous
 62
     7
100
AcDbPoint
 10
13.07518258259756
 20
57.46089273418194
 30
0.0
  0
POINT
  5
8F
330
83
100
AcDbEntity
  8
DEFPOINTS
  6
Continuous
 62
     7
100
AcDbPoint
 10
4.193238529481498
 20
57.46089273418194
 30
0.0
  0
ENDBLK
  5
6FB
330
83
100
AcDbEntity
  8
0
100
AcDbBlockEnd
  0
BLOCK
  5
6FC
330
91
100
AcDbEntity
  8
0
100
AcDbBlockBegin
  2
*D6
 70
     1
 71
     0
 10
0.0
 20
0.0
 30
0.0
  3
*D6
  1

  0
LINE
  5
4F4
330
91
100
AcDbEntity
  8
0
  6
Continuous
 62
     7
100
AcDbLine
 10
-3.135699845413685
 20
32.46089268912646
 30
0.0
 11
-3.13569984541365
 21
55.46089277923743
 31
0.0
  0
INSERT
  5
94
330
91
100
AcDbEntity
  8
0
  6
Continuous
 62
     7
100
AcDbBlockReference
  2
_OPEN30
 10
-3.135699845413677
 20
29.46089273418194
 30
0.0
 50
270.0000000000005
  0
INSERT
  5
95
330
91
100
AcDbEntity
  8
0
  6
Continuous
 62
     7
100
AcDbBlockReference
  2
_OPEN30
 10
-3.135699845413677
 20
58.46089273418194
 30
0.0
 50
90.0000000000002
  0
LINE
  5
96
330
91
100
AcDbEntity
  8
0
  6
Continuous
 62
     7
100
AcDbLine
 10
87.57518259761605
 20
29.46089273418193
 30
0.0
 11
-4.135699845413669
 21
29.46089273418194
 31
0.0
  0
LINE
  5
4F5
330
91
100
AcDbEntity
  8
0
  6
Continuous
 62
     7
100
AcDbLine
 10
87.57518259761605
 20
58.46089273418193
 30
0.0
 11
-4.135699845413669
 21
58.46089273418194
 31
0.0
  0
TEXT
  5
4F6
330
91
100
AcDbEntity
  8
0
  6
Continuous
 62
     7
100
AcDbText
 10
-3.935699857334596
 20
39.61789273942715
 30
0.0
 40
3.200000047683716
  1
%%C29
 50
90.00000000000006
 41
0.9501895996293136
100
AcDbText
  0
POINT
  5
99
330
91
100
AcDbEntity
  8
DEFPOINTS
  6
Continuous
 62
     7
100
AcDbPoint
 10
88.57518258259755
 20
29.46089273418194
 30
0.0
  0
POINT
  5
9A
330
91
100
AcDbEntity
  8
DEFPOINTS
  6
Continuous
 62
     7
100
AcDbPoint
 10
88.57518258259755
 20
58.46089273418194
 30
0.0
  0
POINT
  5
9B
330
91
100
AcDbEntity
  8
DEFPOINTS
  6
Continuous
 62
     7
100
AcDbPoint
 10
-3.135699845413677
 20
58.46089273418194
 30
0.0
  0
ENDBLK
  5
6FD
330
91
100
AcDbEntity
  8
0
100
AcDbBlockEnd
  0
BLOCK
  5
6FE
330
9D
100
AcDbEntity
  8
0
100
AcDbBlockBegin
  2
*D7
 70
     1
 71
     0
 10
0.0
 20
0.0
 30
0.0
  3
*D7
  1

  0
LINE
  5
9F
330
9D
100
AcDbEntity
  8
0
  6
Continuous
 62
     7
100
AcDbLine
 10
101.5751825375421
 20
90.72609150506092
 30
0.0
 11
113.575182627653
 21
90.72609150506088
 31
0.0
  0
INSERT
  5
A0
330
9D
100
AcDbEntity
  8
0
  6
Continuous
 62
     7
100
AcDbBlockReference
  2
_OPEN30
 10
98.57518258259756
 20
90.72609150506092
 30
0.0
 50
180.0000000000004
  0
INSERT
  5
A1
330
9D
100
AcDbEntity
  8
0
  6
Continuous
 62
     7
100
AcDbBlockReference
  2
_OPEN30
 10
116.5751825825976
 20
90.72609150506092
 30
0.0
  0
LINE
  5
A2
330
9D
100
AcDbEntity
  8
0
  6
Continuous
 62
     7
100
AcDbLine
 10
98.57518258259756
 20
74.96089271916344
 30
0.0
 11
98.57518258259756
 21
91.72609150506092
 31
0.0
  0
LINE
  5
A3
330
9D
100
AcDbEntity
  8
0
  6
Continuous
 62
     7
100
AcDbLine
 10
116.5751825825976
 20
74.96089271916344
 30
0.0
 11
116.5751825825976
 21
91.72609150506092
 31
0.0
  0
TEXT
  5
A4
330
9D
100
AcDbEntity
  8
0
  6
Continuous
 62
     7
100
AcDbText
 10
103.2321825878428
 20
91.52609151698185
 30
0.0
 40
3.200000047683716
  1
%%C18
 41
1.075710022301614
100
AcDbText
  0
POINT
  5
A5
330
9D
100
AcDbEntity
  8
DEFPOINTS
  6
Continuous
 62
     7
100
AcDbPoint
 10
98.57518258259756
 20
73.96089273418194
 30
0.0
  0
POINT
  5
A6
330
9D
100
AcDbEntity
  8
DEFPOINTS
  6
Continuous
 62
     7
100
AcDbPoint
 10
116.5751825825976
 20
73.96089273418194
 30
0.0
  0
POINT
  5
A7
330
9D
100
AcDbEntity
  8
DEFPOINTS
  6
Continuous
 62
     7
100
AcDbPoint
 10
116.5751825825976
 20
90.72609150506092
 30
0.0
  0
ENDBLK
  5
6FF
330
9D
100
AcDbEntity
  8
0
100
AcDbBlockEnd
  0
BLOCK
  5
700
330
A9
100
AcDbEntity
  8
0
100
AcDbBlockBegin
  2
*D8
 70
     1
 71
     0
 10
0.0
 20
0.0
 30
0.0
  3
*D8
  1

  0
LINE
  5
AB
330
A9
100
AcDbEntity
  8
0
  6
Continuous
 62
     7
100
AcDbLine
 10
15.57518253754208
 20
90.53785671020034
 30
0.0
 11
85.57518262765305
 21
90.53785671020032
 31
0.0
  0
INSERT
  5
AC
330
A9
100
AcDbEntity
  8
0
  6
Continuous
 62
     7
100
AcDbBlockReference
  2
_OPEN30
 10
12.57518258259756
 20
90.53785671020034
 30
0.0
 50
180.0000000000004
  0
INSERT
  5
AD
330
A9
100
AcDbEntity
  8
0
  6
Continuous
 62
     7
100
AcDbBlockReference
  2
_OPEN30
 10
88.57518258259755
 20
90.53785671020034
 30
0.0
  0
LINE
  5
AE
330
A9
100
AcDbEntity
  8
0
  6
Continuous
 62
     7
100
AcDbLine
 10
88.57518258259755
 20
59.46089271916345
 30
0.0
 11
88.57518258259755
 21
91.53785671020034
 31
0.0
  0
TEXT
  5
AF
330
A9
100
AcDbEntity
  8
0
  6
Continuous
 62
     7
100
AcDbText
 10
47.95293117938156
 20
91.33785672212127
 30
0.0
 40
3.200000047683716
  1
76
 41
1.028624984940514
100
AcDbText
  0
POINT
  5
B0
330
A9
100
AcDbEntity
  8
DEFPOINTS
  6
Continuous
 62
     7
100
AcDbPoint
 10
12.57518258259756
 20
57.46089273418194
 30
0.0
  0
POINT
  5
B1
330
A9
100
AcDbEntity
  8
DEFPOINTS
  6
Continuous
 62
     7
100
AcDbPoint
 10
88.57518258259755
 20
58.46089273418194
 30
0.0
  0
POINT
  5
B2
330
A9
100
AcDbEntity
  8
DEFPOINTS
  6
Continuous
 62
     7
100
AcDbPoint
 10
88.57518258259755
 20
90.53785671020034
 30
0.0
  0
ENDBLK
  5
701
330
A9
100
AcDbEntity
  8
0
100
AcDbBlockEnd
  0
BLOCK
  5
702
330
B4
100
AcDbEntity
  8
0
100
AcDbBlockBegin
  2
*D9
 70
     1
 71
     0
 10
0.0
 20
0.0
 30
0.0
  3
*D9
  1

  0
LINE
  5
B6
330
B4
100
AcDbEntity
  8
0
  6
Continuous
 62
     7
100
AcDbLine
 10
15.57518253754208
 20
103.6468814838132
 30
0.0
 11
104.575182627653
 21
103.6468814838132
 31
0.0
  0
INSERT
  5
B7
330
B4
100
AcDbEntity
  8
0
  6
Continuous
 62
     7
100
AcDbBlockReference
  2
_OPEN30
 10
12.57518258259756
 20
103.6468814838132
 30
0.0
 50
180.0000000000004
  0
INSERT
  5
B8
330
B4
100
AcDbEntity
  8
0
  6
Continuous
 62
     7
100
AcDbBlockReference
  2
_OPEN30
 10
107.5751825825976
 20
103.6468814838132
 30
0.0
  0
LINE
  5
B9
330
B4
100
AcDbEntity
  8
0
  6
Continuous
 62
     7
100
AcDbLine
 10
107.5751825825976
 20
97.65012259671751
 30
0.0
 11
107.5751825825976
 21
104.6468814838132
 31
0.0
  0
TEXT
  5
BA
330
B4
100
AcDbEntity
  8
0
  6
Continuous
 62
     7
100
AcDbText
 10
57.33218258188231
 20
104.4468814957341
 30
0.0
 40
3.200000047683716
  1
95
 41
1.028624984940514
100
AcDbText
  0
POINT
  5
BB
330
B4
100
AcDbEntity
  8
DEFPOINTS
  6
Continuous
 62
     7
100
AcDbPoint
 10
12.57518258259756
 20
65.87344117142814
 30
0.0
  0
POINT
  5
BC
330
B4
100
AcDbEntity
  8
DEFPOINTS
  6
Continuous
 62
     7
100
AcDbPoint
 10
107.5751825825976
 20
96.65012261173601
 30
0.0
  0
POINT
  5
BD
330
B4
100
AcDbEntity
  8
DEFPOINTS
  6
Continuous
 62
     7
100
AcDbPoint
 10
107.5751825825976
 20
103.6468814838132
 30
0.0
  0
ENDBLK
  5
703
330
B4
100
AcDbEntity
  8
0
100
AcDbBlockEnd
  0
BLOCK
  5
704
330
BF
100
AcDbEntity
  8
0
100
AcDbBlockBegin
  2
*D10
 70
     1
 71
     0
 10
0.0
 20
0.0
 30
0.0
  3
*D10
  1

  0
LINE
  5
C1
330
BF
100
AcDbEntity
  8
0
  6
Continuous
 62
     7
100
AcDbLine
 10
110.5751825375421
 20
103.6468814838132
 30
0.0
 11
203.275182627653
 21
103.6468814838132
 31
0.0
  0
INSERT
  5
C2
330
BF
100
AcDbEntity
  8
0
  6
Continuous
 62
     7
100
AcDbBlockReference
  2
_OPEN30
 10
107.5751825825976
 20
103.6468814838132
 30
0.0
 50
180.0000000000004
  0
INSERT
  5
C3
330
BF
100
AcDbEntity
  8
0
  6
Continuous
 62
     7
100
AcDbBlockReference
  2
_OPEN30
 10
206.2751825825976
 20
103.6468814838132
 30
0.0
  0
LINE
  5
C4
330
BF
100
AcDbEntity
  8
0
  6
Continuous
 62
     7
100
AcDbLine
 10
206.2751825825976
 20
59.96089271916345
 30
0.0
 11
206.2751825825976
 21
104.6468814838132
 31
0.0
  0
TEXT
  5
C5
330
BF
100
AcDbEntity
  8
0
  6
Continuous
 62
     7
100
AcDbText
 10
150.9821825938032
 20
104.4468814957341
 30
0.0
 40
3.200000047683716
  1
98.7
 41
1.238124979215985
100
AcDbText
  0
POINT
  5
C6
330
BF
100
AcDbEntity
  8
DEFPOINTS
  6
Continuous
 62
     7
100
AcDbPoint
 10
107.5751825825976
 20
90.56799763707545
 30
0.0
  0
POINT
  5
C7
330
BF
100
AcDbEntity
  8
DEFPOINTS
  6
Continuous
 62
     7
100
AcDbPoint
 10
206.2751825825976
 20
58.96089273418194
 30
0.0
  0
POINT
  5
C8
330
BF
100
AcDbEntity
  8
DEFPOINTS
  6
Continuous
 62
     7
100
AcDbPoint
 10
206.2751825825976
 20
103.6468814838132
 30
0.0
  0
ENDBLK
  5
705
330
BF
100
AcDbEntity
  8
0
100
AcDbBlockEnd
  0
BLOCK
  5
706
330
CA
100
AcDbEntity
  8
0
100
AcDbBlockBegin
  2
*D11
 70
     1
 71
     0
 10
0.0
 20
0.0
 30
0.0
  3
*D11
  1

  0
LINE
  5
CC
330
CA
100
AcDbEntity
  8
0
  6
Continuous
 62
     7
100
AcDbLine
 10
209.2751825375421
 20
103.6468814838132
 30
0.0
 11
213.275182627653
 21
103.6468814838132
 31
0.0
  0
INSERT
  5
CD
330
CA
100
AcDbEntity
  8
0
  6
Continuous
 62
     7
100
AcDbBlockReference
  2
_OPEN30
 10
206.2751825825976
 20
103.6468814838132
 30
0.0
 50
180.0000000000004
  0
INSERT
  5
CE
330
CA
100
AcDbEntity
  8
0
  6
Continuous
 62
     7
100
AcDbBlockReference
  2
_OPEN30
 10
216.2751825825976
 20
103.6468814838132
 30
0.0
  0
LINE
  5
CF
330
CA
100
AcDbEntity
  8
0
  6
Continuous
 62
     7
100
AcDbLine
 10
216.2751825825976
 20
59.96089271916345
 30
0.0
 11
216.2751825825976
 21
104.6468814838132
 31
0.0
  0
TEXT
  5
D0
330
CA
100
AcDbEntity
  8
0
  6
Continuous
 62
     7
100
AcDbText
 10
208.5321825818823
 20
98.83088141204918
 30
0.0
 40
3.200000047683716
  1
10
 41
1.402670434009792
100
AcDbText
  0
POINT
  5
D1
330
CA
100
AcDbEntity
  8
DEFPOINTS
  6
Continuous
 62
     7
100
AcDbPoint
 10
206.2751825825976
 20
67.37344117142814
 30
0.0
  0
POINT
  5
D2
330
CA
100
AcDbEntity
  8
DEFPOINTS
  6
Continuous
 62
     7
100
AcDbPoint
 10
216.2751825825976
 20
58.96089273418194
 30
0.0
  0
POINT
  5
D3
330
CA
100
AcDbEntity
  8
DEFPOINTS
  6
Continuous
 62
     7
100
AcDbPoint
 10
216.2751825825976
 20
103.6468814838132
 30
0.0
  0
ENDBLK
  5
707
330
CA
100
AcDbEntity
  8
0
100
AcDbBlockEnd
  0
BLOCK
  5
708
330
D5
100
AcDbEntity
  8
0
100
AcDbBlockBegin
  2
*D12
 70
     1
 71
     0
 10
0.0
 20
0.0
 30
0.0
  3
*D12
  1

  0
LINE
  5
D7
330
D5
100
AcDbEntity
  8
0
  6
Continuous
 62
     7
100
AcDbLine
 10
219.2751825375421
 20
103.6468814838132
 30
0.0
 11
226.055182627653
 21
103.6468814838132
 31
0.0
  0
INSERT
  5
D8
330
D5
100
AcDbEntity
  8
0
  6
Continuous
 62
     7
100
AcDbBlockReference
  2
_OPEN30
 10
216.2751825825976
 20
103.6468814838132
 30
0.0
 50
180.0000000000004
  0
INSERT
  5
D9
330
D5
100
AcDbEntity
  8
0
  6
Continuous
 62
     7
100
AcDbBlockReference
  2
_OPEN30
 10
229.0551825825976
 20
103.6468814838132
 30
0.0
  0
TEXT
  5
DA
330
D5
100
AcDbEntity
  8
0
  6
Continuous
 62
     7
100
AcDbText
 10
213.1484942195537
 20
104.4468814957341
 30
0.0
 40
3.200000047683716
  1
12.78
 41
1.285738614278592
100
AcDbText
  0
POINT
  5
DB
330
D5
100
AcDbEntity
  8
DEFPOINTS
  6
Continuous
 62
     7
100
AcDbPoint
 10
216.2751825825976
 20
67.37344117142814
 30
0.0
  0
POINT
  5
DC
330
D5
100
AcDbEntity
  8
DEFPOINTS
  6
Continuous
 62
     7
100
AcDbPoint
 10
229.0551825825976
 20
67.37344117142814
 30
0.0
  0
POINT
  5
DD
330
D5
100
AcDbEntity
  8
DEFPOINTS
  6
Continuous
 62
     7
100
AcDbPoint
 10
229.0551825825976
 20
103.6468814838132
 30
0.0
  0
ENDBLK
  5
709
330
D5
100
AcDbEntity
  8
0
100
AcDbBlockEnd
  0
BLOCK
  5
70A
330
DF
100
AcDbEntity
  8
0
100
AcDbBlockBegin
  2
*D13
 70
     1
 71
     0
 10
0.0
 20
0.0
 30
0.0
  3
*D13
  1

  0
LINE
  5
E1
330
DF
100
AcDbEntity
  8
0
  6
Continuous
 62
     7
100
AcDbLine
 10
233.0551825825976
 20
103.6468814838132
 30
0.0
 11
239.12240325482
 21
103.6468814838132
 31
0.0
  0
LINE
  5
E2
330
DF
100
AcDbEntity
  8
0
  6
Continuous
 62
     7
100
AcDbLine
 10
229.0551825825976
 20
103.6468814838132
 30
0.0
 11
233.0551825825976
 21
103.6468814838132
 31
0.0
  0
INSERT
  5
E3
330
DF
100
AcDbEntity
  8
0
  6
Continuous
 62
     7
100
AcDbBlockReference
  2
_OPEN30
 10
233.0551825825976
 20
103.6468814838132
 30
0.0
 50
180.0
  0
LINE
  5
E4
330
DF
100
AcDbEntity
  8
0
  6
Continuous
 62
     7
100
AcDbLine
 10
236.0551825375421
 20
103.6468814838132
 30
0.0
 11
239.4051824872301
 21
103.6468814838132
 31
0.0
  0
LINE
  5
E5
330
DF
100
AcDbEntity
  8
0
  6
Continuous
 62
     7
100
AcDbLine
 10
233.0551825825976
 20
57.66089252842858
 30
0.0
 11
233.0551825825976
 21
104.6468814838132
 31
0.0
  0
TEXT
  5
E6
330
DF
100
AcDbEntity
  8
0
  6
Continuous
 62
     7
100
AcDbText
 10
236.8364032414685
 20
104.4468814957341
 30
0.0
 40
3.200000047683716
  1
4
100
AcDbText
  0
POINT
  5
E7
330
DF
100
AcDbEntity
  8
DEFPOINTS
  6
Continuous
 62
     7
100
AcDbPoint
 10
229.0551825825976
 20
67.37344117142814
 30
0.0
  0
POINT
  5
E8
330
DF
100
AcDbEntity
  8
DEFPOINTS
  6
Continuous
 62
     7
100
AcDbPoint
 10
233.0551825825976
 20
56.66089254344708
 30
0.0
  0
POINT
  5
E9
330
DF
100
AcDbEntity
  8
DEFPOINTS
  6
Continuous
 62
     7
100
AcDbPoint
 10
233.0551825825976
 20
103.6468814838132
 30
0.0
  0
ENDBLK
  5
70B
330
DF
100
AcDbEntity
  8
0
100
AcDbBlockEnd
  0
BLOCK
  5
70C
330
EB
100
AcDbEntity
  8
0
100
AcDbBlockBegin
  2
*D14
 70
     1
 71
     0
 10
0.0
 20
0.0
 30
0.0
  3
*D14
  1

  0
LINE
  5
ED
330
EB
100
AcDbEntity
  8
0
  6
Continuous
 62
     7
100
AcDbLine
 10
243.5851826276531
 20
110.4949948758623
 30
0.0
 11
232.0551825375421
 21
110.4949948758623
 31
0.0
  0
INSERT
  5
EE
330
EB
100
AcDbEntity
  8
0
  6
Continuous
 62
     7
100
AcDbBlockReference
  2
_OPEN30
 10
246.5851825825976
 20
110.4949948758623
 30
0.0
  0
INSERT
  5
EF
330
EB
100
AcDbEntity
  8
0
  6
Continuous
 62
     7
100
AcDbBlockReference
  2
_OPEN30
 10
229.0551825825976
 20
110.4949948758623
 30
0.0
 50
180.0000000000004
  0
LINE
  5
F0
330
EB
100
AcDbEntity
  8
0
  6
Continuous
 62
     7
100
AcDbLine
 10
246.5851825825976
 20
48.06490277211513
 30
0.0
 11
246.5851825825976
 21
111.4949948758623
 31
0.0
  0
LINE
  5
F1
330
EB
100
AcDbEntity
  8
0
  6
Continuous
 62
     7
100
AcDbLine
 10
229.0551825825976
 20
59.96089271916345
 30
0.0
 11
229.0551825825976
 21
111.4949948758623
 31
0.0
  0
TEXT
  5
F2
330
EB
100
AcDbEntity
  8
0
  6
Continuous
 62
     7
100
AcDbText
 10
230.2771825997637
 20
111.2949948877833
 30
0.0
 40
3.200000047683716
  1
17.53
 41
1.285738614278592
100
AcDbText
  0
POINT
  5
F3
330
EB
100
AcDbEntity
  8
DEFPOINTS
  6
Continuous
 62
     7
100
AcDbPoint
 10
246.5851825825976
 20
47.06490278713363
 30
0.0
  0
POINT
  5
F4
330
EB
100
AcDbEntity
  8
DEFPOINTS
  6
Continuous
 62
     7
100
AcDbPoint
 10
229.0551825825976
 20
58.96089273418194
 30
0.0
  0
POINT
  5
F5
330
EB
100
AcDbEntity
  8
DEFPOINTS
  6
Continuous
 62
     7
100
AcDbPoint
 10
229.0551825825976
 20
110.4949948758623
 30
0.0
  0
ENDBLK
  5
70D
330
EB
100
AcDbEntity
  8
0
100
AcDbBlockEnd
  0
BLOCK
  5
70E
330
F7
100
AcDbEntity
  8
0
100
AcDbBlockBegin
  2
*D15
 70
     1
 71
     0
 10
0.0
 20
0.0
 30
0.0
  3
*D15
  1

  0
LINE
  5
F9
330
F7
100
AcDbEntity
  8
0
  6
Continuous
 62
     7
100
AcDbLine
 10
226.055182627653
 20
110.4949948758623
 30
0.0
 11
15.57518253754208
 21
110.4949948758623
 31
0.0
  0
INSERT
  5
FA
330
F7
100
AcDbEntity
  8
0
  6
Continuous
 62
     7
100
AcDbBlockReference
  2
_OPEN30
 10
229.0551825825976
 20
110.4949948758623
 30
0.0
  0
INSERT
  5
FB
330
F7
100
AcDbEntity
  8
0
  6
Continuous
 62
     7
100
AcDbBlockReference
  2
_OPEN30
 10
12.57518258259756
 20
110.4949948758623
 30
0.0
 50
180.0000000000004
  0
LINE
  5
FC
330
F7
100
AcDbEntity
  8
0
  6
Continuous
 62
     7
100
AcDbLine
 10
12.57518258259756
 20
59.46089271916345
 30
0.0
 11
12.57518258259756
 21
111.4949948758623
 31
0.0
  0
TEXT
  5
FD
330
F7
100
AcDbEntity
  8
0
  6
Continuous
 62
     7
100
AcDbText
 10
111.6721826057242
 20
111.2949948877833
 30
0.0
 40
3.200000047683716
  1
216.48
 41
1.224508907227511
100
AcDbText
  0
POINT
  5
FE
330
F7
100
AcDbEntity
  8
DEFPOINTS
  6
Continuous
 62
     7
100
AcDbPoint
 10
229.0551825825976
 20
67.37344117142814
 30
0.0
  0
POINT
  5
FF
330
F7
100
AcDbEntity
  8
DEFPOINTS
  6
Continuous
 62
     7
100
AcDbPoint
 10
12.57518258259756
 20
58.46089273418194
 30
0.0
  0
POINT
  5
100
330
F7
100
AcDbEntity
  8
DEFPOINTS
  6
Continuous
 62
     7
100
AcDbPoint
 10
12.57518258259756
 20
110.4949948758623
 30
0.0
  0
ENDBLK
  5
70F
330
F7
100
AcDbEntity
  8
0
100
AcDbBlockEnd
  0
BLOCK
  5
710
330
102
100
AcDbEntity
  8
0
100
AcDbBlockBegin
  2
*D16
 70
     1
 71
     0
 10
0.0
 20
0.0
 30
0.0
  3
*D16
  1

  0
LINE
  5
104
330
102
100
AcDbEntity
  8
0
  6
Continuous
 62
     7
100
AcDbLine
 10
9.575182627653044
 20
110.4949948758623
 30
0.0
 11
-41.94481746245793
 21
110.4949948758623
 31
0.0
  0
INSERT
  5
105
330
102
100
AcDbEntity
  8
0
  6
Continuous
 62
     7
100
AcDbBlockReference
  2
_OPEN30
 10
12.57518258259756
 20
110.4949948758623
 30
0.0
  0
INSERT
  5
106
330
102
100
AcDbEntity
  8
0
  6
Continuous
 62
     7
100
AcDbBlockReference
  2
_OPEN30
 10
-44.94481741740245
 20
110.4949948758623
 30
0.0
 50
180.0000000000004
  0
LINE
  5
107
330
102
100
AcDbEntity
  8
0
  6
Continuous
 62
     7
100
AcDbLine
 10
-44.94481741740245
 20
49.73863889298941
 30
0.0
 11
-44.94481741740245
 21
111.4949948758623
 31
0.0
  0
TEXT
  5
108
330
102
100
AcDbEntity
  8
0
  6
Continuous
 62
     7
100
AcDbText
 10
-31.727817370434
 20
111.2949948877833
 30
0.0
 40
3.200000047683716
  1
WD=290.7%%P6
 41
1.038230298456279
100
AcDbText
  0
POINT
  5
109
330
102
100
AcDbEntity
  8
DEFPOINTS
  6
Continuous
 62
     7
100
AcDbPoint
 10
12.57518258259756
 20
65.87344117142814
 30
0.0
  0
POINT
  5
10A
330
102
100
AcDbEntity
  8
DEFPOINTS
  6
Continuous
 62
     7
100
AcDbPoint
 10
-44.94481741740245
 20
48.7386389080079
 30
0.0
  0
POINT
  5
10B
330
102
100
AcDbEntity
  8
DEFPOINTS
  6
Continuous
 62
     7
100
AcDbPoint
 10
-44.94481741740245
 20
110.4949948758623
 30
0.0
  0
ENDBLK
  5
711
330
102
100
AcDbEntity
  8
0
100
AcDbBlockEnd
  0
BLOCK
  5
712
330
10D
100
AcDbEntity
  8
0
100
AcDbBlockBegin
  2
*D17
 70
     1
 71
     0
 10
0.0
 20
0.0
 30
0.0
  3
*D17
  1

  0
LINE
  5
10F
330
10D
100
AcDbEntity
  8
0
  6
Continuous
 62
     7
100
AcDbLine
 10
134.897495032896
 20
46.96089268912646
 30
0.0
 11
134.897495032896
 21
70.9608927792374
 31
0.0
  0
INSERT
  5
110
330
10D
100
AcDbEntity
  8
0
  6
Continuous
 62
     7
100
AcDbBlockReference
  2
_OPEN30
 10
134.897495032896
 20
43.96089273418194
 30
0.0
 50
270.0000000000005
  0
INSERT
  5
111
330
10D
100
AcDbEntity
  8
0
  6
Continuous
 62
     7
100
AcDbBlockReference
  2
_OPEN30
 10
134.897495032896
 20
73.96089273418194
 30
0.0
 50
90.0000000000002
  0
LINE
  5
112
330
10D
100
AcDbEntity
  8
0
  6
Continuous
 62
     7
100
AcDbLine
 10
117.0751825675791
 20
73.96089273418194
 30
0.0
 11
135.897495032896
 21
73.96089273418194
 31
0.0
  0
TEXT
  5
113
330
10D
100
AcDbEntity
  8
0
  6
Continuous
 62
     7
100
AcDbText
 10
134.097495020975
 20
61.1052166236116
 30
0.0
 40
3.200000047683716
  1
30
 50
90.00000000000006
 41
1.102098198150551
100
AcDbText
  0
POINT
  5
114
330
10D
100
AcDbEntity
  8
DEFPOINTS
  6
Continuous
 62
     7
100
AcDbPoint
 10
249.2580544032134
 20
43.96089273418194
 30
0.0
  0
POINT
  5
115
330
10D
100
AcDbEntity
  8
DEFPOINTS
  6
Continuous
 62
     7
100
AcDbPoint
 10
116.0751825825976
 20
73.96089273418194
 30
0.0
  0
POINT
  5
116
330
10D
100
AcDbEntity
  8
DEFPOINTS
  6
Continuous
 62
     7
100
AcDbPoint
 10
134.897495032896
 20
73.96089273418194
 30
0.0
  0
ENDBLK
  5
713
330
10D
100
AcDbEntity
  8
0
100
AcDbBlockEnd
  0
BLOCK
  5
714
330
118
100
AcDbEntity
  8
0
100
AcDbBlockBegin
  2
*D18
 70
     1
 71
     0
 10
0.0
 20
0.0
 30
0.0
  3
*D18
  1

  0
LINE
  5
11A
330
118
100
AcDbEntity
  8
0
  6
Continuous
 62
     7
100
AcDbLine
 10
103.5751825825976
 20
83.5079882616498
 30
0.0
 11
111.5751825825976
 21
83.5079882616498
 31
0.0
  0
INSERT
  5
11B
330
118
100
AcDbEntity
  8
0
  6
Continuous
 62
     7
100
AcDbBlockReference
  2
_OPEN30
 10
103.5751825825976
 20
83.5079882616498
 30
0.0
 50
0.0000000000003562
  0
LINE
  5
11C
330
118
100
AcDbEntity
  8
0
  6
Continuous
 62
     7
100
AcDbLine
 10
100.575182627653
 20
83.5079882616498
 30
0.0
 11
97.225182677965
 21
83.50798826164976
 31
0.0
  0
INSERT
  5
11D
330
118
100
AcDbEntity
  8
0
  6
Continuous
 62
     7
100
AcDbBlockReference
  2
_OPEN30
 10
111.5751825825976
 20
83.5079882616498
 30
0.0
 50
180.0
  0
LINE
  5
11E
330
118
100
AcDbEntity
  8
0
  6
Continuous
 62
     7
100
AcDbLine
 10
114.5751825375421
 20
83.5079882616498
 30
0.0
 11
117.9251824872301
 21
83.5079882616498
 31
0.0
  0
LINE
  5
11F
330
118
100
AcDbEntity
  8
0
  6
Continuous
 62
     7
100
AcDbLine
 10
103.5751825825976
 20
74.96089271916344
 30
0.0
 11
103.5751825825976
 21
84.5079882616498
 31
0.0
  0
LINE
  5
120
330
118
100
AcDbEntity
  8
0
  6
Continuous
 62
     7
100
AcDbLine
 10
111.5751825825976
 20
74.96089271916344
 30
0.0
 11
111.5751825825976
 21
84.5079882616498
 31
0.0
  0
TEXT
  5
121
330
118
100
AcDbEntity
  8
0
  6
Continuous
 62
     7
100
AcDbText
 10
104.8321825818823
 20
84.30798827357074
 30
0.0
 40
3.200000047683716
  1
%%C8
 41
0.9233617459071044
100
AcDbText
  0
POINT
  5
122
330
118
100
AcDbEntity
  8
DEFPOINTS
  6
Continuous
 62
     7
100
AcDbPoint
 10
103.5751825825976
 20
73.96089273418194
 30
0.0
  0
POINT
  5
123
330
118
100
AcDbEntity
  8
DEFPOINTS
  6
Continuous
 62
     7
100
AcDbPoint
 10
111.5751825825976
 20
73.96089273418194
 30
0.0
  0
POINT
  5
124
330
118
100
AcDbEntity
  8
DEFPOINTS
  6
Continuous
 62
     7
100
AcDbPoint
 10
111.5751825825976
 20
83.5079882616498
 30
0.0
  0
ENDBLK
  5
715
330
118
100
AcDbEntity
  8
0
100
AcDbBlockEnd
  0
BLOCK
  5
716
330
126
100
AcDbEntity
  8
0
100
AcDbBlockBegin
  2
KOZU0001
 70
     0
 71
     0
 10
0.0
 20
0.0
 30
0.0
  3
KOZU0001
  1

  0
POINT
  5
128
330
126
100
AcDbEntity
  8
0
  6
Continuous
 62
     7
100
AcDbPoint
 10
2.0
 20
0.0
 30
0.0
  0
INSERT
  5
12A
330
126
100
AcDbEntity
  8
0
  6
Continuous
 62
     7
100
AcDbBlockReference
  2
KOZU0022
 10
0.0
 20
0.0
 30
0.0
 50
59.99999193204329
  0
ENDBLK
  5
717
330
126
100
AcDbEntity
  8
0
100
AcDbBlockEnd
  0
BLOCK
  5
718
330
129
100
AcDbEntity
  8
0
100
AcDbBlockBegin
  2
KOZU0022
 70
     0
 71
     0
 10
0.0
 20
0.0
 30
0.0
  3
KOZU0022
  1

  0
LWPOLYLINE
  5
2AD
330
129
100
AcDbEntity
  8
0
  6
Continuous
 62
     7
100
AcDbPolyline
 90
        3
 70
     1
 43
0.0
 10
0.0
 20
0.0
 10
2.5
 20
0.0
 10
1.25
 20
2.165063509461096
  0
ENDBLK
  5
719
330
129
100
AcDbEntity
  8
0
100
AcDbBlockEnd
  0
BLOCK
  5
71A
330
12C
100
AcDbEntity
  8
0
100
AcDbBlockBegin
  2
KOZU0002
 70
     0
 71
     0
 10
0.0
 20
0.0
 30
0.0
  3
KOZU0002
  1

  0
POINT
  5
12E
330
12C
100
AcDbEntity
  8
0
  6
Continuous
 62
     7
100
AcDbPoint
 10
1.248291015625
 20
0.0
 30
0.0
  0
INSERT
  5
130
330
12C
100
AcDbEntity
  8
0
  6
Continuous
 62
     7
100
AcDbBlockReference
  2
KOZU0023
 10
1.248291015625
 20
0.0
 30
0.0
 50
59.99999193204329
  0
INSERT
  5
132
330
12C
100
AcDbEntity
  8
0
  6
Continuous
 62
     7
100
AcDbBlockReference
  2
KOZU0024
 10
-1.24853515625
 20
0.0
 30
0.0
 50
59.99999193204329
  0
ENDBLK
  5
71B
330
12C
100
AcDbEntity
  8
0
100
AcDbBlockEnd
  0
BLOCK
  5
71C
330
12F
100
AcDbEntity
  8
0
100
AcDbBlockBegin
  2
KOZU0023
 70
     0
 71
     0
 10
0.0
 20
0.0
 30
0.0
  3
KOZU0023
  1

  0
LWPOLYLINE
  5
2B4
330
12F
100
AcDbEntity
  8
0
  6
Continuous
 62
     7
100
AcDbPolyline
 90
        3
 70
     1
 43
0.0
 10
0.0
 20
0.0
 10
2.5
 20
0.0
 10
1.25
 20
2.165063509461096
  0
ENDBLK
  5
71D
330
12F
100
AcDbEntity
  8
0
100
AcDbBlockEnd
  0
BLOCK
  5
71E
330
131
100
AcDbEntity
  8
0
100
AcDbBlockBegin
  2
KOZU0024
 70
     0
 71
     0
 10
0.0
 20
0.0
 30
0.0
  3
KOZU0024
  1

  0
LWPOLYLINE
  5
2BB
330
131
100
AcDbEntity
  8
0
  6
Continuous
 62
     7
100
AcDbPolyline
 90
        3
 70
     1
 43
0.0
 10
0.0
 20
0.0
 10
2.5
 20
0.0
 10
1.25
 20
2.165063509461096
  0
ENDBLK
  5
71F
330
131
100
AcDbEntity
  8
0
100
AcDbBlockEnd
  0
BLOCK
  5
720
330
134
100
AcDbEntity
  8
0
100
AcDbBlockBegin
  2
KOZU0003
 70
     0
 71
     0
 10
0.0
 20
0.0
 30
0.0
  3
KOZU0003
  1

  0
POINT
  5
136
330
134
100
AcDbEntity
  8
0
  6
Continuous
 62
     7
100
AcDbPoint
 10
2.49658203125
 20
0.0
 30
0.0
  0
INSERT
  5
138
330
134
100
AcDbEntity
  8
0
  6
Continuous
 62
     7
100
AcDbBlockReference
  2
KOZU0025
 10
2.49658203125
 20
0.0
 30
0.0
 50
59.99999193204329
  0
INSERT
  5
13A
330
134
100
AcDbEntity
  8
0
  6
Continuous
 62
     7
100
AcDbBlockReference
  2
KOZU0026
 10
0.0
 20
-0.000244140625
 30
0.0
 50
59.99999193204329
  0
INSERT
  5
13C
330
134
100
AcDbEntity
  8
0
  6
Continuous
 62
     7
100
AcDbBlockReference
  2
KOZU0027
 10
-2.496826171875
 20
0.0
 30
0.0
 50
59.99999193204329
  0
ENDBLK
  5
721
330
134
100
AcDbEntity
  8
0
100
AcDbBlockEnd
  0
BLOCK
  5
722
330
137
100
AcDbEntity
  8
0
100
AcDbBlockBegin
  2
KOZU0025
 70
     0
 71
     0
 10
0.0
 20
0.0
 30
0.0
  3
KOZU0025
  1

  0
LWPOLYLINE
  5
2C2
330
137
100
AcDbEntity
  8
0
  6
Continuous
 62
     7
100
AcDbPolyline
 90
        3
 70
     1
 43
0.0
 10
0.0
 20
0.0
 10
2.5
 20
0.0
 10
1.25
 20
2.165063509461096
  0
ENDBLK
  5
723
330
137
100
AcDbEntity
  8
0
100
AcDbBlockEnd
  0
BLOCK
  5
724
330
139
100
AcDbEntity
  8
0
100
AcDbBlockBegin
  2
KOZU0026
 70
     0
 71
     0
 10
0.0
 20
0.0
 30
0.0
  3
KOZU0026
  1

  0
LWPOLYLINE
  5
2C9
330
139
100
AcDbEntity
  8
0
  6
Continuous
 62
     7
100
AcDbPolyline
 90
        3
 70
     1
 43
0.0
 10
0.0
 20
0.0
 10
2.5
 20
0.0
 10
1.25
 20
2.165063509461096
  0
ENDBLK
  5
725
330
139
100
AcDbEntity
  8
0
100
AcDbBlockEnd
  0
BLOCK
  5
726
330
13B
100
AcDbEntity
  8
0
100
AcDbBlockBegin
  2
KOZU0027
 70
     0
 71
     0
 10
0.0
 20
0.0
 30
0.0
  3
KOZU0027
  1

  0
LWPOLYLINE
  5
2D0
330
13B
100
AcDbEntity
  8
0
  6
Continuous
 62
     7
100
AcDbPolyline
 90
        3
 70
     1
 43
0.0
 10
0.0
 20
0.0
 10
2.5
 20
0.0
 10
1.25
 20
2.165063509461096
  0
ENDBLK
  5
727
330
13B
100
AcDbEntity
  8
0
100
AcDbBlockEnd
  0
BLOCK
  5
728
330
13E
100
AcDbEntity
  8
0
100
AcDbBlockBegin
  2
KOZU0004
 70
     0
 71
     0
 10
0.0
 20
0.0
 30
0.0
  3
KOZU0004
  1

  0
LINE
  5
140
330
13E
100
AcDbEntity
  8
0
  6
Continuous
 62
     7
100
AcDbLine
 10
16.47471345063578
 20
-1.292633074243561
 30
0.0
 11
28.18363377877603
 21
10.41628626690857
 31
0.0
  0
LINE
  5
141
330
13E
100
AcDbEntity
  8
0
  6
Continuous
 62
     7
100
AcDbLine
 10
-11.3088793584418
 20
-29.07622354133954
 30
0.0
 11
0.2070731329448883
 21
-17.560272020675
 31
0.0
  0
LINE
  5
142
330
13E
100
AcDbEntity
  8
0
  6
Continuous
 62
     7
100
AcDbLine
 10
-25.35371454334942
 20
-31.75314260616197
 30
0.0
 11
-13.64484510406382
 21
-43.46201303243149
 31
0.0
  0
LINE
  5
143
330
13E
100
AcDbEntity
  8
0
  6
Continuous
 62
     7
100
AcDbLine
 10
3.066098940163908
 20
-31.88864288735694
 30
0.0
 11
14.96814187654917
 21
-43.79068682700943
 31
0.0
  0
LINE
  5
144
330
13E
100
AcDbEntity
  8
0
  6
Continuous
 62
     7
100
AcDbLine
 10
31.92939487540185
 20
-4.183374797291819
 30
0.0
 11
42.48040816424489
 21
-14.73438897551879
 31
0.0
  0
LINE
  5
145
330
13E
100
AcDbEntity
  8
0
  6
Continuous
 62
     7
100
AcDbLine
 10
2.21623747110529
 20
25.52978511163667
 30
0.0
 11
14.31110867976861
 21
13.43491288345193
 31
0.0
  0
LINE
  5
146
330
13E
100
AcDbEntity
  8
0
  6
Continuous
 62
     7
100
AcDbLine
 10
-25.87504152267995
 20
-2.947499984957318
 30
0.0
 11
-13.97334718286403
 21
-14.84919532801107
 31
0.0
  0
LINE
  5
147
330
13E
100
AcDbEntity
  8
0
  6
Continuous
 62
     7
100
AcDbLine
 10
-53.96652889047818
 20
-31.4246414450828
 30
0.0
 11
-42.0646585454303
 21
-43.32651279338335
 31
0.0
  0
LINE
  5
148
330
13E
100
AcDbEntity
  8
0
  6
Continuous
 62
     7
100
AcDbLine
 10
-39.7288405359275
 20
-29.21156700086425
 30
0.0
 11
-27.82694765058646
 21
-17.30967511877769
 31
0.0
  0
LINE
  5
149
330
13E
100
AcDbEntity
  8
0
  6
Continuous
 62
     7
100
AcDbLine
 10
-12.33114563677921
 20
-1.813874411168798
 30
0.0
 11
0.1495118428039923
 21
10.66678201637372
 31
0.0
  0
LINE
  5
14A
330
13E
100
AcDbEntity
  8
0
  6
Continuous
 62
     7
100
AcDbLine
 10
2.930615468802817
 20
-3.46881497820032
 30
0.0
 11
15.02549337881477
 21
-15.56369390773426
 31
0.0
  0
LINE
  5
14B
330
13E
100
AcDbEntity
  8
0
  6
Continuous
 62
     7
100
AcDbLine
 10
31.21489507332211
 20
24.81546224213264
 30
0.0
 11
43.11676874797089
 21
12.91358756423091
 31
0.0
  0
LINE
  5
14C
330
13E
100
AcDbEntity
  8
0
  6
Continuous
 62
     7
100
AcDbLine
 10
-11.25160601555324
 20
-57.30288173517491
 30
0.0
 11
0.4572718285619217
 21
-45.59400487804428
 31
0.0
  0
LINE
  5
14D
330
13E
100
AcDbEntity
  8
0
  6
Continuous
 62
     7
100
AcDbLine
 10
16.91782536068841
 20
-29.13345273343861
 30
0.0
 11
28.62675715277194
 21
-17.42452192834417
 31
0.0
  0
LINE
  5
14E
330
13E
100
AcDbEntity
  8
0
  6
Continuous
 62
     7
100
AcDbLine
 10
44.70142491326203
 20
-1.349855522847161
 30
0.0
 11
57.18212555121993
 21
11.13084406306641
 31
0.0
  0
LINE
  5
14F
330
13E
100
AcDbEntity
  8
0
  6
Continuous
 62
     7
100
AcDbLine
 10
17.18892033201965
 20
27.70618906927474
 30
0.0
 11
28.70486945165831
 21
39.22213721819153
 31
0.0
  0
LINE
  5
150
330
13E
100
AcDbEntity
  8
0
  6
Continuous
 62
     7
100
AcDbLine
 10
-39.78621503124278
 20
-0.9846781794695724
 30
0.0
 11
-27.49847211479437
 21
11.30306370119962
 31
0.0
  0
LINE
  5
151
330
13E
100
AcDbEntity
  8
0
  6
Continuous
 62
     7
100
AcDbLine
 10
-11.80970563598158
 20
26.99182885754837
 30
0.0
 11
0.6709417283575583
 21
39.47247516984767
 31
0.0
  0
LINE
  5
152
330
13E
100
AcDbEntity
  8
0
  6
Continuous
 62
     7
100
AcDbLine
 10
-25.41104825964448
 20
-59.98012448296358
 30
0.0
 11
-13.12334211950132
 21
-72.26783165888294
 31
0.0
  0
LINE
  5
153
330
13E
100
AcDbEntity
  8
0
  6
Continuous
 62
     7
100
AcDbLine
 10
-26.0105216222933
 20
25.47232455245129
 30
0.0
 11
-14.30165555475544
 21
13.7634574979298
 31
0.0
  0
LINE
  5
154
330
13E
100
AcDbEntity
  8
0
  6
Continuous
 62
     7
100
AcDbLine
 10
-53.33017572459812
 20
-3.776679066673889
 30
0.0
 11
-41.42847805518132
 21
-15.67837773932882
 31
0.0
  0
LINE
  5
155
330
13E
100
AcDbEntity
  8
0
  6
Continuous
 62
     7
100
AcDbLine
 10
-40.25015173596551
 20
-58.01749347929657
 30
0.0
 11
-28.15533012614796
 21
-45.92267288899618
 31
0.0
  0
LINE
  5
156
330
13E
100
AcDbEntity
  8
0
  6
Continuous
 62
     7
100
AcDbLine
 10
-40.22950092347912
 20
26.8563060210294
 30
0.0
 11
-27.74878949592754
 21
39.33701639653572
 31
0.0
  0
LINE
  5
157
330
13E
100
AcDbEntity
  8
0
  6
Continuous
 62
     7
100
AcDbLine
 10
30.5005638586284
 20
53.81410911496951
 30
0.0
 11
42.5952624338075
 21
41.71940952028353
 31
0.0
  0
LINE
  5
158
330
13E
100
AcDbEntity
  8
0
  6
Continuous
 62
     7
100
AcDbLine
 10
-11.09532477241427
 20
55.990479716267
 30
0.0
 11
0.4206243472243898
 21
67.50642786518378
 31
0.0
  0
LINE
  5
159
330
13E
100
AcDbEntity
  8
0
  6
Continuous
 62
     7
100
AcDbLine
 10
2.273757982225991
 20
53.75660177278424
 30
0.0
 11
13.98262404976385
 21
42.04773471826276
 31
0.0
  0
LINE
  5
15A
330
13E
100
AcDbEntity
  8
0
  6
Continuous
 62
     7
100
AcDbLine
 10
16.97522143519073
 20
-57.36032671914354
 30
0.0
 11
28.49118471617108
 21
-45.84436440888622
 31
0.0
  0
ENDBLK
  5
729
330
13E
100
AcDbEntity
  8
0
100
AcDbBlockEnd
  0
BLOCK
  5
72A
330
15C
100
AcDbEntity
  8
0
100
AcDbBlockBegin
  2
KOZU0005
 70
     0
 71
     0
 10
0.0
 20
0.0
 30
0.0
  3
KOZU0005
  1

  0
POINT
  5
15E
330
15C
100
AcDbEntity
  8
0
  6
Continuous
 62
     7
100
AcDbPoint
 10
65.0
 20
0.0
 30
0.0
  0
POINT
  5
15F
330
15C
100
AcDbEntity
  8
0
  6
Continuous
 62
     7
100
AcDbPoint
 10
0.0
 20
0.0
 30
0.0
  0
LINE
  5
160
330
15C
100
AcDbEntity
  8
0
  6
Continuous
 62
     7
100
AcDbLine
 10
65.0
 20
2.0
 30
0.0
 11
65.0
 21
0.0
 31
0.0
  0
LINE
  5
161
330
15C
100
AcDbEntity
  8
0
  6
Continuous
 62
     7
100
AcDbLine
 10
65.0
 20
0.0
 30
0.0
 11
0.0
 21
0.0
 31
0.0
  0
LINE
  5
162
330
15C
100
AcDbEntity
  8
0
  6
Continuous
 62
     7
100
AcDbLine
 10
0.0
 20
0.0
 30
0.0
 11
0.0
 21
65.0
 31
0.0
  0
LINE
  5
163
330
15C
100
AcDbEntity
  8
0
  6
Continuous
 62
     7
100
AcDbLine
 10
0.0
 20
65.0
 30
0.0
 11
2.0
 21
65.0
 31
0.0
  0
LINE
  5
164
330
15C
100
AcDbEntity
  8
0
  6
Continuous
 62
     7
100
AcDbLine
 10
6.0
 20
61.0
 30
0.0
 11
6.0
 21
14.5
 31
0.0
  0
LINE
  5
165
330
15C
100
AcDbEntity
  8
0
  6
Continuous
 62
     7
100
AcDbLine
 10
14.5
 20
6.0
 30
0.0
 11
61.0
 21
6.0
 31
0.0
  0
ARC
  5
166
330
15C
100
AcDbEntity
  8
0
  6
Continuous
 62
     7
100
AcDbCircle
 10
61.0
 20
2.0
 30
0.0
 40
4.0
100
AcDbArc
 50
0.0000359721780749
 51
89.99998201391065
  0
ARC
  5
167
330
15C
100
AcDbEntity
  8
0
  6
Continuous
 62
     7
100
AcDbCircle
 10
2.0
 20
61.0
 30
0.0
 40
4.0
100
AcDbArc
 50
0.0000359721780749
 51
89.99998201391065
  0
ARC
  5
168
330
15C
100
AcDbEntity
  8
0
  6
Continuous
 62
     7
100
AcDbCircle
 10
14.5
 20
14.5
 30
0.0
 40
8.5
100
AcDbArc
 50
179.9999640278213
 51
269.9999460417327
  0
ENDBLK
  5
72B
330
15C
100
AcDbEntity
  8
0
100
AcDbBlockEnd
  0
BLOCK
  5
72C
330
16A
100
AcDbEntity
  8
0
100
AcDbBlockBegin
  2
KOZU0006
 70
     0
 71
     0
 10
0.0
 20
0.0
 30
0.0
  3
KOZU0006
  1

  0
POINT
  5
16C
330
16A
100
AcDbEntity
  8
0
  6
Continuous
 62
     7
100
AcDbPoint
 10
65.0
 20
0.0
 30
0.0
  0
POINT
  5
16D
330
16A
100
AcDbEntity
  8
0
  6
Continuous
 62
     7
100
AcDbPoint
 10
0.0
 20
0.0
 30
0.0
  0
LINE
  5
16E
330
16A
100
AcDbEntity
  8
0
  6
Continuous
 62
     7
100
AcDbLine
 10
65.0
 20
2.0
 30
0.0
 11
65.0
 21
0.0
 31
0.0
  0
LINE
  5
16F
330
16A
100
AcDbEntity
  8
0
  6
Continuous
 62
     7
100
AcDbLine
 10
65.0
 20
0.0
 30
0.0
 11
0.0
 21
0.0
 31
0.0
  0
LINE
  5
170
330
16A
100
AcDbEntity
  8
0
  6
Continuous
 62
     7
100
AcDbLine
 10
0.0
 20
0.0
 30
0.0
 11
0.0
 21
65.0
 31
0.0
  0
LINE
  5
171
330
16A
100
AcDbEntity
  8
0
  6
Continuous
 62
     7
100
AcDbLine
 10
0.0
 20
65.0
 30
0.0
 11
2.0
 21
65.0
 31
0.0
  0
LINE
  5
172
330
16A
100
AcDbEntity
  8
0
  6
Continuous
 62
     7
100
AcDbLine
 10
6.0
 20
61.0
 30
0.0
 11
6.0
 21
14.5
 31
0.0
  0
LINE
  5
173
330
16A
100
AcDbEntity
  8
0
  6
Continuous
 62
     7
100
AcDbLine
 10
14.5
 20
6.0
 30
0.0
 11
61.0
 21
6.0
 31
0.0
  0
ARC
  5
174
330
16A
100
AcDbEntity
  8
0
  6
Continuous
 62
     7
100
AcDbCircle
 10
61.0
 20
2.0
 30
0.0
 40
4.0
100
AcDbArc
 50
0.0000359721780749
 51
89.99998201391065
  0
ARC
  5
175
330
16A
100
AcDbEntity
  8
0
  6
Continuous
 62
     7
100
AcDbCircle
 10
2.0
 20
61.0
 30
0.0
 40
4.0
100
AcDbArc
 50
0.0000359721780749
 51
89.99998201391065
  0
ARC
  5
176
330
16A
100
AcDbEntity
  8
0
  6
Continuous
 62
     7
100
AcDbCircle
 10
14.5
 20
14.5
 30
0.0
 40
8.5
100
AcDbArc
 50
179.9999640278213
 51
269.9999460417327
  0
ENDBLK
  5
72D
330
16A
100
AcDbEntity
  8
0
100
AcDbBlockEnd
  0
BLOCK
  5
72E
330
178
100
AcDbEntity
  8
0
100
AcDbBlockBegin
  2
KOZU0007
 70
     0
 71
     0
 10
0.0
 20
0.0
 30
0.0
  3
KOZU0007
  1

  0
POINT
  5
17A
330
178
100
AcDbEntity
  8
0
  6
Continuous
 62
     7
100
AcDbPoint
 10
0.0
 20
0.0
 30
0.0
  0
LINE
  5
17B
330
178
100
AcDbEntity
  8
0
  6
Continuous
 62
     7
100
AcDbLine
 10
0.0
 20
2.8
 30
0.0
 11
0.0
 21
-2.8
 31
0.0
  0
LINE
  5
17C
330
178
100
AcDbEntity
  8
0
  6
Continuous
 62
     7
100
AcDbLine
 10
1.2
 20
2.8
 30
0.0
 11
1.2
 21
-2.8
 31
0.0
  0
LINE
  5
17D
330
178
100
AcDbEntity
  8
0
  6
Continuous
 62
     7
100
AcDbLine
 10
-2.3
 20
1.775
 30
0.0
 11
-2.3
 21
-1.775
 31
0.0
  0
LINE
  5
17E
330
178
100
AcDbEntity
  8
0
  6
Continuous
 62
     7
100
AcDbLine
 10
0.0
 20
0.5
 30
0.0
 11
1.2
 21
0.5
 31
0.0
  0
LINE
  5
17F
330
178
100
AcDbEntity
  8
0
  6
Continuous
 62
     7
100
AcDbLine
 10
0.0
 20
-0.5
 30
0.0
 11
1.2
 21
-0.5
 31
0.0
  0
LINE
  5
180
330
178
100
AcDbEntity
  8
0
  6
Continuous
 62
     7
100
AcDbLine
 10
0.0
 20
2.8
 30
0.0
 11
1.2
 21
2.8
 31
0.0
  0
LINE
  5
181
330
178
100
AcDbEntity
  8
0
  6
Continuous
 62
     7
100
AcDbLine
 10
0.0
 20
-2.8
 30
0.0
 11
1.2
 21
-2.8
 31
0.0
  0
LINE
  5
182
330
178
100
AcDbEntity
  8
0
  6
DASHED
 62
     7
100
AcDbLine
 10
0.0
 20
2.4
 30
0.0
 11
1.2
 21
2.4
 31
0.0
  0
LINE
  5
183
330
178
100
AcDbEntity
  8
0
  6
DASHED
 62
     7
100
AcDbLine
 10
0.0
 20
-2.4
 30
0.0
 11
1.2
 21
-2.4
 31
0.0
  0
LINE
  5
184
330
178
100
AcDbEntity
  8
0
  6
Continuous
 62
     7
100
AcDbLine
 10
-0.2
 20
2.2
 30
0.0
 11
-0.2
 21
-2.2
 31
0.0
  0
LINE
  5
185
330
178
100
AcDbEntity
  8
0
  6
Continuous
 62
     7
100
AcDbLine
 10
-0.2
 20
2.2
 30
0.0
 11
0.0
 21
2.2
 31
0.0
  0
LINE
  5
186
330
178
100
AcDbEntity
  8
0
  6
Continuous
 62
     7
100
AcDbLine
 10
-0.2
 20
-2.2
 30
0.0
 11
0.0
 21
-2.2
 31
0.0
  0
LINE
  5
187
330
178
100
AcDbEntity
  8
0
  6
Continuous
 62
     7
100
AcDbLine
 10
-2.3
 20
-1.775
 30
0.0
 11
-0.2
 21
-1.775
 31
0.0
  0
LINE
  5
188
330
178
100
AcDbEntity
  8
0
  6
Continuous
 62
     7
100
AcDbLine
 10
-2.3
 20
1.775
 30
0.0
 11
-0.2
 21
1.775
 31
0.0
  0
ENDBLK
  5
72F
330
178
100
AcDbEntity
  8
0
100
AcDbBlockEnd
  0
BLOCK
  5
730
330
18A
100
AcDbEntity
  8
0
100
AcDbBlockBegin
  2
KOZU0008
 70
     0
 71
     0
 10
0.0
 20
0.0
 30
0.0
  3
KOZU0008
  1

  0
POINT
  5
18C
330
18A
100
AcDbEntity
  8
0
  6
Continuous
 62
     7
100
AcDbPoint
 10
0.0
 20
0.0
 30
0.0
  0
POINT
  5
18D
330
18A
100
AcDbEntity
  8
0
  6
Continuous
 62
     7
100
AcDbPoint
 10
4.5
 20
0.0
 30
0.0
  0
LINE
  5
18E
330
18A
100
AcDbEntity
  8
0
  6
Continuous
 62
     7
100
AcDbLine
 10
0.0
 20
-6.0
 30
0.0
 11
2.5
 21
-6.0
 31
0.0
  0
LINE
  5
18F
330
18A
100
AcDbEntity
  8
0
  6
Continuous
 62
     7
100
AcDbLine
 10
0.0
 20
6.0
 30
0.0
 11
2.5
 21
6.0
 31
0.0
  0
LINE
  5
190
330
18A
100
AcDbEntity
  8
0
  6
Continuous
 62
     7
100
AcDbLine
 10
0.0
 20
6.0
 30
0.0
 11
0.0
 21
2.0
 31
0.0
  0
LINE
  5
191
330
18A
100
AcDbEntity
  8
0
  6
Continuous
 62
     7
100
AcDbLine
 10
2.5
 20
6.0
 30
0.0
 11
2.5
 21
3.0
 31
0.0
  0
LINE
  5
192
330
18A
100
AcDbEntity
  8
0
  6
Continuous
 62
     7
100
AcDbLine
 10
1.0
 20
3.0
 30
0.0
 11
1.0
 21
2.0
 31
0.0
  0
LINE
  5
193
330
18A
100
AcDbEntity
  8
0
  6
Continuous
 62
     7
100
AcDbLine
 10
0.0
 20
-2.0
 30
0.0
 11
1.0
 21
-2.0
 31
0.0
  0
LINE
  5
194
330
18A
100
AcDbEntity
  8
0
  6
Continuous
 62
     7
100
AcDbLine
 10
0.0
 20
2.0
 30
0.0
 11
1.0
 21
2.0
 31
0.0
  0
LINE
  5
195
330
18A
100
AcDbEntity
  8
0
  6
Continuous
 62
     7
100
AcDbLine
 10
1.0
 20
3.0
 30
0.0
 11
2.5
 21
3.0
 31
0.0
  0
LINE
  5
196
330
18A
100
AcDbEntity
  8
0
  6
Continuous
 62
     7
100
AcDbLine
 10
1.0
 20
-3.0
 30
0.0
 11
2.5
 21
-3.0
 31
0.0
  0
LINE
  5
197
330
18A
100
AcDbEntity
  8
0
  6
Continuous
 62
     7
100
AcDbLine
 10
0.0
 20
-2.0
 30
0.0
 11
0.0
 21
-6.0
 31
0.0
  0
LINE
  5
198
330
18A
100
AcDbEntity
  8
0
  6
Continuous
 62
     7
100
AcDbLine
 10
2.5
 20
-3.0
 30
0.0
 11
2.5
 21
-6.0
 31
0.0
  0
LINE
  5
199
330
18A
100
AcDbEntity
  8
0
  6
Continuous
 62
     4
100
AcDbLine
 10
1.0
 20
2.0
 30
0.0
 11
1.0
 21
-2.0
 31
0.0
  0
LINE
  5
19A
330
18A
100
AcDbEntity
  8
0
  6
Continuous
 62
     7
100
AcDbLine
 10
1.0
 20
-2.0
 30
0.0
 11
1.0
 21
-3.0
 31
0.0
  0
LINE
  5
19B
330
18A
100
AcDbEntity
  8
0
  6
Continuous
 62
     4
100
AcDbLine
 10
2.5
 20
3.0
 30
0.0
 11
4.5
 21
3.0
 31
0.0
  0
LINE
  5
19C
330
18A
100
AcDbEntity
  8
0
  6
Continuous
 62
     4
100
AcDbLine
 10
2.5
 20
-3.0
 30
0.0
 11
4.5
 21
-3.0
 31
0.0
  0
LINE
  5
19D
330
18A
100
AcDbEntity
  8
0
  6
PHANTOM
 62
     4
100
AcDbLine
 10
2.8868125
 20
6.0
 30
0.0
 11
4.5
 21
6.0
 31
0.0
  0
LINE
  5
19E
330
18A
100
AcDbEntity
  8
0
  6
PHANTOM
 62
     4
100
AcDbLine
 10
2.777034722222223
 20
-6.0
 30
0.0
 11
4.5
 21
-6.0
 31
0.0
  0
LINE
  5
19F
330
18A
100
AcDbEntity
  8
0
  6
Continuous
 62
     4
100
AcDbLine
 10
4.5
 20
3.0
 30
0.0
 11
4.5
 21
-3.0
 31
0.0
  0
LINE
  5
1A0
330
18A
100
AcDbEntity
  8
0
  6
PHANTOM
 62
     7
100
AcDbLine
 10
4.5
 20
6.0
 30
0.0
 11
4.5
 21
3.0
 31
0.0
  0
LINE
  5
1A1
330
18A
100
AcDbEntity
  8
0
  6
PHANTOM
 62
     7
100
AcDbLine
 10
4.5
 20
-3.0
 30
0.0
 11
4.5
 21
-6.0
 31
0.0
  0
INSERT
  5
1A3
330
18A
100
AcDbEntity
  8
0
  6
Continuous
 62
     4
100
AcDbBlockReference
  2
KOZU0028
 10
0.0
 20
0.0
 30
0.0
  0
ENDBLK
  5
731
330
18A
100
AcDbEntity
  8
0
100
AcDbBlockEnd
  0
BLOCK
  5
732
330
1A2
100
AcDbEntity
  8
0
100
AcDbBlockBegin
  2
KOZU0028
 70
     0
 71
     0
 10
0.0
 20
0.0
 30
0.0
  3
KOZU0028
  1

  0
LINE
  5
2D7
330
1A2
100
AcDbEntity
  8
0
  6
Continuous
 62
     4
100
AcDbLine
 10
3.73254995439904
 20
-3.0
 30
0.0
 11
4.5
 21
-2.232548419497413
 31
0.0
  0
LINE
  5
2D8
330
1A2
100
AcDbEntity
  8
0
  6
Continuous
 62
     4
100
AcDbLine
 10
1.487488169192415
 20
-3.0
 30
0.0
 11
4.5
 21
0.0125178558372725
 31
0.0
  0
LINE
  5
2D9
330
1A2
100
AcDbEntity
  8
0
  6
Continuous
 62
     4
100
AcDbLine
 10
1.0
 20
-1.242422868835043
 30
0.0
 11
4.5
 21
2.257584131171959
 31
0.0
  0
LINE
  5
2DA
330
1A2
100
AcDbEntity
  8
0
  6
Continuous
 62
     4
100
AcDbLine
 10
1.0
 20
1.002643406499644
 30
0.0
 11
2.997352598791163
 21
3.0
 31
0.0
  0
ENDBLK
  5
733
330
1A2
100
AcDbEntity
  8
0
100
AcDbBlockEnd
  0
BLOCK
  5
734
330
1A5
100
AcDbEntity
  8
0
100
AcDbBlockBegin
  2
KOZU0009
 70
     0
 71
     0
 10
0.0
 20
0.0
 30
0.0
  3
KOZU0009
  1

  0
LINE
  5
1A7
330
1A5
100
AcDbEntity
  8
0
  6
Continuous
 62
     7
100
AcDbLine
 10
0.0
 20
0.55010986328125
 30
0.0
 11
0.0
 21
0.447906494140625
 31
0.0
  0
LINE
  5
1A8
330
1A5
100
AcDbEntity
  8
0
  6
Continuous
 62
     7
100
AcDbLine
 10
0.1496734619140625
 20
0.550628662109375
 30
0.0
 11
0.1496734619140625
 21
0.4473876953125
 31
0.0
  0
LINE
  5
1A9
330
1A5
100
AcDbEntity
  8
0
  6
Continuous
 62
     7
100
AcDbLine
 10
0.598785400390625
 20
0.550628662109375
 30
0.0
 11
0.598785400390625
 21
0.4473876953125
 31
0.0
  0
LINE
  5
1AA
330
1A5
100
AcDbEntity
  8
0
  6
Continuous
 62
     7
100
AcDbLine
 10
0.7484893798828125
 20
0.550628662109375
 30
0.0
 11
0.7484893798828125
 21
0.4473876953125
 31
0.0
  0
LWPOLYLINE
  5
1AB
330
1A5
100
AcDbEntity
  8
0
  6
Continuous
 62
     7
100
AcDbPolyline
 90
       17
 70
     0
 43
0.0
 10
0.7484851880796372
 20
0.5501098036766181
 42
0.0491268476851062
 10
0.7412941285837034
 20
0.6374893578170968
 42
0.0491268476851062
 10
0.7199972649852864
 20
0.7215109672691187
 42
0.0491268476851062
 10
0.6854130237399403
 20
0.7989457289739773
 42
0.0491268476851062
 10
0.6388704577314227
 20
0.8668178687165666
 42
0.0491268476851062
 10
0.5821581715190253
 20
0.922519098449978
 42
0.0491268476851062
 10
0.5174555862732271
 20
0.9639088513339312
 42
0.0491268476851062
 10
0.4472491858494183
 20
0.9893965425110584
 42
0.0491268476851062
 10
0.3742369626158441
 20
0.9980026943857988
 42
0.0491268476851062
 10
0.301224735128699
 20
0.9893965773959216
 42
0.0491268476851062
 10
0.2310183221076402
 20
0.9639089197630516
 42
0.0491268476851062
 10
0.1663157164050178
 20
0.9225191977936628
 42
0.0491268476851062
 10
0.1096034026623665
 20
0.8668179951570947
 42
0.0491268476851062
 10
0.0630608031081371
 20
0.7989458776523097
 42
0.0491268476851062
 10
0.0284765235907645
 20
0.7215111324716315
 42
0.0491268476851062
 10
0.0071796184647785
 20
0.6374895331951509
 42
0.0491268476851062
 10
-0.0000114842183858
 20
0.5501099824905334
 42
-1.0
  0
LWPOLYLINE
  5
1BE
330
1A5
100
AcDbEntity
  8
0
  6
Continuous
 62
     7
100
AcDbPolyline
 90
       17
 70
     0
 43
0.0
 10
0.5987777227752895
 20
0.550628662109375
 42
0.0491268497694672
 10
0.5944417246481589
 20
0.6086997296019055
 42
0.0491268497694672
 10
0.5816427978124645
 20
0.664539158537328
 42
0.0491268497694672
 10
0.5608727978487814
 20
0.7160010709767664
 42
0.0491268497694672
 10
0.5329299042077635
 20
0.7611078144853464
 42
0.0491268497694672
 10
0.4988879466214801
 20
0.7981259622061865
 42
0.0491268497694672
 10
0.4600551384290222
 20
0.8256329274823908
 42
0.0491268497694672
 10
0.4179238026715361
 20
0.8425716330644791
 42
0.0491268497694672
 10
0.3741130229546568
 20
0.8482911339962671
 42
0.0491268497694672
 10
0.3303064229735355
 20
0.8425716330644791
 42
0.0491268497694672
 10
0.2881874657984227
 20
0.8256329274823908
 42
0.0491268497694672
 10
0.2493747593329747
 20
0.7981259622061865
 42
0.0491268497694672
 10
0.2153598541202417
 20
0.7611078144853465
 42
0.0491268497694672
 10
0.1874499238917707
 20
0.7160010709767664
 42
0.0491268497694672
 10
0.1667175316141727
 20
0.664539158537328
 42
0.0491268497694672
 10
0.153959411495816
 20
0.6086997296019055
 42
0.0491268497694672
 10
0.1496658509380131
 20
0.550628662109375
 42
-1.0
  0
LWPOLYLINE
  5
1D1
330
1A5
100
AcDbEntity
  8
0
  6
Continuous
 62
     7
100
AcDbPolyline
 90
       17
 70
     0
 43
0.0
 10
-0.0000112211107969
 20
0.4479065239429394
 42
0.0491268487272869
 10
0.0071798454368174
 20
0.3605269603258108
 42
0.0491268487272869
 10
0.0284767131721659
 20
0.2765053430483931
 42
0.0491268487272869
 10
0.0630609554461574
 20
0.1990705756064548
 42
0.0491268487272869
 10
0.1096035192793864
 20
0.1311984325612232
 42
0.0491268487272869
 10
0.1663158001206343
 20
0.0754972021966581
 42
0.0491268487272869
 10
0.2310183769138089
 20
0.0341074514676772
 42
0.0491268487272869
 10
0.301224766023361
 20
0.0086197652159947
 42
0.0491268487272869
 10
0.3742369754019259
 20
0.0000136208892468
 42
0.0491268487272869
 10
0.4472491869072767
 20
0.0086197477735641
 42
0.0491268487272869
 10
0.5174555823154552
 20
0.0341074172531184
 42
0.0491268487272869
 10
0.582158169337045
 20
0.0754971525248176
 42
0.0491268487272869
 10
0.638870463943424
 20
0.1311983693409619
 42
0.0491268487272869
 10
0.6854130445495137
 20
0.1990705012672917
 42
0.0491268487272869
 10
0.7199973059595239
 20
0.2765052604471409
 42
0.0491268487272869
 10
0.7412941944586628
 20
0.3605268726367888
 42
0.0491268487272869
 10
0.7484852825998984
 20
0.4479064345359874
 42
-1.0
  0
LWPOLYLINE
  5
1E4
330
1A5
100
AcDbEntity
  8
0
  6
Continuous
 62
     7
100
AcDbPolyline
 90
       17
 70
     0
 43
0.0
 10
0.1496659576772763
 20
0.4473876953125002
 42
0.0491268482012981
 10
0.1539807340146741
 20
0.3893166370948513
 42
0.0491268482012981
 10
0.1667592511077331
 20
0.3334772169360964
 42
0.0491268482012981
 10
0.1875104377420417
 20
0.2820153123014926
 42
0.0491268482012981
 10
0.2154368375033088
 20
0.2369085752003304
 42
0.0491268482012981
 10
0.2494652545781989
 20
0.1998904321331258
 42
0.0491268482012981
 10
0.2882879960649637
 20
0.1723834694875548
 42
0.0491268482012981
 10
0.3304131258750996
 20
0.1554447643448439
 42
0.0491268482012981
 10
0.3742217989969003
 20
0.1497252616029348
 42
0.0491268482012981
 10
0.4180304727974447
 20
0.1554447585307003
 42
0.0491268482012981
 10
0.4601556046177275
 20
0.172383458082702
 42
0.0491268482012981
 10
0.4989783493687935
 20
0.1998904155758457
 42
0.0491268482012981
 10
0.5330067708366945
 20
0.2369085541269101
 42
0.0491268482012981
 10
0.5609331759508605
 20
0.2820152875217717
 42
0.0491268482012981
 10
0.5816843686922474
 20
0.3334771894023456
 42
0.0491268482012981
 10
0.5944628924118726
 20
0.389316607865177
 42
0.0491268482012981
 10
0.5987776756406693
 20
0.4473876655101824
 42
-1.0
  0
ENDBLK
  5
735
330
1A5
100
AcDbEntity
  8
0
100
AcDbBlockEnd
  0
BLOCK
  5
736
330
1F8
100
AcDbEntity
  8
0
100
AcDbBlockBegin
  2
KOZU0010
 70
     0
 71
     0
 10
0.0
 20
0.0
 30
0.0
  3
KOZU0010
  1

  0
LINE
  5
1FA
330
1F8
100
AcDbEntity
  8
0
  6
Continuous
 62
     7
100
AcDbLine
 10
0.0
 20
0.0
 30
0.0
 11
0.69964599609375
 21
0.0
 31
0.0
  0
LINE
  5
1FB
330
1F8
100
AcDbEntity
  8
0
  6
Continuous
 62
     7
100
AcDbLine
 10
0.69964599609375
 20
0.149932861328125
 30
0.0
 11
0.69964599609375
 21
0.0
 31
0.0
  0
LINE
  5
1FC
330
1F8
100
AcDbEntity
  8
0
  6
Continuous
 62
     7
100
AcDbLine
 10
0.182830810546875
 20
0.149932861328125
 30
0.0
 11
0.69964599609375
 21
0.149932861328125
 31
0.0
  0
LINE
  5
1FD
330
1F8
100
AcDbEntity
  8
0
  6
Continuous
 62
     7
100
AcDbLine
 10
0.019989013671875
 20
0.699676513671875
 30
0.0
 11
0.1699066162109375
 21
0.699676513671875
 31
0.0
  0
LINE
  5
1FE
330
1F8
100
AcDbEntity
  8
0
  6
Continuous
 62
     7
100
AcDbLine
 10
0.5012409695434401
 20
0.5816915985492968
 30
0.0
 11
0.2550632969412037
 21
0.4404590138153239
 31
0.0
  0
LINE
  5
1FF
330
1F8
100
AcDbEntity
  8
0
  6
Continuous
 62
     7
100
AcDbLine
 10
0.5749653034799671
 20
0.4520909784490509
 30
0.0
 11
0.3290175653954674
 21
0.3100917927593054
 31
0.0
  0
ARC
  5
200
330
1F8
100
AcDbEntity
  8
0
  6
Continuous
 62
     7
100
AcDbCircle
 10
0.5077362060546875
 20
0.00006103515625
 30
0.0
 40
0.50773686170578
100
AcDbArc
 50
119.8429363091506
 51
180.0060838773183
  0
ARC
  5
201
330
1F8
100
AcDbEntity
  8
0
  6
Continuous
 62
     7
100
AcDbCircle
 10
0.50823974609375
 20
-0.00030517578125
 30
0.0
 40
0.35841304063797
100
AcDbArc
 50
120.000194584601
 51
155.2193273793414
  0
LWPOLYLINE
  5
202
330
1F8
100
AcDbEntity
  8
0
  6
Continuous
 62
     7
100
AcDbPolyline
 90
       17
 70
     0
 43
0.0
 10
0.5748726046250198
 20
0.4520955666078392
 42
0.0643547735545519
 10
0.6427997437583612
 20
0.5032348522470527
 42
0.0643547735545519
 10
0.6931142866557031
 20
0.5672841103376081
 42
0.0643547735545519
 10
0.7225096065075889
 20
0.6400340808578037
 42
0.0643547735545519
 10
0.7290538691543986
 20
0.7167037007380607
 42
0.0643547735545519
 10
0.7123169915014647
 20
0.7922543110545739
 42
0.0643547735545519
 10
0.6733989061958288
 20
0.8617207931923726
 42
0.0643547735545519
 10
0.6148572750353312
 20
0.9205378720049828
 42
0.0643547735545519
 10
0.5405394017202072
 20
0.9648401416185498
 42
0.0643547735545519
 10
0.4553293904909928
 20
0.9917160964526132
 42
0.0643547735545519
 10
0.3648271671611735
 20
0.9993994727657852
 42
0.0643547735545519
 10
0.2749804569955572
 20
0.9873853259309012
 42
0.0643547735545519
 10
0.1916939055194191
 20
0.9564632149448108
 42
0.0643547735545519
 10
0.1204410304896436
 20
0.908665313316477
 42
0.0643547735545519
 10
0.0659045071976463
 20
0.8471328564394611
 42
0.0643547735545519
 10
0.0316684272326089
 20
0.7759097024081596
 42
0.0643547735545519
 10
0.0199827551841736
 20
0.6996765732765197
 42
-1.0
  0
LWPOLYLINE
  5
215
330
1F8
100
AcDbEntity
  8
0
  6
Continuous
 62
     7
100
AcDbPolyline
 90
       17
 70
     0
 43
0.0
 10
0.50114781081335
 20
0.5816559532775413
 42
0.0633335972868038
 10
0.5375025989632389
 20
0.6085512093559967
 42
0.0633335972868038
 10
0.5634987802165671
 20
0.6412480979942741
 42
0.0633335972868038
 10
0.5774812677374374
 20
0.6776649215217555
 42
0.0633335972868038
 10
0.5785598449666032
 20
0.7154831468955233
 42
0.0633335972868038
 10
0.5666658426269849
 20
0.7522950186701458
 42
0.0633335972868038
 10
0.5425565106587413
 20
0.7857568524488575
 42
0.0633335972868038
 10
0.5077668067379276
 20
0.8137382491529461
 42
0.0633335972868038
 10
0.4645116708368029
 20
0.834457730153545
 42
0.0633335972868038
 10
0.4155450076661119
 20
0.8465961578466903
 42
0.0633335972868038
 10
0.3639843550988929
 20
0.849380720576407
 42
0.0633335972868038
 10
0.3131124013301034
 20
0.8426341348766054
 42
0.0633335972868038
 10
0.2661679874871615
 20
0.8267859324954367
 42
0.0633335972868038
 10
0.2261399018314362
 20
0.8028451135963518
 42
0.0633335972868038
 10
0.1955765939597884
 20
0.7723359072118516
 42
0.0633335972868038
 10
0.1764239238439918
 20
0.7372007288593763
 42
0.0633335972868038
 10
0.1699012756648244
 20
0.699676513671875
 42
-1.0
  0
ENDBLK
  5
737
330
1F8
100
AcDbEntity
  8
0
100
AcDbBlockEnd
  0
BLOCK
  5
738
330
229
100
AcDbEntity
  8
0
100
AcDbBlockBegin
  2
KOZU0011
 70
     0
 71
     0
 10
0.0
 20
0.0
 30
0.0
  3
KOZU0011
  1

  0
LINE
  5
22B
330
229
100
AcDbEntity
  8
0
  6
Continuous
 62
     7
100
AcDbLine
 10
0.2298736572265625
 20
0.0
 30
0.0
 11
0.3798065185546875
 21
0.0
 31
0.0
  0
LINE
  5
22C
330
229
100
AcDbEntity
  8
0
  6
Continuous
 62
     7
100
AcDbLine
 10
0.0
 20
0.8195953369140625
 30
0.0
 11
0.0
 21
0.729644775390625
 31
0.0
  0
LINE
  5
22D
330
229
100
AcDbEntity
  8
0
  6
Continuous
 62
     7
100
AcDbLine
 10
0.0
 20
0.729644775390625
 30
0.0
 11
0.2298736572265625
 21
0.729644775390625
 31
0.0
  0
LINE
  5
22E
330
229
100
AcDbEntity
  8
0
  6
Continuous
 62
     7
100
AcDbLine
 10
0.2298736572265625
 20
0.729644775390625
 30
0.0
 11
0.2298736572265625
 21
0.0
 31
0.0
  0
LINE
  5
22F
330
229
100
AcDbEntity
  8
0
  6
Continuous
 62
     7
100
AcDbLine
 10
0.3798065185546875
 20
0.99951171875
 30
0.0
 11
0.3798065185546875
 21
0.0
 31
0.0
  0
LINE
  5
230
330
229
100
AcDbEntity
  8
0
  6
Continuous
 62
     7
100
AcDbLine
 10
0.269866943359375
 20
0.99951171875
 30
0.0
 11
0.3798065185546875
 21
0.99951171875
 31
0.0
  0
ARC
  5
231
330
229
100
AcDbEntity
  8
0
  6
Continuous
 62
     7
100
AcDbCircle
 10
0.0983734130859375
 20
1.015945434570313
 30
0.0
 40
0.1722868084907532
100
AcDbArc
 50
292.4592645809794
 51
354.5249510971698
  0
ARC
  5
232
330
229
100
AcDbEntity
  8
0
  6
Continuous
 62
     7
100
AcDbCircle
 10
0.0041656494140625
 20
1.18267822265625
 30
0.0
 40
0.3631128668785095
100
AcDbArc
 50
269.3421888067478
 51
296.1489327706203
  0
ENDBLK
  5
739
330
229
100
AcDbEntity
  8
0
100
AcDbBlockEnd
  0
BLOCK
  5
73A
330
234
100
AcDbEntity
  8
0
100
AcDbBlockBegin
  2
KOZU0012
 70
     0
 71
     0
 10
0.0
 20
0.0
 30
0.0
  3
KOZU0012
  1

  0
LINE
  5
236
330
234
100
AcDbEntity
  8
0
  6
Continuous
 62
     7
100
AcDbLine
 10
0.2998504638671875
 20
0.6247100830078125
 30
0.0
 11
0.2998504638671875
 21
0.4747772216796875
 31
0.0
  0
LINE
  5
237
330
234
100
AcDbEntity
  8
0
  6
Continuous
 62
     7
100
AcDbLine
 10
0.2998504638671875
 20
0.6247100830078125
 30
0.0
 11
0.38250732421875
 21
0.6247100830078125
 31
0.0
  0
LINE
  5
238
330
234
100
AcDbEntity
  8
0
  6
Continuous
 62
     7
100
AcDbLine
 10
0.2998504638671875
 20
0.4747772216796875
 30
0.0
 11
0.38250732421875
 21
0.4747772216796875
 31
0.0
  0
LINE
  5
239
330
234
100
AcDbEntity
  8
0
  6
Continuous
 62
     7
100
AcDbLine
 10
0.040374755859375
 20
0.7496337890625
 30
0.0
 11
0.1903076171875
 21
0.7496337890625
 31
0.0
  0
LINE
  5
23A
330
234
100
AcDbEntity
  8
0
  6
Continuous
 62
     7
100
AcDbLine
 10
0.0032958984375
 20
0.2998504638671875
 30
0.0
 11
0.1537933349609375
 21
0.2998504638671875
 31
0.0
  0
LWPOLYLINE
  5
23B
330
234
100
AcDbEntity
  8
0
  6
Continuous
 62
     7
100
AcDbPolyline
 90
       17
 70
     0
 43
0.0
 10
0.3825073242187499
 20
0.6247087015912673
 42
0.0720186760359958
 10
0.4370235369274738
 20
0.6293263488741415
 42
0.0720186760359958
 10
0.4870621787707834
 20
0.6428000302805351
 42
0.0720186760359958
 10
0.5285134344528218
 20
0.6640231142174304
 42
0.0720186760359958
 10
0.5579727950109364
 20
0.6912524887262289
 42
0.0720186760359958
 10
0.5730206797737127
 20
0.7222517282020291
 42
0.0720186760359958
 10
0.5724211633704741
 20
0.7544747773590675
 42
0.0720186760359958
 10
0.556223485780432
 20
0.785275065958299
 42
0.0720186760359958
 10
0.5257580081138138
 20
0.8121228791126108
 42
0.0720186760359958
 10
0.483526946288108
 20
0.8328131299312073
 42
0.0720186760359958
 10
0.4329988569518956
 20
0.8456464695477531
 42
0.0720186760359958
 10
0.378323755109074
 20
0.8495688594530066
 42
0.0720186760359958
 10
0.3239922616393985
 20
0.8442581426611845
 42
0.0720186760359958
 10
0.2744667758943071
 20
0.8301505033751143
 42
0.0720186760359958
 10
0.233814966206751
 20
0.8084046419429765
 42
0.0720186760359958
 10
0.2053756807769142
 20
0.7808066075188478
 42
0.0720186760359958
 10
0.1914847186184625
 20
0.7496231047900183
 42
-1.0
  0
LWPOLYLINE
  5
24E
330
234
100
AcDbEntity
  8
0
  6
Continuous
 62
     7
100
AcDbPolyline
 90
       17
 70
     0
 43
0.0
 10
0.6254583913558827
 20
0.5524165270221019
 42
0.0606140371991105
 10
0.6761364503959614
 20
0.6024842467793801
 42
0.0606140371991105
 10
0.709679666160341
 20
0.6604105638536779
 42
0.0606140371991105
 10
0.724130611085317
 20
0.7228151652034086
 42
0.0606140371991105
 10
0.7186459945896758
 20
0.7860564057447501
 42
0.0606140371991105
 10
0.6935458736286101
 20
0.8464438179844247
 42
0.0606140371991105
 10
0.6502949756440748
 20
0.9004534707034033
 42
0.0606140371991105
 10
0.5914172238181691
 20
0.9449336093507564
 42
0.0606140371991105
 10
0.520348452542041
 20
0.9772885779214874
 42
0.0606140371991105
 10
0.4412359079471185
 20
0.9956302894847544
 42
0.0606140371991105
 10
0.3586962337241155
 20
0.9988884062401616
 42
0.0606140371991105
 10
0.2775460650626379
 20
0.9868727995015512
 42
0.0606140371991105
 10
0.2025209520081252
 20
0.9602846447313468
 42
0.0606140371991105
 10
0.137999014574309
 20
0.9206755041703554
 42
0.0606140371991105
 10
0.0877454558259065
 20
0.8703567848122685
 42
0.0606140371991105
 10
0.0546928419712183
 20
0.8122648553384221
 42
0.0606140371991105
 10
0.0407699713063321
 20
0.7497896931671896
 42
-1.0
  0
LWPOLYLINE
  5
261
330
234
100
AcDbEntity
  8
0
  6
Continuous
 62
     7
100
AcDbPolyline
 90
       17
 70
     0
 43
0.0
 10
0.0033061136140956
 20
0.2998382614685792
 42
0.0622391709364255
 10
0.0187132776420724
 20
0.2234211226489875
 42
0.0622391709364255
 10
0.0565038966612749
 20
0.1524731325348526
 42
0.0622391709364255
 10
0.1143537710781417
 20
0.0913577361838877
 42
0.0622391709364255
 10
0.1887050164732904
 20
0.0438336542269209
 42
0.0622391709364255
 10
0.2749848806978247
 20
0.0128237139379017
 42
0.0622391709364255
 10
0.3678869773900583
 20
0.0002350894379913
 42
0.0622391709364255
 10
0.4616976394818927
 20
0.0068420066251918
 42
0.0622391709364255
 10
0.5506473212933599
 20
0.0322381267138541
 42
0.0622391709364255
 10
0.6292654372749469
 20
0.0748615368928092
 42
0.0622391709364255
 10
0.6927168140965181
 20
0.1320908111260405
 42
0.0622391709364255
 10
0.7370990635980739
 20
0.2004062331621394
 42
0.0622391709364255
 10
0.7596825875637071
 20
0.2756062662109942
 42
0.0622391709364255
 10
0.7590784535391638
 20
0.3530659559642591
 42
0.0622391709364255
 10
0.7353238169902911
 20
0.4280213746505882
 42
0.0622391709364255
 10
0.689879636166649
 20
0.4958626122402607
 42
0.0622391709364255
 10
0.6255408202108044
 20
0.5524172952468175
 42
-1.0
  0
LWPOLYLINE
  5
274
330
234
100
AcDbEntity
  8
0
  6
Continuous
 62
     7
100
AcDbPolyline
 90
       17
 70
     0
 43
0.0
 10
0.1537961682386238
 20
0.2998259226264266
 42
0.072552208598998
 10
0.1683883333721301
 20
0.2540874033007816
 42
0.072552208598998
 10
0.2008382066153756
 20
0.2132043599276944
 42
0.072552208598998
 10
0.2484413678675197
 20
0.1805840453938844
 42
0.072552208598998
 10
0.3072304997468011
 20
0.1589450846277049
 42
0.072552208598998
 10
0.3723060296486208
 20
0.1500909004042984
 42
0.072552208598998
 10
0.4382444673232603
 20
0.1547594134425176
 42
0.072552208598998
 10
0.4995504065197117
 20
0.1725615430083036
 42
0.072552208598998
 10
0.5511145202146922
 20
0.2020136334745729
 42
0.072552208598998
 10
0.588639379431718
 20
0.2406611043604806
 42
0.072552208598998
 10
0.6089976072843827
 20
0.2852830186741615
 42
0.072552208598998
 10
0.6104925191597899
 20
0.3321605205327797
 42
0.072552208598998
 10
0.5929995269064073
 20
0.3773867700743321
 42
0.072552208598998
 10
0.5579765221936193
 20
0.4171925452304004
 42
0.072552208598998
 10
0.5083423736785418
 20
0.4482603742298421
 42
0.072552208598998
 10
0.4482336642046919
 20
0.4680010185691426
 42
0.072552208598998
 10
0.382659941911692
 20
0.4747692639525612
 42
-1.0
  0
ENDBLK
  5
73B
330
234
100
AcDbEntity
  8
0
100
AcDbBlockEnd
  0
BLOCK
  5
73C
330
288
100
AcDbEntity
  8
0
100
AcDbBlockBegin
  2
KOZU0013
 70
     0
 71
     0
 10
0.0
 20
0.0
 30
0.0
  3
KOZU0013
  1

  0
CIRCLE
  5
28A
330
288
100
AcDbEntity
  8
0
  6
Continuous
 62
     7
100
AcDbCircle
 10
0.0
 20
0.0
 30
0.0
 40
0.2199999690055847
  0
ENDBLK
  5
73D
330
288
100
AcDbEntity
  8
0
100
AcDbBlockEnd
  0
BLOCK
  5
73E
330
28C
100
AcDbEntity
  8
0
100
AcDbBlockBegin
  2
KOZU0014
 70
     0
 71
     0
 10
0.0
 20
0.0
 30
0.0
  3
KOZU0014
  1

  0
CIRCLE
  5
28E
330
28C
100
AcDbEntity
  8
0
  6
Continuous
 62
     7
100
AcDbCircle
 10
0.0
 20
0.0
 30
0.0
 40
0.2199999690055847
  0
ENDBLK
  5
73F
330
28C
100
AcDbEntity
  8
0
100
AcDbBlockEnd
  0
BLOCK
  5
740
330
290
100
AcDbEntity
  8
0
100
AcDbBlockBegin
  2
KOZU0015
 70
     0
 71
     0
 10
0.0
 20
0.0
 30
0.0
  3
KOZU0015
  1

  0
CIRCLE
  5
292
330
290
100
AcDbEntity
  8
0
  6
Continuous
 62
     7
100
AcDbCircle
 10
0.0
 20
0.0
 30
0.0
 40
0.2199999690055847
  0
ENDBLK
  5
741
330
290
100
AcDbEntity
  8
0
100
AcDbBlockEnd
  0
BLOCK
  5
742
330
294
100
AcDbEntity
  8
0
100
AcDbBlockBegin
  2
KOZU0016
 70
     0
 71
     0
 10
0.0
 20
0.0
 30
0.0
  3
KOZU0016
  1

  0
CIRCLE
  5
296
330
294
100
AcDbEntity
  8
0
  6
Continuous
 62
     7
100
AcDbCircle
 10
0.0
 20
0.0
 30
0.0
 40
0.2199999690055847
  0
ENDBLK
  5
743
330
294
100
AcDbEntity
  8
0
100
AcDbBlockEnd
  0
BLOCK
  5
744
330
298
100
AcDbEntity
  8
0
100
AcDbBlockBegin
  2
KOZU0017
 70
     0
 71
     0
 10
0.0
 20
0.0
 30
0.0
  3
KOZU0017
  1

  0
CIRCLE
  5
29A
330
298
100
AcDbEntity
  8
0
  6
Continuous
 62
     7
100
AcDbCircle
 10
0.0
 20
0.0
 30
0.0
 40
0.2199999690055847
  0
ENDBLK
  5
745
330
298
100
AcDbEntity
  8
0
100
AcDbBlockEnd
  0
BLOCK
  5
746
330
29C
100
AcDbEntity
  8
0
100
AcDbBlockBegin
  2
KOZU0018
 70
     0
 71
     0
 10
0.0
 20
0.0
 30
0.0
  3
KOZU0018
  1

  0
CIRCLE
  5
29E
330
29C
100
AcDbEntity
  8
0
  6
Continuous
 62
     7
100
AcDbCircle
 10
0.0
 20
0.0
 30
0.0
 40
0.2199999690055847
  0
ENDBLK
  5
747
330
29C
100
AcDbEntity
  8
0
100
AcDbBlockEnd
  0
BLOCK
  5
748
330
2A0
100
AcDbEntity
  8
0
100
AcDbBlockBegin
  2
KOZU0019
 70
     0
 71
     0
 10
0.0
 20
0.0
 30
0.0
  3
KOZU0019
  1

  0
CIRCLE
  5
2A2
330
2A0
100
AcDbEntity
  8
0
  6
Continuous
 62
     7
100
AcDbCircle
 10
0.0
 20
0.0
 30
0.0
 40
0.2199999690055847
  0
ENDBLK
  5
749
330
2A0
100
AcDbEntity
  8
0
100
AcDbBlockEnd
  0
BLOCK
  5
74A
330
2A4
100
AcDbEntity
  8
0
100
AcDbBlockBegin
  2
KOZU0020
 70
     0
 71
     0
 10
0.0
 20
0.0
 30
0.0
  3
KOZU0020
  1

  0
CIRCLE
  5
2A6
330
2A4
100
AcDbEntity
  8
0
  6
Continuous
 62
     7
100
AcDbCircle
 10
0.0
 20
0.0
 30
0.0
 40
0.2199999690055847
  0
ENDBLK
  5
74B
330
2A4
100
AcDbEntity
  8
0
100
AcDbBlockEnd
  0
BLOCK
  5
74C
330
2A8
100
AcDbEntity
  8
0
100
AcDbBlockBegin
  2
KOZU0021
 70
     0
 71
     0
 10
0.0
 20
0.0
 30
0.0
  3
KOZU0021
  1

  0
CIRCLE
  5
2AA
330
2A8
100
AcDbEntity
  8
0
  6
Continuous
 62
     7
100
AcDbCircle
 10
0.0
 20
0.0
 30
0.0
 40
0.2199999690055847
  0
ENDBLK
  5
74D
330
2A8
100
AcDbEntity
  8
0
100
AcDbBlockEnd
  0
ENDSEC
  0
SECTION
  2
ENTITIES
  0
POINT
  5
2DC
330
1F
100
AcDbEntity
  8
0
  6
Continuous
 62
     7
100
AcDbPoint
 10
107.5751825825976
 20
43.96089273418194
 30
0.0
  0
LINE
  5
2DD
330
1F
100
AcDbEntity
  8
0
  6
Continuous
 62
     7
100
AcDbLine
 10
228.5551825825976
 20
28.96089273418194
 30
0.0
 11
216.7751825825975
 21
28.96089273418194
 31
0.0
  0
LINE
  5
2DE
330
1F
100
AcDbEntity
  8
0
  6
CENTER
 62
     7
100
AcDbLine
 10
-44.94481741740245
 20
48.30222606751526
 30
0.0
 11
-44.94481741740245
 21
41.75495273418194
 31
0.0
  0
LINE
  5
2DF
330
1F
100
AcDbEntity
  8
0
  6
Continuous
 62
     7
100
AcDbLine
 10
233.0551825825976
 20
31.56089311565167
 30
0.0
 11
233.0551825825976
 21
56.36089235271221
 31
0.0
  0
LINE
  5
2E0
330
1F
100
AcDbEntity
  8
0
  6
CENTER
 62
     7
100
AcDbLine
 10
246.5851825825976
 20
46.94555940084861
 30
0.0
 11
246.5851825825976
 21
42.09139585149603
 31
0.0
  0
LINE
  5
2E1
330
1F
100
AcDbEntity
  8
0
  6
Continuous
 62
     7
100
AcDbLine
 10
88.57518258259755
 20
29.46089273418194
 30
0.0
 11
121.5751825825975
 21
29.46089273418194
 31
0.0
  0
LINE
  5
2E2
330
1F
100
AcDbEntity
  8
0
  6
Continuous
 62
     7
100
AcDbLine
 10
229.0551825825976
 20
29.46089273418194
 30
0.0
 11
229.0551825825976
 21
58.46089349102125
 31
0.0
  0
LINE
  5
2E3
330
1F
100
AcDbEntity
  8
0
  6
Continuous
 62
     7
100
AcDbLine
 10
232.755183345537
 20
31.2608929249168
 30
0.0
 11
230.0551825825976
 21
31.2608929249168
 31
0.0
  0
LINE
  5
2E4
330
1F
100
AcDbEntity
  8
0
  6
Continuous
 62
     7
100
AcDbLine
 10
232.755183345537
 20
56.66089254344708
 30
0.0
 11
230.0551825825976
 21
56.66089254344708
 31
0.0
  0
LINE
  5
2E5
330
1F
100
AcDbEntity
  8
0
  6
Continuous
 62
     7
100
AcDbLine
 10
230.0551825825976
 20
31.2608929249168
 30
0.0
 11
230.0551825825976
 21
56.36089235271221
 31
0.0
  0
LINE
  5
2E6
330
1F
100
AcDbEntity
  8
0
  6
Continuous
 62
     7
100
AcDbLine
 10
230.0551825825976
 20
56.36089235271221
 30
0.0
 11
230.0551825825976
 21
56.66089254344708
 31
0.0
  0
LINE
  5
2E7
330
1F
100
AcDbEntity
  8
0
  6
Continuous
 62
     7
100
AcDbLine
 10
233.0551825825976
 20
31.56089311565167
 30
0.0
 11
230.0551825825976
 21
31.56089311565167
 31
0.0
  0
LINE
  5
2E8
330
1F
100
AcDbEntity
  8
0
  6
Continuous
 62
     7
100
AcDbLine
 10
233.0551825825976
 20
56.36089235271221
 30
0.0
 11
230.0551825825976
 21
56.36089235271221
 31
0.0
  0
LINE
  5
2E9
330
1F
100
AcDbEntity
  8
0
  6
Continuous
 62
     7
100
AcDbLine
 10
230.0551825825976
 20
31.56089311565167
 30
0.0
 11
229.0551825825976
 21
31.56089311565167
 31
0.0
  0
LINE
  5
2EA
330
1F
100
AcDbEntity
  8
0
  6
Continuous
 62
     7
100
AcDbLine
 10
230.0551825825976
 20
56.36089235271221
 30
0.0
 11
229.0551825825976
 21
56.36089235271221
 31
0.0
  0
LINE
  5
2EB
330
1F
100
AcDbEntity
  8
0
  6
Continuous
 62
     7
100
AcDbLine
 10
232.7551838691722
 20
31.26089243382884
 30
0.0
 11
233.0551844498791
 21
31.5608930398239
 31
0.0
  0
LINE
  5
2EC
330
1F
100
AcDbEntity
  8
0
  6
Continuous
 62
     7
100
AcDbLine
 10
233.0551834046376
 20
56.36089173873668
 30
0.0
 11
232.7551827986426
 21
56.66089231944356
 31
0.0
  0
LINE
  5
2ED
330
1F
100
AcDbEntity
  8
0
  6
Continuous
 62
     7
100
AcDbLine
 10
228.5551851000905
 20
28.96089220345201
 30
0.0
 11
229.0551842696698
 21
29.46089141517814
 31
0.0
  0
LINE
  5
2EE
330
1F
100
AcDbEntity
  8
0
  6
Continuous
 62
     7
100
AcDbLine
 10
229.0551830474114
 20
58.46089302620779
 30
0.0
 11
228.5551838356852
 21
58.96089219578715
 31
0.0
  0
LINE
  5
2EF
330
1F
100
AcDbEntity
  8
0
  6
Continuous
 62
     7
100
AcDbLine
 10
228.5551825825976
 20
58.96089273418194
 30
0.0
 11
216.7751825825976
 21
58.96089273418194
 31
0.0
  0
LINE
  5
2F0
330
1F
100
AcDbEntity
  8
0
  6
Continuous
 62
     7
100
AcDbLine
 10
228.5551825825976
 20
28.96089273418194
 30
0.0
 11
228.5551825825976
 21
58.96089273418194
 31
0.0
  0
LINE
  5
2F1
330
1F
100
AcDbEntity
  8
0
  6
CENTER
 62
     7
100
AcDbLine
 10
-49.59170374359684
 20
43.96089273418194
 30
0.0
 11
-30.43013700626845
 21
43.96089273418194
 31
0.0
  0
LINE
  5
2F2
330
1F
100
AcDbEntity
  8
0
  6
Continuous
 62
     7
100
AcDbLine
 10
88.57518258259755
 20
58.46089273418194
 30
0.0
 11
96.57518258259756
 21
58.46089273418194
 31
0.0
  0
LINE
  5
2F3
330
1F
100
AcDbEntity
  8
0
  6
Continuous
 62
     7
100
AcDbLine
 10
216.2751825825976
 20
29.46089273418194
 30
0.0
 11
216.2751825825976
 21
58.46089273418194
 31
0.0
  0
LINE
  5
2F4
330
1F
100
AcDbEntity
  8
0
  6
Continuous
 62
     7
100
AcDbLine
 10
206.2751825825976
 20
29.46089273418194
 30
0.0
 11
206.2751825825976
 21
58.46089273418194
 31
0.0
  0
LINE
  5
2F5
330
1F
100
AcDbEntity
  8
0
  6
Continuous
 62
     7
100
AcDbLine
 10
206.7751825825976
 20
58.96089273418194
 30
0.0
 11
215.7751825825976
 21
58.96089273418194
 31
0.0
  0
LINE
  5
2F6
330
1F
100
AcDbEntity
  8
0
  6
Continuous
 62
     7
100
AcDbLine
 10
206.7751825825975
 20
28.96089273418194
 30
0.0
 11
215.7751825825976
 21
28.96089273418194
 31
0.0
  0
LINE
  5
2F7
330
1F
100
AcDbEntity
  8
0
  6
CENTER
 62
     7
100
AcDbLine
 10
211.2751825825976
 20
41.35200437271165
 30
0.0
 11
211.2751825825976
 21
46.37662004698795
 31
0.0
  0
LINE
  5
2F8
330
1F
100
AcDbEntity
  8
0
  6
Continuous
 62
     7
100
AcDbLine
 10
206.7751825825976
 20
28.96089273418194
 30
0.0
 11
206.7751825825976
 21
58.96089273418194
 31
0.0
  0
LINE
  5
2F9
330
1F
100
AcDbEntity
  8
0
  6
Continuous
 62
     7
100
AcDbLine
 10
215.7751825825976
 20
28.96089273418194
 30
0.0
 11
215.7751825825976
 21
58.96089273418194
 31
0.0
  0
LINE
  5
2FA
330
1F
100
AcDbEntity
  8
0
  6
Continuous
 62
     7
100
AcDbLine
 10
216.7751825825976
 20
28.96089273418194
 30
0.0
 11
216.7751825825976
 21
58.96089273418194
 31
0.0
  0
LINE
  5
2FB
330
1F
100
AcDbEntity
  8
0
  6
Continuous
 62
     7
100
AcDbLine
 10
206.2751825825976
 20
58.46089273418193
 30
0.0
 11
206.7751825825976
 21
58.96089273418195
 31
0.0
  0
LINE
  5
2FC
330
1F
100
AcDbEntity
  8
0
  6
Continuous
 62
     7
100
AcDbLine
 10
215.7751825825974
 20
58.96089273418187
 30
0.0
 11
216.2751825825974
 21
58.46089273418187
 31
0.0
  0
LINE
  5
2FD
330
1F
100
AcDbEntity
  8
0
  6
Continuous
 62
     7
100
AcDbLine
 10
206.2751825825975
 20
29.4608927341819
 30
0.0
 11
206.7751825825974
 21
28.96089273418193
 31
0.0
  0
LINE
  5
2FE
330
1F
100
AcDbEntity
  8
0
  6
Continuous
 62
     7
100
AcDbLine
 10
215.7751825825975
 20
28.96089273418197
 30
0.0
 11
216.2751825825974
 21
29.46089273418197
 31
0.0
  0
LINE
  5
2FF
330
1F
100
AcDbEntity
  8
0
  6
Continuous
 62
     7
100
AcDbLine
 10
216.2751825825975
 20
29.4608927341819
 30
0.0
 11
216.7751825825974
 21
28.96089273418188
 31
0.0
  0
LINE
  5
300
330
1F
100
AcDbEntity
  8
0
  6
Continuous
 62
     7
100
AcDbLine
 10
216.2751825825975
 20
58.4608927341819
 30
0.0
 11
216.7751825825975
 21
58.96089273418193
 31
0.0
  0
LINE
  5
301
330
1F
100
AcDbEntity
  8
0
  6
CENTER
 62
     7
100
AcDbLine
 10
107.5751825825976
 20
43.96089273418194
 30
0.0
 11
107.5751825825976
 21
76.42850301195557
 31
0.0
  0
LINE
  5
302
330
1F
100
AcDbEntity
  8
0
  6
Continuous
 62
     7
100
AcDbLine
 10
121.5751825825975
 20
57.46089273418194
 30
0.0
 11
206.2751825825976
 21
57.46089273418194
 31
0.0
  0
LINE
  5
303
330
1F
100
AcDbEntity
  8
0
  6
Continuous
 62
     7
100
AcDbLine
 10
121.5751825825975
 20
30.46089273418194
 30
0.0
 11
206.2751825825976
 21
30.46089273418194
 31
0.0
  0
LINE
  5
304
330
1F
100
AcDbEntity
  8
0
  6
Continuous
 62
     7
100
AcDbLine
 10
12.57518258259756
 20
30.96089273418194
 30
0.0
 11
12.57518258259756
 21
56.96089273418194
 31
0.0
  0
LINE
  5
305
330
1F
100
AcDbEntity
  8
0
  6
Continuous
 62
     7
100
AcDbLine
 10
13.07518258259757
 20
57.46089273418194
 30
0.0
 11
88.57518258259755
 21
57.46089273418194
 31
0.0
  0
LINE
  5
306
330
1F
100
AcDbEntity
  8
0
  6
Continuous
 62
     7
100
AcDbLine
 10
13.07518258259757
 20
30.46089273418194
 30
0.0
 11
88.57518258259755
 21
30.46089273418194
 31
0.0
  0
LINE
  5
307
330
1F
100
AcDbEntity
  8
0
  6
Continuous
 62
     7
100
AcDbLine
 10
88.57518258259755
 20
29.46089273418194
 30
0.0
 11
88.57518258259755
 21
58.46089273418194
 31
0.0
  0
LINE
  5
308
330
1F
100
AcDbEntity
  8
0
  6
Continuous
 62
     7
100
AcDbLine
 10
99.07518258259756
 20
73.96089273418194
 30
0.0
 11
116.0751825825976
 21
73.96089273418194
 31
0.0
  0
LINE
  5
309
330
1F
100
AcDbEntity
  8
0
  6
Continuous
 62
     7
100
AcDbLine
 10
98.57518258259756
 20
54.46089273418194
 30
0.0
 11
98.57518258259756
 21
73.46089273418194
 31
0.0
  0
LINE
  5
30A
330
1F
100
AcDbEntity
  8
0
  6
Continuous
 62
     7
100
AcDbLine
 10
116.5751825825976
 20
54.46089273418194
 30
0.0
 11
116.5751825825976
 21
73.46089273418194
 31
0.0
  0
LINE
  5
30B
330
1F
100
AcDbEntity
  8
0
  6
Continuous
 62
     7
100
AcDbLine
 10
121.5751825825975
 20
29.46089273418194
 30
0.0
 11
121.5751825825975
 21
58.46089273418194
 31
0.0
  0
LINE
  5
30C
330
1F
100
AcDbEntity
  8
0
  6
Continuous
 62
     7
100
AcDbLine
 10
118.5751825825975
 20
51.46089273418194
 30
0.0
 11
118.5751825825975
 21
58.46089273418194
 31
0.0
  0
LINE
  5
30D
330
1F
100
AcDbEntity
  8
0
  6
Continuous
 62
     7
100
AcDbLine
 10
96.57518258259756
 20
51.46089273418194
 30
0.0
 11
96.57518258259756
 21
58.46089273418194
 31
0.0
  0
LINE
  5
30E
330
1F
100
AcDbEntity
  8
0
  6
Continuous
 62
     7
100
AcDbLine
 10
118.5751825825975
 20
58.46089273418194
 30
0.0
 11
121.5751825825975
 21
58.46089273418194
 31
0.0
  0
LINE
  5
30F
330
1F
100
AcDbEntity
  8
0
  6
Continuous
 62
     7
100
AcDbLine
 10
91.57518258259756
 20
29.46089273418194
 30
0.0
 11
91.57518258259756
 21
58.46089273418194
 31
0.0
  0
LINE
  5
310
330
1F
100
AcDbEntity
  8
0
  6
CENTER
 62
     7
100
AcDbLine
 10
7.743205446753255
 20
43.96089273418194
 30
0.0
 11
249.2580544032134
 21
43.96089273418194
 31
0.0
  0
LINE
  5
311
330
1F
100
AcDbEntity
  8
0
  6
Continuous
 62
     7
100
AcDbLine
 10
13.07518258259756
 20
30.46089273418194
 30
0.0
 11
13.07518258259756
 21
57.46089273418194
 31
0.0
  0
LINE
  5
312
330
1F
100
AcDbEntity
  8
0
  6
Continuous
 62
     7
100
AcDbLine
 10
98.57518258259756
 20
73.46089273418194
 30
0.0
 11
116.5751825825976
 21
73.46089273418194
 31
0.0
  0
LINE
  5
313
330
1F
100
AcDbEntity
  8
0
  6
Continuous
 62
     7
100
AcDbLine
 10
12.57518258259757
 20
56.96089273418195
 30
0.0
 11
13.07518258259757
 21
57.46089273418195
 31
0.0
  0
LINE
  5
314
330
1F
100
AcDbEntity
  8
0
  6
Continuous
 62
     7
100
AcDbLine
 10
12.57518258259756
 20
30.96089273418194
 30
0.0
 11
13.07518258259756
 21
30.46089273418194
 31
0.0
  0
LINE
  5
315
330
1F
100
AcDbEntity
  8
0
  6
Continuous
 62
     7
100
AcDbLine
 10
98.57518258259756
 20
73.46089273418194
 30
0.0
 11
99.07518258259756
 21
73.96089273418194
 31
0.0
  0
LINE
  5
316
330
1F
100
AcDbEntity
  8
0
  6
Continuous
 62
     7
100
AcDbLine
 10
116.0751825825975
 20
73.96089273418187
 30
0.0
 11
116.5751825825975
 21
73.46089273418187
 31
0.0
  0
LINE
  5
317
330
1F
100
AcDbEntity
  8
0
  6
CENTER
 62
     7
100
AcDbLine
 10
-30.43013700626845
 20
43.96089273418195
 30
0.0
 11
-27.43013700626845
 21
46.96089273418195
 31
0.0
  0
LINE
  5
318
330
1F
100
AcDbEntity
  8
0
  6
CENTER
 62
     7
100
AcDbLine
 10
-27.43013700626845
 20
46.96089273418195
 30
0.0
 11
-21.43013700626844
 21
40.96089273418195
 31
0.0
  0
LINE
  5
319
330
1F
100
AcDbEntity
  8
0
  6
CENTER
 62
     7
100
AcDbLine
 10
-21.43013700626844
 20
40.96089273418195
 30
0.0
 11
-18.43013700626844
 21
43.96089273418194
 31
0.0
  0
LINE
  5
31A
330
1F
100
AcDbEntity
  8
0
  6
CENTER
 62
     7
100
AcDbLine
 10
-18.43013700626844
 20
43.96089273418194
 30
0.0
 11
-11.50669550636455
 21
43.96089273418194
 31
0.0
  0
LINE
  5
31B
330
1F
100
AcDbEntity
  8
0
  6
DASHED
 62
     7
100
AcDbLine
 10
97.77518258259757
 20
51.46089273418194
 30
0.0
 11
97.77518258259757
 21
54.46089273418194
 31
0.0
  0
LINE
  5
31C
330
1F
100
AcDbEntity
  8
0
  6
DASHED
 62
     7
100
AcDbLine
 10
99.57518258259756
 20
51.46089273418194
 30
0.0
 11
99.57518258259756
 21
54.46089273418194
 31
0.0
  0
LINE
  5
31D
330
1F
100
AcDbEntity
  8
0
  6
DASHED
 62
     7
100
AcDbLine
 10
97.57518258259756
 20
51.46089273418194
 30
0.0
 11
97.57518258259756
 21
54.46089273418194
 31
0.0
  0
LINE
  5
31E
330
1F
100
AcDbEntity
  8
0
  6
DASHED
 62
     7
100
AcDbLine
 10
99.37518258259756
 20
51.46089273418194
 30
0.0
 11
99.37518258259756
 21
54.46089273418194
 31
0.0
  0
LINE
  5
31F
330
1F
100
AcDbEntity
  8
0
  6
Continuous
 62
     7
100
AcDbLine
 10
96.57518258259755
 20
51.46089273418194
 30
0.0
 11
118.5751825825975
 21
51.46089273418194
 31
0.0
  0
LINE
  5
320
330
1F
100
AcDbEntity
  8
0
  6
Continuous
 62
     7
100
AcDbLine
 10
96.57518258259755
 20
54.46089273418194
 30
0.0
 11
118.5751825825975
 21
54.46089273418194
 31
0.0
  0
LINE
  5
321
330
1F
100
AcDbEntity
  8
0
  6
CENTER
 62
     7
100
AcDbLine
 10
98.57518258259756
 20
48.48673273418193
 30
0.0
 11
98.57518258259756
 21
54.46089273418194
 31
0.0
  0
LINE
  5
322
330
1F
100
AcDbEntity
  8
0
  6
CENTER
 62
     7
100
AcDbLine
 10
116.5751825825976
 20
48.37277273418194
 30
0.0
 11
116.5751825825976
 21
54.46089273418194
 31
0.0
  0
LINE
  5
323
330
1F
100
AcDbEntity
  8
0
  6
Continuous
 62
     7
100
AcDbLine
 10
98.57518258259755
 20
59.46089273418194
 30
0.0
 11
116.5751825825975
 21
59.46089273418194
 31
0.0
  0
LINE
  5
324
330
1F
100
AcDbEntity
  8
0
  6
DASHED
 62
     7
100
AcDbLine
 10
114.5751825825976
 20
55.96089273418194
 30
0.0
 11
114.5751825825976
 21
59.46089273418194
 31
0.0
  0
LINE
  5
325
330
1F
100
AcDbEntity
  8
0
  6
DASHED
 62
     7
100
AcDbLine
 10
100.5751825825976
 20
55.96089273418194
 30
0.0
 11
100.5751825825976
 21
59.46089273418194
 31
0.0
  0
LINE
  5
326
330
1F
100
AcDbEntity
  8
0
  6
DASHED
 62
     7
100
AcDbLine
 10
103.5751825825976
 20
55.96089273418194
 30
0.0
 11
103.5751825825976
 21
73.96089273418194
 31
0.0
  0
LINE
  5
327
330
1F
100
AcDbEntity
  8
0
  6
DASHED
 62
     7
100
AcDbLine
 10
111.5751825825976
 20
55.96089273418194
 30
0.0
 11
111.5751825825976
 21
73.96089273418194
 31
0.0
  0
LINE
  5
328
330
1F
100
AcDbEntity
  8
0
  6
DASHED
 62
     7
100
AcDbLine
 10
111.5751825825975
 20
55.96089273418194
 30
0.0
 11
114.5751825825975
 21
55.96089273418194
 31
0.0
  0
LINE
  5
329
330
1F
100
AcDbEntity
  8
0
  6
DASHED
 62
     7
100
AcDbLine
 10
100.5751825825975
 20
55.96089273418194
 30
0.0
 11
103.5751825825975
 21
55.96089273418194
 31
0.0
  0
LINE
  5
32A
330
1F
100
AcDbEntity
  8
0
  6
CENTER
 62
     7
100
AcDbLine
 10
105.0610107182268
 20
69.96089273418193
 30
0.0
 11
109.8346511620531
 21
69.96089273418193
 31
0.0
  0
CIRCLE
  5
32B
330
1F
100
AcDbEntity
  8
0
  6
Continuous
 62
     4
100
AcDbCircle
 10
-44.94481741740245
 20
43.96089273418194
 30
0.0
 40
1.0
  0
CIRCLE
  5
32C
330
1F
100
AcDbEntity
  8
0
  6
Continuous
 62
     7
100
AcDbCircle
 10
246.5851825825976
 20
43.96089273418194
 30
0.0
 40
1.0
  0
CIRCLE
  5
32D
330
1F
100
AcDbEntity
  8
0
  6
Continuous
 62
     7
100
AcDbCircle
 10
211.2751825825976
 20
43.96089273418194
 30
0.0
 40
1.5
  0
CIRCLE
  5
32E
330
1F
100
AcDbEntity
  8
0
  6
Continuous
 62
     7
100
AcDbCircle
 10
211.2751825825976
 20
43.96089273418194
 30
0.0
 40
1.25
  0
CIRCLE
  5
32F
330
1F
100
AcDbEntity
  8
0
  6
Continuous
 62
     7
100
AcDbCircle
 10
107.5751825825976
 20
69.96089273418193
 30
0.0
 40
1.5
  0
CIRCLE
  5
330
330
1F
100
AcDbEntity
  8
0
  6
Continuous
 62
     7
100
AcDbCircle
 10
107.5751825825976
 20
69.96089273418193
 30
0.0
 40
1.25
  0
TEXT
  5
331
330
1F
100
AcDbEntity
  8
0
  6
Continuous
 62
     7
100
AcDbText
 10
219.3093002312929
 20
54.80885112389747
 30
0.0
 40
3.200000047683716
  1
ＴＶＲ　０３Ｎ
 50
269.9999999999999
 41
0.8463496951852009
100
AcDbText
  0
DIMENSION
  5
332
330
1F
100
AcDbEntity
  8
0
  6
Continuous
 62
     7
100
AcDbDimension
  2
*D2
 10
264.1679953208812
 20
28.96089273418194
 30
0.0
 11
264.1679953208812
 21
43.96089273418194
 31
0.0
 70
    32
 71
     5
 42
-1.0
  3
DIMSTYLE
100
AcDbAlignedDimension
 13
228.5551825825976
 23
58.96089273418194
 33
0.0
 14
228.5551825825976
 24
28.96089273418194
 34
0.0
 50
90.0
100
AcDbRotatedDimension
1001
ACAD
1000
DSTYLE
1002
{
1070
    77
1070
     1
1070
   172
1070
     1
1002
}
  0
DIMENSION
  5
333
330
1F
100
AcDbEntity
  8
0
  6
Continuous
 62
     7
100
AcDbDimension
  2
*D3
 10
256.9963147920995
 20
31.2608929249168
 30
0.0
 11
256.9963147920995
 21
43.95260388804216
 31
0.0
 70
    32
 71
     5
 42
-1.0
  3
DIMSTYLE
100
AcDbAlignedDimension
 13
232.755183345537
 23
56.66089254344708
 33
0.0
 14
232.755183345537
 24
31.2608929249168
 34
0.0
 50
90.0
100
AcDbRotatedDimension
1001
ACAD
1000
DSTYLE
1002
{
1070
    77
1070
     1
1070
   172
1070
     1
1002
}
  0
DIMENSION
  5
334
330
1F
100
AcDbEntity
  8
0
  6
Continuous
 62
     7
100
AcDbDimension
  2
*D4
 10
163.8370465040629
 20
33.20763212510078
 30
0.0
 11
163.8370465040629
 21
69.28167308641522
 31
0.0
 70
    32
 71
     5
 42
-1.0
 52
75.00000000000003
  3
DIMSTYLE
100
AcDbAlignedDimension
 13
174.0880174661228
 23
57.46089273418192
 33
0.0
 14
174.0880174661228
 24
30.46089273418194
 34
0.0
 50
90.0
100
AcDbRotatedDimension
1001
ACAD
1000
DSTYLE
1002
{
1070
    77
1070
     1
1070
   172
1070
     1
1002
}
  0
DIMENSION
  5
335
330
1F
100
AcDbEntity
  8
0
  6
Continuous
 62
     7
100
AcDbDimension
  2
*D5
 10
4.193238529481498
 20
57.46089273418194
 30
0.0
 11
4.193238529481498
 21
43.96089273418194
 31
0.0
 70
    32
 71
     5
 42
-1.0
  3
DIMSTYLE
100
AcDbAlignedDimension
 13
13.07518258259756
 23
30.46089273418194
 33
0.0
 14
13.07518258259756
 24
57.46089273418194
 34
0.0
 50
90.0
100
AcDbRotatedDimension
1001
ACAD
1000
DSTYLE
1002
{
1070
    77
1070
     1
1070
   172
1070
     1
1002
}
  0
DIMENSION
  5
336
330
1F
100
AcDbEntity
  8
0
  6
Continuous
 62
     7
100
AcDbDimension
  2
*D6
 10
-3.135699845413677
 20
58.46089273418194
 30
0.0
 11
-3.135699845413669
 21
43.96089273418194
 31
0.0
 70
    32
 71
     5
 42
-1.0
  3
DIMSTYLE
100
AcDbAlignedDimension
 13
88.57518258259755
 23
29.46089273418194
 33
0.0
 14
88.57518258259755
 24
58.46089273418194
 34
0.0
 50
90.0
100
AcDbRotatedDimension
1001
ACAD
1000
DSTYLE
1002
{
1070
    77
1070
     1
1070
   172
1070
     1
1002
}
  0
DIMENSION
  5
337
330
1F
100
AcDbEntity
  8
0
  6
Continuous
 62
     7
100
AcDbDimension
  2
*D7
 10
116.5751825825976
 20
90.72609150506092
 30
0.0
 11
107.5751825825976
 21
90.72609150506092
 31
0.0
 70
    32
 71
     5
 42
-1.0
  3
DIMSTYLE
100
AcDbAlignedDimension
 13
98.57518258259756
 23
73.96089273418194
 33
0.0
 14
116.5751825825976
 24
73.96089273418194
 34
0.0
100
AcDbRotatedDimension
1001
ACAD
1000
DSTYLE
1002
{
1070
    77
1070
     1
1070
   172
1070
     1
1002
}
  0
DIMENSION
  5
338
330
1F
100
AcDbEntity
  8
0
  6
Continuous
 62
     7
100
AcDbDimension
  2
*D8
 10
88.57518258259755
 20
90.53785671020034
 30
0.0
 11
50.69593118009681
 21
90.53785671020034
 31
0.0
 70
    32
 71
     5
 42
-1.0
  3
DIMSTYLE
100
AcDbAlignedDimension
 13
12.57518258259756
 23
57.46089273418194
 33
0.0
 14
88.57518258259755
 24
58.46089273418194
 34
0.0
100
AcDbRotatedDimension
1001
ACAD
1000
DSTYLE
1002
{
1070
    77
1070
     1
1070
   172
1070
     1
1070
    75
1070
     1
1002
}
  0
DIMENSION
  5
339
330
1F
100
AcDbEntity
  8
0
  6
Continuous
 62
     7
100
AcDbDimension
  2
*D9
 10
107.5751825825976
 20
103.6468814838132
 30
0.0
 11
60.07518258259756
 21
103.6468814838132
 31
0.0
 70
    32
 71
     5
 42
-1.0
  3
DIMSTYLE
100
AcDbAlignedDimension
 13
12.57518258259756
 23
65.87344117142814
 33
0.0
 14
107.5751825825976
 24
96.65012261173601
 34
0.0
100
AcDbRotatedDimension
1001
ACAD
1000
DSTYLE
1002
{
1070
    77
1070
     1
1070
   172
1070
     1
1070
    75
1070
     1
1002
}
  0
DIMENSION
  5
33A
330
1F
100
AcDbEntity
  8
0
  6
Continuous
 62
     7
100
AcDbDimension
  2
*D10
 10
206.2751825825976
 20
103.6468814838132
 30
0.0
 11
156.9251825825976
 21
103.6468814838132
 31
0.0
 70
    32
 71
     5
 42
-1.0
  3
DIMSTYLE
100
AcDbAlignedDimension
 13
107.5751825825976
 23
90.56799763707545
 33
0.0
 14
206.2751825825976
 24
58.96089273418194
 34
0.0
100
AcDbRotatedDimension
1001
ACAD
1000
DSTYLE
1002
{
1070
    77
1070
     1
1070
   172
1070
     1
1070
    75
1070
     1
1002
}
  0
DIMENSION
  5
33B
330
1F
100
AcDbEntity
  8
0
  6
Continuous
 62
     7
100
AcDbDimension
  2
*D11
 10
216.2751825825976
 20
103.6468814838132
 30
0.0
 11
211.2751825825976
 21
103.6468814838132
 31
0.0
 70
    32
 71
     5
 42
-1.0
  3
DIMSTYLE
100
AcDbAlignedDimension
 13
206.2751825825976
 23
67.37344117142814
 33
0.0
 14
216.2751825825976
 24
58.96089273418194
 34
0.0
100
AcDbRotatedDimension
1001
ACAD
1000
DSTYLE
1002
{
1070
    77
1070
     1
1070
   172
1070
     1
1070
    75
1070
     1
1002
}
  0
DIMENSION
  5
33C
330
1F
100
AcDbEntity
  8
0
  6
Continuous
 62
     7
100
AcDbDimension
  2
*D12
 10
229.0551825825976
 20
103.6468814838132
 30
0.0
 11
220.6914942023875
 21
103.6468814838132
 31
0.0
 70
    32
 71
     5
 42
-1.0
  3
DIMSTYLE
100
AcDbAlignedDimension
 13
216.2751825825976
 23
67.37344117142814
 33
0.0
 14
229.0551825825976
 24
67.37344117142814
 34
0.0
100
AcDbRotatedDimension
1001
ACAD
1000
DSTYLE
1002
{
1070
    77
1070
     1
1070
   172
1070
     1
1070
    75
1070
     1
1070
    76
1070
     1
1002
}
  0
DIMENSION
  5
33D
330
1F
100
AcDbEntity
  8
0
  6
Continuous
 62
     7
100
AcDbDimension
  2
*D13
 10
233.0551825825976
 20
103.6468814838132
 30
0.0
 11
237.9794032481443
 21
103.6468814838132
 31
0.0
 70
    32
 71
     5
 42
-1.0
  3
DIMSTYLE
100
AcDbAlignedDimension
 13
229.0551825825976
 23
67.37344117142814
 33
0.0
 14
233.0551825825976
 24
56.66089254344708
 34
0.0
100
AcDbRotatedDimension
1001
ACAD
1000
DSTYLE
1002
{
1070
     6
1000
_NONE
1070
    77
1070
     1
1070
   172
1070
     1
1070
    75
1070
     1
1002
}
  0
DIMENSION
  5
33E
330
1F
100
AcDbEntity
  8
0
  6
Continuous
 62
     7
100
AcDbDimension
  2
*D14
 10
229.0551825825976
 20
110.4949948758623
 30
0.0
 11
237.8201825825976
 21
110.4949948758623
 31
0.0
 70
    32
 71
     5
 42
-1.0
  3
DIMSTYLE
100
AcDbAlignedDimension
 13
246.5851825825976
 23
47.06490278713363
 33
0.0
 14
229.0551825825976
 24
58.96089273418194
 34
0.0
100
AcDbRotatedDimension
1001
ACAD
1000
DSTYLE
1002
{
1070
    77
1070
     1
1070
   172
1070
     1
1002
}
  0
DIMENSION
  5
33F
330
1F
100
AcDbEntity
  8
0
  6
Continuous
 62
     7
100
AcDbDimension
  2
*D15
 10
12.57518258259756
 20
110.4949948758623
 30
0.0
 11
120.8151825825976
 21
110.4949948758623
 31
0.0
 70
    32
 71
     5
 42
-1.0
  3
DIMSTYLE
100
AcDbAlignedDimension
 13
229.0551825825976
 23
67.37344117142814
 33
0.0
 14
12.57518258259756
 24
58.46089273418194
 34
0.0
100
AcDbRotatedDimension
1001
ACAD
1000
DSTYLE
1002
{
1070
    77
1070
     1
1070
   172
1070
     1
1070
    75
1070
     1
1002
}
  0
DIMENSION
  5
340
330
1F
100
AcDbEntity
  8
0
  6
Continuous
 62
     7
100
AcDbDimension
  2
*D16
 10
-44.94481741740245
 20
110.4949948758623
 30
0.0
 11
-16.18481741740246
 21
110.4949948758623
 31
0.0
 70
    32
 71
     5
 42
-1.0
  3
DIMSTYLE
100
AcDbAlignedDimension
 13
12.57518258259756
 23
65.87344117142814
 33
0.0
 14
-44.94481741740245
 24
48.7386389080079
 34
0.0
100
AcDbRotatedDimension
1001
ACAD
1000
DSTYLE
1002
{
1070
    77
1070
     1
1070
   172
1070
     1
1070
    75
1070
     1
1002
}
  0
DIMENSION
  5
341
330
1F
100
AcDbEntity
  8
0
  6
Continuous
 62
     7
100
AcDbDimension
  2
*D17
 10
134.897495032896
 20
73.96089273418194
 30
0.0
 11
134.897495032896
 21
63.84821662432685
 31
0.0
 70
    32
 71
     5
 42
-1.0
  3
DIMSTYLE
100
AcDbAlignedDimension
 13
249.2580544032134
 23
43.96089273418194
 33
0.0
 14
116.0751825825976
 24
73.96089273418194
 34
0.0
 50
90.0
100
AcDbRotatedDimension
1001
ACAD
1000
DSTYLE
1002
{
1070
    77
1070
     1
1070
   172
1070
     1
1070
    75
1070
     1
1002
}
  0
DIMENSION
  5
342
330
1F
100
AcDbEntity
  8
0
  6
Continuous
 62
     7
100
AcDbDimension
  2
*D18
 10
111.5751825825976
 20
83.5079882616498
 30
0.0
 11
107.5751825825976
 21
83.5079882616498
 31
0.0
 70
    32
 71
     5
 42
-1.0
  3
DIMSTYLE
100
AcDbAlignedDimension
 13
103.5751825825976
 23
73.96089273418194
 33
0.0
 14
111.5751825825976
 24
73.96089273418194
 34
0.0
100
AcDbRotatedDimension
1001
ACAD
1000
DSTYLE
1002
{
1070
    77
1070
     1
1070
   172
1070
     1
1002
}
  0
POINT
  5
343
330
1F
100
AcDbEntity
  8
1
  6
Continuous
 62
     7
100
AcDbPoint
 10
308.4932250976563
 20
-112.0657958984375
 30
0.0
  0
POINT
  5
348
330
1F
100
AcDbEntity
  8
1
  6
Continuous
 62
     7
100
AcDbPoint
 10
157.4932403564453
 20
-81.5657958984375
 30
0.0
  0
POINT
  5
34E
330
1F
100
AcDbEntity
  8
1
  6
Continuous
 62
     7
100
AcDbPoint
 10
-82.50627136230469
 20
-57.5657958984375
 30
0.0
  0
POINT
  5
34F
330
1F
100
AcDbEntity
  8
1
  6
Continuous
 62
     7
100
AcDbPoint
 10
20.74348449707031
 20
-57.5657958984375
 30
0.0
  0
POINT
  5
350
330
1F
100
AcDbEntity
  8
1
  6
Continuous
 62
     7
100
AcDbPoint
 10
-37.50627136230469
 20
-57.5657958984375
 30
0.0
  0
POINT
  5
351
330
1F
100
AcDbEntity
  8
1
  6
Continuous
 62
     7
100
AcDbPoint
 10
-82.50627136230469
 20
-63.5657958984375
 30
0.0
  0
POINT
  5
352
330
1F
100
AcDbEntity
  8
1
  6
Continuous
 62
     7
100
AcDbPoint
 10
-37.50627136230469
 20
-63.5657958984375
 30
0.0
  0
POINT
  5
353
330
1F
100
AcDbEntity
  8
1
  6
Continuous
 62
     7
100
AcDbPoint
 10
20.74348449707031
 20
-63.5657958984375
 30
0.0
  0
POINT
  5
354
330
1F
100
AcDbEntity
  8
1
  6
Continuous
 62
     7
100
AcDbPoint
 10
85.74348449707031
 20
-57.5657958984375
 30
0.0
  0
POINT
  5
355
330
1F
100
AcDbEntity
  8
1
  6
Continuous
 62
     7
100
AcDbPoint
 10
85.74348449707031
 20
-63.5657958984375
 30
0.0
  0
POINT
  5
356
330
1F
100
AcDbEntity
  8
1
  6
Continuous
 62
     7
100
AcDbPoint
 10
20.74348449707031
 20
-69.5657958984375
 30
0.0
  0
POINT
  5
357
330
1F
100
AcDbEntity
  8
1
  6
Continuous
 62
     7
100
AcDbPoint
 10
-37.50627136230469
 20
-69.5657958984375
 30
0.0
  0
POINT
  5
358
330
1F
100
AcDbEntity
  8
1
  6
Continuous
 62
     7
100
AcDbPoint
 10
-82.50627136230469
 20
-69.5657958984375
 30
0.0
  0
POINT
  5
359
330
1F
100
AcDbEntity
  8
1
  6
Continuous
 62
     7
100
AcDbPoint
 10
50.74348449707031
 20
-69.5657958984375
 30
0.0
  0
POINT
  5
35A
330
1F
100
AcDbEntity
  8
1
  6
Continuous
 62
     7
100
AcDbPoint
 10
20.74348449707031
 20
-75.5657958984375
 30
0.0
  0
POINT
  5
35B
330
1F
100
AcDbEntity
  8
1
  6
Continuous
 62
     7
100
AcDbPoint
 10
-37.50627136230469
 20
-75.5657958984375
 30
0.0
  0
POINT
  5
35C
330
1F
100
AcDbEntity
  8
1
  6
Continuous
 62
     7
100
AcDbPoint
 10
-82.50627136230469
 20
-75.5657958984375
 30
0.0
  0
POINT
  5
35D
330
1F
100
AcDbEntity
  8
1
  6
Continuous
 62
     7
100
AcDbPoint
 10
50.74348449707031
 20
-75.5657958984375
 30
0.0
  0
POINT
  5
35E
330
1F
100
AcDbEntity
  8
1
  6
Continuous
 62
     7
100
AcDbPoint
 10
50.74348449707031
 20
-81.5657958984375
 30
0.0
  0
POINT
  5
35F
330
1F
100
AcDbEntity
  8
1
  6
Continuous
 62
     7
100
AcDbPoint
 10
20.74348449707031
 20
-81.5657958984375
 30
0.0
  0
POINT
  5
360
330
1F
100
AcDbEntity
  8
1
  6
Continuous
 62
     7
100
AcDbPoint
 10
-82.50627136230469
 20
-81.5657958984375
 30
0.0
  0
POINT
  5
361
330
1F
100
AcDbEntity
  8
1
  6
Continuous
 62
     7
100
AcDbPoint
 10
-37.50627136230469
 20
-81.5657958984375
 30
0.0
  0
POINT
  5
362
330
1F
100
AcDbEntity
  8
1
  6
Continuous
 62
     7
100
AcDbPoint
 10
-37.50627136230469
 20
-87.5657958984375
 30
0.0
  0
POINT
  5
363
330
1F
100
AcDbEntity
  8
1
  6
Continuous
 62
     7
100
AcDbPoint
 10
20.74348449707031
 20
-87.5657958984375
 30
0.0
  0
POINT
  5
364
330
1F
100
AcDbEntity
  8
1
  6
Continuous
 62
     7
100
AcDbPoint
 10
50.74348449707031
 20
-87.5657958984375
 30
0.0
  0
POINT
  5
365
330
1F
100
AcDbEntity
  8
1
  6
Continuous
 62
     7
100
AcDbPoint
 10
-82.50627136230469
 20
-87.5657958984375
 30
0.0
  0
POINT
  5
366
330
1F
100
AcDbEntity
  8
1
  6
Continuous
 62
     7
100
AcDbPoint
 10
-37.50627136230469
 20
-93.5657958984375
 30
0.0
  0
POINT
  5
367
330
1F
100
AcDbEntity
  8
1
  6
Continuous
 62
     7
100
AcDbPoint
 10
50.74348449707031
 20
-93.5657958984375
 30
0.0
  0
POINT
  5
368
330
1F
100
AcDbEntity
  8
1
  6
Continuous
 62
     7
100
AcDbPoint
 10
20.74348449707031
 20
-93.5657958984375
 30
0.0
  0
POINT
  5
369
330
1F
100
AcDbEntity
  8
1
  6
Continuous
 62
     7
100
AcDbPoint
 10
-82.50627136230469
 20
-93.5657958984375
 30
0.0
  0
POINT
  5
36A
330
1F
100
AcDbEntity
  8
1
  6
Continuous
 62
     7
100
AcDbPoint
 10
-37.50627136230469
 20
-99.5657958984375
 30
0.0
  0
POINT
  5
36B
330
1F
100
AcDbEntity
  8
1
  6
Continuous
 62
     7
100
AcDbPoint
 10
-82.50627136230469
 20
-99.5657958984375
 30
0.0
  0
POINT
  5
36C
330
1F
100
AcDbEntity
  8
1
  6
Continuous
 62
     7
100
AcDbPoint
 10
10.74348449707031
 20
-99.5657958984375
 30
0.0
  0
POINT
  5
36D
330
1F
100
AcDbEntity
  8
1
  6
Continuous
 62
     7
100
AcDbPoint
 10
45.74348449707031
 20
-54.5657958984375
 30
0.0
  0
POINT
  5
36E
330
1F
100
AcDbEntity
  8
1
  6
Continuous
 62
     7
100
AcDbPoint
 10
80.74348449707031
 20
-54.5657958984375
 30
0.0
  0
POINT
  5
36F
330
1F
100
AcDbEntity
  8
1
  6
Continuous
 62
     7
100
AcDbPoint
 10
15.74348449707031
 20
-50.56579780578613
 30
0.0
  0
POINT
  5
370
330
1F
100
AcDbEntity
  8
1
  6
Continuous
 62
     7
100
AcDbPoint
 10
-82.50627136230469
 20
-50.56579780578613
 30
0.0
  0
POINT
  5
371
330
1F
100
AcDbEntity
  8
1
  6
Continuous
 62
     7
100
AcDbPoint
 10
85.74348449707031
 20
-69.5657958984375
 30
0.0
  0
LINE
  5
375
330
1F
100
AcDbEntity
  8
1
  6
Continuous
 62
     7
100
AcDbLine
 10
-87.50627136230469
 20
-102.5657958984375
 30
0.0
 11
298.9932250976563
 21
-102.5657958984375
 31
0.0
  0
LINE
  5
376
330
1F
100
AcDbEntity
  8
1
  6
Continuous
 62
     7
100
AcDbLine
 10
298.9932250976563
 20
174.4342041015625
 30
0.0
 11
298.9932250976563
 21
-102.5657958984375
 31
0.0
  0
LINE
  5
377
330
1F
100
AcDbEntity
  8
1
  6
Continuous
 62
     7
100
AcDbLine
 10
118.9932403564453
 20
-46.56579971313477
 30
0.0
 11
118.9932403564453
 21
-102.5657958984375
 31
0.0
  0
LINE
  5
378
330
1F
100
AcDbEntity
  8
1
  6
HIDDEN
 62
     7
100
AcDbLine
 10
-110.5062713623047
 20
-112.0657958984375
 30
0.0
 11
308.4932250976563
 21
-112.0657958984375
 31
0.0
  0
LINE
  5
379
330
1F
100
AcDbEntity
  8
1
  6
Continuous
 62
     7
100
AcDbLine
 10
-87.50627136230469
 20
174.4342041015625
 30
0.0
 11
298.9932250976563
 21
174.4342041015625
 31
0.0
  0
LINE
  5
37A
330
1F
100
AcDbEntity
  8
1
  6
HIDDEN
 62
     7
100
AcDbLine
 10
308.4932250976563
 20
183.9342041015625
 30
0.0
 11
308.4932250976563
 21
-112.0657958984375
 31
0.0
  0
LINE
  5
37B
330
1F
100
AcDbEntity
  8
1
  6
Continuous
 62
     7
100
AcDbLine
 10
-87.50627136230469
 20
174.4342041015625
 30
0.0
 11
-87.50627136230469
 21
-102.5657958984375
 31
0.0
  0
LINE
  5
37C
330
1F
100
AcDbEntity
  8
1
  6
Continuous
 62
     7
100
AcDbLine
 10
125.9932403564453
 20
-46.56579971313477
 30
0.0
 11
125.9932403564453
 21
-61.56579971313477
 31
0.0
  0
LINE
  5
37D
330
1F
100
AcDbEntity
  8
1
  6
Continuous
 62
     7
100
AcDbLine
 10
278.9932250976563
 20
-46.56579971313477
 30
0.0
 11
278.9932250976563
 21
-61.56579971313477
 31
0.0
  0
LINE
  5
37E
330
1F
100
AcDbEntity
  8
1
  6
Continuous
 62
     7
100
AcDbLine
 10
215.9932403564453
 20
-46.56579971313477
 30
0.0
 11
215.9932403564453
 21
-61.56579971313477
 31
0.0
  0
LINE
  5
37F
330
1F
100
AcDbEntity
  8
1
  6
Continuous
 62
     7
100
AcDbLine
 10
118.9932403564453
 20
-46.56579971313477
 30
0.0
 11
298.9932250976563
 21
-46.56579971313477
 31
0.0
  0
LINE
  5
380
330
1F
100
AcDbEntity
  8
1
  6
Continuous
 62
     7
100
AcDbLine
 10
118.9932403564453
 20
-51.56579971313477
 30
0.0
 11
298.9932250976563
 21
-51.56579971313477
 31
0.0
  0
LINE
  5
381
330
1F
100
AcDbEntity
  8
1
  6
Continuous
 62
     7
100
AcDbLine
 10
118.9932403564453
 20
-56.56579971313477
 30
0.0
 11
298.9932250976563
 21
-56.56579971313477
 31
0.0
  0
LINE
  5
382
330
1F
100
AcDbEntity
  8
1
  6
Continuous
 62
     7
100
AcDbLine
 10
118.9932403564453
 20
-61.56579971313477
 30
0.0
 11
298.9932250976563
 21
-61.56579971313477
 31
0.0
  0
LINE
  5
38B
330
1F
100
AcDbEntity
  8
1
  6
Continuous
 62
     7
100
AcDbLine
 10
157.4932403564453
 20
-61.56579971313477
 30
0.0
 11
157.4932403564453
 21
-102.5657958984375
 31
0.0
  0
LINE
  5
393
330
1F
100
AcDbEntity
  8
1
  6
Continuous
 62
     7
100
AcDbLine
 10
-107.5062713623047
 20
37.93420028686523
 30
0.0
 11
-97.50627136230469
 21
37.93420028686523
 31
0.0
  0
LINE
  5
394
330
1F
100
AcDbEntity
  8
1
  6
Continuous
 62
     7
100
AcDbLine
 10
118.9932403564453
 20
-46.56579971313477
 30
0.0
 11
-87.50627136230469
 21
-46.56579971313477
 31
0.0
  0
LINE
  5
397
330
1F
100
AcDbEntity
  8
1
  6
Continuous
 62
     7
100
AcDbLine
 10
197.993262740836
 20
-60.79784538045755
 30
0.0
 11
199.9932627677583
 21
-57.33374378086342
 31
0.0
  0
LINE
  5
398
330
1F
100
AcDbEntity
  8
1
  6
Continuous
 62
     7
100
AcDbLine
 10
208.9932327270508
 20
-46.56579971313477
 30
0.0
 11
208.9932327270508
 21
-61.56579971313477
 31
0.0
  0
LINE
  5
399
330
1F
100
AcDbEntity
  8
1
  6
Continuous
 62
     7
100
AcDbLine
 10
188.9932403564453
 20
-46.56579971313477
 30
0.0
 11
188.9932403564453
 21
-61.56579971313477
 31
0.0
  0
LINE
  5
39A
330
1F
100
AcDbEntity
  8
1
  6
Continuous
 62
     7
100
AcDbLine
 10
287.9932551114414
 20
-60.79784538045757
 30
0.0
 11
289.9932551383638
 21
-57.33374378086343
 31
0.0
  0
LINE
  5
39C
330
1F
100
AcDbEntity
  8
1
  6
Continuous
 62
     7
100
AcDbLine
 10
118.9932403564453
 20
-96.5657958984375
 30
0.0
 11
-87.50627136230469
 21
-96.5657958984375
 31
0.0
  0
LINE
  5
39D
330
1F
100
AcDbEntity
  8
1
  6
Continuous
 62
     7
100
AcDbLine
 10
15.74348449707031
 20
-54.5657958984375
 30
0.0
 11
15.74348449707031
 21
-96.5657958984375
 31
0.0
  0
LINE
  5
39E
330
1F
100
AcDbEntity
  8
1
  6
Continuous
 62
     7
100
AcDbLine
 10
15.74348449707031
 20
-90.5657958984375
 30
0.0
 11
-87.50627136230469
 21
-90.5657958984375
 31
0.0
  0
LINE
  5
39F
330
1F
100
AcDbEntity
  8
1
  6
Continuous
 62
     7
100
AcDbLine
 10
15.74348449707031
 20
-84.5657958984375
 30
0.0
 11
-87.50627136230469
 21
-84.5657958984375
 31
0.0
  0
LINE
  5
3A0
330
1F
100
AcDbEntity
  8
1
  6
Continuous
 62
     7
100
AcDbLine
 10
15.74348449707031
 20
-78.5657958984375
 30
0.0
 11
-87.50627136230469
 21
-78.5657958984375
 31
0.0
  0
LINE
  5
3A1
330
1F
100
AcDbEntity
  8
1
  6
Continuous
 62
     7
100
AcDbLine
 10
15.74348449707031
 20
-72.5657958984375
 30
0.0
 11
-87.50627136230469
 21
-72.5657958984375
 31
0.0
  0
LINE
  5
3A2
330
1F
100
AcDbEntity
  8
1
  6
Continuous
 62
     7
100
AcDbLine
 10
118.9932403564453
 20
-66.5657958984375
 30
0.0
 11
-87.50627136230469
 21
-66.5657958984375
 31
0.0
  0
LINE
  5
3A3
330
1F
100
AcDbEntity
  8
1
  6
Continuous
 62
     7
100
AcDbLine
 10
118.9932403564453
 20
-60.5657958984375
 30
0.0
 11
-87.50627136230469
 21
-60.5657958984375
 31
0.0
  0
LINE
  5
3A4
330
1F
100
AcDbEntity
  8
1
  6
Continuous
 62
     7
100
AcDbLine
 10
118.9932403564453
 20
-54.5657958984375
 30
0.0
 11
-87.50627136230469
 21
-54.5657958984375
 31
0.0
  0
LINE
  5
3A6
330
1F
100
AcDbEntity
  8
1
  6
Continuous
 62
     7
100
AcDbLine
 10
-42.50627136230469
 20
-54.5657958984375
 30
0.0
 11
-42.50627136230469
 21
-96.5657958984375
 31
0.0
  0
LINE
  5
3A7
330
1F
100
AcDbEntity
  8
1
  6
Continuous
 62
     7
100
AcDbLine
 10
80.74348449707031
 20
-54.5657958984375
 30
0.0
 11
80.74348449707031
 21
-66.5657958984375
 31
0.0
  0
TEXT
  5
3B7
330
1F
100
AcDbEntity
  8
1
  6
Continuous
 62
     7
100
AcDbText
 10
130.9263434410095
 20
-61.06579971313477
 30
0.0
 40
3.0
  1
図　　歴
 41
0.7924526497277711
100
AcDbText
  0
TEXT
  5
3B8
330
1F
100
AcDbEntity
  8
1
  6
Continuous
 62
     7
100
AcDbText
 10
150.1041593551636
 20
-60.81579971313477
 30
0.0
 40
2.5
  1
CHANGE NOTICE
 41
1.00261237008231
100
AcDbText
  0
TEXT
  5
3BB
330
1F
100
AcDbEntity
  8
1
  6
Continuous
 62
     7
100
AcDbText
 10
190.8530950546265
 20
-60.96579933166504
 30
0.0
 40
1.799999237060547
  1
DATE
 41
0.9430185615926484
100
AcDbText
  0
TEXT
  5
3BC
330
1F
100
AcDbEntity
  8
1
  6
Continuous
 62
     7
100
AcDbText
 10
200.8530950546265
 20
-60.96579933166504
 30
0.0
 40
1.799999237060547
  1
NAME
 41
0.9430185615926484
100
AcDbText
  0
TEXT
  5
3E6
330
1F
100
AcDbEntity
  8
1
  6
Continuous
 62
     7
100
AcDbText
 10
160.7787826144435
 20
-73.58729770783503
 30
0.0
 40
3.2
  1
物体側テレセントリックレンズ
100
AcDbText
  0
TEXT
  5
3E7
330
1F
100
AcDbEntity
  8
1
  6
Continuous
 62
     7
100
AcDbText
 10
248.1669717637253
 20
-90.58095467985817
 30
0.0
 40
3.2
  1
KCM-3D-290
100
AcDbText
  0
TEXT
  5
3E9
330
1F
100
AcDbEntity
  8
1
  6
Continuous
 62
     7
100
AcDbText
 10
220.926335811615
 20
-61.06579971313477
 30
0.0
 40
3.0
  1
図　　歴
 41
0.7924526497277711
100
AcDbText
  0
TEXT
  5
3EA
330
1F
100
AcDbEntity
  8
1
  6
Continuous
 62
     7
100
AcDbText
 10
240.104151725769
 20
-60.81579971313477
 30
0.0
 40
2.5
  1
CHANGE NOTICE
 41
1.00261237008231
100
AcDbText
  0
TEXT
  5
3ED
330
1F
100
AcDbEntity
  8
1
  6
Continuous
 62
     7
100
AcDbText
 10
280.8530874252319
 20
-60.96579933166504
 30
0.0
 40
1.799999237060547
  1
DATE
 41
0.9430185615926484
100
AcDbText
  0
TEXT
  5
3EE
330
1F
100
AcDbEntity
  8
1
  6
Continuous
 62
     7
100
AcDbText
 10
290.8530874252319
 20
-60.96579933166504
 30
0.0
 40
1.799999237060547
  1
NAME
 41
0.9430185615926484
100
AcDbText
  0
TEXT
  5
3F7
330
1F
100
AcDbEntity
  8
1
  6
Continuous
 62
     7
100
AcDbText
 10
121.1274469187345
 20
-85.76322430449028
 30
0.0
 40
3.0
  1
仕　様
 41
0.8553702039878909
100
AcDbText
  0
TEXT
  5
3FA
330
1F
100
AcDbEntity
  8
1
  6
Continuous
 62
     7
100
AcDbText
 10
-83.64927136898041
 20
-59.16579592227936
 30
0.0
 40
3.200000047683716
  1
倍率
 41
0.8643907436474909
100
AcDbText
  0
TEXT
  5
3FB
330
1F
100
AcDbEntity
  8
1
  6
Continuous
 62
     7
100
AcDbText
 10
-83.64927136898041
 20
-77.16579592227936
 30
0.0
 40
3.200000047683716
  1
開口数
 41
0.8553702593301699
100
AcDbText
  0
TEXT
  5
3FC
330
1F
100
AcDbEntity
  8
1
  6
Continuous
 62
     7
100
AcDbText
 10
-83.64927136898041
 20
-83.16579592227936
 30
0.0
 40
3.200000047683716
  1
光学的分解能
 41
0.8474110084619456
100
AcDbText
  0
TEXT
  5
3FD
330
1F
100
AcDbEntity
  8
1
  6
Continuous
 62
     7
100
AcDbText
 10
-83.64927136898041
 20
-71.16579592227936
 30
0.0
 40
3.200000047683716
  1
被写界深度
 41
0.8489270562463692
100
AcDbText
  0
TEXT
  5
3FE
330
1F
100
AcDbEntity
  8
1
  6
Continuous
 62
     7
100
AcDbText
 10
19.60048449039459
 20
-59.16579592227936
 30
0.0
 40
3.200000047683716
  1
ディスト－ション％（対角値）
 41
0.8432696096362029
100
AcDbText
  0
TEXT
  5
3FF
330
1F
100
AcDbEntity
  8
1
  6
Continuous
 62
     7
100
AcDbText
 10
-83.64927136898041
 20
-65.16579592227936
 30
0.0
 40
3.200000047683716
  1
ＷＤ（作動距離）
 41
0.8455653850722125
100
AcDbText
  0
TEXT
  5
401
330
1F
100
AcDbEntity
  8
1
  6
Continuous
 62
     7
100
AcDbText
 10
0.4918136432497506
 20
-52.92379732981028
 30
0.0
 40
4.800000190734863
  1
光　学　仕　様
 41
0.8463497273843105
100
AcDbText
  0
TEXT
  5
402
330
1F
100
AcDbEntity
  8
1
  6
Continuous
 62
     7
100
AcDbText
 10
19.60048460960388
 20
-65.16579592227936
 30
0.0
 40
3.200000047683716
  1
重量（ｇ）
 41
0.8489269757479005
100
AcDbText
  0
TEXT
  5
404
330
1F
100
AcDbEntity
  8
1
  6
Continuous
 62
     7
100
AcDbText
 10
-38.64927136898041
 20
-59.16579592227936
 30
0.0
 40
3.200000047683716
  1
Ｘ３
 41
0.8643907342560029
100
AcDbText
  0
TEXT
  5
405
330
1F
100
AcDbEntity
  8
1
  6
Continuous
 62
     7
100
AcDbText
 10
-38.64927136898041
 20
-65.16579592227936
 30
0.0
 40
3.200000047683716
  1
２９０．７%%P６ｍｍ
 41
0.8449619937463565
100
AcDbText
  0
TEXT
  5
406
330
1F
100
AcDbEntity
  8
1
  6
Continuous
 62
     7
100
AcDbText
 10
-38.64927124977112
 20
-71.16579592227936
 30
0.0
 40
3.200000047683716
  1
０．４１ｍｍ
 41
0.8474109283580773
100
AcDbText
  0
TEXT
  5
407
330
1F
100
AcDbEntity
  8
1
  6
Continuous
 62
     7
100
AcDbText
 10
-38.64927124977112
 20
-77.16579592227936
 30
0.0
 40
3.200000047683716
  1
ＮＡ　０．０３５（有効Ｆ値４３）
 41
0.8428950425160502
100
AcDbText
  0
TEXT
  5
408
330
1F
100
AcDbEntity
  8
1
  6
Continuous
 62
     7
100
AcDbText
 10
-38.64927124977112
 20
-83.16579592227936
 30
0.0
 40
3.200000047683716
  1
９．６μｍ
 41
0.8489269757479005
100
AcDbText
  0
TEXT
  5
409
330
1F
100
AcDbEntity
  8
1
  6
Continuous
 62
     7
100
AcDbText
 10
84.60048449039459
 20
-59.16579592227936
 30
0.0
 40
3.200000047683716
  1
０．１３％以下
 41
0.8463497750128491
100
AcDbText
  0
TEXT
  5
40A
330
1F
100
AcDbEntity
  8
1
  6
Continuous
 62
     7
100
AcDbText
 10
19.60048449039459
 20
-71.16579592227936
 30
0.0
 40
3.200000047683716
  1
＊１／２”ＣＣＤカメラ　視野＝１．６Ｘ２．１３ｍｍ
 41
0.8419614312909086
100
AcDbText
  0
TEXT
  5
40B
330
1F
100
AcDbEntity
  8
1
  6
Continuous
 62
     7
100
AcDbText
 10
-83.64927136898041
 20
-89.16579592227936
 30
0.0
 40
3.200000047683716
  1
有効Ｆ値
 41
0.8512700135727841
100
AcDbText
  0
TEXT
  5
40C
330
1F
100
AcDbEntity
  8
1
  6
Continuous
 62
     7
100
AcDbText
 10
-38.64927136898041
 20
-89.16579592227936
 30
0.0
 40
3.200000047683716
  1
４３
 41
0.8643907248645148
100
AcDbText
  0
TEXT
  5
40D
330
1F
100
AcDbEntity
  8
1
  6
Continuous
 62
     7
100
AcDbText
 10
-83.64927136898041
 20
-95.16579592227936
 30
0.0
 40
3.200000047683716
  1
絞り径
 41
0.8553702358514498
100
AcDbText
  0
TEXT
  5
40E
330
1F
100
AcDbEntity
  8
1
  6
Continuous
 62
     7
100
AcDbText
 10
-38.64927136898041
 20
-95.16579592227936
 30
0.0
 40
3.200000047683716
  1
%%C７．７
 41
0.8512700135727841
100
AcDbText
  0
OLE2FRAME
  5
427
330
1F
100
AcDbEntity
  8
0
  6
Continuous
100
AcDbOle2Frame
 70
     2
 10
79.6783710238415
 20
-104.0003582348876
 30
0.0
 11
118.9605704293739
 21
-109.9011178022422
 31
0.0
 72
     0
 73
   205
 90
    28288
310
0055037D4C6E6AEB534018C88BDE05005AC0000000000000000099EA64FC79BD
310
5D4018C88BDE05005AC0000000000000000099EA64FC79BD5D40529E00EAAB79
310
5BC00000000000000000037D4C6E6AEB5340529E00EAAB795BC0000000000000
310
00000000000001000000000100000100000001000000000001000000006E0000
310
D0CF11E0A1B11AE1000000000000000000000000000000003E000300FEFF0900
310
0600000000000000000000000100000001000000000000000010000002000000
310
01000000FEFFFFFF0000000000000000FFFFFFFFFFFFFFFFFFFFFFFFFFFFFFFF
310
FFFFFFFFFFFFFFFFFFFFFFFFFFFFFFFFFFFFFFFFFFFFFFFFFFFFFFFFFFFFFFFF
310
FFFFFFFFFFFFFFFFFFFFFFFFFFFFFFFFFFFFFFFFFFFFFFFFFFFFFFFFFFFFFFFF
310
FFFFFFFFFFFFFFFFFFFFFFFFFFFFFFFFFFFFFFFFFFFFFFFFFFFFFFFFFFFFFFFF
310
FFFFFFFFFFFFFFFFFFFFFFFFFFFFFFFFFFFFFFFFFFFFFFFFFFFFFFFFFFFFFFFF
310
FFFFFFFFFFFFFFFFFFFFFFFFFFFFFFFFFFFFFFFFFFFFFFFFFFFFFFFFFFFFFFFF
310
FFFFFFFFFFFFFFFFFFFFFFFFFFFFFFFFFFFFFFFFFFFFFFFFFFFFFFFFFFFFFFFF
310
FFFFFFFFFFFFFFFFFFFFFFFFFFFFFFFFFFFFFFFFFFFFFFFFFFFFFFFFFFFFFFFF
310
FFFFFFFFFFFFFFFFFFFFFFFFFFFFFFFFFFFFFFFFFFFFFFFFFFFFFFFFFFFFFFFF
310
FFFFFFFFFFFFFFFFFFFFFFFFFFFFFFFFFFFFFFFFFFFFFFFFFFFFFFFFFFFFFFFF
310
FFFFFFFFFFFFFFFFFFFFFFFFFFFFFFFFFFFFFFFFFFFFFFFFFFFFFFFFFFFFFFFF
310
FFFFFFFFFFFFFFFFFFFFFFFFFFFFFFFFFFFFFFFFFFFFFFFFFFFFFFFFFFFFFFFF
310
FFFFFFFFFFFFFFFFFFFFFFFFFFFFFFFFFFFFFFFFFFFFFFFFFFFFFFFFFFFFFFFF
310
FFFFFFFFFFFFFFFFFFFFFFFFFFFFFFFFFFFFFFFFFFFFFFFFFFFFFFFFFFFFFFFF
310
FDFFFFFF35000000FEFFFFFFFEFFFFFF05000000060000000700000008000000
310
090000000A0000000B0000000C0000000D0000000E0000000F00000010000000
310
1100000012000000130000001400000015000000160000001700000018000000
310
190000001A0000001B0000001C0000001D0000001E0000001F00000020000000
310
2100000022000000230000002400000025000000260000002700000028000000
310
290000002A0000002B0000002C0000002D0000002E0000002F00000030000000
310
31000000320000003300000034000000FEFFFFFFFEFFFFFFFFFFFFFFFFFFFFFF
310
FFFFFFFFFFFFFFFFFFFFFFFFFFFFFFFFFFFFFFFFFFFFFFFFFFFFFFFFFFFFFFFF
310
FFFFFFFFFFFFFFFFFFFFFFFFFFFFFFFFFFFFFFFFFFFFFFFFFFFFFFFFFFFFFFFF
310
FFFFFFFFFFFFFFFFFFFFFFFFFFFFFFFFFFFFFFFFFFFFFFFFFFFFFFFFFFFFFFFF
310
FFFFFFFFFFFFFFFFFFFFFFFFFFFFFFFFFFFFFFFFFFFFFFFFFFFFFFFFFFFFFFFF
310
FFFFFFFFFFFFFFFFFFFFFFFFFFFFFFFFFFFFFFFFFFFFFFFFFFFFFFFFFFFFFFFF
310
FFFFFFFFFFFFFFFFFFFFFFFFFFFFFFFFFFFFFFFFFFFFFFFFFFFFFFFFFFFFFFFF
310
FFFFFFFFFFFFFFFFFFFFFFFFFFFFFFFFFFFFFFFFFFFFFFFFFFFFFFFFFFFFFFFF
310
FFFFFFFFFFFFFFFFFFFFFFFFFFFFFFFFFFFFFFFFFFFFFFFFFFFFFFFFFFFFFFFF
310
FFFFFFFFFFFFFFFFFFFFFFFFFFFFFFFFFFFFFFFFFFFFFFFFFFFFFFFFFFFFFFFF
310
52006F006F007400200045006E00740072007900000000000000000000000000
310
0000000000000000000000000000000000000000000000000000000000000000
310
16000500FFFFFFFFFFFFFFFF020000000A00030000000000C000000000000046
310
000000000000000000000000004DF8B1072DC801030000000001000000000000
310
010043006F006D0070004F0062006A0000000000000000000000000000000000
310
0000000000000000000000000000000000000000000000000000000000000000
310
1200020104000000FFFFFFFFFFFFFFFF00000000000000000000000000000000
310
0000000000000000000000000000000000000000000000004D00000000000000
310
01004F006C006500310030004E00610074006900760065000000000000000000
310
0000000000000000000000000000000000000000000000000000000000000000
310
1A0002010100000003000000FFFFFFFF00000000000000000000000000000000
310
0000000000000000000000000000000000000000040000000460000000000000
310
01004F006C006500310030004900740065006D004E0061006D00650000000000
310
0000000000000000000000000000000000000000000000000000000000000000
310
1E000201FFFFFFFFFFFFFFFFFFFFFFFF00000000000000000000000000000000
310
0000000000000000000000000000000000000000020000000500000000000000
310
01000000FEFFFFFFFEFFFFFFFEFFFFFFFFFFFFFFFFFFFFFFFFFFFFFFFFFFFFFF
310
FFFFFFFFFFFFFFFFFFFFFFFFFFFFFFFFFFFFFFFFFFFFFFFFFFFFFFFFFFFFFFFF
310
FFFFFFFFFFFFFFFFFFFFFFFFFFFFFFFFFFFFFFFFFFFFFFFFFFFFFFFFFFFFFFFF
310
FFFFFFFFFFFFFFFFFFFFFFFFFFFFFFFFFFFFFFFFFFFFFFFFFFFFFFFFFFFFFFFF
310
FFFFFFFFFFFFFFFFFFFFFFFFFFFFFFFFFFFFFFFFFFFFFFFFFFFFFFFFFFFFFFFF
310
FFFFFFFFFFFFFFFFFFFFFFFFFFFFFFFFFFFFFFFFFFFFFFFFFFFFFFFFFFFFFFFF
310
FFFFFFFFFFFFFFFFFFFFFFFFFFFFFFFFFFFFFFFFFFFFFFFFFFFFFFFFFFFFFFFF
310
FFFFFFFFFFFFFFFFFFFFFFFFFFFFFFFFFFFFFFFFFFFFFFFFFFFFFFFFFFFFFFFF
310
FFFFFFFFFFFFFFFFFFFFFFFFFFFFFFFFFFFFFFFFFFFFFFFFFFFFFFFFFFFFFFFF
310
FFFFFFFFFFFFFFFFFFFFFFFFFFFFFFFFFFFFFFFFFFFFFFFFFFFFFFFFFFFFFFFF
310
FFFFFFFFFFFFFFFFFFFFFFFFFFFFFFFFFFFFFFFFFFFFFFFFFFFFFFFFFFFFFFFF
310
FFFFFFFFFFFFFFFFFFFFFFFFFFFFFFFFFFFFFFFFFFFFFFFFFFFFFFFFFFFFFFFF
310
FFFFFFFFFFFFFFFFFFFFFFFFFFFFFFFFFFFFFFFFFFFFFFFFFFFFFFFFFFFFFFFF
310
FFFFFFFFFFFFFFFFFFFFFFFFFFFFFFFFFFFFFFFFFFFFFFFFFFFFFFFFFFFFFFFF
310
FFFFFFFFFFFFFFFFFFFFFFFFFFFFFFFFFFFFFFFFFFFFFFFFFFFFFFFFFFFFFFFF
310
FFFFFFFFFFFFFFFFFFFFFFFFFFFFFFFFFFFFFFFFFFFFFFFFFFFFFFFFFFFFFFFF
310
0100FEFF030A0000FFFFFFFF0A00030000000000C00000000000004607000000
310
5042727573680007000000504272757368000700000050427275736800F439B2
310
7100000000000000000000000000000000000000000000000000000000000000
310
0000000000000000000000000000000000000000000000000000000000000000
310
0100000064000000000000000000000000000000000000000000000000000000
310
0000000000000000000000000000000000000000000000000000000000000000
310
0100000200000000000000000000000000000000000000000000000000000000
310
0000000000000000000000000000000000000000000000000000000000000000
310
0000000000000000000000000000000000000000000000000000000000000000
310
0000000000000000000000000000000000000000000000000000000000000000
310
0000000000000000000000000000000000000000000000000000000000000000
310
0000000000000000000000000000000000000000000000000000000000000000
310
0000000000000000000000000000000000000000000000000000000000000000
310
0000000000000000000000000000000000000000000000000000000000000000
310
0000000000000000000000000000000000000000000000000000000000000000
310
0000000000000000000000000000000000000000000000000000000000000000
310
00600000424DEA5F0000000000003600000028000000E9000000230000000100
310
180000000000B45F000000000000000000000000000000000000FFFFFFFFFFFF
310
FFFFFFFFFFFFFFFFFFFFFFFFFFFFFFFFFFFFFFFFFFFFFFFFFFFFFFFFFFFFFFFF
310
FFFFFFFFFFFFFFF5F5F5AEAEAE2B2B2B1D1D1D1D1D1D1D1D1D1D1D1D1D1D1D1E
310
1E1E2B2B2B7C7C7CF4F4F4FFFFFFFFFFFFFFFFFFFFFFFFFFFFFFFFFFFFFFFFFF
310
FFFFFFFFFFFFFFFFFFFFFFFFFFFFFFFFFFFFFFFFFFFFFFFFFFFFFFFDFDFDF2F2
310
F2CFCFCF8888884949492C2C2C23232320202020202020202020202020202020
310
2020212121212121222222222222232323242424252525252525262626272727
310
2828282828282828282929292A2A2A2B2B2B2C2C2C2D2D2D3333334444446969
310
69ABABABE4E4E4F4F4F4FFFFFFFFFFFFFFFFFFFFFFFFFFFFFFFFFFFFE7E7E78A
310
8A8A3939393C3C3C3E3E3E4040404040403F3F3F3F3F3F8A8A8AF9F9F9FFFFFF
310
FFFFFFFFFFFFFFFFFFFFFFFFFFFFFFFFFFFFFFFFFFFFFFFFFFFFFFFFFFFFFFFF
310
FFFFFFFFFFFFFFFFFFFFF4F4F4C3C3C37676765353535757575959595858585A
310
5A5A5B5B5B5D5D5D5E5E5E6060606262626060606767679C9C9CE4E4E4FFFFFF
310
FFFFFFFFFFFFF9F9F9A3A3A36969696C6C6C6C6C6C6E6E6E6E6E6E6F6F6F6E6E
310
6EC2C2C2FEFEFEFFFFFFFFFFFFFEFEFEAAAAAA7878787A7A7A7C7C7C7E7E7E7E
310
7E7E808080808080C4C4C4F8F8F8FFFFFFFFFFFFFFFFFFFFFFFFFFFFFFFFFFFF
310
FFFFFFFFFFFFFFFFFFFFFFFFFFFFFFFFFFFFFFFFFFFFFFFFFFFFFFFFFFFFFFFF
310
FFFFFFFFFFFFFFFFFFFFFFFFFFFDFDFDC5C5C5ABABABABABABADADADAEAEAEAE
310
AEAEAFAFAFB1B1B1D5D5D5F7F7F7FFFFFFFFFFFFFFFFFFFFFFFFFFFFFFFEFEFE
310
F1F1F1E4E4E4DDDDDDCECECEC6C6C6C5C5C5C6C6C6C7C7C7C9C9C9C9C9C9CACA
310
CACACACACCCCCCCCCCCCCDCDCDCFCFCFD0D0D0D0D0D0D2D2D2D2D2D2D3D3D3D5
310
D5D5D5D5D5D6D6D6D7D7D7D8D8D8D9D9D9D9D9D9DBDBDBDBDBDBDCDCDCDCDCDC
310
DEDEDEDEDEDEDFDFDFDFDFDFDFDFDFDFDFDFE3E3E300FFFFFFFFFFFFFFFFFFFF
310
FFFFFFFFFFFFFFFFFFFFFFFFFFFFFFFFFFFFFFFFFFFFFFFFFFFFFFFFFFFFFFFF
310
FFFFFFF5F5F5A6A6A61212120404040404040404040404040404040303031010
310
106E6E6EF3F3F3FFFFFFFFFFFFFFFFFFFFFFFFFFFFFFFFFFFFFFFFFFFFFFFFFF
310
FFFFFFFFFFFFFFFFFFFFFFFFFFFFFFFFFFFFFFFFFCFCFCE3E3E38F8F8F282828
310
1212120808080303030303030202020202020202020202020202020202020202
310
0202020202020203030303030303030302020202020202020203030303030303
310
03030303030303030303030303030303030303030404040707070D0D0D181818
310
3F3F3F9E9E9EEDEDEDFFFFFFFFFFFFFFFFFFFFFFFFFFFFFFE1E1E16D6D6D0505
310
05050505060606060606060606060606050505686868F7F7F7FFFFFFFFFFFFFF
310
FFFFFFFFFFFFFFFFFFFFFFFFFFFFFFFFFFFFFFFFFFFFFFFFFFFFFFFFFFFFFFFF
310
FCFCFCEDEDEDA0A0A03939390F0F0F0909090A0A0A0A0A0A0A0A0A0A0A0A0B0B
310
0B0B0B0B0B0B0B0B0B0B131313232323787878D9D9D9FBFBFBFFFFFFFFFFFFFF
310
FFFFF7F7F76F6F6F0C0C0C0D0D0D0D0D0D0E0E0E0E0E0E0E0E0E0E0E0E9A9A9A
310
FCFCFCFFFFFFFFFFFFFDFDFD6969690F0F0F1010101010101010101010101111
310
111313138E8E8EEFEFEFFFFFFFFFFFFFFFFFFFFFFFFFFFFFFFFFFFFFFFFFFFFF
310
FFFFFFFFFFFFFFFFFFFFFFFFFFFFFFFFFFFFFFFFFFFFFFFFFFFFFFFFFFFFFFFF
310
FFFFFFFFFFFFFFFFFFF8F8F86262621C1C1C1818181818181818181818181818
310
181E1E1E7E7E7EE6E6E6FFFFFFFFFFFFFFFFFFFFFFFFFBFBFBE0E0E08A8A8A3E
310
3E3E2323231E1E1E1C1C1C1C1C1C1C1C1C1C1C1C1D1D1D1D1D1D1D1D1D1D1D1D
310
1D1D1D1D1D1D1D1D1D1E1E1E1E1E1E1E1E1E1E1E1E1E1E1E1E1E1E1F1F1F1F1F
310
1F1F1F1F1F1F1F1F1F1F1F1F1F1F1F1F20202020202020202020202020202020
310
202020202020202020202020202039393900FFFFFFFFFFFFFFFFFFFFFFFFFFFF
310
FFFFFFFFFFFFFFFFFFFFFFFFFFFFFFFFFFFFFFFFFFFFFFFFFFFFFFFFFFFFFFF5
310
F5F5A8A8A81212120404040404040505050404040404040303031010106E6E6E
310
F2F2F2FFFFFFFFFFFFFFFFFFFFFFFFFFFFFFFFFFFFFFFFFFFFFFFFFFFFFFFFFF
310
FFFFFFFFFFFFFFFFFFFFFFFFFFFEFEFEE5E5E57E7E7E18181803030304040404
310
0404050505050505050505050505050505050505050505050505050505050505
310
0505050505050505050505050505050505050505050505050505050505050505
310
0505050505050505050504040404040404040404040404040403030307070721
310
21217F7F7FF0F0F0FFFFFFFFFFFFFFFFFFFFFFFFE0E0E06B6B6B030303040404
310
040404040404040404040404020202666666F7F7F7FFFFFFFFFFFFFFFFFFFFFF
310
FFFFFFFFFFFFFFFFFFFFFFFFFFFFFFFFFFFFFFFFFFFFFFFFFFF8F8F8D8D8D875
310
7575191919070707040404040404040404040404040404040404040404030303
310
0303031010104D4D4DAFAFAFECECECFBFBFBFFFFFFFFFFFFFFFFFFFFFFFFF7F7
310
F7696969020202040404040404040404040404040404030303959595FCFCFCFF
310
FFFFFFFFFFFDFDFD606060020202040404040404040404040404040404040404
310
888888EFEFEFFFFFFFFFFFFFFFFFFFFFFFFFFFFFFFFFFFFFFFFFFFFFFFFFFFFF
310
FFFFFFFFFFFFFFFFFFFFFFFFFFFFFFFFFFFFFFFFFFFFFFFFFFFFFFFFFFFFFFFF
310
FFFFFFFFFFF7F7F7575757070707030303040404040404040404040404070707
310
737373E5E5E5FFFFFFFFFFFFFFFFFFFDFDFDCFCFCF4646461212120606060303
310
0304040404040404040404040404040404040404040404040404040404040404
310
0404040404040404040404040404040404040404040404040404040404040404
310
0404040404040404040404040303030303030303030303030303030303030303
310
030303030303030202021D1D1D00FFFFFFFFFFFFFFFFFFFFFFFFFFFFFFFFFFFF
310
FFFFFFFFFFFFFFFFFFFFFFFFFFFFFFFFFFFFFFFFFFFFFFFFFFFFFFF5F5F5A7A7
310
A71212120404040404040404040505050505050404041010106D6D6DF2F2F2FF
310
FFFFFFFFFFFFFFFFFFFFFFFFFFFFFFFFFFFFFFFFFFFFFFFFFFFFFFFFFFFFFFFF
310
FFFFFFFFFFFFFFFFFFF6F6F6AAAAAA1919190303030404040505050505050505
310
0505050505050505050505050505050505050505050505050505050505050505
310
0505050505050505050505050505050505050505050505050505050505050505
310
0505050505050505050505050404040505050404040505050404040505052828
310
28999999FBFBFBFFFFFFFFFFFFFFFFFFE1E1E16C6C6C03030305050504040404
310
0404050505050505020202666666F7F7F7FFFFFFFFFFFFFFFFFFFFFFFFFFFFFF
310
FFFFFFFFFFFFFFFFFFFFFFFFFFFFFFFFFFFFF3F3F3B6B6B65050500F0F0F0303
310
030404040505050505050505050505050505050505050404040A0A0A22222280
310
8080DBDBDBF7F7F7FFFFFFFFFFFFFFFFFFFFFFFFFFFFFFFFFFFFF7F7F7696969
310
020202050505050505040404050505040404030303949494FBFBFBFFFFFFFFFF
310
FFFDFDFD606060020202040404050505050505050505040404040404898989EF
310
EFEFFFFFFFFFFFFFFFFFFFFFFFFFFFFFFFFFFFFFFFFFFFFFFFFFFFFFFFFFFFFF
310
FFFFFFFFFFFFFFFFFFFFFFFFFFFFFFFFFFFFFFFFFFFFFFFFFFFFFFFFFFFFFFFF
310
FFF7F7F7595959080808040404050505050505050505050505070707707070E3
310
E3E3FFFFFFFFFFFFFEFEFEE9E9E94D4D4D080808030303040404050505050505
310
0505050505050505050505050505050505050505050505050505050505050505
310
0505050505050505050505050505050505050505050505050505050505050505
310
0505050505050505050505050505050505040404050505040404050505050505
310
0505050404041D1D1D00FFFFFFFFFFFFFFFFFFFFFFFFFFFFFFFFFFFFFFFFFFFF
310
FFFFFFFFFFFFFFFFFFFFFFFFFFFFFFFFFFFFFFFFFFFFFFF5F5F5A7A7A7121212
310
0404040404040505050505050505050404040F0F0F6A6A6AF2F2F2FFFFFFFFFF
310
FFFFFFFFFFFFFFFFFFFFFFFFFFFFFFFFFFFFFFFFFFFFFFFFFFFFFFFFFFFFFFFF
310
FFFFFFFFFFD5D5D5454545050505040404050505050505050505050505050505
310
0505050404040404040404040404040404040404040404040404040404040404
310
0404040404040404040404040404040404040404040404040404040404040404
310
0404040404050505050505040404050505050505050505040404060606535353
310
E0E0E0FFFFFFFFFFFFFFFFFFE0E0E06B6B6B0303030404040505050505050505
310
05050505020202666666F7F7F7FFFFFFFFFFFFFFFFFFFFFFFFFFFFFFFFFFFFFF
310
FFFFFFFFFFFFFFFFFAFAFAE9E9E99494942C2C2C0A0A0A030303040404050505
310
050505050505050505050505040404050505131313545454B6B6B6EFEFEFFDFD
310
FDFFFFFFFFFFFFFFFFFFFFFFFFFFFFFFFFFFFFFFFFFFF7F7F769696902020204
310
0404050505040404050505040404030303939393FBFBFBFFFFFFFFFFFFFDFDFD
310
606060020202040404050505050505050505040404040404898989EFEFEFFFFF
310
FFFFFFFFFFFFFFFFFFFFFFFFFFFFFFFFFFFFFFFFFFFFFFFFFFFFFFFFFFFFFFFF
310
FFFFFFFFFFFFFFFFFFFFFFFFFFFFFFFFFFFFFFFFFFFFFFFFFFFFFFFFFFF7F7F7
310
575757070707040404050505050505050505040404070707707070E4E4E4FFFF
310
FFFFFFFFF9F9F99F9F9F21212103030305050505050505050505050505050505
310
0505050505050505050505050505050505050505050505050505050505050505
310
0505050505050505050505050505050505050505050505050505050505050505
310
0505050505050505050505050504040405050504040405050505050505050504
310
04041D1D1D00FFFFFFFFFFFFFFFFFFFFFFFFFFFFFFFFFFFFFFFFFFFFFFFFFFFF
310
FFFFFFFFFFFFFFFFFFFFFFFFFFFFFFFFFFFFFFF5F5F5A9A9A912121204040405
310
05050505050505050505050404040E0E0E686868F2F2F2FFFFFFFFFFFFFFFFFF
310
FFFFFFFFFFFFFFFFFFFFFFFFFFFFFFFFFFFFFFFFFFFFFFFFFFFFFFFFFFFFFCFC
310
FCBBBBBB1313130303030505050505050505050505050505050404040505050C
310
0C0C0D0D0D0D0D0D0C0C0C0C0C0C0C0C0C0C0C0C0C0C0C0B0B0B0B0B0B0B0B0B
310
0B0B0B0B0B0B0A0A0A0A0A0A0A0A0A0A0A0A0909090909090909090909090808
310
080404040404040505050505050505050505050404040303032424249B9B9BFD
310
FDFDFFFFFFFFFFFFE0E0E06B6B6B030303040404050505050505050505050505
310
020202656565F6F6F6FFFFFFFFFFFFFFFFFFFFFFFFFFFFFFFFFFFFFFFFFFFFFF
310
FFF6F6F6CACACA66666614141405050504040405050505050504040405050505
310
05050404040303030B0B0B2B2B2B8C8C8CE2E2E2F8F8F8FFFFFFFFFFFFFFFFFF
310
FFFFFFFFFFFFFFFFFFFFFFFFFFFFFFFFFFFFF7F7F76969690202020505050505
310
05050505040404040404030303949494FBFBFBFFFFFFFFFFFFFDFDFD60606002
310
0202040404050505050505050505040404040404868686EDEDEDFFFFFFFFFFFF
310
FFFFFFFFFFFFFFFFFFFFFFFFFFFFFFFFFFFFFFFFFFFFFFFFFFFFFFFFFFFFFFFF
310
FFFFFFFFFFFFFFFFFFFFFFFFFFFFFFFFFFFFFFFFFFFFFFFFFFF7F7F757575707
310
07070404040505050505050505050505050707076E6E6EE3E3E3FFFFFFFFFFFF
310
F4F4F45C5C5C0B0B0B0404040505050505050505050505050505050303030303
310
0302020203030303030303030303030303030303030303030303030303030303
310
0303030303030303030303030303040404040404040404040404040404040404
310
0404040404040404040505050404040505050505050505050505050404041D1D
310
1D00FFFFFFFFFFFFFFFFFFFFFFFFFFFFFFFFFFFFFFFFFFFFFFFFFFFFFFFFFFFF
310
FFFFFFFFFFFFFFFFFFFFFFFFFFFFFFF6F6F6A9A9A91212120404040404040505
310
050505050505050404040E0E0E686868F2F2F2FFFFFFFFFFFFFFFFFFFFFFFFFF
310
FFFFFFFFFFFFFFFFFFFFFFFFFFFFFFFFFFFFFFFFFFFFFFFFFFFFF1F1F1979797
310
0A0A0A0404040505050505050505050505050404040808082B2B2B6161616969
310
696767676666666666666565656565656464646161616060605F5F5F5E5E5E5D
310
5D5D5B5B5B5A5A5A5757575757575454545353535252525151514949492A2A2A
310
0A0A0A0404040505050505050505050404040303030909096D6D6DFDFDFDFFFF
310
FFFFFFFFE0E0E06B6B6B03030304040405050505050505050505050502020265
310
6565F7F7F7FFFFFFFFFFFFFFFFFFFFFFFFFFFFFFFFFFFFFDFDFDEFEFEFA8A8A8
310
4040400D0D0D0202020404040505050505050505050505050404040404040707
310
071515155B5B5BBEBEBEF1F1F1FEFEFEFFFFFFFFFFFFFFFFFFFFFFFFFFFFFFFF
310
FFFFFFFFFFFFFFFFFFFFFFFFFFFFF7F7F7696969020202050505050505050505
310
050505040404030303949494FBFBFBFFFFFFFFFFFFFDFDFD6060600202020404
310
04050505050505050505040404040404878787EEEEEEFFFFFFFFFFFFFFFFFFFF
310
FFFFFFFFFFFFFFFFFFFFFFFFFFFFFFFFFFFFFFFFFFFFFFFFFFFFFFFFFFFFFFFF
310
FFFFFFFFFFFFFFFFFFFFFFFFFFFFFFFFFFFFFFFFFFF7F7F75757570707070404
310
040505050505050505050505050707076D6D6DE3E3E3FFFFFFFFFFFFF2F2F245
310
45450505050404040505050505050505050505050505051616161F1F1F202020
310
2020202020202020202020202020202020202020202020202020202020202020
310
202020202020202020202020202020201F1F1F1F1F1F1F1F1F1F1F1F1F1F1F1F
310
1F1F1A1A1A0808080505050505050505050505050505050404041D1D1D00FFFF
310
FFFFFFFFFFFFFFFFFFFFFFFFFFFFFFFFFFFFFFFFFFFFFFFFFFFFFFFFFFFFFFFF
310
FFFFFFFFFFFFFFFFFFFFFFF6F6F6AAAAAA121212040404050505050505050505
310
0404040303030E0E0E666666F2F2F2FFFFFFFFFFFFFFFFFFFFFFFFFFFFFFFFFF
310
FFFFFFFFFFFFFFFFFFFFFFFFFFFFFFFFFFFFFFFFFFFFEDEDED89898909090904
310
04040505050505050505050505050303032F2F2FBBBBBBE9E9E9EBEBEBEBEBEB
310
EBEBEBEBEBEBEBEBEBEBEBEBEBEBEBEAEAEAEAEAEAEAEAEAEAEAEAE9E9E9E9E9
310
E9E9E9E9E8E8E8E8E8E8E8E8E8E8E8E8E8E8E8E7E7E7E6E6E6B7B7B742424203
310
0303040404050505040404050505030303020202606060FCFCFCFFFFFFFFFFFF
310
E0E0E06A6A6A030303040404050505050505050505050505020202646464F5F5
310
F5FFFFFFFFFFFFFFFFFFFFFFFFFFFFFFF8F8F8DDDDDD8080801E1E1E08080804
310
04040505050505050505050505050505050404040202020C0C0C3737379A9A9A
310
E8E8E8F9F9F9FFFFFFFFFFFFFFFFFFFFFFFFFFFFFFFFFFFFFFFFFFFFFFFFFFFF
310
FFFFFFFFFFFFFFFFFFFFF8F8F869696902020205050505050505050505050504
310
0404030303949494FBFBFBFFFFFFFFFFFFFDFDFD606060020202040404050505
310
050505050505040404040404868686EEEEEEFFFFFFFFFFFFFFFFFFFFFFFFFFFF
310
FFFFFFFFFFFFFFFFFFFFFFFFFFFFFFFFFFFFFFFFFFFFFFFFFFFFFFFFFFFFFFFF
310
FFFFFFFFFFFFFFFFFFFFFFFFFFFFFFFFFFF7F7F7585858070707040404050505
310
0505050505050505050707076D6D6DE2E2E2FFFFFFFFFFFFF2F2F24242420303
310
030404040505050505050505050404040C0C0C8F8F8FD6D6D6DFDFDFDFDFDFDF
310
DFDFDFDFDFDFDFDFDFDFDFDFDFDFDFDFDFDFDFDFDFDFDFDFDFDFDEDEDEDDDDDD
310
DCDCDCDBDBDBDBDBDBDADADAD9D9D9D8D8D8D8D8D8D7D7D7D6D6D6D6D6D6B3B3
310
B31E1E1E0404040505050505050505050505050404041C1C1C00FFFFFFFFFFFF
310
FFFFFFFFFFFFFFFFFFFFFFFFFFFFFFFFFFFFFFFFFFFFFFFFFFFFFFFFFFFFFFFF
310
FFFFFFFFFFFFFFF6F6F6AAAAAA12121204040405050505050504040405050503
310
03030E0E0E676767F2F2F2FFFFFFFFFFFFFFFFFFFFFFFFFFFFFFFFFFFFFFFFFF
310
FFFFFFFFFFFFFFFFFFFFFFFFFFFFFFFFFFFFECECEC8888880909090404040505
310
05050505050505040404020202424242F0F0F0FFFFFFFFFFFFFFFFFFFFFFFFFF
310
FFFFFFFFFFFFFFFFFFFFFFFFFFFFFFFFFFFFFFFFFFFFFFFFFFFFFFFFFFFFFFFF
310
FFFFFFFFFFFFFFFFFFFFFFFFFFFFFFFFFFFFFFFFFFEAEAEA8181810505050404
310
040404040505050404040404040202025F5F5FFCFCFCFFFFFFFFFFFFE0E0E06A
310
6A6A030303040404050505050505050505050505020202656565F6F6F6FFFFFF
310
FFFFFFFFFFFFFFFFFFF4F4F4BBBBBB5656561010100303030404040505050404
310
04050505050505050505040404080808171717666666C9C9C9F4F4F4FFFFFFFF
310
FFFFFFFFFFFFFFFFFFFFFFFFFFFFFFFFFFFFFFFFFFFFFFFFFFFFFFFFFFFFFFFF
310
FFFFFFFFFFFFF7F7F76969690202020505050505050505050505050404040303
310
03939393FAFAFAFFFFFFFFFFFFFDFDFD60606002020204040405050505050505
310
0505040404040404858585EDEDEDFFFFFFFFFFFFFFFFFFFFFFFFFFFFFFFFFFFF
310
FFFFFFFFFFFFFFFFFFFFFFFFFFFFFFFFFFFFFFFFFFFFFFFFFFFFFFFFFFFFFFFF
310
FFFFFFFFFFFFFFFFFFFFFFFFFFF7F7F758585807070704040405050505050505
310
05050505050707076D6D6DE3E3E3FFFFFFFFFFFFF2F2F2434343040404040404
310
0505050505050505050404040D0D0DA3A3A3F4F4F4FFFFFFFFFFFFFFFFFFFFFF
310
FFFFFFFFFFFFFFFFFFFFFFFFFFFFFFFFFFFFFFFFFFFFFFFFFFFFFFFFFFFFFFFE
310
FEFEFEFEFEFEFEFEFEFEFEFEFEFEFEFEFEFEFEFEFEFEFEFDFDFDDBDBDB242424
310
0404040505050505050505050505050404041C1C1C00FFFFFFFFFFFFFFFFFFFF
310
FFFFFFFFFFFFFFFFFFFFFFFFFFFFFFFFFFFFFFFFFFFFFFFFFFFFFFFFFFFFFFFF
310
FFFFFFF6F6F6ABABAB1212120404040505050404040505050404040404040E0E
310
0E666666F2F2F2FFFFFFFFFFFFFFFFFFFFFFFFFFFFFFFFFFFFFFFFFFFFFFFFFF
310
FFFFFFFFFFFFFFFFFFFFFFFFFFFFECECEC888888090909040404050505050505
310
050505040404020202464646F5F5F5FFFFFFFFFFFFFFFFFFFFFFFFFFFFFFFFFF
310
FFFFFFFFFFFFFFFFFFFFFFFFFFFFFFFFFFFFFFFFFFFFFFFFFFFFFFFFFFFFFFFF
310
FFFFFFFFFFFFFFFFFFFFFFFFFFFFFFFFFFEFEFEF898989050505040404050505
310
0404040505050303030101015E5E5EFCFCFCFFFFFFFFFFFFE0E0E06B6B6B0303
310
03040404050505050505050505050505020202636363F4F4F4FFFFFFFFFFFFFB
310
FBFBECECEC9B9B9B2F2F2F0B0B0B030303040404050505050505040404050505
310
0505050404040F0F0F414141A3A3A3EBEBEBFBFBFBFFFFFFFFFFFFFFFFFFFFFF
310
FFFFFFFFFFFFFFFFFFFFFFFFFFFFFFFFFFFFFFFFFFFFFFFFFFFFFFFFFFFFFFFF
310
FFFFF7F7F7696969020202050505050505050505050505040404030303939393
310
FAFAFAFFFFFFFFFFFFFDFDFD6060600202020404040505050505050505050404
310
04040404858585EDEDEDFFFFFFFFFFFFFFFFFFFFFFFFFFFFFFFFFFFFFFFFFFFF
310
FFFFFFFFFFFFFFFFFFFFFFFFFFFFFFFFFFFFFFFFFFFFFFFFFFFFFFFFFFFFFFFF
310
FFFFFFFFFFFFFFFFFFF7F7F75858580808080404040505050505050505050505
310
050707076D6D6DE3E3E3FFFFFFFFFFFFF2F2F242424203030304040405050505
310
05050505050404040D0D0DA2A2A2F4F4F4FFFFFFFFFFFFFFFFFFFFFFFFFFFFFF
310
FFFFFFFFFFFFFFFFFFFFFFFFFFFFFFFFFFFFFFFFFFFFFFFFFFFFFFFFFFFFFFFF
310
FFFFFFFFFFFFFFFFFFFFFFFFFFFFFFFFFFFFFFFEFEFEDDDDDD24242404040405
310
05050505050505050505050404041D1D1D00FFFFFFFFFFFFFFFFFFFFFFFFFFFF
310
FFFFFFFFFFFFFFFFFFFFFFFFFFFFFFFFFFFFFFFFFFFFFFFFFFFFFFFFFFFFFFF6
310
F6F6ABABAB1212120404040505050505050404040505050404040E0E0E656565
310
F2F2F2FFFFFFFFFFFFFFFFFFFFFFFFFFFFFFFFFFFFFFFFFFFFFFFFFFFFFFFFFF
310
FFFFFFFFFFFFFFFFFFFFECECEC88888809090904040405050505050505050504
310
0404020202454545F5F5F5FFFFFFFFFFFFFFFFFFFFFFFFFFFFFFFFFFFFFFFFFF
310
FFFFFFFFFFFFFFFFFFFFFFFFFFFFFFFFFFFFFFFFFFFFFFFFFFFFFFFFFFFFFFFF
310
FFFFFFFFFFFFFFFFFFFFFFFFFFEFEFEF8A8A8A05050504040405050504040404
310
04040404040101015E5E5EFCFCFCFFFFFFFFFFFFE0E0E06A6A6A030303040404
310
050505050505050505050505020202646464F5F5F5FFFFFFF6F6F6CCCCCC6A6A
310
6A1515150606060404040505050505050404040404040505050404040A0A0A20
310
2020757575D5D5D5F5F5F5FFFFFFFFFFFFFFFFFFFFFFFFFFFFFFFFFFFFFFFFFF
310
FFFFFFFFFFFFFFFFFFFFFFFFFFFFFFFFFFFFFFFFFFFFFFFFFFFFFFFFFFFFF8F8
310
F8696969020202050505050505050505050505040404030303939393FBFBFBFF
310
FFFFFFFFFFFDFDFD606060020202040404050505050505050505040404040404
310
858585EDEDEDFFFFFFFFFFFFFFFFFFFFFFFFFFFFFFFFFFFFFFFFFFFFFFFFFFFF
310
FFFFFFFFFFFFFFFFFFFFFFFFFFFFFFFFFFFFFFFFFFFFFFFFFFFFFFFFFFFFFFFF
310
FFFFFFFFFFF7F7F7585858070707040404050505050505050505050505070707
310
6C6C6CE2E2E2FFFFFFFFFFFFF3F3F34343430404040404040505050505050505
310
050505050D0D0D979797DDDDDDE5E5E5E6E6E6E6E6E6E6E6E6E6E6E6E7E7E7E7
310
E7E7E7E7E7E7E7E7E7E7E7E8E8E8E7E7E7E8E8E8E8E8E8E8E8E8E8E8E8E8E8E8
310
E8E8E8E9E9E9E9E9E9E9E9E9E9E9E9E9E9E9CFCFCF2222220404040505050505
310
050505050505050404041C1C1C00FFFFFFFFFFFFFFFFFFFFFFFFFFFFFFFFFFFF
310
FFFFFFFFFFFFFFFFFFFFFFFFFFFFFFFFFFFFFFFFFFFFFFFFFFFFFFF6F6F6ADAD
310
AD1313130404040404040505050505050404040404040E0E0E656565F2F2F2FF
310
FFFFFFFFFFFFFFFFFFFFFFFFFFFFFFFFFFFFFFFFFFFFFFFFFFFFFFFFFFFFFFFF
310
FFFFFFFFFFFFEDEDED8A8A8A0909090404040404040505050505050404040303
310
03454545F5F5F5FFFFFFFFFFFFFFFFFFFFFFFFFFFFFFFFFFFFFFFFFFFFFFFFFF
310
FFFFFFFFFFFFFFFFFFFFFFFFFFFFFFFFFFFFFFFFFFFFFFFFFFFFFFFFFFFFFFFF
310
FFFFFFFFFFFFFFFFFFEFEFEF8A8A8A0505050404040404040505050404040404
310
040202025E5E5EFCFCFCFFFFFFFFFFFFDFDFDF6A6A6A03030304040405050505
310
0505050505050505020202646464F3F3F3F0F0F0A9A9A93F3F3F0E0E0E020202
310
0404040505050505050505050505050505050505051111114D4D4DB1B1B1EDED
310
EDFCFCFCFFFFFFFFFFFFFFFFFFFFFFFFFFFFFFFFFFFFFFFFFFFFFFFFFFFFFFFF
310
FFFFFFFFFFFFFFFFFFFFFFFFFFFFFFFFFFFFFFFFFFFFFFFFFFFFF8F8F8696969
310
020202050505050505050505050505040404030303939393FAFAFAFFFFFFFFFF
310
FFFDFDFD606060020202040404050505050505050505040404040404858585ED
310
EDEDFFFFFFFFFFFFFFFFFFFFFFFFFFFFFFFFFFFFFFFFFFFFFFFFFFFFFFFFFFFF
310
FFFFFFFFFFFFFFFFFFFFFFFFFFFFFFFFFFFFFFFFFFFFFFFFFFFFFFFFFFFFFFFF
310
FFF7F7F75858580707070404040505050505050505050505050707076C6C6CE2
310
E2E2FFFFFFFFFFFFF2F2F2454545040404040404050505050505050505050505
310
0505052A2A2A4242424545454646464646464A4A4A4B4B4B4D4D4D4D4D4D4E4E
310
4E4F4F4F51515152525251515153535354545454545457575757575757575759
310
59595A5A5A5A5A5A5B5B5B5C5C5C5050500D0D0D040404050505050505050505
310
0505050404041C1C1C00FFFFFFFFFFFFFFFFFFFFFFFFFFFFFFFFFFFFFFFFFFFF
310
FFFFFFFFFFFFFFFFFFFFFFFFFFFFFFFFFFFFFFFFFFFFFFF6F6F6ADADAD131313
310
0404040505050404040404040505050303030D0D0D646464F1F1F1FFFFFFFFFF
310
FFFFFFFFFFFFFFFFFFFFFFFFFFFFFFFFFFFFFFFFFFFFFFFFFFFFFFFFFFFFFFFF
310
FFFFEDEDED8A8A8A0A0A0A040404050505040404050505040404030303454545
310
F5F5F5FFFFFFFFFFFFFFFFFFFFFFFFFFFFFFFFFFFFFFFFFFFFFFFFFFFFFFFFFF
310
FFFFFFFFFFFFFFFFFFFFFFFFFFFFFFFFFFFFFFFFFFFFFFFFFFFFFFFFFFFFFFFF
310
FFFFFFFFFFEFEFEF8A8A8A050505040404040404050505040404040404020202
310
5E5E5EFCFCFCFFFFFFFFFFFFDFDFDF6969690303030404040505050505050505
310
050505050202025F5F5FD5D5D58282821D1D1D08080804040405050505050505
310
05050505050505050404040C0C0C2A2A2A848484DFDFDFF7F7F7FFFFFFFFFFFF
310
FFFFFFFFFFFFFFFFFFFFFFFFFFFFFFFFFFFFFFFFFFFFFFFFFFFFFFFFFFFFFFFF
310
FFFFFFFFFFFFFFFFFFFFFFFFFFFFFFFFFFFFFFFFFFFFF8F8F869696902020205
310
0505050505050505050505040404030303939393FAFAFAFFFFFFFFFFFFFDFDFD
310
606060020202040404050505050505050505040404040404848484ECECECFFFF
310
FFFFFFFFFFFFFFFFFFFFFFFFFFFFFFFFFFFFFFFFFFFFFFFFFFFFFFFFFFFFFFFF
310
FFFFFFFFFFFFFFFFFFFFFFFFFFFFFFFFFFFFFFFFFFFFFFFFFFFFFFFFFFF7F7F7
310
5858580707070404040505050505050505050505050707076A6A6AE2E2E2FFFF
310
FFFFFFFFF5F5F56060600C0C0C04040405050505050505050505050505050505
310
0505070707070707070707070707080808080808080808080808080808090909
310
0909090909090909090909090909090909090A0A0A0A0A0A0A0A0A0A0A0A0A0A
310
0A0A0A0A0B0B0B0B0B0B09090905050505050505050505050505050505050504
310
04041C1C1C00FFFFFFFFFFFFFFFFFFFFFFFFFFFFFFFFFFFFFFFFFFFFFFFFFFFF
310
FFFFFFFFFFFFFFFFFFFFFFFFFFFFFFFFFFFFFFF6F6F6ADADAD13131304040404
310
04040505050505050404040404040D0D0D626262F1F1F1FFFFFFFFFFFFFFFFFF
310
FFFFFFFFFFFFFFFFFFFFFFFFFFFFFFFFFFFFFFFFFFFFFFFFFFFFFFFFFFFFEDED
310
ED8B8B8B0A0A0A040404040404050505050505040404030303454545F5F5F5FF
310
FFFFFFFFFFFFFFFFFFFFFFFFFFFFFFFFFFFFFFFFFFFFFFFFFFFFFFFFFFFFFFFF
310
FFFFFFFFFFFFFFFFFFFFFFFFFFFFFFFFFFFFFFFFFFFFFFFFFFFFFFFFFFFFFFFF
310
FFEFEFEF8A8A8A0505050404040404040505050505050303030101015E5E5EFC
310
FCFCFFFFFFFFFFFFDEDEDE686868030303040404050505050505050505050505
310
0202021D1D1D3333331010100303030404040505050505050505050505050505
310
05040404030303434343B7B7B7F0F0F0FEFEFEFFFFFFFFFFFFFFFFFFFFFFFFFF
310
FFFFFFFFFFFFFFFFFFFFFFFFFFFFFFFFFFFFFFFFFFFFFFFFFFFFFFFFFFFFFFFF
310
FFFFFFFFFFFFFFFFFFFFFFFFFFFFFFFFFFFFF8F8F86969690202020505050505
310
05050505050505040404030303939393FAFAFAFFFFFFFFFFFFFDFDFD60606002
310
0202040404050505050505050505040404040404848484ECECECFFFFFFFFFFFF
310
FFFFFFFFFFFFFFFFFFFFFFFFFFFFFFFFFFFFFFFFFFFFFFFFFFFFFFFFFFFFFFFF
310
FFFFFFFFFFFFFFFFFFFFFFFFFFFFFFFFFFFFFFFFFFFFFFFFFFF7F7F758585808
310
08080404040505050505050505050505050707076A6A6AE1E1E1FFFFFFFFFFFF
310
FAFAFAA5A5A52323230303030505050505050505050505050505050505050404
310
0404040404040404040404040404040404040404040404040404040404040404
310
0404040404040404040404040404040404040404040404040404040404040404
310
0404040404040404040505050505050505050505050505050505050404041C1C
310
1C00FFFFFFFFFFFFFFFFFFFFFFFFFFFFFFFFFFFFFFFFFFFFFFFFFFFFFFFFFFFF
310
FFFFFFFFFFFFFFFFFFFFFFFFFFFFFFF7F7F7AFAFAF1313130404040404040505
310
050505050505050404040D0D0D626262F1F1F1FFFFFFFFFFFFFFFFFFFFFFFFFF
310
FFFFFFFFFFFFFFFFFFFFFFFFFFFFFFFFFFFFFFFFFFFFFFFFFFFFEDEDED8A8A8A
310
0A0A0A040404050505050505050505040404020202434343F5F5F5FFFFFFFFFF
310
FFFFFFFFFFFFFFFFFFFFFFFFFFFFFFFFFFFFFFFFFFFFFFFFFFFFFFFFFFFFFFFF
310
FFFFFFFFFFFFFFFFFFFFFFFFFFFFFFFFFFFFFFFFFFFFFFFFFFFFFFFFFFEFEFEF
310
8A8A8A0505050505050505050404040404040404040101015E5E5EFCFCFCFFFF
310
FFFFFFFFDFDFDF6A6A6A0303030404040505050505050505050404040303031E
310
1E1E373737141414050505040404050505050505050505050505050505040404
310
0303033E3E3EB1B1B1EFEFEFFEFEFEFFFFFFFFFFFFFFFFFFFFFFFFFFFFFFFFFF
310
FFFFFFFFFFFFFFFFFFFFFFFFFFFFFFFFFFFFFFFFFFFFFFFFFFFFFFFFFFFFFFFF
310
FFFFFFFFFFFFFFFFFFFFFFFFFFFFF8F8F8696969020202050505050505050505
310
050505040404030303929292FAFAFAFFFFFFFFFFFFFDFDFD6060600202020404
310
04050505050505050505040404040404838383ECECECFFFFFFFFFFFFFFFFFFFF
310
FFFFFFFFFFFFFFFFFFFFFFFFFFFFFFFFFFFFFFFFFFFFFFFFFFFFFFFFFFFFFFFF
310
FFFFFFFFFFFFFFFFFFFFFFFFFFFFFFFFFFFFFFFFFFF7F7F75757570707070404
310
040505050505050505050404040707076C6C6CE2E2E2FFFFFFFFFFFFFEFEFEEB
310
EBEB5555550A0A0A030303040404050505050505050505050505050505050505
310
0505050505050505050505050505050505050505050505050505050505050505
310
0505050505050505050505050505050505050505050505050505050505050505
310
05050505050505050505050505050505050505050505050404041C1C1C00FFFF
310
FFFFFFFFFFFFFFFFFFFFFFFFFFFFFFFFFFFFFFFFFFFFFFFFFFFFFFFFFFFFFFFF
310
FFFFFFFFFFFFFFFFFFFFFFF7F7F7AEAEAE131313040404040404050505050505
310
0505050303030D0D0D626262F1F1F1FFFFFFFFFFFFFFFFFFFFFFFFFFFFFFFFFF
310
FFFFFFFFFFFFFFFFFFFFFEFEFEFCFCFCFFFFFFFFFFFFEDEDED8A8A8A0A0A0A04
310
0404050505040404050505040404020202444444F5F5F5FFFFFFFFFFFFFFFFFF
310
FFFFFFFFFFFFFFFFFFFFFFFFFFFFFFFFFFFFFFFFFFFFFFFFFFFFFFFFFFFFFFFF
310
FFFFFFFFFFFFFFFFFFFFFFFFFFFFFFFFFFFFFFFFFFFFFFFFFFEFEFEF8A8A8A05
310
05050404040505050505050505050303030101015E5E5EFCFCFCFFFFFFFFFFFF
310
E0E0E06A6A6A0303030404040505050505050505050505050202025E5E5EDDDD
310
DD9898982D2D2D0B0B0B0404040505050505050505050505050505050404040B
310
0B0B2424247E7E7EDEDEDEF7F7F7FFFFFFFFFFFFFFFFFFFFFFFFFFFFFFFFFFFF
310
FFFFFFFFFFFFFFFFFFFFFFFFFFFFFFFFFFFFFFFFFFFFFFFFFFFFFFFFFFFFFFFF
310
FFFFFFFFFFFFFFFFFFFFF8F8F869696902020205050505050505050505050504
310
0404030303929292FAFAFAFFFFFFFFFFFFFDFDFD606060020202040404050505
310
050505050505040404040404858585EDEDEDFFFFFFFFFFFFFFFFFFFFFFFFFFFF
310
FFFFFFFFFFFFFFFFFFFFFFFFFFFFFFFFFFFFFFFFFFFFFFFFFFFFFFFFFFFFFFFF
310
FFFFFFFFFFFFFFFFFFFFFFFFFFFFFFFFFFF7F7F7585858080808040404050505
310
0505050505050505050707076B6B6BE2E2E2FFFFFFFFFFFFFFFFFFFEFEFED9D9
310
D94D4D4D15151505050503030304040404040404040404040404040404040404
310
0404040404040404040404040404040404040404040404040404040404040404
310
0404040404040404040404040404040404040404040404040404040404040404
310
040505050505050505050505050505050505050404041C1C1C00FFFFFFFFFFFF
310
FFFFFFFFFFFFFFFFFFFFFFFFFFFFFFFFFFFFFFFFFFFFFFFFFFFFFFFFFFFFFFFF
310
FFFFFFFFFFFFFFF7F7F7AEAEAE13131304040405050505050505050505050504
310
04040E0E0E646464F2F2F2FFFFFFFFFFFFFFFFFFFFFFFFFFFFFFFFFFFFFFFFFF
310
FFFFFFFFFFFFFFFFFFFFFFFFFFFFFFFFFFFFEDEDED8A8A8A0909090404040404
310
04050505040404040404020202454545F5F5F5FFFFFFFFFFFFFFFFFFFFFFFFFF
310
FFFFFFFFFFFFFFFFFFFFFFFFFFFFFFFFFFFFFFFFFFFFFFFFFFFFFFFFFFFFFFFF
310
FFFFFFFFFFFFFFFFFFFFFFFFFFFFFFFFFFFFFFFFFFEFEFEF8A8A8A0606060606
310
060505050606060505050303030101015E5E5EFCFCFCFFFFFFFFFFFFDEDEDE68
310
6868030303040404050505050505050505050505020202636363F3F3F3F3F3F3
310
BCBCBC5858581212120404040404040505050505050505050505050505050404
310
041010104F4F4FB4B4B4EFEFEFFEFEFEFFFFFFFFFFFFFFFFFFFFFFFFFFFFFFFF
310
FFFFFFFFFFFFFFFFFFFFFFFFFFFFFFFFFFFFFFFFFFFFFFFFFFFFFFFFFFFFFFFF
310
FFFFFFFFFFFFF8F8F86969690202020505050505050505050505050404040303
310
03929292FAFAFAFFFFFFFFFFFFFDFDFD60606002020204040405050505050505
310
0505040404040404848484ECECECFFFFFFFFFFFFFFFFFFFFFFFFFFFFFFFFFFFF
310
FFFFFFFFFFFFFFFFFFFFFFFFFFFFFFFFFFFFFFFFFFFFFFFFFFFFFFFFFFFFFFFF
310
FFFFFFFFFFFFFFFFFFFFFFFFFFF7F7F758585808080804040405050505050505
310
05050505050707076B6B6BE2E2E2FFFFFFFFFFFFFFFFFFFFFFFFFDFDFDE2E2E2
310
9494943C3C3C2121211C1C1C1919191919191919191919191818181818181818
310
1818181818181818181817171717171717171717171717171717171717171716
310
1616161616161616161616161616161616161616161616151515121212060606
310
0505050505050505050505050505050404041C1C1C00FFFFFFFFFFFFFFFFFFFF
310
FFFFFFFFFFFFFFFFFFFFFFFFFFFFFFFFFFFFFFFFFFFFFFFFFFFFFFFFFFFFFFFF
310
FFFFFFF6F6F6ACACAC1212120404040404040505050505050505050303030D0D
310
0D646464F1F1F1FFFFFFFFFFFFFFFFFFFFFFFFFFFFFFFFFFFFFFFFFFFFFFFFFF
310
FFFFFFFFFFFFFFFFFFFFFFFFFFFFECECEC898989090909040404050505040404
310
050505040404030303454545F5F5F5FFFFFFFFFFFFFFFFFFFFFFFFFFFFFFFFFF
310
FFFFFFFFFFFFFFFFFFFFFFFFFFFFFFFFFFFFFFFFFFFFFFFFFFFFFFFFFFFFFFFF
310
FFFFFFFFFFFFFFFFFFFFFFFFFFFFFFFFFFEFEFEF8A8A8A050505040404040404
310
0404040404040404040101015E5E5EFCFCFCFFFFFFFFFFFFDEDEDE6868680303
310
03040404050505050505050505050505020202616161F1F1F1FFFFFFF9F9F9E0
310
E0E0878787232323090909040404050505050505050505050505050505040404
310
0A0A0A252525818181DEDEDEF7F7F7FFFFFFFFFFFFFFFFFFFFFFFFFFFFFFFFFF
310
FFFFFFFFFFFFFFFFFFFFFFFFFFFFFFFFFFFFFFFFFFFFFFFFFFFFFFFFFFFFFFFF
310
FFFFF7F7F7696969020202050505050505050505050505040404030303929292
310
FAFAFAFFFFFFFFFFFFFDFDFD6060600202020404040505050505050505050404
310
04040404848484ECECECFFFFFFFFFFFFFFFFFFFFFFFFFFFFFFFFFFFFFFFFFFFF
310
FFFFFFFFFFFFFFFFFFFFFFFFFFFFFFFFFFFFFFFFFFFFFFFFFFFFFFFFFFFFFFFF
310
FFFFFFFFFFFFFFFFFFF7F7F75757570707070404040505050505050505050505
310
050707076A6A6AE2E2E2FFFFFFFFFFFFFFFFFFFFFFFFFFFFFFFEFEFEF2F2F2E3
310
E3E3D6D6D6C3C3C3B5B5B5B3B3B3B1B1B1B0B0B0AEAEAEAEAEAEACACACABABAB
310
ABABABABABABA9A9A9A8A8A8A8A8A8A6A6A6A5A5A5A5A5A5A4A4A4A3A3A3A2A2
310
A2A2A2A2A0A0A09F9F9F9E9E9E9E9E9E9D9D9D9C9C9C83838316161603030305
310
05050505050505050505050404041C1C1C00FFFFFFFFFFFFFFFFFFFFFFFFFFFF
310
FFFFFFFFFFFFFFFFFFFFFFFFFFFFFFFFFFFFFFFFFFFFFFFFFFFFFFFFFFFFFFF6
310
F6F6ACACAC1313130404040404040505050505050505050303030D0D0D636363
310
F1F1F1FFFFFFFFFFFFFFFFFFFFFFFFFFFFFFFFFFFFFFFFFFFFFFFFFFFFFFFFFF
310
FFFFFFFFFFFFFFFFFFFFEDEDED8989890A0A0A04040405050505050505050504
310
0404020202424242F1F1F1FFFFFFFFFFFFFFFFFFFFFFFFFFFFFFFFFFFFFFFFFF
310
FFFFFFFFFFFFFFFFFFFFFFFFFFFFFFFFFFFFFFFFFFFFFFFFFFFFFFFFFFFFFFFF
310
FFFFFFFFFFFFFFFFFFFFFFFFFFEDEDED86868605050504040405050505050505
310
05050303030202025F5F5FFCFCFCFFFFFFFFFFFFDEDEDE686868030303040404
310
050505050505050505050505020202636363F3F3F3FFFFFFFFFFFFFEFEFEF0F0
310
F0B3B3B34D4D4D10101003030304040405050505050505050505050505050504
310
04041111114F4F4FB2B2B2EFEFEFFDFDFDFFFFFFFFFFFFFFFFFFFFFFFFFFFFFF
310
FFFFFFFFFFFFFFFFFFFFFFFFFFFFFFFFFFFFFFFFFFFFFFFFFFFFFFFFFFFFF8F8
310
F8696969020202050505050505050505050505040404030303939393FAFAFAFF
310
FFFFFFFFFFFDFDFD606060020202040404050505050505050505040404040404
310
838383ECECECFFFFFFFFFFFFFFFFFFFFFFFFFFFFFFFFFFFFFFFFFFFFFFFFFFFF
310
FFFFFFFFFFFFFFFFFFFFFFFFFFFFFFFFFFFFFFFFFFFFFFFFFFFFFFFFFFFFFFFF
310
FFFFFFFFFFF7F7F7585858080808040404050505050505050505050505070707
310
6A6A6AE2E2E2FFFFFFFFFFFFFFFFFFFFFFFFFFFFFFFFFFFFFFFFFFFFFFFFFDFD
310
FDFAFAFAF8F8F8F8F8F8F7F7F7F7F7F7F7F7F7F7F7F7F7F7F7F6F6F6F6F6F6F6
310
F6F6F6F6F6F6F6F6F6F6F6F6F6F6F5F5F5F5F5F5F5F5F5F5F5F5F5F5F5F5F5F5
310
F5F5F5F4F4F4F4F4F4F4F4F4F4F4F4F4F4F4D8D8D82323230404040909090505
310
050505050505050404041C1C1C00FFFFFFFFFFFFFFFFFFFFFFFFFFFFFFFFFFFF
310
FFFFFFFFFFFFFFFFFFFFFFFFFFFFFFFFFFFFFFFFFFFFFFFFFFFFFFF6F6F6AAAA
310
AA1212120404040404040505050505050505050303030D0D0D646464F1F1F1FF
310
FFFFFFFFFFFFFFFFFFFFFFFFFFFFFFFFFFFFFFFFFFFFFFFFFFFFFFFFFFFFFFFF
310
FFFFFFFFFFFFECECEC8888880909090404040505050505050505050505050303
310
03303030BFBFBFEAEAEAEDEDEDEDEDEDEDEDEDEEEEEEEEEEEEEEEEEEEEEEEEEE
310
EEEEEFEFEFEFEFEFEFEFEFEFEFEFF0F0F0F0F0F0F0F0F0F0F0F0F1F1F1F0F0F0
310
F1F1F1F1F1F1F0F0F0CBCBCB5B5B5B0404040404040505050505050404040404
310
040101015E5E5EFCFCFCFFFFFFFFFFFFDEDEDE67676703030304040405050505
310
0505050505050505020202646464F4F4F4FFFFFFFFFFFFFFFFFFFFFFFFF7F7F7
310
D7D7D77A7A7A1C1C1C0808080404040505050505050505050505050505050404
310
040A0A0A242424818181DDDDDDF7F7F7FFFFFFFFFFFFFFFFFFFFFFFFFFFFFFFF
310
FFFFFFFFFFFFFFFFFFFFFFFFFFFFFFFFFFFFFFFFFFFFFFFFFFFFF8F8F8696969
310
020202050505050505050505050505040404030303939393FAFAFAFFFFFFFFFF
310
FFFDFDFD606060020202040404050505050505050505040404040404848484EC
310
ECECFFFFFFFFFFFFFFFFFFFFFFFFFFFFFFFFFFFFFFFFFFFFFFFFFFFFFFFFFFFF
310
FFFFFFFFFFFFFFFFFFFFFFFFFFFFFFFFFFFFFFFFFFFFFFFFFFFFFFFFFFFFFFFF
310
FFEFEFEF4C4C4C0505050404040505050505050505050505050707076A6A6AE2
310
E2E2FFFFFFFFFFFFFFFFFFFFFFFFFFFFFFFFFFFFFFFFFFFFFFFFFFFFFFFFFFFF
310
FFFFFFFFFFFFFFFFFFFFFFFFFFFFFFFFFFFFFFFFFFFFFFFFFFFFFFFFFFFFFFFF
310
FFFFFFFFFFFFFFFFFFFFFFFFFFFFFFFFFFFFFFFFFFFFFFFFFFFFFFFFFFFFFFFF
310
FFFFFFFFFFFFFFFFFFFFFFFFFFFFE2E2E2252525030303050505050505050505
310
0505050404041C1C1C00FFFFFFFFFFFFFFFFFFFFFFFFFFFFFFFFFFFFFFFFFFFF
310
FFFFFFFFFFFFFFFFFFFFFFFFFFFFFFFFFFFFFFFFFFFFFFF6F6F6A9A9A9121212
310
0404040505050505050505050505050303030E0E0E656565F2F2F2FFFFFFFFFF
310
FFFFFFFFFFFFFFFFFFFFFFFFFFFFFFFFFFFFFFFFFFFFFFFFFFFFFFFFFFFFFFFF
310
FFFFF0F0F09494940A0A0A040404050505050505050505050505040404090909
310
2D2D2D6767677272727373737575757676767878787979797979797B7B7B7C7C
310
7C7E7E7E7E7E7E7F7F7F8282828585858484848686868989898787878A8A8A8A
310
8A8A8484845252520F0F0F040404050505050505040404050505040404030303
310
626262FCFCFCFFFFFFFFFFFFDFDFDF6969690303030404040505050505050505
310
05050505020202636363F3F3F3FFFFFFFFFFFFFFFFFFFFFFFFFFFFFFFCFCFCEE
310
EEEEA9A9A94343430E0E0E030303040404050505050505050505050505050505
310
0404041111114E4E4EB2B2B2EFEFEFFDFDFDFFFFFFFFFFFFFFFFFFFFFFFFFFFF
310
FFFFFFFFFFFFFFFFFFFFFFFFFFFFFFFFFFFFFFFFFFFFF6F6F668686802020205
310
0505050505050505050505040404030303939393FAFAFAFFFFFFFFFFFFFDFDFD
310
606060020202040404050505050505050505040404040404777777D1D1D1DFDF
310
DFDFDFDFDFDFDFDFDFDFDFDFDFE0E0E0E0E0E0E0E0E0E0E0E0E0E0E0E0E0E0E0
310
E0E0E1E1E1E1E1E1E1E1E1E1E1E1E1E1E1E1E1E1E1E1E1E2E2E2DFDFDFADADAD
310
2E2E2E0404040505050505050505050505050505050707076C6C6CE2E2E2FFFF
310
FFFFFFFFFFFFFFFFFFFFFFFFFFFFFFFFFFFFFFFFFFFFFFFFFFFFFFFFFFFFFFFF
310
FFFFFFFFFFFFFFFFFFFFFFFFFFFFFFFFFFFFFFFFFFFFFFFFFFFFFFFFFFFFFFFF
310
FFFFFFFFFFFFFFFFFFFFFFFFFFFFFFFFFFFFFFFFFFFFFFFFFFFFFFFFFFFFFFFF
310
FFFFFFFFFFFFFFFCFCFCCDCDCD21212104040405050505050505050505050504
310
04041C1C1C00FFFFFFFFFFFFFFFFFFFFFFFFFFFFFFFFFFFFFFFFFFFFFFFFFFFF
310
FFFFFFFFFFFFFFFFFFFFFFFFFFFFFFFFFFFFFFF6F6F6AAAAAA12121204040405
310
05050505050505050505050404040D0D0D636363F1F1F1FFFFFFFFFFFFFFFFFF
310
FFFFFFFFFFFFFFFFFFFFFFFFFFFFFFFFFFFFFFFFFFFFFFFFFFFFFFFFFFFFFBFB
310
FBB9B9B91212120303030505050505050505050505050505050404040505050D
310
0D0D0E0E0E0E0E0E0F0F0F0F0F0F0F0F0F101010101010101010101010101010
310
1010101010101111111111111111111212121212121212121212121212121111
310
110B0B0B040404050505050505050505050505040404030303151515818181FD
310
FDFDFFFFFFFFFFFFDEDEDE676767030303040404050505050505050505050505
310
020202656565F5F5F5FFFFFFFFFFFFFFFFFFFFFFFFFFFFFFFFFFFFFFFFFFF6F6
310
F6D2D2D272727218181807070704040405050505050505050505050505050504
310
04040A0A0A2323237D7D7DDADADAF7F7F7FFFFFFFFFFFFFFFFFFFFFFFFFFFFFF
310
FFFFFFFFFFFFFFFFFFFFFFFFFFFFFFFFFFFFF6F6F66868680202020505050505
310
05050505050505040404030303939393FAFAFAFFFFFFFFFFFFFCFCFC60606002
310
02020404040505050505050505050505050404041212121E1E1E202020202020
310
2121212121212222222222222323232424242424242525252727272727272828
310
282A2A2A2A2A2A2B2B2B2B2B2B2C2C2C2D2D2D2F2F2F2B2B2B1B1B1B09090905
310
0505050505050505050505050505040404080808868686EBEBEBFFFFFFFFFFFF
310
FEFEFEF2F2F2E2E2E2DEDEDEDEDEDEDFDFDFDFDFDFDFDFDFDFDFDFDFDFDFDFDF
310
DFDFDFDFDFDFDFDFDFDFDFDFDFDFDFDFDFDFDFDFDFDFDFDFDFDFDFDFDFDFDFDF
310
DFDFDFDFDFDFDFDFDFDFDFDFDFDFDFDFDFE0E0E0E0E0E0E0E0E0E0E0E0E0E0E0
310
E0E0E0D1D1D16363630E0E0E0404040505050505050505050505050404041E1E
310
1E00FFFFFFFFFFFFFFFFFFFFFFFFFFFFFFFFFFFFFFFFFFFFFFFFFFFFFFFFFFFF
310
FFFFFFFFFFFFFFFFFFFFFFFFFFFFFFF5F5F5A9A9A91212120404040505050505
310
050505050505050404040D0D0D646464F1F1F1FFFFFFFFFFFFFFFFFFFFFFFFFF
310
FFFFFFFFFFFFFFFFFFFFFFFFFFFFFFFFFFFFFFFFFFFFFFFFFFFFFFFFFFD2D2D2
310
3F3F3F0505050505050505050505050505050505050505050505050404040505
310
0504040404040404040404040404040404040404040404040404040404040404
310
0404040404040404040404040404040404040404040404040404040404050505
310
050505050505050505050505050505050505030303383838BDBDBDFEFEFEFFFF
310
FFFFFFFFDDDDDD67676703030304040405050505050505050505050502020264
310
6464F5F5F5FFFFFFFFFFFFFFFFFFFFFFFFFFFFFFFFFFFFFFFFFFFFFFFFFCFCFC
310
EDEDEDA3A3A33C3C3C0E0E0E0303030505050505050505050505050505050404
310
040404041010104A4A4AAEAEAEEEEEEEFCFCFCFFFFFFFFFFFFFFFFFFFFFFFFFF
310
FFFFFFFFFFFFFFFFFFFFFFFFFFFFF6F6F6686868020202050505050505050505
310
050505040404030303939393FAFAFAFFFFFFFFFFFFFDFDFD6060600202020404
310
0405050505050505050505050505050504040402020202020202020202020202
310
0202020202030303020202020202020202020202030303030303030303030303
310
0303030303030303030303030303030303030303030303030505050505050505
310
05050505050505050505040404111111B3B3B3FAFAFAFFFFFFFFFFFFFAFAFAA6
310
A6A63A3A3A202020202020202020202020202020202020202020202020202020
310
2020202020202020202020202020202020202020202020202020202020202020
310
202020202121212222222222222323232323232424242525252525252727271F
310
1F1F0C0C0C0505050505050505050505050505050505050303032A2A2A00FFFF
310
FFFFFFFFFFFFFFFFFFFFFFFFFFFFFFFFFFFFFFFFFFFFFFFFFFFFFFFFFFFFFFFF
310
FFFFFFFFFFFFFFFFFFFFFFF6F6F6AAAAAA121212040404050505050505050505
310
0505050404040D0D0D616161F1F1F1FFFFFFFFFFFFFFFFFFFFFFFFFFFFFFFFFF
310
FFFFFFFFFFFFFFFFFFFFFFFFFFFFFFFFFFFFFFFFFFFFFFFFFFF3F3F3A3A3A317
310
1717040404050505050505050505050505050505050505050505060606040404
310
0505050505050505050505050505050505050505050505050505050505050505
310
0505050504040405050504040405050505050505050505050505050505050505
310
05050505050505050505050303030C0C0C6C6C6CF4F4F4FFFFFFFFFFFFFFFFFF
310
DEDEDE676767030303040404050505050505050505050505020202626262F2F2
310
F2FFFFFFFFFFFFFFFFFFFFFFFFFFFFFFFFFFFFFFFFFFFFFFFFFFFFFFFFFFFFF5
310
F5F5CCCCCC6A6A6A151515070707040404050505050505050505050505050505
310
040404090909202020797979D5D5D5F6F6F6FFFFFFFFFFFFFFFFFFFFFFFFFFFF
310
FFFFFFFFFFFFFFFFFFFFF7F7F769696902020205050505050505050505050504
310
0404030303929292FAFAFAFFFFFFFFFFFFFCFCFC606060020202040404050505
310
0505050505050505050505050505050505050505050505050505050505050505
310
0505050505050505050505050505050505050505050505050505050505050504
310
0404040404040404040404040404050505050505050505050505050505050505
310
050505050505050505414141D2D2D2FFFFFFFFFFFFFFFFFFF9F9F99E9E9E2020
310
2002020204040403030303030303030303030303030303030303030303030303
310
0303030303030303030303020202020202020202020202020202020202020202
310
0202020202020202020202020303030202020202020202020303030303030404
310
040505050505050505050505050505050404040F0F0F76767600FFFFFFFFFFFF
310
FFFFFFFFFFFFFFFFFFFFFFFFFFFFFFFFFFFFFFFFFFFFFFFFFFFFFFFFFFFFFFFF
310
FFFFFFFFFFFFFFF6F6F6AAAAAA12121204040404040405050505050505050504
310
04040C0C0C606060F1F1F1FFFFFFFFFFFFFFFFFFFFFFFFFFFFFFFFFFFFFFFFFF
310
FFFFFFFFFFFFFFFFFFFFFFFFFFFFFFFFFFFFFFFFFFFEFEFEE1E1E17777771616
310
1603030304040405050505050505050505050505050504040405050505050505
310
0505050505050505050505050505050505050505050505050505050505040404
310
0505050404040505050505050505050505050505050505050505050505050505
310
050404040303030A0A0A555555D3D3D3FEFEFEFFFFFFFFFFFFFFFFFFDEDEDE67
310
6767030303040404050505050505050505050505020202626262F2F2F2FFFFFF
310
FFFFFFFFFFFFFFFFFFFFFFFFFFFFFFFFFFFFFFFFFFFFFFFFFFFFFFFFFFFFFBFB
310
FBEBEBEB9C9C9C3636360C0C0C03030305050505050505050505050505050504
310
04040404040F0F0F464646AAAAAAEDEDEDFCFCFCFFFFFFFFFFFFFFFFFFFFFFFF
310
FFFFFFFFFFFFF7F7F76969690202020505050505050505050505050404040303
310
03929292FAFAFAFFFFFFFFFFFFFDFDFD60606002020204040405050505050505
310
0505050505050505050505050505050505050505050505050505050505050505
310
0505050505050505050505050505050505050505050505050505050505050505
310
0505050505050505050505050505050505050505050505050505050505050503
310
03031B1B1BABABABF6F6F6FFFFFFFFFFFFFFFFFFF9F9F99F9F9F202020040404
310
0505050505050505050505050505050505050505050505050505050505050505
310
0505050505050505050505050505050505050505050505050505050505050505
310
0505050505050505050505050505050505050505050505050505050505050505
310
050505050505050505050505040404303030D4D4D400FFFFFFFFFFFFFFFFFFFF
310
FFFFFFFFFFFFFFFFFFFFFFFFFFFFFFFFFFFFFFFFFFFFFFFFFFFFFFFFFFFFFFFF
310
FFFFFFF6F6F6ACACAC1212120404040505050505050505050505050404040C0C
310
0C5F5F5FF1F1F1FFFFFFFFFFFFFFFFFFFFFFFFFFFFFFFFFFFFFFFFFFFFFFFFFF
310
FFFFFFFFFFFFFFFFFFFFFFFFFFFFFFFFFFFFFFFFFCFCFCDFDFDF858585222222
310
1010100606060202020303030404040404040404040404040404040404040404
310
0404040404040404040404040404040404040404040404040404040404040404
310
0404040404040404040404040404040404040404040404040404030303090909
310
181818595959D0D0D0FAFAFAFFFFFFFFFFFFFFFFFFFFFFFFE0E0E06A6A6A0303
310
03040404050505050505050505050505020202636363F4F4F4FFFFFFFFFFFFFF
310
FFFFFFFFFFFFFFFFFFFFFFFFFFFFFFFFFFFFFFFFFFFFFFFFFFFFFFFFFFFFFFFF
310
F4F4F4C5C5C56262621414140606060404040404040404040404040404040404
310
040303030808081C1C1C757575D2D2D2F5F5F5FFFFFFFFFFFFFFFFFFFFFFFFFF
310
FFFFF7F7F7696969020202040404040404040404040404040404030303929292
310
FAFAFAFFFFFFFFFFFFFDFDFD6060600202020404040404040404040404040404
310
0404040404040404040404040404040404040404040404040404040404040404
310
0404040404040404040404040404040404040404040404040404040404040404
310
0404040404040404040404040404040404040404040404040606061C1C1C8B8B
310
8BE9E9E9FFFFFFFFFFFFFFFFFFFFFFFFF9F9F9A0A0A021212104040405050505
310
0505050505050505050505050505050505050505050505050505050505050505
310
0505050505050505050505050505050505050505050505050505050505050505
310
0505050505050505050505050505050505050505050505050505050505050504
310
04040404040505052A2A2AABABABF6F6F600E7E7E7E7E7E7E7E7E7E7E7E7E7E7
310
E7E7E7E7E7E7E7E7E7E7E8E8E8E8E8E8E8E8E8E8E8E8E8E8E8E8E8E8E8E8E8E2
310
E2E2A3A3A31111110404040505050505050505050505050404040B0B0B595959
310
E2E2E2EFEFEFEFEFEFF0F0F0F0F0F0F0F0F0F0F0F0F0F0F0F1F1F1F1F1F1F1F1
310
F1F1F1F1F2F2F2F2F2F2F2F2F2F2F2F2F4F4F4F9F9F9EFEFEFCACACA7B7B7B3D
310
3D3D2121211E1E1E1D1D1D1D1D1D1D1D1D1D1D1D1D1D1D1C1C1C1C1C1C1C1C1C
310
1C1C1C1C1C1C1C1C1C1B1B1B1B1B1B1B1B1B1B1B1B1B1B1B1B1B1B1B1B1B1A1A
310
1A1A1A1A1A1A1A1A1A1A1A1A1A1919191A1A1A1C1C1C272727525252A6A6A6E8
310
E8E8FBFBFBFFFFFFFFFFFFFFFFFFFFFFFFFFFFFFDFDFDF696969030303040404
310
050505050505050505050505020202636363F4F4F4FFFFFFFFFFFFFFFFFFFFFF
310
FFFFFFFFFFFFFFFFFFFFFFFFFFFFFFFFFFFFFFFFFFFFFFFFFFFFFFFFFFFFFFFA
310
FAFAE8E8E8959595323232131313121212121212111111111111111111111111
310
1010101010101E1E1E4B4B4BB2B2B2F8F8F8FFFFFFFFFFFFFFFFFFFFFFFFF7F7
310
F77070700D0D0D0E0E0E0E0E0E0D0D0D0D0D0D0D0D0D0D0D0D979797FAFAFAFF
310
FFFFFFFFFFFDFDFD6767670B0B0B0B0B0B0B0B0B0B0B0B0B0B0B0B0B0B0A0A0A
310
0A0A0A0A0A0A0A0A0A0A0A0A0909090909090909090808080808080808080808
310
0807070707070707070707070707070706060606060606060606060606060605
310
05050505050505050606060909090F0F0F191919393939A4A4A4EAEAEAFDFDFD
310
FFFFFFFFFFFFFFFFFFFFFFFFF9F9F99F9F9F2121210202020303030303030202
310
0202020203030303030303030302020202020202020202020202020202020203
310
0303020202030303030303030303030303030303030303030303030303030303
310
0303030303030303030303030404040404040404040303030303030A0A0A1515
310
15373737B1B1B1F1F1F1FEFEFE004E4E4E4C4C4C4E4E4E4E4E4E4E4E4E4F4F4F
310
4F4F4F5151515353535454545454545555555656565656565757575656563B3B
310
3B0707070404040505050505050505050505050404040707072D2D2D7B7B7B81
310
81818181818282828484848484848585858787878A8A8A8B8B8B8B8B8B8D8D8D
310
8E8E8E909090939393929292A5A5A5E3E3E3FEFEFEFBFBFBEEEEEEE4E4E4DCDC
310
DCD1D1D1CCCCCCCBCBCBC9C9C9C9C9C9C8C8C8C6C6C6C6C6C6C4C4C4C3C3C3C3
310
C3C3C2C2C2C0C0C0C0C0C0C0C0C0BEBEBEBDBDBDBDBDBDBCBCBCBABABAB9B9B9
310
B8B8B8B7B7B7B6B6B6B5B5B5B8B8B8C6C6C6DADADAE8E8E8F6F6F6FFFFFFFFFF
310
FFFFFFFFFFFFFFFFFFFFFFFFFFFFFFFFE0E0E06B6B6B03030304040405050504
310
0404050505050505020202636363F4F4F4FFFFFFFFFFFFFFFFFFFFFFFFFFFFFF
310
FFFFFFFFFFFFFFFFFFFFFFFFFFFFFFFFFFFFFFFFFFFFFFFFFFFFFFFFFFFFFFFF
310
FFF3F3F3C2C2C29191918686868787878484848484848282828181817F7F7F7C
310
7C7C7B7B7B7C7C7C939393D7D7D7FFFFFFFFFFFFFFFFFFFFFFFFFBFBFBA9A9A9
310
6F6F6F6F6F6F6D6D6D6C6C6C6C6C6C6B6B6B676767BDBDBDFCFCFCFFFFFFFFFF
310
FFFDFDFD9B9B9B6060606060605F5F5F5D5D5D5D5D5D5C5C5C5A5A5A5A5A5A57
310
57575656565656565353535151515050504E4E4E4D4D4D4B4B4B4B4B4B484848
310
4747474646464545454444444242424141414040403F3F3F3D3D3D3C3C3C3B3B
310
3B3A3A3A3F3F3F525252757575ACACACDADADAF5F5F5FEFEFEFFFFFFFFFFFFFF
310
FFFFFFFFFFFFFFFFFBFBFBB0B0B03F3F3F272727282828272727252525252525
310
2222222323232222222121212020202020202020202020202020202020202020
310
2020202020202020202020202020202020202020202020202020202020202020
310
20202020202020202020202020202020202121212A2A2A575757999999DADADA
310
F7F7F7FEFEFEFFFFFF000D0D0D08080808080808080808080808080808080809
310
09090909090909090909090909090A0A0A0A0A0A0A0A0A0A0A0A080808040404
310
0505050505050505050505050505050505050404040707071010101111111111
310
1111111111111111111112121212121212121212121212121213131313131313
310
1313141414131313393939BFBFBFFBFBFBFFFFFFFFFFFFFFFFFFFFFFFFFDFDFD
310
FCFCFCFCFCFCFBFBFBFBFBFBFBFBFBFBFBFBFBFBFBFBFBFBFAFAFAFAFAFAFAFA
310
FAFAFAFAFAFAFAFAFAFAFAFAFAF9F9F9F9F9F9F9F9F9F9F9F9F9F9F9F9F9F9F8
310
F8F8F8F8F8F8F8F8F9F9F9FBFBFBFEFEFEFFFFFFFFFFFFFFFFFFFFFFFFFFFFFF
310
FFFFFFFFFFFFFFFFFFFFFFFFE0E0E06B6B6B0303030606060606060505050404
310
04050505020202636363F4F4F4FFFFFFFFFFFFFFFFFFFFFFFFFFFFFFFFFFFFFF
310
FFFFFFFFFFFFFFFFFFFFFFFFFFFFFFFFFFFFFFFFFFFFFFFFFFFFFFFFFFFFFFFF
310
FAFAFAF2F2F2F0F0F0F0F0F0F0F0F0F0F0F0F0F0F0EFEFEFEFEFEFEFEFEFEEEE
310
EEEEEEEEEFEFEFF8F8F8FFFFFFFFFFFFFFFFFFFFFFFFFFFFFFF4F4F4ECECECEC
310
ECECECECECECECECECECECECECECEBEBEBF6F6F6FFFFFFFFFFFFFFFFFFFFFFFF
310
F2F2F2EAEAEAEAEAEAEAEAEAE9E9E9E9E9E9E9E9E9E9E9E9E9E9E9E8E8E8E8E8
310
E8E8E8E8E8E8E8E7E7E7E7E7E7E7E7E7E7E7E7E6E6E6E6E6E6E6E6E6E6E6E6E6
310
E6E6E5E5E5E5E5E5E5E5E5E5E5E5E5E5E5E4E4E4E4E4E4E4E4E4E4E4E4E4E4E4
310
E4E4E4E8E8E8EDEDEDF6F6F6FDFDFDFFFFFFFFFFFFFFFFFFFFFFFFFFFFFFFFFF
310
FFFFFFFFFEFEFEF4F4F4E4E4E4E0E0E0E1E1E1E0E0E0E0E0E0E0E0E0E0E0E0E0
310
E0E0E0E0E0DFDFDFDFDFDFDFDFDFDFDFDFDFDFDFDFDFDFDFDFDFDFDFDFDFDFDF
310
DFDFDFDFDFDFDFDFDFDFDFDFDFDFDFDFDFDFDFDFDFDFDFDFDFDFDFDEDEDEDDDD
310
DDDCDCDCDCDCDCDCDCDCDCDCDCDFDFDFE1E1E1E8E8E8F3F3F3FEFEFEFFFFFFFF
310
FFFFFFFFFF000707070404040404040404040404040404040404040404040404
310
0404040404040404040404040404040404040404040405050505050505050505
310
0505050505050505050505040404050505040404040404040404040404040404
310
0404040404040404040404040404040404040404040404040404040404040404
310
040303032A2A2ABBBBBBFBFBFBFFFFFFFFFFFFFFFFFFFFFFFFFFFFFFFFFFFFFF
310
FFFFFFFFFFFFFFFFFFFFFFFFFFFFFFFFFFFFFFFFFFFFFFFFFFFFFFFFFFFFFFFF
310
FFFFFFFFFFFFFFFFFFFFFFFFFFFFFFFFFFFFFFFFFFFFFFFFFFFFFFFFFFFFFFFF
310
FFFFFFFFFFFFFFFFFFFFFFFFFFFFFFFFFFFFFFFFFFFFFFFFFFFFFFFFFFFFFFFF
310
FFFFFFFFFFFFFFFFE0E0E06B6B6B030303040404040404040404040404050505
310
020202636363F4F4F4FFFFFFFFFFFFFFFFFFFFFFFFFFFFFFFFFFFFFFFFFFFFFF
310
FFFFFFFFFFFFFFFFFFFFFFFFFFFFFFFFFFFFFFFFFFFFFFFFFFFFFFFFFFFFFFFF
310
FFFFFFFFFFFFFFFFFFFFFFFFFFFFFFFFFFFFFFFFFFFFFFFFFFFFFFFFFFFFFFFF
310
FFFFFFFFFFFFFFFFFFFFFFFFFFFFFFFFFFFFFEFEFEECECECDFDFDFDFDFDFDFDF
310
DFDFDFDFDFDFDFDFDFDFDFDFDFF1F1F1FEFEFEFFFFFFFFFFFFFFFFFFFFFFFFFF
310
FFFFFFFFFFFFFFFFFFFFFFFFFFFFFFFFFFFFFFFFFFFFFFFFFFFFFFFFFFFFFFFF
310
FFFFFFFFFFFFFFFFFFFFFFFFFFFFFFFFFFFFFFFFFFFFFFFFFFFFFFFFFFFFFFFF
310
FFFFFFFFFFFFFFFFFFFFFFFFFFFFFFFFFFFFFFFFFFFFFFFFFFFFFFFFFFFFFFFF
310
FFFFFFFFFFFFFFFFFFFFFFFFFFFFFFFFFFFFFFFFFFFFFFFFFFFFFFFFFFFFFFFF
310
FFFFFFFFFFFFFFFFFFFFFFFFFFFFFFFFFFFFFFFFFFFFFFFFFFFFFFFFFFFFFFFF
310
FFFFFFFFFFFFFFFFFFFFFFFFFFFFFFFFFFFFFFFFFFFFFFFFFFFFFFFFFFFFFFFF
310
FFFFFFFFFFFFFFFFFFFFFFFFFFFFFFFFFFFFFFFFFFFFFFFFFFFFFFFFFFFFFFFF
310
FFFFFFFFFFFFFFFFFFFFFFFFFFFFFFFFFFFFFFFFFFFFFFFFFFFFFFFFFFFFFFFF
310
FF00060606040404040404040404050505050505050505050505050505050505
310
0505050505050505050505050505050505050505050505050505050505050505
310
0505050505050505050507070704040404040405050505050505050505050505
310
0505050505050505050505050505050505050505050505050505050505030303
310
2A2A2ABBBBBBFBFBFBFFFFFFFFFFFFFFFFFFFFFFFFFFFFFFFFFFFFFFFFFFFFFF
310
FFFFFFFFFFFFFFFFFFFFFFFFFFFFFFFFFFFFFFFFFFFFFFFFFFFFFFFFFFFFFFFF
310
FFFFFFFFFFFFFFFFFFFFFFFFFFFFFFFFFFFFFFFFFFFFFFFFFFFFFFFFFFFFFFFF
310
FFFFFFFFFFFFFFFFFFFFFFFFFFFFFFFFFFFFFFFFFFFFFFFFFFFFFFFFFFFFFFFF
310
FFFFFFFFE0E0E06B6B6B03030304040404040404040405050505050502020263
310
6363F4F4F4FFFFFFFFFFFFFFFFFFFFFFFFFFFFFFFFFFFFFFFFFFFFFFFFFFFFFF
310
FFFFFFFFFFFFFFFFFFFFFFFFFFFFFFFFFFFFFFFFFFFFFFFFFFFFFFFFFFFFFFFF
310
FFFFFFFFFFFFFFFFFFFFFFFFFFFFFFFFFFFFFFFFFFFFFFFFFFFFFFFFFFFFFFFF
310
FFFFFFFFFFFFFFFFFFFFFFFFFFFFF8F8F87C7C7C202020202020202020202020
310
212121222222222222A0A0A0FBFBFBFFFFFFFFFFFFFFFFFFFFFFFFFFFFFFFFFF
310
FFFFFFFFFFFFFFFFFFFFFFFFFFFFFFFFFFFFFFFFFFFFFFFFFFFFFFFFFFFFFFFF
310
FFFFFFFFFFFFFFFFFFFFFFFFFFFFFFFFFFFFFFFFFFFFFFFFFFFFFFFFFFFFFFFF
310
FFFFFFFFFFFFFFFFFFFFFFFFFFFFFFFFFFFFFFFFFFFFFFFFFFFFFFFFFFFFFFFF
310
FFFFFFFFFFFFFFFFFFFFFFFFFFFFFFFFFFFFFFFFFFFFFFFFFFFFFFFFFFFFFFFF
310
FFFFFFFFFFFFFFFFFFFFFFFFFFFFFFFFFFFFFFFFFFFFFFFFFFFFFFFFFFFFFFFF
310
FFFFFFFFFFFFFFFFFFFFFFFFFFFFFFFFFFFFFFFFFFFFFFFFFFFFFFFFFFFFFFFF
310
FFFFFFFFFFFFFFFFFFFFFFFFFFFFFFFFFFFFFFFFFFFFFFFFFFFFFFFFFFFFFFFF
310
FFFFFFFFFFFFFFFFFFFFFFFFFFFFFFFFFFFFFFFFFFFFFFFFFFFFFFFFFF000606
310
0606060605050504040405050505050505050505050505050505050505050505
310
0505050505050505050505050505050505050505050505050505050505050505
310
0505050505050505050404040505050505050505050505050505050505050505
310
050505050505050505050505050505050505050505050404040303032A2A2ABD
310
BDBDFBFBFBFFFFFFFFFFFFFFFFFFFFFFFFFFFFFFFFFFFFFFFFFFFFFFFFFFFFFF
310
FFFFFFFFFFFFFFFFFFFFFFFFFFFFFFFFFFFFFFFFFFFFFFFFFFFFFFFFFFFFFFFF
310
FFFFFFFFFFFFFFFFFFFFFFFFFFFFFFFFFFFFFFFFFFFFFFFFFFFFFFFFFFFFFFFF
310
FFFFFFFFFFFFFFFFFFFFFFFFFFFFFFFFFFFFFFFFFFFFFFFFFFFFFFFFFFFFFFFF
310
E1E1E16C6C6C030303040404050505050505050505050505020202646464F5F5
310
F5FFFFFFFFFFFFFFFFFFFFFFFFFFFFFFFFFFFFFFFFFFFFFFFFFFFFFFFFFFFFFF
310
FFFFFFFFFFFFFFFFFFFFFFFFFFFFFFFFFFFFFFFFFFFFFFFFFFFFFFFFFFFFFFFF
310
FFFFFFFFFFFFFFFFFFFFFFFFFFFFFFFFFFFFFFFFFFFFFFFFFFFFFFFFFFFFFFFF
310
FFFFFFFFFFFFFFFFFFFFF9F9F96A6A6A01010102020202020202020202020202
310
0202020202939393FAFAFAFFFFFFFFFFFFFFFFFFFFFFFFFFFFFFFFFFFFFFFFFF
310
FFFFFFFFFFFFFFFFFFFFFFFFFFFFFFFFFFFFFFFFFFFFFFFFFFFFFFFFFFFFFFFF
310
FFFFFFFFFFFFFFFFFFFFFFFFFFFFFFFFFFFFFFFFFFFFFFFFFFFFFFFFFFFFFFFF
310
FFFFFFFFFFFFFFFFFFFFFFFFFFFFFFFFFFFFFFFFFFFFFFFFFFFFFFFFFFFFFFFF
310
FFFFFFFFFFFFFFFFFFFFFFFFFFFFFFFFFFFFFFFFFFFFFFFFFFFFFFFFFFFFFFFF
310
FFFFFFFFFFFFFFFFFFFFFFFFFFFFFFFFFFFFFFFFFFFFFFFFFFFFFFFFFFFFFFFF
310
FFFFFFFFFFFFFFFFFFFFFFFFFFFFFFFFFFFFFFFFFFFFFFFFFFFFFFFFFFFFFFFF
310
FFFFFFFFFFFFFFFFFFFFFFFFFFFFFFFFFFFFFFFFFFFFFFFFFFFFFFFFFFFFFFFF
310
FFFFFFFFFFFFFFFFFFFFFFFFFFFFFFFFFFFFFFFFFFFFFFFFFF00060606040404
310
0404040505050505050505050404040505050505050505050505050505050505
310
0505050505050505050505050505050505050505050505050505050505050505
310
0505050505050505050505050505050505050505050505050505050505050505
310
0505050505050505050505050505050404040505050303032A2A2ABDBDBDFBFB
310
FBFFFFFFFFFFFFFFFFFFFFFFFFFFFFFFFFFFFFFFFFFFFFFFFFFFFFFFFFFFFFFF
310
FFFFFFFFFFFFFFFFFFFFFFFFFFFFFFFFFFFFFFFFFFFFFFFFFFFFFFFFFFFFFFFF
310
FFFFFFFFFFFFFFFFFFFFFFFFFFFFFFFFFFFFFFFFFFFFFFFFFFFFFFFFFFFFFFFF
310
FFFFFFFFFFFFFFFFFFFFFFFFFFFFFFFFFFFFFFFFFFFFFFFFFFFFFFFFE0E0E06B
310
6B6B030303040404050505050505050505040404020202636363F4F4F4FFFFFF
310
FFFFFFFFFFFFFFFFFFFFFFFFFFFFFFFFFFFFFFFFFFFFFFFFFFFFFFFFFFFFFFFF
310
FFFFFFFFFFFFFFFFFFFFFFFFFFFFFFFFFFFFFFFFFFFFFFFFFFFFFFFFFFFFFFFF
310
FFFFFFFFFFFFFFFFFFFFFFFFFFFFFFFFFFFFFFFFFFFFFFFFFFFFFFFFFFFFFFFF
310
FFFFFFFFFFFFF9F9F96A6A6A0202020505050505050505050505050404040303
310
03939393FBFBFBFFFFFFFFFFFFFFFFFFFFFFFFFFFFFFFFFFFFFFFFFFFFFFFFFF
310
FFFFFFFFFFFFFFFFFFFFFFFFFFFFFFFFFFFFFFFFFFFFFFFFFFFFFFFFFFFFFFFF
310
FFFFFFFFFFFFFFFFFFFFFFFFFFFFFFFFFFFFFFFFFFFFFFFFFFFFFFFFFFFFFFFF
310
FFFFFFFFFFFFFFFFFFFFFFFFFFFFFFFFFFFFFFFFFFFFFFFFFFFFFFFFFFFFFFFF
310
FFFFFFFFFFFFFFFFFFFFFFFFFFFFFFFFFFFFFFFFFFFFFFFFFFFFFFFFFFFFFFFF
310
FFFFFFFFFFFFFFFFFFFFFFFFFFFFFFFFFFFFFFFFFFFFFFFFFFFFFFFFFFFFFFFF
310
FFFFFFFFFFFFFFFFFFFFFFFFFFFFFFFFFFFFFFFFFFFFFFFFFFFFFFFFFFFFFFFF
310
FFFFFFFFFFFFFFFFFFFFFFFFFFFFFFFFFFFFFFFFFFFFFFFFFFFFFFFFFFFFFFFF
310
FFFFFFFFFFFFFFFFFFFFFFFFFFFFFFFFFFFFFFFFFF0006060602020203030303
310
0303030303030303030303030303030303030303040404040404040404040404
310
0404040404040404040404040404040404040404040404040404040404040404
310
0404040404040404040404040404040404040404040404040404040404040404
310
04040404040404040404040404040404040303032B2B2BBEBEBEFCFCFCFFFFFF
310
FFFFFFFFFFFFFFFFFFFFFFFFFFFFFFFFFFFFFFFFFFFFFFFFFFFFFFFFFFFFFFFF
310
FFFFFFFFFFFFFFFFFFFFFFFFFFFFFFFFFFFFFFFFFFFFFFFFFFFFFFFFFFFFFFFF
310
FFFFFFFFFFFFFFFFFFFFFFFFFFFFFFFFFFFFFFFFFFFFFFFFFFFFFFFFFFFFFFFF
310
FFFFFFFFFFFFFFFFFFFFFFFFFFFFFFFFFFFFFFFFFFFFFFFFE1E1E16C6C6C0303
310
03040404040404040404040404040404020202636363F4F4F4FFFFFFFFFFFFFF
310
FFFFFFFFFFFFFFFFFFFFFFFFFFFFFFFFFFFFFFFFFFFFFFFFFFFFFFFFFFFFFFFF
310
FFFFFFFFFFFFFFFFFFFFFFFFFFFFFFFFFFFFFFFFFFFFFFFFFFFFFFFFFFFFFFFF
310
FFFFFFFFFFFFFFFFFFFFFFFFFFFFFFFFFFFFFFFFFFFFFFFFFFFFFFFFFFFFFFFF
310
FFFFFAFAFA6B6B6B020202040404040404040404040404040404030303939393
310
FAFAFAFFFFFFFFFFFFFFFFFFFFFFFFFFFFFFFFFFFFFFFFFFFFFFFFFFFFFFFFFF
310
FFFFFFFFFFFFFFFFFFFFFFFFFFFFFFFFFFFFFFFFFFFFFFFFFFFFFFFFFFFFFFFF
310
FFFFFFFFFFFFFFFFFFFFFFFFFFFFFFFFFFFFFFFFFFFFFFFFFFFFFFFFFFFFFFFF
310
FFFFFFFFFFFFFFFFFFFFFFFFFFFFFFFFFFFFFFFFFFFFFFFFFFFFFFFFFFFFFFFF
310
FFFFFFFFFFFFFFFFFFFFFFFFFFFFFFFFFFFFFFFFFFFFFFFFFFFFFFFFFFFFFFFF
310
FFFFFFFFFFFFFFFFFFFFFFFFFFFFFFFFFFFFFFFFFFFFFFFFFFFFFFFFFFFFFFFF
310
FFFFFFFFFFFFFFFFFFFFFFFFFFFFFFFFFFFFFFFFFFFFFFFFFFFFFFFFFFFFFFFF
310
FFFFFFFFFFFFFFFFFFFFFFFFFFFFFFFFFFFFFFFFFFFFFFFFFFFFFFFFFFFFFFFF
310
FFFFFFFFFFFFFFFFFFFFFFFFFFFFFFFFFF002222221E1E1E1E1E1E1E1E1E1E1E
310
1E1E1E1E1E1E1E1D1D1D1D1D1D1D1D1D1D1D1D1C1C1C1C1C1C1C1C1C1C1C1C1C
310
1C1C1C1C1C1B1B1B1B1B1B1B1B1B1B1B1B1B1B1B1A1A1A1A1A1A1A1A1A1A1A1A
310
1A1A1A1A1A1A1919191919191919191919191919191818181818181818181818
310
181818181818181717171717171717173D3D3DC2C2C2FCFCFCFFFFFFFFFFFFFF
310
FFFFFFFFFFFFFFFFFFFFFFFFFFFFFFFFFFFFFFFFFFFFFFFFFFFFFFFFFFFFFFFF
310
FFFFFFFFFFFFFFFFFFFFFFFFFFFFFFFFFFFFFFFFFFFFFFFFFFFFFFFFFFFFFFFF
310
FFFFFFFFFFFFFFFFFFFFFFFFFFFFFFFFFFFFFFFFFFFFFFFFFFFFFFFFFFFFFFFF
310
FFFFFFFFFFFFFFFFFFFFFFFFFFFFFFFFFFFFFFFFE1E1E17373731010100F0F0F
310
0F0F0F0F0F0F0E0E0E0E0E0E0D0D0D6A6A6AF4F4F4FFFFFFFFFFFFFFFFFFFFFF
310
FFFFFFFFFFFFFFFFFFFFFFFFFFFFFFFFFFFFFFFFFFFFFFFFFFFFFFFFFFFFFFFF
310
FFFFFFFFFFFFFFFFFFFFFFFFFFFFFFFFFFFFFFFFFFFFFFFFFFFFFFFFFFFFFFFF
310
FFFFFFFFFFFFFFFFFFFFFFFFFFFFFFFFFFFFFFFFFFFFFFFFFFFFFFFFFFFFF9F9
310
F96D6D6D050505060606050505050505050505050505040404949494FAFAFAFF
310
FFFFFFFFFFFFFFFFFFFFFFFFFFFFFFFFFFFFFFFFFFFFFFFFFFFFFFFFFFFFFFFF
310
FFFFFFFFFFFFFFFFFFFFFFFFFFFFFFFFFFFFFFFFFFFFFFFFFFFFFFFFFFFFFFFF
310
FFFFFFFFFFFFFFFFFFFFFFFFFFFFFFFFFFFFFFFFFFFFFFFFFFFFFFFFFFFFFFFF
310
FFFFFFFFFFFFFFFFFFFFFFFFFFFFFFFFFFFFFFFFFFFFFFFFFFFFFFFFFFFFFFFF
310
FFFFFFFFFFFFFFFFFFFFFFFFFFFFFFFFFFFFFFFFFFFFFFFFFFFFFFFFFFFFFFFF
310
FFFFFFFFFFFFFFFFFFFFFFFFFFFFFFFFFFFFFFFFFFFFFFFFFFFFFFFFFFFFFFFF
310
FFFFFFFFFFFFFFFFFFFFFFFFFFFFFFFFFFFFFFFFFFFFFFFFFFFFFFFFFFFFFFFF
310
FFFFFFFFFFFFFFFFFFFFFFFFFFFFFFFFFFFFFFFFFFFFFFFFFFFFFFFFFFFFFFFF
310
FFFFFFFFFFFFFFFFFFFFFFFFFF00000000000000000000000000000000000000
310
0000000000000000000000000000000000000000000000000000000000000000
310
0000000000000000000000000000000000000000000000000000000000000000
310
0000000000000000000000000000000000000000000000000000000000000000
310
0000000000000000000000000000000000000000000000000000000000000000
310
0000000000000000000000000000000000000000000000000000000000000000
310
0000000000000000000000000000000000000000000000000000000000000000
310
0000000000000000000000000000000000000000000000000000000000000000
310
0000000000000000000000000000000000000000000000000000000000000000
310
0000000000000000000000000000000000000000000000000000000000000000
310
0000000000000000000000000000000000000000000000000000000000000000
310
0000000000000000000000000000000000000000000000000000000000000000
310
0000000000000000000000000000000000000000000000000000000000000000
310
0000000000000000000000000000000000000000000000000000000000000000
310
0000000000000000000000000000000000000000000000000000000000000000
310
0000000000000000000000000000000000000000000000000000000000000000
310
0000000000000000000000000000000000000000000000000000000000000000
310
01004F006C006500000000000000000000000000000000000000000000000000
310
0000000000000000000000000000000000000000000000000000000000000000
310
0A000200FFFFFFFFFFFFFFFFFFFFFFFF00000000000000000000000000000000
310
0000000000000000000000000000000000000000030000001400000000000000
310
0000000000000000000000000000000000000000000000000000000000000000
310
0000000000000000000000000000000000000000000000000000000000000000
310
00000000FFFFFFFFFFFFFFFFFFFFFFFF00000000000000000000000000000000
310
0000000000000000000000000000000000000000000000000000000000000000
310
0000000000000000000000000000000000000000000000000000000000000000
310
0000000000000000000000000000000000000000000000000000000000000000
310
00000000FFFFFFFFFFFFFFFFFFFFFFFF00000000000000000000000000000000
310
0000000000000000000000000000000000000000000000000000000000000000
310
0000000000000000000000000000000000000000000000000000000000000000
310
0000000000000000000000000000000000000000000000000000000000000000
310
00000000FFFFFFFFFFFFFFFFFFFFFFFF00000000000000000000000000000000
310
0000000000000000000000000000000000000000000000000000000000000000
  1
OLE
  0
LINE
  5
42D
330
1F
100
AcDbEntity
  8
1
  6
Continuous
 62
     7
100
AcDbLine
 10
293.996703306862
 20
-102.5658268974673
 30
0.0
 11
298.9932352795717
 21
-102.5658268974673
 31
0.0
  0
LINE
  5
42E
330
1F
100
AcDbEntity
  8
1
  6
Continuous
 62
     7
100
AcDbLine
 10
298.9932352795717
 20
-97.52242107510077
 30
0.0
 11
298.9932352795717
 21
-102.5658268974673
 31
0.0
  0
LINE
  5
42F
330
1F
100
AcDbEntity
  8
1
  6
Continuous
 62
     7
100
AcDbLine
 10
278.9932352795717
 20
-61.56584215625642
 30
0.0
 11
278.9932352795717
 21
-80.70869057980545
 31
0.0
  0
LINE
  5
430
330
1F
100
AcDbEntity
  8
1
  6
Continuous
 62
     7
100
AcDbLine
 10
234.9932352795717
 20
-91.88421172192037
 30
0.0
 11
298.9599810065322
 21
-91.88421172192037
 31
0.0
  0
LINE
  5
431
330
1F
100
AcDbEntity
  8
1
  6
Continuous
 62
     7
100
AcDbLine
 10
234.9932352795717
 20
-61.56584215625642
 30
0.0
 11
234.9932352795717
 21
-102.5658268974673
 31
0.0
  0
LINE
  5
432
330
1F
100
AcDbEntity
  8
1
  6
Continuous
 62
     7
100
AcDbLine
 10
253.9932352795717
 20
-61.56584215625642
 30
0.0
 11
253.9932352795717
 21
-80.70869057980545
 31
0.0
  0
LINE
  5
433
330
1F
100
AcDbEntity
  8
1
  6
Continuous
 62
     7
100
AcDbLine
 10
266.4932352795717
 20
-61.56584215625642
 30
0.0
 11
266.4932352795717
 21
-80.70869057980545
 31
0.0
  0
LINE
  5
434
330
1F
100
AcDbEntity
  8
1
  6
Continuous
 62
     7
100
AcDbLine
 10
196.9932314648744
 20
-80.70869057980545
 30
0.0
 11
196.9932314648744
 21
-102.5658268974673
 31
0.0
  0
LINE
  5
435
330
1F
100
AcDbEntity
  8
1
  6
Continuous
 62
     7
100
AcDbLine
 10
177.493233372223
 20
-80.70869057980545
 30
0.0
 11
177.493233372223
 21
-102.5658268974673
 31
0.0
  0
LINE
  5
436
330
1F
100
AcDbEntity
  8
1
  6
CENTER
 62
     7
100
AcDbLine
 10
283.71698332126
 20
-71.5048904025567
 30
0.0
 11
283.71698332126
 21
-79.83925624728326
 31
0.0
  0
LINE
  5
437
330
1F
100
AcDbEntity
  8
1
  6
CENTER
 62
     7
100
AcDbLine
 10
279.5704531698928
 20
-75.83522792697076
 30
0.0
 11
297.9060549765334
 21
-75.83522792697076
 31
0.0
  0
LINE
  5
438
330
1F
100
AcDbEntity
  8
1
  6
Continuous
 62
     7
100
AcDbLine
 10
290.21698332126
 20
-73.83522792697076
 30
0.0
 11
290.21698332126
 21
-77.83522792697076
 31
0.0
  0
LINE
  5
439
330
1F
100
AcDbEntity
  8
1
  6
Continuous
 62
     7
100
AcDbLine
 10
296.71698332126
 20
-72.33522792697076
 30
0.0
 11
296.71698332126
 21
-79.33522792697076
 31
0.0
  0
LINE
  5
43A
330
1F
100
AcDbEntity
  8
1
  6
Continuous
 62
     7
100
AcDbLine
 10
296.7169705564125
 20
-72.33524870803834
 30
0.0
 11
290.2169652918269
 21
-73.83524977766103
 31
0.0
  0
LINE
  5
43B
330
1F
100
AcDbEntity
  8
1
  6
Continuous
 62
     7
100
AcDbLine
 10
296.7169882574492
 20
-79.33524747067815
 30
0.0
 11
290.2169978608935
 21
-77.83524983213886
 31
0.0
  0
LINE
  5
43C
330
1F
100
AcDbEntity
  8
1
  6
Continuous
 62
     7
100
AcDbLine
 10
269.2777132028915
 20
-78.67001935126135
 30
0.0
 11
276.2087945563214
 21
-71.46169436222482
 31
0.0
  0
LINE
  5
43D
330
1F
100
AcDbEntity
  8
1
  6
Continuous
 62
     7
100
AcDbLine
 10
118.9932403564453
 20
-80.70869057980545
 30
0.0
 11
298.9932352795717
 21
-80.70869057980545
 31
0.0
  0
CIRCLE
  5
43E
330
1F
100
AcDbEntity
  8
1
  6
Continuous
 62
     7
100
AcDbCircle
 10
283.71698332126
 20
-75.83522792697076
 30
0.0
 40
2.0
  0
CIRCLE
  5
43F
330
1F
100
AcDbEntity
  8
1
  6
Continuous
 62
     7
100
AcDbCircle
 10
283.71698332126
 20
-75.83522792697076
 30
0.0
 40
3.5
  0
TEXT
  5
440
330
1F
100
AcDbEntity
  8
1
  6
Continuous
 62
     7
100
AcDbText
 10
236.1320604069232
 20
-94.67155390908218
 30
0.0
 40
2.0
  1
図面番号
 41
1.116756992340088
100
AcDbText
  0
TEXT
  5
441
330
1F
100
AcDbEntity
  8
1
  6
Continuous
 62
     7
100
AcDbText
 10
284.10415427829
 20
-64.81584215625642
 30
0.0
 40
2.5
  1
第三角法
 41
0.7924525623015541
100
AcDbText
  0
TEXT
  5
442
330
1F
100
AcDbEntity
  8
1
  6
Continuous
 62
     7
100
AcDbText
 10
268.6763383641359
 20
-65.06584215625642
 30
0.0
 40
3.0
  1
尺　度
 41
0.8011275980652882
100
AcDbText
  0
TEXT
  5
443
330
1F
100
AcDbEntity
  8
1
  6
Continuous
 62
     7
100
AcDbText
 10
256.1763383641359
 20
-65.06584215625642
 30
0.0
 40
3.0
  1
個　数
 41
0.8011275980652882
100
AcDbText
  0
TEXT
  5
444
330
1F
100
AcDbEntity
  8
1
  6
Continuous
 62
     7
100
AcDbText
 10
239.2263414158937
 20
-65.06584215625642
 30
0.0
 40
3.0
  1
材　　質
 41
0.7924526497277711
100
AcDbText
  0
TEXT
  5
445
330
1F
100
AcDbEntity
  8
1
  6
Continuous
 62
     7
100
AcDbText
 10
181.7885382302721
 20
-84.61082808211788
 30
0.0
 40
3.0
  1
製　　図
 41
0.7924526497277711
100
AcDbText
  0
TEXT
  5
446
330
1F
100
AcDbEntity
  8
1
  6
Continuous
 62
     7
100
AcDbText
 10
238.0530792966005
 20
-67.9658417747867
 30
0.0
 40
1.799999237060547
  1
MATERIAL
 41
0.9708675251408886
100
AcDbText
  0
TEXT
  5
447
330
1F
100
AcDbEntity
  8
1
  6
Continuous
 62
     7
100
AcDbText
 10
257.0531098141786
 20
-67.9658417747867
 30
0.0
 40
1.799999237060547
  1
QTY.
 41
1.073090087329566
100
AcDbText
  0
TEXT
  5
448
330
1F
100
AcDbEntity
  8
1
  6
Continuous
 62
     7
100
AcDbText
 10
268.4531342282411
 20
-67.9658417747867
 30
0.0
 40
1.799999237060547
  1
SCALE
 41
0.9371196086724451
100
AcDbText
  0
TEXT
  5
449
330
1F
100
AcDbEntity
  8
1
  6
Continuous
 62
     7
100
AcDbText
 10
236.4103170488928
 20
-85.62821304507216
 30
0.0
 40
2.699999809265137
  1
型　　番
 41
0.7924525761883141
100
AcDbText
  0
TEXT
  5
44A
330
1F
100
AcDbEntity
  8
1
  6
Continuous
 62
     7
100
AcDbText
 10
161.7194791468651
 20
-84.57978291958406
 30
0.0
 40
3.0
  1
設　　計
 41
0.7924526497277711
100
AcDbText
  0
TEXT
  5
44B
330
1F
100
AcDbEntity
  8
1
  6
Continuous
 62
     7
100
AcDbText
 10
268.8735219731447
 20
-74.06584215625642
 30
0.0
 40
3.5
  1
１
 41
0.8965522015080446
100
AcDbText
  0
TEXT
  5
44C
330
1F
100
AcDbEntity
  8
1
  6
Continuous
 62
     7
100
AcDbText
 10
258.7612497105714
 20
-77.14943409427525
 30
0.0
 40
4.167183876037599
  1
1
 41
0.6666666666666666
100
AcDbText
  0
TEXT
  5
44D
330
1F
100
AcDbEntity
  8
1
  6
Continuous
 62
     7
100
AcDbText
 10
273.6235219731447
 20
-80.06584215625645
 30
0.0
 40
3.5
  1
１
 41
0.8965522015080446
100
AcDbText
  0
TEXT
  5
44E
330
1F
100
AcDbEntity
  8
1
  6
Continuous
 62
     7
100
AcDbText
 10
280.3503786816713
 20
-67.9658417747867
 30
0.0
 40
1.799999237060547
  1
THIRD ANGLE
 41
0.9934187309461456
100
AcDbText
  0
TEXT
  5
44F
330
1F
100
AcDbEntity
  8
1
  6
Continuous
 62
     7
100
AcDbText
 10
280.3503786816713
 20
-70.6658396767032
 30
0.0
 40
1.799999237060547
  1
PROJECTION
 41
0.9336612321840694
100
AcDbText
  0
TEXT
  5
450
330
1F
100
AcDbEntity
  8
1
  6
Continuous
 62
     7
100
AcDbText
 10
220.1487746771301
 20
-84.4326058527572
 30
0.0
 40
3.0
  1
承　　認
 41
0.7924526497277711
100
AcDbText
  0
TEXT
  5
451
330
1F
100
AcDbEntity
  8
1
  6
Continuous
 62
     7
100
AcDbText
 10
247.6543223403472
 20
-100.6914612588177
 30
0.0
 40
3.2
  1
TSTM-025
100
AcDbText
  0
LINE
  5
454
330
1F
100
AcDbEntity
  8
0
  6
Continuous
100
AcDbLine
 10
157.493233372223
 20
-86.98869500406659
 30
0.0
 11
234.9932352795717
 21
-86.98869500406659
 31
0.0
  0
TEXT
  5
455
330
1F
100
AcDbEntity
  8
1
  6
Continuous
 62
     7
100
AcDbText
 10
200.5012974027237
 20
-84.47169976113307
 30
0.0
 40
3.0
  1
検　　図
 41
0.7924526497277711
100
AcDbText
  0
LINE
  5
456
330
1F
100
AcDbEntity
  8
1
  6
Continuous
 62
     7
100
AcDbLine
 10
215.9932352795717
 20
-80.70869057980545
 30
0.0
 11
215.9932352795717
 21
-102.5658268974673
 31
0.0
  0
TEXT
  5
457
330
1F
100
AcDbEntity
  8
1
  6
Continuous
 62
     7
100
AcDbText
 10
160.5897116705626
 20
-66.52216977090572
 30
0.0
 40
3.0
  1
名　　称
 41
0.7924526497277711
100
AcDbText
  0
TEXT
  5
458
330
1F
100
AcDbEntity
  8
1
  6
Continuous
 62
     7
100
AcDbText
 10
248.3403706916917
 20
-85.09353031297857
 30
0.0
 40
1.799999237060547
  1
STYLE NUMBER
 41
0.9708675251408886
100
AcDbText
  0
TEXT
  5
459
330
1F
100
AcDbEntity
  8
1
  6
Continuous
 62
     7
100
AcDbText
 10
247.6797110486591
 20
-94.39329726711267
 30
0.0
 40
1.799999237060547
  1
DRAWING NUMBER
 41
0.9708675251408886
100
AcDbText
  0
TEXT
  5
45A
330
1F
100
AcDbEntity
  8
1
  6
Continuous
 62
     7
100
AcDbText
 10
175.4069463617635
 20
-65.75241009843802
 30
0.0
 40
1.799999237060547
  1
PRODUCT NAME
 41
0.9708675251408886
100
AcDbText
  0
TEXT
  5
45B
330
1F
100
AcDbEntity
  8
1
  6
Continuous
 62
     7
100
AcDbText
 10
162.2993941795406
 20
-86.68032178289928
 30
0.0
 40
1.6
  1
DESIGNED
 41
0.7800000000000001
100
AcDbText
  0
TEXT
  5
45C
330
1F
100
AcDbEntity
  8
1
  6
Continuous
 62
     7
100
AcDbText
 10
183.6491153603145
 20
-86.70171705960175
 30
0.0
 40
1.6
  1
DRAWN
 41
0.782
100
AcDbText
  0
TEXT
  5
45E
330
1F
100
AcDbEntity
  8
1
  6
Continuous
 62
     7
100
AcDbText
 10
199.6849342410862
 20
-95.33946566228215
 30
0.0
 40
1.799999237060547
  1
M.Matsumoto
 41
0.8
100
AcDbText
  0
TEXT
  5
460
330
1F
100
AcDbEntity
  8
1
  6
Continuous
 62
     7
100
AcDbText
 10
219.652865271549
 20
-95.2693678894187
 30
0.0
 40
1.799999237060547
  1
M.Saito
 41
1.2
  7
NewStyle1
100
AcDbText
  0
TEXT
  5
461
330
1F
100
AcDbEntity
  8
1
  6
Continuous
 62
     7
100
AcDbText
 10
220.9803466170603
 20
-100.9824140521302
 30
0.0
 40
1.6
  1
2007.11.30
 41
0.7800000000000001
100
AcDbText
  0
TEXT
  5
462
330
1F
100
AcDbEntity
  8
1
  6
Continuous
 62
     7
100
AcDbText
 10
201.5659170377022
 20
-100.9824140521302
 30
0.0
 40
1.6
  1
2007.11.30
 41
0.7800000000000001
100
AcDbText
  0
TEXT
  5
464
330
1F
100
AcDbEntity
  8
1
  6
Continuous
 62
     7
100
AcDbText
 10
201.3030893932168
 20
-86.68032178289928
 30
0.0
 40
1.6
  1
CHECKED
 41
0.7800000000000001
100
AcDbText
  0
TEXT
  5
465
330
1F
100
AcDbEntity
  8
1
  6
Continuous
 62
     7
100
AcDbText
 10
220.6066730755667
 20
-86.59006280668555
 30
0.0
 40
1.6
  1
APPROVED
 41
0.7800000000000001
100
AcDbText
  0
TEXT
  5
466
330
1F
100
AcDbEntity
  8
1
  6
Continuous
 62
     7
100
AcDbText
 10
217.1031057611528
 20
-109.1487758048231
 30
0.0
 40
4.0
  1
株式会社 トキナー
100
AcDbText
  0
TEXT
  5
467
330
1F
100
AcDbEntity
  8
1
  6
Continuous
 62
     7
100
AcDbText
 10
263.1117505755217
 20
-108.8232599909355
 30
0.0
 40
4.0
  1
Tokina Co. ,Ltd.
 41
0.7000000000000001
100
AcDbText
  0
POINT
  5
58C
330
1F
100
AcDbEntity
  8
1
  6
Continuous
 62
     7
100
AcDbPoint
 10
122.27305093953
 20
-54.06579971313477
 30
0.0
  0
LINE
  5
58E
330
1F
100
AcDbEntity
  8
1
  6
Continuous
 62
     7
100
AcDbLine
 10
124.443319476276
 20
-56.02118399324363
 30
0.0
 11
122.2782559668149
 21
-52.27118399324362
 31
0.0
  0
LINE
  5
58F
330
1F
100
AcDbEntity
  8
1
  6
Continuous
 62
     7
100
AcDbLine
 10
122.278255966815
 20
-52.27118399324363
 30
0.0
 11
120.1131924573539
 21
-56.02118399324363
 31
0.0
  0
LINE
  5
590
330
1F
100
AcDbEntity
  8
1
  6
Continuous
 62
     7
100
AcDbLine
 10
124.4433194762761
 20
-56.02118399324363
 30
0.0
 11
120.1131924573539
 21
-56.02118399324363
 31
0.0
  0
TEXT
  5
591
330
1F
100
AcDbEntity
  8
1
  6
Continuous
 62
     7
100
AcDbText
 10
120.8786597085344
 20
-61.06579971313477
 30
0.0
 40
3.0
  1
No
 41
0.6000000000000001
100
AcDbText
  0
TEXT
  5
592
330
1F
100
AcDbEntity
  8
1
  6
Continuous
 62
     7
100
AcDbText
 10
129.7967562862704
 20
-79.50638404085615
 30
0.0
 40
2.0
  1
250-1000
 41
0.917513907425047
100
AcDbText
  0
TEXT
  5
593
330
1F
100
AcDbEntity
  8
1
  6
Continuous
 62
     7
100
AcDbText
 10
131.618786060381
 20
-76.48017534772757
 30
0.0
 40
1.999999999999999
  1
63- 250
 41
0.8547865309805239
100
AcDbText
  0
TEXT
  5
594
330
1F
100
AcDbEntity
  8
1
  6
Continuous
 62
     7
100
AcDbText
 10
131.8982158002843
 20
-73.51586775511495
 30
0.0
 40
1.999999999999999
  1
16-  63
 41
0.924393960407802
100
AcDbText
  0
TEXT
  5
595
330
1F
100
AcDbEntity
  8
1
  6
Continuous
 62
     7
100
AcDbText
 10
133.0965725228329
 20
-70.6118723861903
 30
0.0
 40
2.000000000000028
  1
4-  16
 41
0.9801621437072754
100
AcDbText
  0
TEXT
  5
596
330
1F
100
AcDbEntity
  8
1
  6
Continuous
 62
     7
100
AcDbText
 10
145.8154985304186
 20
-67.90678187872717
 30
0.0
 40
2.0
  1
%%P０．０５
 41
0.6471658811992815
100
AcDbText
  0
TEXT
  5
597
330
1F
100
AcDbEntity
  8
1
  6
Continuous
 62
     7
100
AcDbText
 10
145.8154985304186
 20
-70.7865102240552
 30
0.0
 40
2.0
  1
%%P０．０５
 41
0.6471658811992815
100
AcDbText
  0
TEXT
  5
598
330
1F
100
AcDbEntity
  8
1
  6
Continuous
 62
     7
100
AcDbText
 10
145.8154985304186
 20
-73.59433685527551
 30
0.0
 40
2.0
  1
%%P０．１
 41
0.6586746918144255
100
AcDbText
  0
TEXT
  5
599
330
1F
100
AcDbEntity
  8
1
  6
Continuous
 62
     7
100
AcDbText
 10
145.8154985304186
 20
-76.43810671415514
 30
0.0
 40
2.0
  1
%%P０．２
 41
0.6586746918144255
100
AcDbText
  0
TEXT
  5
59A
330
1F
100
AcDbEntity
  8
1
  6
Continuous
 62
     7
100
AcDbText
 10
145.8154985304186
 20
-79.49753593899095
 30
0.0
 40
2.0
  1
%%P０．３
 41
0.6586746918144255
100
AcDbText
  0
TEXT
  5
59B
330
1F
100
AcDbEntity
  8
1
  6
Continuous
 62
     7
100
AcDbText
 10
133.460081536023
 20
-67.8867778082431
 30
0.0
 40
2.000000000000001
  1
1-  4
 41
1.166124701499939
100
AcDbText
  0
TEXT
  5
59C
330
1F
100
AcDbEntity
  8
1
  6
Continuous
 62
     7
100
AcDbText
 10
137.6439060732386
 20
-64.46837032017751
 30
0.0
 40
1.899999618530273
  1
TOLERANCE
 41
0.967401567883914
100
AcDbText
  0
TEXT
  5
59D
330
1F
100
AcDbEntity
  8
1
  6
Continuous
 62
     7
100
AcDbText
 10
120.9431366134504
 20
-55.95332758815274
 30
0.0
 40
3.0
  1
１
 41
0.9004726129419663
100
AcDbText
  0
TEXT
  5
59E
330
1F
100
AcDbEntity
  8
1
  6
Continuous
 62
     7
100
AcDbText
 10
211.1317392608393
 20
-56.11795034906346
 30
0.0
 40
3.0
  1
２
 41
0.9004726129419663
100
AcDbText
  0
LINE
  5
59F
330
1F
100
AcDbEntity
  8
1
  6
Continuous
 62
     7
100
AcDbLine
 10
214.791384424303
 20
-56.00496041247929
 30
0.0
 11
212.6263209148419
 21
-52.25496041247928
 31
0.0
  0
LINE
  5
5A0
330
1F
100
AcDbEntity
  8
1
  6
Continuous
 62
     7
100
AcDbLine
 10
212.6263209148419
 20
-52.25496041247929
 30
0.0
 11
210.4612574053808
 21
-56.00496041247929
 31
0.0
  0
LINE
  5
5A1
330
1F
100
AcDbEntity
  8
1
  6
Continuous
 62
     7
100
AcDbLine
 10
214.791384424303
 20
-56.00496041247929
 30
0.0
 11
210.4612574053808
 21
-56.00496041247929
 31
0.0
  0
TEXT
  5
5A2
330
1F
100
AcDbEntity
  8
1
  6
Continuous
 62
     7
100
AcDbText
 10
121.2268946276448
 20
-64.63763367341872
 30
0.0
 40
2.5
  1
一般交差
 41
0.967401567883914
100
AcDbText
  0
TEXT
  5
5A3
330
1F
100
AcDbEntity
  8
1
  6
Continuous
 62
     7
100
AcDbText
 10
211.2692802429352
 20
-61.10124651570618
 30
0.0
 40
3.0
  1
No
 41
0.6000000000000001
100
AcDbText
  0
LINE
  5
5A4
330
1F
100
AcDbEntity
  8
0
  6
Continuous
100
AcDbLine
 10
298.9932250976563
 20
-51.56579971313477
 30
0.0
 11
298.9932250976563
 21
-56.56579971313477
 31
0.0
  0
LINE
  5
5A5
330
1F
100
AcDbEntity
  8
0
  6
Continuous
100
AcDbLine
 10
298.9932250976563
 20
-51.56579971313477
 30
0.0
 11
278.9932250976563
 21
-51.56579971313477
 31
0.0
  0
POINT
  5
5A6
330
1F
100
AcDbEntity
  8
1
  6
Continuous
 62
     7
100
AcDbPoint
 10
122.27305093953
 20
-49.06579971313477
 30
0.0
  0
LINE
  5
5A7
330
1F
100
AcDbEntity
  8
1
  6
Continuous
 62
     7
100
AcDbLine
 10
124.443319476276
 20
-51.02118399324363
 30
0.0
 11
122.2782559668149
 21
-47.27118399324362
 31
0.0
  0
LINE
  5
5A8
330
1F
100
AcDbEntity
  8
1
  6
Continuous
 62
     7
100
AcDbLine
 10
122.278255966815
 20
-47.27118399324363
 30
0.0
 11
120.1131924573539
 21
-51.02118399324363
 31
0.0
  0
LINE
  5
5A9
330
1F
100
AcDbEntity
  8
1
  6
Continuous
 62
     7
100
AcDbLine
 10
124.4433194762761
 20
-51.02118399324363
 30
0.0
 11
120.1131924573539
 21
-51.02118399324363
 31
0.0
  0
TEXT
  5
5AA
330
1F
100
AcDbEntity
  8
1
  6
Continuous
 62
     7
100
AcDbText
 10
120.7659026005934
 20
-51.09511479843837
 30
0.0
 40
3.0
  1
３
 41
0.9004726129419663
100
AcDbText
  0
TEXT
  5
5AB
330
1F
100
AcDbEntity
  8
1
  6
Continuous
 62
     7
100
AcDbText
 10
211.1317392608393
 20
-51.11795034906346
 30
0.0
 40
3.0
  1
４
 41
0.9004726129419663
100
AcDbText
  0
LINE
  5
5AC
330
1F
100
AcDbEntity
  8
1
  6
Continuous
 62
     7
100
AcDbLine
 10
214.791384424303
 20
-51.00496041247929
 30
0.0
 11
212.6263209148419
 21
-47.25496041247928
 31
0.0
  0
LINE
  5
5AD
330
1F
100
AcDbEntity
  8
1
  6
Continuous
 62
     7
100
AcDbLine
 10
212.6263209148419
 20
-47.25496041247929
 30
0.0
 11
210.4612574053808
 21
-51.00496041247929
 31
0.0
  0
LINE
  5
5AE
330
1F
100
AcDbEntity
  8
1
  6
Continuous
 62
     7
100
AcDbLine
 10
214.791384424303
 20
-51.00496041247929
 30
0.0
 11
210.4612574053808
 21
-51.00496041247929
 31
0.0
  0
TEXT
  5
63A
330
1F
100
AcDbEntity
  8
1
  6
Continuous
 62
     7
100
AcDbText
 10
178.5209263715778
 20
-97.85529667412119
 30
0.0
 40
1.799999237060547
  1
図番登録
 41
0.8
100
AcDbText
  0
TEXT
  5
63B
330
1F
100
AcDbEntity
  8
1
  6
Continuous
 62
     7
100
AcDbText
 10
178.4936487874466
 20
-100.8139577167076
 30
0.0
 40
1.6
  1
2007.11.30　Takeishi
 41
0.7000000000000001
100
AcDbText
  0
ENDSEC
  0
SECTION
  2
OBJECTS
  0
DICTIONARY
  5
C
330
0
100
AcDbDictionary
281
     1
  3
ACAD_COLOR
350
6C
  3
ACAD_GROUP
350
D
  3
ACAD_LAYOUT
350
1A
  3
ACAD_MATERIAL
350
6B
  3
ACAD_MLINESTYLE
350
17
  3
ACAD_PLOTSETTINGS
350
19
  3
ACAD_PLOTSTYLENAME
350
E
  3
ACAD_TABLESTYLE
350
92
  3
ACDBHEADERROUNDTRIPXREC
350
74E
  3
AcDbVariableDictionary
350
59
  3
DWGPROPS
350
751
  0
DICTIONARY
  5
6C
102
{ACAD_REACTORS
330
C
102
}
330
C
100
AcDbDictionary
281
     1
  0
DICTIONARY
  5
D
102
{ACAD_REACTORS
330
C
102
}
330
C
100
AcDbDictionary
281
     1
  0
DICTIONARY
  5
1A
102
{ACAD_REACTORS
330
C
102
}
330
C
100
AcDbDictionary
281
     1
  3
Model
350
22
  3
ﾚｲｱｳﾄ1
350
1D
  0
DICTIONARY
  5
6B
102
{ACAD_REACTORS
330
C
102
}
330
C
100
AcDbDictionary
281
     1
  0
DICTIONARY
  5
17
102
{ACAD_REACTORS
330
C
102
}
330
C
100
AcDbDictionary
281
     1
  3
Standard
350
18
  0
DICTIONARY
  5
19
102
{ACAD_REACTORS
330
C
102
}
330
C
100
AcDbDictionary
281
     1
  0
ACDBDICTIONARYWDFLT
  5
E
102
{ACAD_REACTORS
330
C
102
}
330
C
100
AcDbDictionary
281
     1
  3
Normal
350
F
100
AcDbDictionaryWithDefault
340
F
  0
DICTIONARY
  5
92
102
{ACAD_REACTORS
330
C
102
}
330
C
100
AcDbDictionary
281
     1
  0
DICTIONARY
  5
74E
102
{ACAD_REACTORS
330
C
102
}
330
C
100
AcDbDictionary
281
     1
  3
COLORDICT
350
74F
  3
MATERIALDICT
350
750
  0
DICTIONARY
  5
59
102
{ACAD_REACTORS
330
C
102
}
330
C
100
AcDbDictionary
281
     1
  3
CTABLESTYLE
350
98
  3
DIMASSOC
350
6C4
  0
XRECORD
  5
751
102
{ACAD_REACTORS
330
C
102
}
330
C
100
AcDbXrecord
280
     1
  1
DWGPROPS COOKIE
  2

  3

  4

  6

  7

  8
fottrem
  9

300
=
301
=
302
=
303
=
304
=
305
=
306
=
307
=
308
=
309
=
 40
0.0
 41
2453353.717125822
 42
2454434.423290301
  1

 90
        0
  0
LAYOUT
  5
22
102
{ACAD_REACTORS
330
1A
102
}
330
1A
100
AcDbPlotSettings
  1

  2
Brother HL-5040 series
  4
A4
  6

 40
5.027083396911621
 41
5.027085304260254
 42
5.027084350585938
 43
5.027069091796875
 44
209.9733276367188
 45
296.9259948730469
 46
0.0
 47
0.0
 48
0.0
 49
0.0
140
0.0
141
0.0
142
1.0
143
1.480598458717108
 70
 11952
 72
     1
 73
     1
 74
     2
  7

 75
     0
147
0.6754025671933148
148
110.5062866210938
149
112.0657958984375
100
AcDbLayout
  1
Model
 70
     1
 71
     0
 10
-110.5062866210938
 20
-112.0657958984375
 11
308.4932250976563
 21
183.9342041015625
 12
0.0
 22
0.0
 32
0.0
 14
-110.5062713623047
 24
-112.0657958984375
 34
0.0
 15
308.4932250976563
 25
183.9342041015625
 35
0.0
146
0.0
 13
0.0
 23
0.0
 33
0.0
 16
1.0
 26
0.0
 36
0.0
 17
0.0
 27
1.0
 37
0.0
 76
     0
330
1F
  0
LAYOUT
  5
1D
102
{ACAD_REACTORS
330
1A
102
}
330
1A
100
AcDbPlotSettings
  1

  2
\\NOBE\(Colour) EPSON PM-D750
  4

  6

 40
0.0
 41
0.0
 42
0.0
 43
0.0
 44
0.0
 45
0.0
 46
0.0
 47
0.0
 48
0.0
 49
0.0
140
0.0
141
0.0
142
1.0
143
1.0
 70
   688
 72
     0
 73
     0
 74
     5
  7

 75
    16
147
1.0
148
0.0
149
0.0
100
AcDbLayout
  1
ﾚｲｱｳﾄ1
 70
     1
 71
     1
 10
-110.5062866210938
 20
-112.0657958984375
 11
308.4932250976563
 21
183.9342041015625
 12
0.0
 22
0.0
 32
0.0
 14
1.000000000000000E+20
 24
1.000000000000000E+20
 34
1.000000000000000E+20
 15
-1.000000000000000E+20
 25
-1.000000000000000E+20
 35
-1.000000000000000E+20
146
0.0
 13
0.0
 23
0.0
 33
0.0
 16
1.0
 26
0.0
 36
0.0
 17
0.0
 27
1.0
 37
0.0
 76
     0
330
73
  0
MLINESTYLE
  5
18
102
{ACAD_REACTORS
330
17
102
}
330
17
100
AcDbMlineStyle
  2
Standard
 70
     0
  3

 62
   256
 51
90.0
 52
90.0
 71
     2
 49
0.5
 62
   256
  6
BYLAYER
 49
-0.5
 62
   256
  6
BYLAYER
  0
ACDBPLACEHOLDER
  5
F
102
{ACAD_REACTORS
330
E
102
}
330
E
  0
XRECORD
  5
74F
102
{ACAD_REACTORS
330
74E
102
}
330
74E
100
AcDbXrecord
280
     1
340
6C
  0
XRECORD
  5
750
102
{ACAD_REACTORS
330
74E
102
}
330
74E
100
AcDbXrecord
280
     1
340
6B
  0
DICTIONARYVAR
  5
98
102
{ACAD_REACTORS
330
59
102
}
330
59
100
DictionaryVariables
280
     0
  1
STANDARD
  0
DICTIONARYVAR
  5
6C4
102
{ACAD_REACTORS
330
59
102
}
330
59
100
DictionaryVariables
280
     0
  1
1
  0
ENDSEC
  0
EOF
