  0
SECTION
  2
HEADER
  9
$ACADVER
  1
AC1015
  9
$ACADMAINTVER
 70
     6
  9
$DWGCODEPAGE
  3
ANSI_932
  9
$INSBASE
 10
0.0
 20
0.0
 30
0.0
  9
$EXTMIN
 10
18.0
 20
1.198991289661336
 30
0.0
  9
$EXTMAX
 10
401.4999999999999
 20
284.0000033378499
 30
0.0
  9
$LIMMIN
 10
0.0
 20
0.0
  9
$LIMMAX
 10
420.0
 20
297.0
  9
$ORTHOMODE
 70
     0
  9
$REGENMODE
 70
     1
  9
$FILLMODE
 70
     1
  9
$QTEXTMODE
 70
     0
  9
$MIRRTEXT
 70
     1
  9
$LTSCALE
 40
0.2
  9
$ATTMODE
 70
     1
  9
$TEXTSIZE
 40
3.2
  9
$TRACEWID
 40
1.0
  9
$TEXTSTYLE
  7
KCADTEXTSTANDARD
  9
$CLAYER
  8
0
  9
$CELTYPE
  6
Continuous
  9
$CECOLOR
 62
   214
  9
$CELTSCALE
 40
1.0
  9
$DISPSILH
 70
     0
  9
$DIMSCALE
 40
1.0
  9
$DIMASZ
 40
3.0
  9
$DIMEXO
 40
1.0
  9
$DIMDLI
 40
8.0
  9
$DIMRND
 40
0.0
  9
$DIMDLE
 40
0.0
  9
$DIMEXE
 40
1.0
  9
$DIMTP
 40
0.0
  9
$DIMTM
 40
0.0
  9
$DIMTXT
 40
3.2
  9
$DIMCEN
 40
2.5
  9
$DIMTSZ
 40
0.0
  9
$DIMTOL
 70
     0
  9
$DIMLIM
 70
     0
  9
$DIMTIH
 70
     0
  9
$DIMTOH
 70
     0
  9
$DIMSE1
 70
     0
  9
$DIMSE2
 70
     0
  9
$DIMTAD
 70
     1
  9
$DIMZIN
 70
     8
  9
$DIMBLK
  1

  9
$DIMASO
 70
     1
  9
$DIMSHO
 70
     1
  9
$DIMPOST
  1

  9
$DIMAPOST
  1

  9
$DIMALT
 70
     0
  9
$DIMALTD
 70
     2
  9
$DIMALTF
 40
25.4
  9
$DIMLFAC
 40
1.0
  9
$DIMTOFL
 70
     1
  9
$DIMTVP
 40
0.0
  9
$DIMTIX
 70
     0
  9
$DIMSOXD
 70
     0
  9
$DIMSAH
 70
     1
  9
$DIMBLK1
  1
KCAD_OPEN30
  9
$DIMBLK2
  1
KCAD_OPEN30
  9
$DIMSTYLE
  2
Standard
  9
$DIMCLRD
 70
     0
  9
$DIMCLRE
 70
     0
  9
$DIMCLRT
 70
     0
  9
$DIMTFAC
 40
0.667
  9
$DIMGAP
 40
0.5333000000000001
  9
$DIMJUST
 70
     0
  9
$DIMSD1
 70
     0
  9
$DIMSD2
 70
     0
  9
$DIMTOLJ
 70
     1
  9
$DIMTZIN
 70
     8
  9
$DIMALTZ
 70
     0
  9
$DIMALTTZ
 70
     0
  9
$DIMUPT
 70
     0
  9
$DIMDEC
 70
     3
  9
$DIMTDEC
 70
     3
  9
$DIMALTU
 70
     2
  9
$DIMALTTD
 70
     2
  9
$DIMTXSTY
  7
KCADDIMSTANDARD
  9
$DIMAUNIT
 70
     0
  9
$DIMADEC
 70
     3
  9
$DIMALTRND
 40
0.0
  9
$DIMAZIN
 70
     2
  9
$DIMDSEP
 70
    46
  9
$DIMATFIT
 70
     3
  9
$DIMFRAC
 70
     0
  9
$DIMLDRBLK
  1
KCAD_OPEN
  9
$DIMLUNIT
 70
     2
  9
$DIMLWD
 70
    -2
  9
$DIMLWE
 70
    -2
  9
$DIMTMOVE
 70
     0
  9
$LUNITS
 70
     2
  9
$LUPREC
 70
     4
  9
$SKETCHINC
 40
1.0
  9
$FILLETRAD
 40
5.0
  9
$AUNITS
 70
     0
  9
$AUPREC
 70
     0
  9
$MENU
  1
.
  9
$ELEVATION
 40
0.0
  9
$PELEVATION
 40
0.0
  9
$THICKNESS
 40
0.0
  9
$LIMCHECK
 70
     0
  9
$CHAMFERA
 40
5.0
  9
$CHAMFERB
 40
5.0
  9
$CHAMFERC
 40
5.0
  9
$CHAMFERD
 40
0.7853981633974483
  9
$SKPOLY
 70
     0
  9
$TDCREATE
 40
2453354.092125822
  9
$TDUCREATE
 40
2453353.717125822
  9
$TDUPDATE
 40
2453304.49339066
  9
$TDUUPDATE
 40
2453304.11839066
  9
$TDINDWG
 40
0.0469095949
  9
$TDUSRTIMER
 40
0.0468864699
  9
$USRTIMER
 70
     1
  9
$ANGBASE
 50
0.0
  9
$ANGDIR
 70
     0
  9
$PDMODE
 70
     0
  9
$PDSIZE
 40
0.0
  9
$PLINEWID
 40
0.0
  9
$SPLFRAME
 70
     0
  9
$SPLINETYPE
 70
     6
  9
$SPLINESEGS
 70
     8
  9
$HANDSEED
  5
D8F
  9
$SURFTAB1
 70
     6
  9
$SURFTAB2
 70
     6
  9
$SURFTYPE
 70
     6
  9
$SURFU
 70
     6
  9
$SURFV
 70
     6
  9
$UCSBASE
  2

  9
$UCSNAME
  2

  9
$UCSORG
 10
0.0
 20
0.0
 30
0.0
  9
$UCSXDIR
 10
1.0
 20
0.0
 30
0.0
  9
$UCSYDIR
 10
0.0
 20
1.0
 30
0.0
  9
$UCSORTHOREF
  2

  9
$UCSORTHOVIEW
 70
     0
  9
$UCSORGTOP
 10
0.0
 20
0.0
 30
0.0
  9
$UCSORGBOTTOM
 10
0.0
 20
0.0
 30
0.0
  9
$UCSORGLEFT
 10
0.0
 20
0.0
 30
0.0
  9
$UCSORGRIGHT
 10
0.0
 20
0.0
 30
0.0
  9
$UCSORGFRONT
 10
0.0
 20
0.0
 30
0.0
  9
$UCSORGBACK
 10
0.0
 20
0.0
 30
0.0
  9
$PUCSBASE
  2

  9
$PUCSNAME
  2

  9
$PUCSORG
 10
0.0
 20
0.0
 30
0.0
  9
$PUCSXDIR
 10
1.0
 20
0.0
 30
0.0
  9
$PUCSYDIR
 10
0.0
 20
1.0
 30
0.0
  9
$PUCSORTHOREF
  2

  9
$PUCSORTHOVIEW
 70
     0
  9
$PUCSORGTOP
 10
0.0
 20
0.0
 30
0.0
  9
$PUCSORGBOTTOM
 10
0.0
 20
0.0
 30
0.0
  9
$PUCSORGLEFT
 10
0.0
 20
0.0
 30
0.0
  9
$PUCSORGRIGHT
 10
0.0
 20
0.0
 30
0.0
  9
$PUCSORGFRONT
 10
0.0
 20
0.0
 30
0.0
  9
$PUCSORGBACK
 10
0.0
 20
0.0
 30
0.0
  9
$USERI1
 70
     0
  9
$USERI2
 70
     0
  9
$USERI3
 70
     0
  9
$USERI4
 70
   257
  9
$USERI5
 70
     0
  9
$USERR1
 40
0.0
  9
$USERR2
 40
0.0
  9
$USERR3
 40
0.0
  9
$USERR4
 40
0.0
  9
$USERR5
 40
0.0
  9
$WORLDVIEW
 70
     1
  9
$SHADEDGE
 70
     3
  9
$SHADEDIF
 70
    70
  9
$TILEMODE
 70
     1
  9
$MAXACTVP
 70
    48
  9
$PINSBASE
 10
0.0
 20
0.0
 30
0.0
  9
$PLIMCHECK
 70
     0
  9
$PEXTMIN
 10
0.0
 20
0.0
 30
0.0
  9
$PEXTMAX
 10
0.0
 20
0.0
 30
0.0
  9
$PLIMMIN
 10
0.0
 20
0.0
  9
$PLIMMAX
 10
12.0
 20
9.0
  9
$UNITMODE
 70
     0
  9
$VISRETAIN
 70
     1
  9
$PLINEGEN
 70
     0
  9
$PSLTSCALE
 70
     1
  9
$TREEDEPTH
 70
  3020
  9
$CMLSTYLE
  2
Standard
  9
$CMLJUST
 70
     0
  9
$CMLSCALE
 40
20.0
  9
$PROXYGRAPHICS
 70
     1
  9
$MEASUREMENT
 70
     1
  9
$CELWEIGHT
370
    15
  9
$ENDCAPS
280
     0
  9
$JOINSTYLE
280
     0
  9
$LWDISPLAY
290
     0
  9
$INSUNITS
 70
     0
  9
$HYPERLINKBASE
  1

  9
$STYLESHEET
  1

  9
$XEDIT
290
     0
  9
$CEPSNTYPE
380
     0
  9
$PSTYLEMODE
290
     1
  9
$FINGERPRINTGUID
  2
{1989D620-E742-11D2-9219-00105A146177}
  9
$VERSIONGUID
  2
{0CB5F411-9F4F-42D9-9CAC-666C40FA79E7}
  9
$EXTNAMES
290
     1
  9
$PSVPSCALE
 40
0.0
  9
$OLESTARTUP
290
     0
  0
ENDSEC
  0
SECTION
  2
CLASSES
  0
CLASS
  1
ACDBDICTIONARYWDFLT
  2
AcDbDictionaryWithDefault
  3
ObjectDBX Classes
 90
        0
280
     0
281
     0
  0
CLASS
  1
ACDBPLACEHOLDER
  2
AcDbPlaceHolder
  3
ObjectDBX Classes
 90
        0
280
     0
281
     0
  0
CLASS
  1
LAYOUT
  2
AcDbLayout
  3
ObjectDBX Classes
 90
        0
280
     0
281
     0
  0
CLASS
  1
DICTIONARYVAR
  2
AcDbDictionaryVar
  3
ObjectDBX Classes
 90
        0
280
     0
281
     0
  0
CLASS
  1
TABLESTYLE
  2
AcDbTableStyle
  3
ObjectDBX Classes
 90
     2047
280
     0
281
     0
  0
ENDSEC
  0
SECTION
  2
TABLES
  0
TABLE
  2
VPORT
  5
8
330
0
100
AcDbSymbolTable
 70
     2
  0
VPORT
  5
97
330
8
100
AcDbSymbolTableRecord
100
AcDbViewportTableRecord
  2
*Active
 70
     0
 10
0.0
 20
0.0
 11
1.0
 21
1.0
 12
209.7499999999999
 22
142.5994973137556
 13
0.0
 23
0.0
 14
10.0
 24
10.0
 15
10.0
 25
10.0
 16
0.0
 26
0.0
 36
1.0
 17
0.0
 27
0.0
 37
0.0
 40
288.4570322891523
 41
2.135273972602739
 42
50.0
 43
0.0
 44
0.0
 50
0.0
 51
0.0
 71
    16
 72
 20000
 73
     1
 74
     1
 75
     0
 76
     0
 77
     0
 78
     0
281
     0
 65
     0
110
0.0
120
0.0
130
0.0
111
1.0
121
0.0
131
0.0
112
0.0
122
1.0
132
0.0
 79
     0
146
0.0
  0
ENDTAB
  0
TABLE
  2
LTYPE
  5
5
330
0
100
AcDbSymbolTable
 70
     6
  0
LTYPE
  5
14
330
5
100
AcDbSymbolTableRecord
100
AcDbLinetypeTableRecord
  2
ByBlock
 70
     0
  3

 72
    65
 73
     0
 40
0.0
  0
LTYPE
  5
15
330
5
100
AcDbSymbolTableRecord
100
AcDbLinetypeTableRecord
  2
ByLayer
 70
     0
  3

 72
    65
 73
     0
 40
0.0
  0
LTYPE
  5
16
330
5
100
AcDbSymbolTableRecord
100
AcDbLinetypeTableRecord
  2
Continuous
 70
     0
  3
Solid line
 72
    65
 73
     0
 40
0.0
  0
LTYPE
  5
CFD
330
5
100
AcDbSymbolTableRecord
100
AcDbLinetypeTableRecord
  2
CENTER
 70
     0
  3
Center ____ _ ____ _ ____ _ ____ _ ____ _ ____
 72
    65
 73
     4
 40
50.8
 49
31.75
 74
     4
 75
     0
340
0
 46
1.0
 50
0.0
 44
0.0
 45
0.0
 49
-6.349999999999999
 74
     4
 75
     0
340
0
 46
1.0
 50
0.0
 44
0.0
 45
0.0
 49
6.349999999999999
 74
     4
 75
     0
340
0
 46
1.0
 50
0.0
 44
0.0
 45
0.0
 49
-6.349999999999999
 74
     4
 75
     0
340
0
 46
1.0
 50
0.0
 44
0.0
 45
0.0
  0
LTYPE
  5
CFE
330
5
100
AcDbSymbolTableRecord
100
AcDbLinetypeTableRecord
  2
DASHED
 70
     0
  3
Dashed __ __ __ __ __ __ __ __ __ __ __ __ __ _
 72
    65
 73
     2
 40
19.05
 49
12.7
 74
     4
 75
     0
340
0
 46
1.0
 50
0.0
 44
0.0
 45
0.0
 49
-6.349999999999999
 74
     4
 75
     0
340
0
 46
1.0
 50
0.0
 44
0.0
 45
0.0
  0
LTYPE
  5
CFF
330
5
100
AcDbSymbolTableRecord
100
AcDbLinetypeTableRecord
  2
HIDDEN
 70
     0
  3
Hidden __ __ __ __ __ __ __ __ __ __ __ __ __ _
 72
    65
 73
     2
 40
9.524999999999999
 49
6.349999999999999
 74
     4
 75
     0
340
0
 46
1.0
 50
0.0
 44
0.0
 45
0.0
 49
-3.174999999999999
 74
     4
 75
     0
340
0
 46
1.0
 50
0.0
 44
0.0
 45
0.0
  0
LTYPE
  5
D00
330
5
100
AcDbSymbolTableRecord
100
AcDbLinetypeTableRecord
  2
PHANTOM
 70
     0
  3
Phantom ______  __  __  ______  __  __  ______
 72
    65
 73
     6
 40
63.50000000000001
 49
31.75
 74
     4
 75
     0
340
0
 46
1.0
 50
0.0
 44
0.0
 45
0.0
 49
-6.349999999999999
 74
     4
 75
     0
340
0
 46
1.0
 50
0.0
 44
0.0
 45
0.0
 49
6.349999999999999
 74
     4
 75
     0
340
0
 46
1.0
 50
0.0
 44
0.0
 45
0.0
 49
-6.349999999999999
 74
     4
 75
     0
340
0
 46
1.0
 50
0.0
 44
0.0
 45
0.0
 49
6.349999999999999
 74
     4
 75
     0
340
0
 46
1.0
 50
0.0
 44
0.0
 45
0.0
 49
-6.349999999999999
 74
     4
 75
     0
340
0
 46
1.0
 50
0.0
 44
0.0
 45
0.0
  0
LTYPE
  5
D01
330
5
100
AcDbSymbolTableRecord
100
AcDbLinetypeTableRecord
  2
RUPTURE
 70
     0
  3
Rupture line
 72
    65
 73
     4
 40
45.72
 49
25.4
 74
     4
 75
     0
340
0
 46
1.0
 50
0.0
 44
0.0
 45
0.0
 49
-5.08
 74
     4
 75
   131
340
11
 46
5.08
 50
0.0
 44
-5.08
 45
0.0
 49
-10.16
 74
     4
 75
   131
340
11
 46
5.08
 50
180.0
 44
5.08
 45
0.0
 49
-5.08
 74
     4
 75
     0
340
0
 46
1.0
 50
0.0
 44
0.0
 45
0.0
  0
ENDTAB
  0
TABLE
  2
LAYER
  5
2
330
0
100
AcDbSymbolTable
 70
    15
  0
LAYER
  5
10
330
2
100
AcDbSymbolTableRecord
100
AcDbLayerTableRecord
  2
0
 70
     0
 62
     7
  6
Continuous
370
    -3
390
F
  0
LAYER
  5
A7A
330
2
100
AcDbSymbolTableRecord
100
AcDbLayerTableRecord
  2
KCAD_DIMS
 70
     0
 62
   134
  6
Continuous
370
    15
390
F
  0
LAYER
  5
4F
330
2
100
AcDbSymbolTableRecord
100
AcDbLayerTableRecord
  2
DEFPOINTS
 70
     0
 62
     7
  6
Continuous
290
     0
370
    -3
390
F
  0
LAYER
  5
20B
330
2
100
AcDbSymbolTableRecord
100
AcDbLayerTableRecord
  2
KCAD_ASST
 70
     0
 62
   134
  6
Continuous
370
    15
390
F
  0
LAYER
  5
20C
330
2
100
AcDbSymbolTableRecord
100
AcDbLayerTableRecord
  2
KCAD_RASTER
 70
     0
 62
     7
  6
Continuous
370
    30
390
F
  0
LAYER
  5
20D
330
2
100
AcDbSymbolTableRecord
100
AcDbLayerTableRecord
  2
SYBCENTER
 70
     0
 62
   134
  6
CENTER
370
    15
390
F
  0
LAYER
  5
20E
330
2
100
AcDbSymbolTableRecord
100
AcDbLayerTableRecord
  2
SYBHIDE
 70
     0
 62
   134
  6
HIDDEN
370
    15
390
F
  0
LAYER
  5
20F
330
2
100
AcDbSymbolTableRecord
100
AcDbLayerTableRecord
  2
SYBOUTLINE
 70
     0
 62
     7
  6
Continuous
370
    30
390
F
  0
LAYER
  5
210
330
2
100
AcDbSymbolTableRecord
100
AcDbLayerTableRecord
  2
SYBTHREAD
 70
     0
 62
   134
  6
Continuous
370
    15
390
F
  0
LAYER
  5
211
330
2
100
AcDbSymbolTableRecord
100
AcDbLayerTableRecord
  2
SYBTHRHID
 70
     0
 62
   134
  6
HIDDEN
370
    15
390
F
  0
LAYER
  5
282
330
2
100
AcDbSymbolTableRecord
100
AcDbLayerTableRecord
  2
KCAD_UIR_TMP_LAYER_
 70
     0
 62
     7
  6
Continuous
370
    -3
390
F
  0
LAYER
  5
2A8
330
2
100
AcDbSymbolTableRecord
100
AcDbLayerTableRecord
  2
KCAD_CPM_MAX_LAYER
 70
     3
 62
     7
  6
Continuous
370
    -3
390
F
  0
LAYER
  5
2EF
330
2
100
AcDbSymbolTableRecord
100
AcDbLayerTableRecord
  2
99
 70
     0
 62
     7
  6
Continuous
370
    -3
390
F
  0
LAYER
  5
3CA
330
2
100
AcDbSymbolTableRecord
100
AcDbLayerTableRecord
  2
1
 70
     0
 62
     7
  6
Continuous
370
    -3
390
F
  0
LAYER
  5
692
330
2
100
AcDbSymbolTableRecord
100
AcDbLayerTableRecord
  2
3
 70
     0
 62
     7
  6
Continuous
370
    -3
390
F
  0
ENDTAB
  0
TABLE
  2
STYLE
  5
3
330
0
100
AcDbSymbolTable
 70
     5
  0
STYLE
  5
11
330
3
100
AcDbSymbolTableRecord
100
AcDbTextStyleTableRecord
  2
Standard
 70
     0
 40
0.0
 41
1.0
 50
0.0
 71
     0
 42
3.2
  3
txt.shx
  4
bigfont.shx
  0
STYLE
  5
17F
330
3
100
AcDbSymbolTableRecord
100
AcDbTextStyleTableRecord
  2

 70
     1
 40
0.0
 41
1.0
 50
0.0
 71
     0
 42
3.2
  3
ltypeshp.shx
  4

  0
STYLE
  5
189
330
3
100
AcDbSymbolTableRecord
100
AcDbTextStyleTableRecord
  2
KCADDIMSTANDARD
 70
     0
 40
0.0
 41
1.0
 50
0.0
 71
     0
 42
3.2
  3
txt.shx
  4
bigfont.shx
  0
STYLE
  5
18A
330
3
100
AcDbSymbolTableRecord
100
AcDbTextStyleTableRecord
  2
KCADTEXTSTANDARD
 70
     0
 40
0.0
 41
1.0
 50
0.0
 71
     0
 42
3.2
  3
txt.shx
  4
bigfont.shx
  0
STYLE
  5
1AD
330
3
100
AcDbSymbolTableRecord
100
AcDbTextStyleTableRecord
  2
KCADTEXT2
 70
     0
 40
0.0
 41
1.0
 50
0.0
 71
     0
 42
3.2
  3
txt.shx
  4
extfont.shx
  0
ENDTAB
  0
TABLE
  2
VIEW
  5
6
330
0
100
AcDbSymbolTable
 70
     0
  0
ENDTAB
  0
TABLE
  2
UCS
  5
7
330
0
100
AcDbSymbolTable
 70
     0
  0
ENDTAB
  0
TABLE
  2
APPID
  5
9
330
0
100
AcDbSymbolTable
 70
     3
  0
APPID
  5
12
330
9
100
AcDbSymbolTableRecord
100
AcDbRegAppTableRecord
  2
ACAD
 70
     0
  0
APPID
  5
CFB
330
9
100
AcDbSymbolTableRecord
100
AcDbRegAppTableRecord
  2
Sigma
 70
     0
  0
APPID
  5
CFC
330
9
100
AcDbSymbolTableRecord
100
AcDbRegAppTableRecord
  2
KCAD_DIM_EXT
 70
     0
  0
ENDTAB
  0
TABLE
  2
DIMSTYLE
  5
A
330
0
100
AcDbSymbolTable
 70
     1
100
AcDbDimStyleTable
  0
DIMSTYLE
105
27
102
{ACAD_REACTORS
330
5A2
330
5DE
330
61A
330
656
330
695
330
6D1
330
70D
330
749
330
785
330
7CD
330
809
330
845
330
881
330
8BD
330
8FB
330
93B
330
977
330
9AD
330
9E9
330
A29
102
}
330
A
100
AcDbSymbolTableRecord
100
AcDbDimStyleTableRecord
  2
Standard
 70
     0
340
11
  0
ENDTAB
  0
TABLE
  2
BLOCK_RECORD
  5
1
330
0
100
AcDbSymbolTable
 70
    67
  0
BLOCK_RECORD
  5
1F
330
1
100
AcDbSymbolTableRecord
100
AcDbBlockTableRecord
  2
*Model_Space
340
22
  0
BLOCK_RECORD
  5
73
330
1
100
AcDbSymbolTableRecord
100
AcDbBlockTableRecord
  2
*Paper_Space
340
22F
  0
BLOCK_RECORD
  5
A7B
330
1
100
AcDbSymbolTableRecord
100
AcDbBlockTableRecord
  2
KCAD_OPEN
340
0
  0
BLOCK_RECORD
  5
3C
330
1
100
AcDbSymbolTableRecord
100
AcDbBlockTableRecord
  2
KCAD_DOTSMALL
340
0
  0
BLOCK_RECORD
  5
44
330
1
100
AcDbSymbolTableRecord
100
AcDbBlockTableRecord
  2
KCAD_NONE
340
0
  0
BLOCK_RECORD
  5
FC
330
1
100
AcDbSymbolTableRecord
100
AcDbBlockTableRecord
  2
_CLOSED
340
0
  0
BLOCK_RECORD
  5
103
330
1
100
AcDbSymbolTableRecord
100
AcDbBlockTableRecord
  2
_DOT
340
0
  0
BLOCK_RECORD
  5
10B
330
1
100
AcDbSymbolTableRecord
100
AcDbBlockTableRecord
  2
_CLOSEDBLANK
340
0
  0
BLOCK_RECORD
  5
111
330
1
100
AcDbSymbolTableRecord
100
AcDbBlockTableRecord
  2
_OBLIQUE
340
0
  0
BLOCK_RECORD
  5
115
330
1
100
AcDbSymbolTableRecord
100
AcDbBlockTableRecord
  2
_ARCHTICK
340
0
  0
BLOCK_RECORD
  5
11C
330
1
100
AcDbSymbolTableRecord
100
AcDbBlockTableRecord
  2
_OPEN
340
0
  0
BLOCK_RECORD
  5
122
330
1
100
AcDbSymbolTableRecord
100
AcDbBlockTableRecord
  2
_ORIGIN
340
0
  0
BLOCK_RECORD
  5
127
330
1
100
AcDbSymbolTableRecord
100
AcDbBlockTableRecord
  2
_OPEN90
340
0
  0
BLOCK_RECORD
  5
12D
330
1
100
AcDbSymbolTableRecord
100
AcDbBlockTableRecord
  2
_OPEN30
340
0
102
{BLKREFS
331
5D7
331
5D8
331
613
331
614
331
64F
331
650
331
68B
331
68C
331
6CA
331
6CB
331
706
331
707
331
742
331
743
331
77E
331
77F
331
7C4
331
7C5
331
802
331
803
331
83E
331
83F
331
87A
331
87B
331
8B6
331
8B7
331
8F2
331
8F3
331
930
331
931
331
970
331
971
331
9A6
331
9A7
331
9E2
331
9E3
331
A1E
331
A1F
331
A5E
331
A5F
102
}
  0
BLOCK_RECORD
  5
133
330
1
100
AcDbSymbolTableRecord
100
AcDbBlockTableRecord
  2
_DOTBLANK
340
0
  0
BLOCK_RECORD
  5
138
330
1
100
AcDbSymbolTableRecord
100
AcDbBlockTableRecord
  2
_DOTSMALL
340
0
  0
BLOCK_RECORD
  5
13F
330
1
100
AcDbSymbolTableRecord
100
AcDbBlockTableRecord
  2
_BOXFILLED
340
0
  0
BLOCK_RECORD
  5
144
330
1
100
AcDbSymbolTableRecord
100
AcDbBlockTableRecord
  2
_BOXBLANK
340
0
  0
BLOCK_RECORD
  5
14C
330
1
100
AcDbSymbolTableRecord
100
AcDbBlockTableRecord
  2
_DATUMFILLED
340
0
  0
BLOCK_RECORD
  5
150
330
1
100
AcDbSymbolTableRecord
100
AcDbBlockTableRecord
  2
_DATUMBLANK
340
0
  0
BLOCK_RECORD
  5
156
330
1
100
AcDbSymbolTableRecord
100
AcDbBlockTableRecord
  2
_INTEGRAL
340
0
  0
BLOCK_RECORD
  5
1F1
330
1
100
AcDbSymbolTableRecord
100
AcDbBlockTableRecord
  2
_Origin2
340
0
  0
BLOCK_RECORD
  5
1F7
330
1
100
AcDbSymbolTableRecord
100
AcDbBlockTableRecord
  2
KCAD_OPEN30
340
0
  0
BLOCK_RECORD
  5
222
330
1
100
AcDbSymbolTableRecord
100
AcDbBlockTableRecord
  2
_None
340
0
  0
BLOCK_RECORD
  5
283
330
1
100
AcDbSymbolTableRecord
100
AcDbBlockTableRecord
  2
_Small
340
0
  0
BLOCK_RECORD
  5
287
330
1
100
AcDbSymbolTableRecord
100
AcDbBlockTableRecord
  2
KCAD_OPEN_2
340
0
  0
BLOCK_RECORD
  5
28E
330
1
100
AcDbSymbolTableRecord
100
AcDbBlockTableRecord
  2
KCAD_OPEN30_2
340
0
  0
BLOCK_RECORD
  5
2AD
330
1
100
AcDbSymbolTableRecord
100
AcDbBlockTableRecord
  2
KCAD_OPEN30ANG
340
0
  0
BLOCK_RECORD
  5
2B6
330
1
100
AcDbSymbolTableRecord
100
AcDbBlockTableRecord
  2
KCAD_DOTANG
340
0
  0
BLOCK_RECORD
  5
5A3
330
1
100
AcDbSymbolTableRecord
100
AcDbBlockTableRecord
  2
*D27
340
0
  0
BLOCK_RECORD
  5
5DF
330
1
100
AcDbSymbolTableRecord
100
AcDbBlockTableRecord
  2
*D28
340
0
  0
BLOCK_RECORD
  5
61B
330
1
100
AcDbSymbolTableRecord
100
AcDbBlockTableRecord
  2
*D29
340
0
  0
BLOCK_RECORD
  5
657
330
1
100
AcDbSymbolTableRecord
100
AcDbBlockTableRecord
  2
*D30
340
0
  0
BLOCK_RECORD
  5
696
330
1
100
AcDbSymbolTableRecord
100
AcDbBlockTableRecord
  2
*D31
340
0
  0
BLOCK_RECORD
  5
6D2
330
1
100
AcDbSymbolTableRecord
100
AcDbBlockTableRecord
  2
*D32
340
0
  0
BLOCK_RECORD
  5
70E
330
1
100
AcDbSymbolTableRecord
100
AcDbBlockTableRecord
  2
*D33
340
0
  0
BLOCK_RECORD
  5
74A
330
1
100
AcDbSymbolTableRecord
100
AcDbBlockTableRecord
  2
*D34
340
0
  0
BLOCK_RECORD
  5
786
330
1
100
AcDbSymbolTableRecord
100
AcDbBlockTableRecord
  2
*D35
340
0
  0
BLOCK_RECORD
  5
7CE
330
1
100
AcDbSymbolTableRecord
100
AcDbBlockTableRecord
  2
*D36
340
0
  0
BLOCK_RECORD
  5
80A
330
1
100
AcDbSymbolTableRecord
100
AcDbBlockTableRecord
  2
*D37
340
0
  0
BLOCK_RECORD
  5
846
330
1
100
AcDbSymbolTableRecord
100
AcDbBlockTableRecord
  2
*D38
340
0
  0
BLOCK_RECORD
  5
882
330
1
100
AcDbSymbolTableRecord
100
AcDbBlockTableRecord
  2
*D39
340
0
  0
BLOCK_RECORD
  5
8BE
330
1
100
AcDbSymbolTableRecord
100
AcDbBlockTableRecord
  2
*D40
340
0
  0
BLOCK_RECORD
  5
8FC
330
1
100
AcDbSymbolTableRecord
100
AcDbBlockTableRecord
  2
*D41
340
0
  0
BLOCK_RECORD
  5
93C
330
1
100
AcDbSymbolTableRecord
100
AcDbBlockTableRecord
  2
*D42
340
0
  0
BLOCK_RECORD
  5
978
330
1
100
AcDbSymbolTableRecord
100
AcDbBlockTableRecord
  2
*D43
340
0
  0
BLOCK_RECORD
  5
9AE
330
1
100
AcDbSymbolTableRecord
100
AcDbBlockTableRecord
  2
*D44
340
0
  0
BLOCK_RECORD
  5
9EA
330
1
100
AcDbSymbolTableRecord
100
AcDbBlockTableRecord
  2
*D45
340
0
  0
BLOCK_RECORD
  5
A2A
330
1
100
AcDbSymbolTableRecord
100
AcDbBlockTableRecord
  2
*D46
340
0
  0
BLOCK_RECORD
  5
AEB
330
1
100
AcDbSymbolTableRecord
100
AcDbBlockTableRecord
  2
*D47
340
0
  0
BLOCK_RECORD
  5
AF7
330
1
100
AcDbSymbolTableRecord
100
AcDbBlockTableRecord
  2
*D48
340
0
  0
BLOCK_RECORD
  5
B03
330
1
100
AcDbSymbolTableRecord
100
AcDbBlockTableRecord
  2
*D49
340
0
  0
BLOCK_RECORD
  5
B0F
330
1
100
AcDbSymbolTableRecord
100
AcDbBlockTableRecord
  2
*D50
340
0
  0
BLOCK_RECORD
  5
B1B
330
1
100
AcDbSymbolTableRecord
100
AcDbBlockTableRecord
  2
*D51
340
0
  0
BLOCK_RECORD
  5
B27
330
1
100
AcDbSymbolTableRecord
100
AcDbBlockTableRecord
  2
*D52
340
0
  0
BLOCK_RECORD
  5
B33
330
1
100
AcDbSymbolTableRecord
100
AcDbBlockTableRecord
  2
*D53
340
0
  0
BLOCK_RECORD
  5
B3F
330
1
100
AcDbSymbolTableRecord
100
AcDbBlockTableRecord
  2
*D54
340
0
  0
BLOCK_RECORD
  5
B4C
330
1
100
AcDbSymbolTableRecord
100
AcDbBlockTableRecord
  2
*D55
340
0
  0
BLOCK_RECORD
  5
B58
330
1
100
AcDbSymbolTableRecord
100
AcDbBlockTableRecord
  2
*D56
340
0
  0
BLOCK_RECORD
  5
B64
330
1
100
AcDbSymbolTableRecord
100
AcDbBlockTableRecord
  2
*D57
340
0
  0
BLOCK_RECORD
  5
B70
330
1
100
AcDbSymbolTableRecord
100
AcDbBlockTableRecord
  2
*D58
340
0
  0
BLOCK_RECORD
  5
B7C
330
1
100
AcDbSymbolTableRecord
100
AcDbBlockTableRecord
  2
*D59
340
0
  0
BLOCK_RECORD
  5
B88
330
1
100
AcDbSymbolTableRecord
100
AcDbBlockTableRecord
  2
*D60
340
0
  0
BLOCK_RECORD
  5
B94
330
1
100
AcDbSymbolTableRecord
100
AcDbBlockTableRecord
  2
*D61
340
0
  0
BLOCK_RECORD
  5
BA0
330
1
100
AcDbSymbolTableRecord
100
AcDbBlockTableRecord
  2
*D62
340
0
  0
BLOCK_RECORD
  5
BAB
330
1
100
AcDbSymbolTableRecord
100
AcDbBlockTableRecord
  2
*D63
340
0
  0
BLOCK_RECORD
  5
BB7
330
1
100
AcDbSymbolTableRecord
100
AcDbBlockTableRecord
  2
*D64
340
0
  0
BLOCK_RECORD
  5
BC3
330
1
100
AcDbSymbolTableRecord
100
AcDbBlockTableRecord
  2
*D65
340
0
  0
BLOCK_RECORD
  5
BCF
330
1
100
AcDbSymbolTableRecord
100
AcDbBlockTableRecord
  2
*D66
340
0
  0
ENDTAB
  0
ENDSEC
  0
SECTION
  2
BLOCKS
  0
BLOCK
  5
20
330
1F
100
AcDbEntity
  8
0
100
AcDbBlockBegin
  2
*Model_Space
 70
     0
 71
     0
 10
0.0
 20
0.0
 30
0.0
  3
*Model_Space
  1

  0
ENDBLK
  5
21
330
1F
100
AcDbEntity
  8
0
100
AcDbBlockEnd
  0
BLOCK
  5
75
330
73
100
AcDbEntity
 67
     1
  8
0
100
AcDbBlockBegin
  2
*Paper_Space
 70
     0
 71
     0
 10
0.0
 20
0.0
 30
0.0
  3
*Paper_Space
  1

  0
ENDBLK
  5
76
330
73
100
AcDbEntity
 67
     1
  8
0
100
AcDbBlockEnd
  0
BLOCK
  5
D04
330
A7B
100
AcDbEntity
  8
KCAD_DIMS
100
AcDbBlockBegin
  2
KCAD_OPEN
 70
     0
 71
     0
 10
0.0
 20
0.0
 30
0.0
  3
KCAD_OPEN
  1

  0
LINE
  5
ADA
330
A7B
100
AcDbEntity
  8
0
  6
Continuous
 62
     0
370
    -2
100
AcDbLine
 10
0.0
 20
0.0
 30
0.0
 11
-1.0
 21
0.0
 31
0.0
  0
LINE
  5
23
330
A7B
100
AcDbEntity
  8
0
  6
Continuous
 62
     0
370
    -2
100
AcDbLine
 10
0.0
 20
0.0
 30
0.0
 11
-1.0
 21
0.158384
 31
0.0
  0
LINE
  5
24
330
A7B
100
AcDbEntity
  8
0
  6
Continuous
 62
     0
370
    -2
100
AcDbLine
 10
0.0
 20
0.0
 30
0.0
 11
-1.0
 21
-0.158384
 31
0.0
  0
ENDBLK
  5
D05
330
A7B
100
AcDbEntity
  8
KCAD_DIMS
100
AcDbBlockEnd
  0
BLOCK
  5
D06
330
3C
100
AcDbEntity
  8
KCAD_DIMS
100
AcDbBlockBegin
  2
KCAD_DOTSMALL
 70
     0
 71
     0
 10
0.0
 20
0.0
 30
0.0
  3
KCAD_DOTSMALL
  1

  0
LWPOLYLINE
  5
3D
330
3C
100
AcDbEntity
  8
KCAD_DIMS
 62
     0
100
AcDbPolyline
 90
        2
 70
     1
 43
0.5
 10
0.06252
 20
0.0
 42
1.0
 10
-0.06262
 20
0.0
 42
1.0
  0
LINE
  5
41
330
3C
100
AcDbEntity
  8
0
  6
Continuous
 62
     0
370
    -2
100
AcDbLine
 10
0.0
 20
0.0
 30
0.0
 11
-1.0
 21
0.0
 31
0.0
  0
ENDBLK
  5
D07
330
3C
100
AcDbEntity
  8
0
100
AcDbBlockEnd
  0
BLOCK
  5
D08
330
44
100
AcDbEntity
  8
KCAD_DIMS
100
AcDbBlockBegin
  2
KCAD_NONE
 70
     0
 71
     0
 10
0.0
 20
0.0
 30
0.0
  3
KCAD_NONE
  1

  0
LINE
  5
45
330
44
100
AcDbEntity
  8
0
  6
Continuous
 62
     0
370
    -2
100
AcDbLine
 10
0.0
 20
0.0
 30
0.0
 11
-1.0
 21
0.0
 31
0.0
  0
ENDBLK
  5
D09
330
44
100
AcDbEntity
  8
0
100
AcDbBlockEnd
  0
BLOCK
  5
D0A
330
FC
100
AcDbEntity
  8
0
100
AcDbBlockBegin
  2
_CLOSED
 70
     0
 71
     0
 10
0.0
 20
0.0
 30
0.0
  3
_CLOSED
  1

  0
LINE
  5
FE
330
FC
100
AcDbEntity
  8
0
  6
Continuous
 62
     0
370
    -2
100
AcDbLine
 10
-1.0
 20
0.166667
 30
0.0
 11
0.0
 21
0.0
 31
0.0
  0
LINE
  5
FF
330
FC
100
AcDbEntity
  8
0
  6
Continuous
 62
     0
370
    -2
100
AcDbLine
 10
0.0
 20
0.0
 30
0.0
 11
-1.0
 21
-0.166667
 31
0.0
  0
LINE
  5
100
330
FC
100
AcDbEntity
  8
0
  6
Continuous
 62
     0
370
    -2
100
AcDbLine
 10
-1.0
 20
0.166667
 30
0.0
 11
-1.0
 21
-0.166667
 31
0.0
  0
LINE
  5
101
330
FC
100
AcDbEntity
  8
0
  6
Continuous
 62
     0
370
    -2
100
AcDbLine
 10
0.0
 20
0.0
 30
0.0
 11
-1.0
 21
0.0
 31
0.0
  0
ENDBLK
  5
D0B
330
FC
100
AcDbEntity
  8
0
100
AcDbBlockEnd
  0
BLOCK
  5
D0C
330
103
100
AcDbEntity
  8
0
100
AcDbBlockBegin
  2
_DOT
 70
     0
 71
     0
 10
0.0
 20
0.0
 30
0.0
  3
_DOT
  1

  0
LWPOLYLINE
  5
105
330
103
100
AcDbEntity
  8
0
  6
ByBlock
 62
     0
100
AcDbPolyline
 90
        2
 70
     1
 43
0.5
 10
-0.25
 20
0.0
 42
1.0
 10
0.25
 20
0.0
 42
1.0
  0
LINE
  5
109
330
103
100
AcDbEntity
  8
0
  6
Continuous
 62
     0
370
    -2
100
AcDbLine
 10
-0.5
 20
0.0
 30
0.0
 11
-1.0
 21
0.0
 31
0.0
  0
ENDBLK
  5
D0D
330
103
100
AcDbEntity
  8
0
100
AcDbBlockEnd
  0
BLOCK
  5
D0E
330
10B
100
AcDbEntity
  8
0
100
AcDbBlockBegin
  2
_CLOSEDBLANK
 70
     0
 71
     0
 10
0.0
 20
0.0
 30
0.0
  3
_CLOSEDBLANK
  1

  0
LINE
  5
10D
330
10B
100
AcDbEntity
  8
0
  6
Continuous
 62
     0
370
    -2
100
AcDbLine
 10
-1.0
 20
0.166667
 30
0.0
 11
0.0
 21
0.0
 31
0.0
  0
LINE
  5
10E
330
10B
100
AcDbEntity
  8
0
  6
Continuous
 62
     0
370
    -2
100
AcDbLine
 10
0.0
 20
0.0
 30
0.0
 11
-1.0
 21
-0.166667
 31
0.0
  0
LINE
  5
10F
330
10B
100
AcDbEntity
  8
0
  6
Continuous
 62
     0
370
    -2
100
AcDbLine
 10
-1.0
 20
0.166667
 30
0.0
 11
-1.0
 21
-0.166667
 31
0.0
  0
ENDBLK
  5
D0F
330
10B
100
AcDbEntity
  8
0
100
AcDbBlockEnd
  0
BLOCK
  5
D10
330
111
100
AcDbEntity
  8
0
100
AcDbBlockBegin
  2
_OBLIQUE
 70
     0
 71
     0
 10
0.0
 20
0.0
 30
0.0
  3
_OBLIQUE
  1

  0
LINE
  5
113
330
111
100
AcDbEntity
  8
0
  6
Continuous
 62
     0
370
    -2
100
AcDbLine
 10
-0.5
 20
-0.5
 30
0.0
 11
0.5
 21
0.5
 31
0.0
  0
ENDBLK
  5
D11
330
111
100
AcDbEntity
  8
0
100
AcDbBlockEnd
  0
BLOCK
  5
D12
330
115
100
AcDbEntity
  8
0
100
AcDbBlockBegin
  2
_ARCHTICK
 70
     0
 71
     0
 10
0.0
 20
0.0
 30
0.0
  3
_ARCHTICK
  1

  0
LWPOLYLINE
  5
117
330
115
100
AcDbEntity
  8
0
  6
ByBlock
 62
     0
100
AcDbPolyline
 90
        2
 70
     0
 43
0.15
 10
-0.5
 20
-0.5
 10
0.5
 20
0.5
  0
ENDBLK
  5
D13
330
115
100
AcDbEntity
  8
0
100
AcDbBlockEnd
  0
BLOCK
  5
D14
330
11C
100
AcDbEntity
  8
0
100
AcDbBlockBegin
  2
_OPEN
 70
     0
 71
     0
 10
0.0
 20
0.0
 30
0.0
  3
_OPEN
  1

  0
LINE
  5
11E
330
11C
100
AcDbEntity
  8
0
  6
Continuous
 62
     0
370
    -2
100
AcDbLine
 10
-1.0
 20
0.166667
 30
0.0
 11
0.0
 21
0.0
 31
0.0
  0
LINE
  5
11F
330
11C
100
AcDbEntity
  8
0
  6
Continuous
 62
     0
370
    -2
100
AcDbLine
 10
0.0
 20
0.0
 30
0.0
 11
-1.0
 21
-0.166667
 31
0.0
  0
LINE
  5
120
330
11C
100
AcDbEntity
  8
0
  6
Continuous
 62
     0
370
    -2
100
AcDbLine
 10
0.0
 20
0.0
 30
0.0
 11
-1.0
 21
0.0
 31
0.0
  0
ENDBLK
  5
D15
330
11C
100
AcDbEntity
  8
0
100
AcDbBlockEnd
  0
BLOCK
  5
D16
330
122
100
AcDbEntity
  8
0
100
AcDbBlockBegin
  2
_ORIGIN
 70
     0
 71
     0
 10
0.0
 20
0.0
 30
0.0
  3
_ORIGIN
  1

  0
CIRCLE
  5
124
330
122
100
AcDbEntity
  8
0
  6
ByBlock
 62
     0
100
AcDbCircle
 10
0.0
 20
0.0
 30
0.0
 40
0.5
  0
LINE
  5
125
330
122
100
AcDbEntity
  8
0
  6
Continuous
 62
     0
370
    -2
100
AcDbLine
 10
0.0
 20
0.0
 30
0.0
 11
-1.0
 21
0.0
 31
0.0
  0
ENDBLK
  5
D17
330
122
100
AcDbEntity
  8
0
100
AcDbBlockEnd
  0
BLOCK
  5
D18
330
127
100
AcDbEntity
  8
0
100
AcDbBlockBegin
  2
_OPEN90
 70
     0
 71
     0
 10
0.0
 20
0.0
 30
0.0
  3
_OPEN90
  1

  0
LINE
  5
129
330
127
100
AcDbEntity
  8
0
  6
Continuous
 62
     0
370
    -2
100
AcDbLine
 10
-0.5
 20
0.5
 30
0.0
 11
0.0
 21
0.0
 31
0.0
  0
LINE
  5
12A
330
127
100
AcDbEntity
  8
0
  6
Continuous
 62
     0
370
    -2
100
AcDbLine
 10
0.0
 20
0.0
 30
0.0
 11
-0.5
 21
-0.5
 31
0.0
  0
LINE
  5
12B
330
127
100
AcDbEntity
  8
0
  6
Continuous
 62
     0
370
    -2
100
AcDbLine
 10
0.0
 20
0.0
 30
0.0
 11
-1.0
 21
0.0
 31
0.0
  0
ENDBLK
  5
D19
330
127
100
AcDbEntity
  8
0
100
AcDbBlockEnd
  0
BLOCK
  5
D1A
330
12D
100
AcDbEntity
  8
0
100
AcDbBlockBegin
  2
_OPEN30
 70
     0
 71
     0
 10
0.0
 20
0.0
 30
0.0
  3
_OPEN30
  1

  0
LINE
  5
12F
330
12D
100
AcDbEntity
  8
0
  6
Continuous
 62
     0
370
    -2
100
AcDbLine
 10
-1.0
 20
0.267949
 30
0.0
 11
0.0
 21
0.0
 31
0.0
  0
LINE
  5
130
330
12D
100
AcDbEntity
  8
0
  6
Continuous
 62
     0
370
    -2
100
AcDbLine
 10
0.0
 20
0.0
 30
0.0
 11
-1.0
 21
-0.267949
 31
0.0
  0
LINE
  5
131
330
12D
100
AcDbEntity
  8
0
  6
Continuous
 62
     0
370
    -2
100
AcDbLine
 10
0.0
 20
0.0
 30
0.0
 11
-1.0
 21
0.0
 31
0.0
  0
ENDBLK
  5
D1B
330
12D
100
AcDbEntity
  8
0
100
AcDbBlockEnd
  0
BLOCK
  5
D1C
330
133
100
AcDbEntity
  8
0
100
AcDbBlockBegin
  2
_DOTBLANK
 70
     0
 71
     0
 10
0.0
 20
0.0
 30
0.0
  3
_DOTBLANK
  1

  0
CIRCLE
  5
135
330
133
100
AcDbEntity
  8
0
  6
ByBlock
 62
     0
100
AcDbCircle
 10
0.0
 20
0.0
 30
0.0
 40
0.5
  0
LINE
  5
136
330
133
100
AcDbEntity
  8
0
  6
Continuous
 62
     0
370
    -2
100
AcDbLine
 10
-0.5
 20
0.0
 30
0.0
 11
-1.0
 21
0.0
 31
0.0
  0
ENDBLK
  5
D1D
330
133
100
AcDbEntity
  8
0
100
AcDbBlockEnd
  0
BLOCK
  5
D1E
330
138
100
AcDbEntity
  8
0
100
AcDbBlockBegin
  2
_DOTSMALL
 70
     0
 71
     0
 10
0.0
 20
0.0
 30
0.0
  3
_DOTSMALL
  1

  0
LWPOLYLINE
  5
13A
330
138
100
AcDbEntity
  8
0
  6
ByBlock
 62
     0
100
AcDbPolyline
 90
        2
 70
     1
 43
0.5
 10
-0.0625
 20
0.0
 42
1.0
 10
0.0625
 20
0.0
 42
1.0
  0
ENDBLK
  5
D1F
330
138
100
AcDbEntity
  8
0
100
AcDbBlockEnd
  0
BLOCK
  5
D20
330
13F
100
AcDbEntity
  8
0
100
AcDbBlockBegin
  2
_BOXFILLED
 70
     0
 71
     0
 10
0.0
 20
0.0
 30
0.0
  3
_BOXFILLED
  1

  0
SOLID
  5
141
330
13F
100
AcDbEntity
  8
0
  6
ByBlock
 62
     0
100
AcDbTrace
 10
-0.5
 20
0.5
 30
0.0
 11
0.5
 21
0.5
 31
0.0
 12
-0.5
 22
-0.5
 32
0.0
 13
0.5
 23
-0.5
 33
0.0
  0
LINE
  5
142
330
13F
100
AcDbEntity
  8
0
  6
Continuous
 62
     0
370
    -2
100
AcDbLine
 10
-0.5
 20
0.0
 30
0.0
 11
-1.0
 21
0.0
 31
0.0
  0
ENDBLK
  5
D21
330
13F
100
AcDbEntity
  8
0
100
AcDbBlockEnd
  0
BLOCK
  5
D22
330
144
100
AcDbEntity
  8
0
100
AcDbBlockBegin
  2
_BOXBLANK
 70
     0
 71
     0
 10
0.0
 20
0.0
 30
0.0
  3
_BOXBLANK
  1

  0
LINE
  5
146
330
144
100
AcDbEntity
  8
0
  6
Continuous
 62
     0
370
    -2
100
AcDbLine
 10
-0.5
 20
-0.5
 30
0.0
 11
0.5
 21
-0.5
 31
0.0
  0
LINE
  5
147
330
144
100
AcDbEntity
  8
0
  6
Continuous
 62
     0
370
    -2
100
AcDbLine
 10
0.5
 20
-0.5
 30
0.0
 11
0.5
 21
0.5
 31
0.0
  0
LINE
  5
148
330
144
100
AcDbEntity
  8
0
  6
Continuous
 62
     0
370
    -2
100
AcDbLine
 10
0.5
 20
0.5
 30
0.0
 11
-0.5
 21
0.5
 31
0.0
  0
LINE
  5
149
330
144
100
AcDbEntity
  8
0
  6
Continuous
 62
     0
370
    -2
100
AcDbLine
 10
-0.5
 20
0.5
 30
0.0
 11
-0.5
 21
-0.5
 31
0.0
  0
LINE
  5
14A
330
144
100
AcDbEntity
  8
0
  6
Continuous
 62
     0
370
    -2
100
AcDbLine
 10
-0.5
 20
0.0
 30
0.0
 11
-1.0
 21
0.0
 31
0.0
  0
ENDBLK
  5
D23
330
144
100
AcDbEntity
  8
0
100
AcDbBlockEnd
  0
BLOCK
  5
D24
330
14C
100
AcDbEntity
  8
0
100
AcDbBlockBegin
  2
_DATUMFILLED
 70
     0
 71
     0
 10
0.0
 20
0.0
 30
0.0
  3
_DATUMFILLED
  1

  0
SOLID
  5
14E
330
14C
100
AcDbEntity
  8
0
  6
ByBlock
 62
     0
100
AcDbTrace
 10
0.0
 20
0.5773500000000001
 30
0.0
 11
-1.0
 21
0.0
 31
0.0
 12
0.0
 22
-0.5773500000000001
 32
0.0
 13
0.0
 23
-0.5773500000000001
 33
0.0
  0
ENDBLK
  5
D25
330
14C
100
AcDbEntity
  8
0
100
AcDbBlockEnd
  0
BLOCK
  5
D26
330
150
100
AcDbEntity
  8
0
100
AcDbBlockBegin
  2
_DATUMBLANK
 70
     0
 71
     0
 10
0.0
 20
0.0
 30
0.0
  3
_DATUMBLANK
  1

  0
LINE
  5
152
330
150
100
AcDbEntity
  8
0
  6
Continuous
 62
     0
370
    -2
100
AcDbLine
 10
0.0
 20
0.5773500000000001
 30
0.0
 11
-1.0
 21
0.0
 31
0.0
  0
LINE
  5
153
330
150
100
AcDbEntity
  8
0
  6
Continuous
 62
     0
370
    -2
100
AcDbLine
 10
-1.0
 20
0.0
 30
0.0
 11
0.0
 21
-0.5773500000000001
 31
0.0
  0
LINE
  5
154
330
150
100
AcDbEntity
  8
0
  6
Continuous
 62
     0
370
    -2
100
AcDbLine
 10
0.0
 20
-0.5773500000000001
 30
0.0
 11
0.0
 21
0.5773500000000001
 31
0.0
  0
ENDBLK
  5
D27
330
150
100
AcDbEntity
  8
0
100
AcDbBlockEnd
  0
BLOCK
  5
D28
330
156
100
AcDbEntity
  8
0
100
AcDbBlockBegin
  2
_INTEGRAL
 70
     0
 71
     0
 10
0.0
 20
0.0
 30
0.0
  3
_INTEGRAL
  1

  0
ARC
  5
158
330
156
100
AcDbEntity
  8
0
  6
ByBlock
 62
     0
100
AcDbCircle
 10
0.444888
 20
-0.091335
 30
0.0
 40
0.454167
100
AcDbArc
 50
102.0
 51
168.0
  0
ARC
  5
159
330
156
100
AcDbEntity
  8
0
  6
ByBlock
 62
     0
100
AcDbCircle
 10
-0.444888
 20
0.091335
 30
0.0
 40
0.454167
100
AcDbArc
 50
282.0
 51
348.0
  0
ENDBLK
  5
D29
330
156
100
AcDbEntity
  8
0
100
AcDbBlockEnd
  0
BLOCK
  5
D2A
330
1F1
100
AcDbEntity
  8
0
100
AcDbBlockBegin
  2
_Origin2
 70
     0
 71
     0
 10
0.0
 20
0.0
 30
0.0
  3
_Origin2
  1

  0
CIRCLE
  5
1F2
330
1F1
100
AcDbEntity
  8
0
  6
Continuous
 62
     0
370
    -2
100
AcDbCircle
 10
0.0
 20
0.0
 30
0.0
 40
0.5
  0
CIRCLE
  5
1F3
330
1F1
100
AcDbEntity
  8
0
  6
Continuous
 62
     0
370
    -2
100
AcDbCircle
 10
0.0
 20
0.0
 30
0.0
 40
0.25
  0
LINE
  5
1F4
330
1F1
100
AcDbEntity
  8
0
  6
Continuous
 62
     0
370
    -2
100
AcDbLine
 10
-0.5
 20
0.0
 30
0.0
 11
-1.0
 21
0.0
 31
0.0
  0
ENDBLK
  5
D2B
330
1F1
100
AcDbEntity
  8
0
100
AcDbBlockEnd
  0
BLOCK
  5
D2C
330
1F7
100
AcDbEntity
  8
0
100
AcDbBlockBegin
  2
KCAD_OPEN30
 70
     0
 71
     0
 10
0.0
 20
0.0
 30
0.0
  3
KCAD_OPEN30
  1

  0
LINE
  5
1F8
330
1F7
100
AcDbEntity
  8
0
  6
Continuous
 62
     0
370
    -2
100
AcDbLine
 10
0.0
 20
0.0
 30
0.0
 11
-1.0
 21
0.0
 31
0.0
  0
LINE
  5
1F9
330
1F7
100
AcDbEntity
  8
0
  6
Continuous
 62
     0
370
    -2
100
AcDbLine
 10
0.0
 20
0.0
 30
0.0
 11
-1.0
 21
0.2679491924311227
 31
0.0
  0
LINE
  5
1FA
330
1F7
100
AcDbEntity
  8
0
  6
Continuous
 62
     0
370
    -2
100
AcDbLine
 10
0.0
 20
0.0
 30
0.0
 11
-1.0
 21
-0.2679491924311227
 31
0.0
  0
ENDBLK
  5
D2D
330
1F7
100
AcDbEntity
  8
0
100
AcDbBlockEnd
  0
BLOCK
  5
D2E
330
222
100
AcDbEntity
  8
0
100
AcDbBlockBegin
  2
_None
 70
     0
 71
     0
 10
0.0
 20
0.0
 30
0.0
  3
_None
  1

  0
ENDBLK
  5
D2F
330
222
100
AcDbEntity
  8
0
100
AcDbBlockEnd
  0
BLOCK
  5
D30
330
283
100
AcDbEntity
  8
0
100
AcDbBlockBegin
  2
_Small
 70
     0
 71
     0
 10
0.0
 20
0.0
 30
0.0
  3
_Small
  1

  0
CIRCLE
  5
284
330
283
100
AcDbEntity
  8
0
  6
ByBlock
 62
     0
370
    -2
100
AcDbCircle
 10
0.0
 20
0.0
 30
0.0
 40
0.25
  0
ENDBLK
  5
D31
330
283
100
AcDbEntity
  8
0
100
AcDbBlockEnd
  0
BLOCK
  5
D32
330
287
100
AcDbEntity
  8
0
100
AcDbBlockBegin
  2
KCAD_OPEN_2
 70
     0
 71
     0
 10
0.0
 20
0.0
 30
0.0
  3
KCAD_OPEN_2
  1

  0
LINE
  5
288
330
287
100
AcDbEntity
  8
0
  6
Continuous
 62
     0
370
    -2
100
AcDbLine
 10
0.0
 20
0.0
 30
0.0
 11
-2.0
 21
0.0
 31
0.0
  0
LINE
  5
289
330
287
100
AcDbEntity
  8
0
  6
Continuous
 62
     0
370
    -2
100
AcDbLine
 10
0.0
 20
0.0
 30
0.0
 11
-2.0
 21
0.3167688806490725
 31
0.0
  0
LINE
  5
28A
330
287
100
AcDbEntity
  8
0
  6
Continuous
 62
     0
370
    -2
100
AcDbLine
 10
0.0
 20
0.0
 30
0.0
 11
-2.0
 21
-0.3167688806490725
 31
0.0
  0
LINE
  5
28B
330
287
100
AcDbEntity
  8
0
  6
Continuous
 62
     0
370
    -2
100
AcDbLine
 10
-2.0
 20
0.0
 30
0.0
 11
-4.0
 21
0.0
 31
0.0
  0
ENDBLK
  5
D33
330
287
100
AcDbEntity
  8
0
100
AcDbBlockEnd
  0
BLOCK
  5
D34
330
28E
100
AcDbEntity
  8
0
100
AcDbBlockBegin
  2
KCAD_OPEN30_2
 70
     0
 71
     0
 10
0.0
 20
0.0
 30
0.0
  3
KCAD_OPEN30_2
  1

  0
LINE
  5
28F
330
28E
100
AcDbEntity
  8
0
  6
Continuous
 62
     0
370
    -2
100
AcDbLine
 10
0.0
 20
0.0
 30
0.0
 11
-2.0
 21
0.0
 31
0.0
  0
LINE
  5
290
330
28E
100
AcDbEntity
  8
0
  6
Continuous
 62
     0
370
    -2
100
AcDbLine
 10
0.0
 20
0.0
 30
0.0
 11
-2.0
 21
0.5358983848622455
 31
0.0
  0
LINE
  5
291
330
28E
100
AcDbEntity
  8
0
  6
Continuous
 62
     0
370
    -2
100
AcDbLine
 10
0.0
 20
0.0
 30
0.0
 11
-2.0
 21
-0.5358983848622455
 31
0.0
  0
LINE
  5
292
330
28E
100
AcDbEntity
  8
0
  6
Continuous
 62
     0
370
    -2
100
AcDbLine
 10
-2.0
 20
0.0
 30
0.0
 11
-4.0
 21
0.0
 31
0.0
  0
ENDBLK
  5
D35
330
28E
100
AcDbEntity
  8
0
100
AcDbBlockEnd
  0
BLOCK
  5
D36
330
2AD
100
AcDbEntity
  8
0
100
AcDbBlockBegin
  2
KCAD_OPEN30ANG
 70
     0
 71
     0
 10
0.0
 20
0.0
 30
0.0
  3
KCAD_OPEN30ANG
  1

  0
LINE
  5
2D7
330
2AD
100
AcDbEntity
  8
0
  6
Continuous
 62
     0
370
    -2
100
AcDbLine
 10
0.0
 20
0.0
 30
0.0
 11
-1.0
 21
-0.267949
 31
0.0
  0
LINE
  5
2D8
330
2AD
100
AcDbEntity
  8
0
  6
Continuous
 62
     0
370
    -2
100
AcDbLine
 10
-1.0
 20
0.267949
 30
0.0
 11
0.0
 21
0.0
 31
0.0
  0
ENDBLK
  5
D37
330
2AD
100
AcDbEntity
  8
0
100
AcDbBlockEnd
  0
BLOCK
  5
D38
330
2B6
100
AcDbEntity
  8
0
100
AcDbBlockBegin
  2
KCAD_DOTANG
 70
     0
 71
     0
 10
0.0
 20
0.0
 30
0.0
  3
KCAD_DOTANG
  1

  0
LWPOLYLINE
  5
2DD
330
2B6
100
AcDbEntity
  8
0
  6
ByBlock
 62
     0
100
AcDbPolyline
 90
        2
 70
     1
 43
0.5
 10
-0.25
 20
0.0
 42
1.0
 10
0.25
 20
0.0
 42
1.0
  0
ENDBLK
  5
D39
330
2B6
100
AcDbEntity
  8
0
100
AcDbBlockEnd
  0
BLOCK
  5
D3A
330
5A3
100
AcDbEntity
  8
0
100
AcDbBlockBegin
  2
*D27
 70
     1
 71
     0
 10
0.0
 20
0.0
 30
0.0
  3
*D27
  1

  0
LINE
  5
5D5
330
5A3
100
AcDbEntity
  8
KCAD_DIMS
 62
     0
370
    -2
100
AcDbLine
 10
124.33309012625
 20
196.1553757634399
 30
0.0
 11
124.33309012625
 21
167.2401613763599
 31
0.0
  0
LINE
  5
5D6
330
5A3
100
AcDbEntity
  8
KCAD_DIMS
 62
     0
370
    -2
100
AcDbLine
 10
147.83309012625
 20
196.1553757634399
 30
0.0
 11
147.83309012625
 21
170.2401613763599
 31
0.0
  0
INSERT
  5
5D7
330
5A3
100
AcDbEntity
  8
KCAD_DIMS
 62
     0
370
    -2
100
AcDbBlockReference
  2
_OPEN30
 10
124.33309012625
 20
196.1553757634399
 30
0.0
 41
2.5
 42
2.5
 43
2.5
 50
180.0
  0
INSERT
  5
5D8
330
5A3
100
AcDbEntity
  8
KCAD_DIMS
 62
     0
370
    -2
100
AcDbBlockReference
  2
_OPEN30
 10
147.83309012625
 20
196.1553757634399
 30
0.0
 41
2.5
 42
2.5
 43
2.5
  0
LINE
  5
5D9
330
5A3
100
AcDbEntity
  8
KCAD_DIMS
 62
     0
370
    -2
100
AcDbLine
 10
126.8330901262499
 20
196.1553757634399
 30
0.0
 11
145.3330901262499
 21
196.1553757634399
 31
0.0
  0
POINT
  5
5DA
330
5A3
100
AcDbEntity
  8
DEFPOINTS
 62
     0
370
    15
100
AcDbPoint
 10
124.33309012625
 20
167.2401613763599
 30
0.0
  0
POINT
  5
5DB
330
5A3
100
AcDbEntity
  8
DEFPOINTS
 62
     0
370
    15
100
AcDbPoint
 10
147.83309012625
 20
170.2401613763599
 30
0.0
  0
POINT
  5
5DC
330
5A3
100
AcDbEntity
  8
DEFPOINTS
 62
     0
370
    15
100
AcDbPoint
 10
147.83309012625
 20
196.1553757634399
 30
0.0
  0
MTEXT
  5
5DD
330
5A3
100
AcDbEntity
  8
KCAD_DIMS
 62
     0
100
AcDbMText
 10
136.0830901262499
 20
198.2887087634399
 30
0.0
 40
3.2
 41
0.0
 71
     5
 72
     1
  1
\A1;23.5
  7
KCADDIMSTANDARD
 73
     1
 44
1.0
  0
ENDBLK
  5
D3B
330
5A3
100
AcDbEntity
  8
0
100
AcDbBlockEnd
  0
BLOCK
  5
D3C
330
5DF
100
AcDbEntity
  8
0
100
AcDbBlockBegin
  2
*D28
 70
     1
 71
     0
 10
0.0
 20
0.0
 30
0.0
  3
*D28
  1

  0
LINE
  5
611
330
5DF
100
AcDbEntity
  8
KCAD_DIMS
 62
     0
370
    -2
100
AcDbLine
 10
113.9706879886499
 20
167.2401613763599
 30
0.0
 11
124.33309012625
 21
167.2401613763599
 31
0.0
  0
LINE
  5
612
330
5DF
100
AcDbEntity
  8
KCAD_DIMS
 62
     0
370
    -2
100
AcDbLine
 10
113.9706879886499
 20
129.2401613763599
 30
0.0
 11
124.33309012625
 21
129.2401613763599
 31
0.0
  0
INSERT
  5
613
330
5DF
100
AcDbEntity
  8
KCAD_DIMS
 62
     0
370
    -2
100
AcDbBlockReference
  2
_OPEN30
 10
113.9706879886499
 20
167.2401613763599
 30
0.0
 41
2.5
 42
2.5
 43
2.5
 50
90.0
  0
INSERT
  5
614
330
5DF
100
AcDbEntity
  8
KCAD_DIMS
 62
     0
370
    -2
100
AcDbBlockReference
  2
_OPEN30
 10
113.9706879886499
 20
129.2401613763599
 30
0.0
 41
2.5
 42
2.5
 43
2.5
 50
270.0
  0
LINE
  5
615
330
5DF
100
AcDbEntity
  8
KCAD_DIMS
 62
     0
370
    -2
100
AcDbLine
 10
113.9706879886499
 20
164.74016137636
 30
0.0
 11
113.9706879886499
 21
131.7401613763599
 31
0.0
  0
POINT
  5
616
330
5DF
100
AcDbEntity
  8
DEFPOINTS
 62
     0
370
    15
100
AcDbPoint
 10
124.33309012625
 20
167.2401613763599
 30
0.0
  0
POINT
  5
617
330
5DF
100
AcDbEntity
  8
DEFPOINTS
 62
     0
370
    15
100
AcDbPoint
 10
124.33309012625
 20
129.2401613763599
 30
0.0
  0
POINT
  5
618
330
5DF
100
AcDbEntity
  8
DEFPOINTS
 62
     0
370
    15
100
AcDbPoint
 10
113.9706879886499
 20
129.2401613763599
 30
0.0
  0
MTEXT
  5
619
330
5DF
100
AcDbEntity
  8
KCAD_DIMS
 62
     0
100
AcDbMText
 10
111.83735498865
 20
148.24016137636
 30
0.0
 40
3.2
 41
0.0
 71
     5
 72
     1
  1
\A1;φ38
  7
KCADDIMSTANDARD
 11
1.000000000000000E-16
 21
1.0
 31
0.0
 73
     1
 44
1.0
  0
ENDBLK
  5
D3D
330
5DF
100
AcDbEntity
  8
0
100
AcDbBlockEnd
  0
BLOCK
  5
D3E
330
61B
100
AcDbEntity
  8
0
100
AcDbBlockBegin
  2
*D29
 70
     1
 71
     0
 10
0.0
 20
0.0
 30
0.0
  3
*D29
  1

  0
LINE
  5
64D
330
61B
100
AcDbEntity
  8
KCAD_DIMS
 62
     0
370
    -2
100
AcDbLine
 10
107.12370649106
 20
170.2401613763599
 30
0.0
 11
148.3330901262499
 21
170.2401613763599
 31
0.0
  0
LINE
  5
64E
330
61B
100
AcDbEntity
  8
KCAD_DIMS
 62
     0
370
    -2
100
AcDbLine
 10
107.12370649106
 20
126.24016137636
 30
0.0
 11
148.3330901262499
 21
126.24016137636
 31
0.0
  0
INSERT
  5
64F
330
61B
100
AcDbEntity
  8
KCAD_DIMS
 62
     0
370
    -2
100
AcDbBlockReference
  2
_OPEN30
 10
107.12370649106
 20
170.2401613763599
 30
0.0
 41
2.5
 42
2.5
 43
2.5
 50
90.0
  0
INSERT
  5
650
330
61B
100
AcDbEntity
  8
KCAD_DIMS
 62
     0
370
    -2
100
AcDbBlockReference
  2
_OPEN30
 10
107.12370649106
 20
126.24016137636
 30
0.0
 41
2.5
 42
2.5
 43
2.5
 50
270.0
  0
LINE
  5
651
330
61B
100
AcDbEntity
  8
KCAD_DIMS
 62
     0
370
    -2
100
AcDbLine
 10
107.12370649106
 20
167.7401613763599
 30
0.0
 11
107.12370649106
 21
128.7401613763599
 31
0.0
  0
POINT
  5
652
330
61B
100
AcDbEntity
  8
DEFPOINTS
 62
     0
370
    15
100
AcDbPoint
 10
148.3330901262499
 20
170.2401613763599
 30
0.0
  0
POINT
  5
653
330
61B
100
AcDbEntity
  8
DEFPOINTS
 62
     0
370
    15
100
AcDbPoint
 10
148.3330901262499
 20
126.24016137636
 30
0.0
  0
POINT
  5
654
330
61B
100
AcDbEntity
  8
DEFPOINTS
 62
     0
370
    15
100
AcDbPoint
 10
107.12370649106
 20
126.24016137636
 30
0.0
  0
MTEXT
  5
655
330
61B
100
AcDbEntity
  8
KCAD_DIMS
 62
     0
100
AcDbMText
 10
104.99037349106
 20
148.24016137636
 30
0.0
 40
3.2
 41
0.0
 71
     5
 72
     1
  1
\A1;φ44
  7
KCADDIMSTANDARD
 11
1.000000000000000E-16
 21
1.0
 31
0.0
 73
     1
 44
1.0
  0
ENDBLK
  5
D3F
330
61B
100
AcDbEntity
  8
0
100
AcDbBlockEnd
  0
BLOCK
  5
D40
330
657
100
AcDbEntity
  8
0
100
AcDbBlockBegin
  2
*D30
 70
     1
 71
     0
 10
0.0
 20
0.0
 30
0.0
  3
*D30
  1

  0
LINE
  5
689
330
657
100
AcDbEntity
  8
KCAD_DIMS
 62
     0
370
    -2
100
AcDbLine
 10
159.8330901262499
 20
189.4553757634399
 30
0.0
 11
159.8330901262499
 21
173.24016137636
 31
0.0
  0
LINE
  5
68A
330
657
100
AcDbEntity
  8
KCAD_DIMS
 62
     0
370
    -2
100
AcDbLine
 10
203.8330901262499
 20
189.4553757634399
 30
0.0
 11
203.8330901262499
 21
173.24016137636
 31
0.0
  0
INSERT
  5
68B
330
657
100
AcDbEntity
  8
KCAD_DIMS
 62
     0
370
    -2
100
AcDbBlockReference
  2
_OPEN30
 10
159.8330901262499
 20
189.4553757634399
 30
0.0
 41
2.5
 42
2.5
 43
2.5
 50
180.0
  0
INSERT
  5
68C
330
657
100
AcDbEntity
  8
KCAD_DIMS
 62
     0
370
    -2
100
AcDbBlockReference
  2
_OPEN30
 10
203.8330901262499
 20
189.4553757634399
 30
0.0
 41
2.5
 42
2.5
 43
2.5
  0
LINE
  5
68D
330
657
100
AcDbEntity
  8
KCAD_DIMS
 62
     0
370
    -2
100
AcDbLine
 10
162.33309012625
 20
189.4553757634399
 30
0.0
 11
201.33309012625
 21
189.4553757634399
 31
0.0
  0
POINT
  5
68E
330
657
100
AcDbEntity
  8
DEFPOINTS
 62
     0
370
    15
100
AcDbPoint
 10
159.8330901262499
 20
173.24016137636
 30
0.0
  0
POINT
  5
68F
330
657
100
AcDbEntity
  8
DEFPOINTS
 62
     0
370
    15
100
AcDbPoint
 10
203.8330901262499
 20
173.24016137636
 30
0.0
  0
POINT
  5
690
330
657
100
AcDbEntity
  8
DEFPOINTS
 62
     0
370
    15
100
AcDbPoint
 10
203.8330901262499
 20
189.4553757634399
 30
0.0
  0
MTEXT
  5
691
330
657
100
AcDbEntity
  8
KCAD_DIMS
 62
     0
100
AcDbMText
 10
181.8330901262499
 20
191.58870876344
 30
0.0
 40
3.2
 41
0.0
 71
     5
 72
     1
  1
\A1;44
  7
KCADDIMSTANDARD
 73
     1
 44
1.0
  0
ENDBLK
  5
D41
330
657
100
AcDbEntity
  8
0
100
AcDbBlockEnd
  0
BLOCK
  5
D42
330
696
100
AcDbEntity
  8
0
100
AcDbBlockBegin
  2
*D31
 70
     1
 71
     0
 10
0.0
 20
0.0
 30
0.0
  3
*D31
  1

  0
LINE
  5
6C8
330
696
100
AcDbEntity
  8
KCAD_DIMS
 62
     0
370
    -2
100
AcDbLine
 10
147.83309012625
 20
196.1553757634399
 30
0.0
 11
147.83309012625
 21
169.7401613763599
 31
0.0
  0
LINE
  5
6C9
330
696
100
AcDbEntity
  8
KCAD_DIMS
 62
     0
370
    -2
100
AcDbLine
 10
203.8330901262499
 20
196.1553757634399
 30
0.0
 11
203.8330901262499
 21
173.24016137636
 31
0.0
  0
INSERT
  5
6CA
330
696
100
AcDbEntity
  8
KCAD_DIMS
 62
     0
370
    -2
100
AcDbBlockReference
  2
_OPEN30
 10
147.83309012625
 20
196.1553757634399
 30
0.0
 41
2.5
 42
2.5
 43
2.5
 50
180.0
  0
INSERT
  5
6CB
330
696
100
AcDbEntity
  8
KCAD_DIMS
 62
     0
370
    -2
100
AcDbBlockReference
  2
_OPEN30
 10
203.8330901262499
 20
196.1553757634399
 30
0.0
 41
2.5
 42
2.5
 43
2.5
  0
LINE
  5
6CC
330
696
100
AcDbEntity
  8
KCAD_DIMS
 62
     0
370
    -2
100
AcDbLine
 10
150.33309012625
 20
196.1553757634399
 30
0.0
 11
201.33309012625
 21
196.1553757634399
 31
0.0
  0
POINT
  5
6CD
330
696
100
AcDbEntity
  8
DEFPOINTS
 62
     0
370
    15
100
AcDbPoint
 10
147.83309012625
 20
169.7401613763599
 30
0.0
  0
POINT
  5
6CE
330
696
100
AcDbEntity
  8
DEFPOINTS
 62
     0
370
    15
100
AcDbPoint
 10
203.8330901262499
 20
173.24016137636
 30
0.0
  0
POINT
  5
6CF
330
696
100
AcDbEntity
  8
DEFPOINTS
 62
     0
370
    15
100
AcDbPoint
 10
203.8330901262499
 20
196.1553757634399
 30
0.0
  0
MTEXT
  5
6D0
330
696
100
AcDbEntity
  8
KCAD_DIMS
 62
     0
100
AcDbMText
 10
175.83309012625
 20
198.2887087634399
 30
0.0
 40
3.2
 41
0.0
 71
     5
 72
     1
  1
\A1;56
  7
KCADDIMSTANDARD
 73
     1
 44
1.0
  0
ENDBLK
  5
D43
330
696
100
AcDbEntity
  8
0
100
AcDbBlockEnd
  0
BLOCK
  5
D44
330
6D2
100
AcDbEntity
  8
0
100
AcDbBlockBegin
  2
*D32
 70
     1
 71
     0
 10
0.0
 20
0.0
 30
0.0
  3
*D32
  1

  0
LINE
  5
704
330
6D2
100
AcDbEntity
  8
KCAD_DIMS
 62
     0
370
    -2
100
AcDbLine
 10
203.8330901262499
 20
196.1553757634399
 30
0.0
 11
203.8330901262499
 21
173.24016137636
 31
0.0
  0
LINE
  5
705
330
6D2
100
AcDbEntity
  8
KCAD_DIMS
 62
     0
370
    -2
100
AcDbLine
 10
216.83309012626
 20
196.1553757634399
 30
0.0
 11
216.83309012626
 21
165.2401613763599
 31
0.0
  0
INSERT
  5
706
330
6D2
100
AcDbEntity
  8
KCAD_DIMS
 62
     0
370
    -2
100
AcDbBlockReference
  2
_OPEN30
 10
203.8330901262499
 20
196.1553757634399
 30
0.0
 41
2.5
 42
2.5
 43
2.5
 50
180.0
  0
INSERT
  5
707
330
6D2
100
AcDbEntity
  8
KCAD_DIMS
 62
     0
370
    -2
100
AcDbBlockReference
  2
_OPEN30
 10
216.83309012626
 20
196.1553757634399
 30
0.0
 41
2.5
 42
2.5
 43
2.5
  0
LINE
  5
708
330
6D2
100
AcDbEntity
  8
KCAD_DIMS
 62
     0
370
    -2
100
AcDbLine
 10
206.3330901262499
 20
196.1553757634399
 30
0.0
 11
214.33309012626
 21
196.1553757634399
 31
0.0
  0
POINT
  5
709
330
6D2
100
AcDbEntity
  8
DEFPOINTS
 62
     0
370
    15
100
AcDbPoint
 10
203.8330901262499
 20
173.24016137636
 30
0.0
  0
POINT
  5
70A
330
6D2
100
AcDbEntity
  8
DEFPOINTS
 62
     0
370
    15
100
AcDbPoint
 10
216.83309012626
 20
165.2401613763599
 30
0.0
  0
POINT
  5
70B
330
6D2
100
AcDbEntity
  8
DEFPOINTS
 62
     0
370
    15
100
AcDbPoint
 10
216.83309012626
 20
196.1553757634399
 30
0.0
  0
MTEXT
  5
70C
330
6D2
100
AcDbEntity
  8
KCAD_DIMS
 62
     0
100
AcDbMText
 10
210.33309012626
 20
198.2887087634399
 30
0.0
 40
3.2
 41
0.0
 71
     5
 72
     1
  1
\A1;13
  7
KCADDIMSTANDARD
 73
     1
 44
1.0
  0
ENDBLK
  5
D45
330
6D2
100
AcDbEntity
  8
0
100
AcDbBlockEnd
  0
BLOCK
  5
D46
330
70E
100
AcDbEntity
  8
0
100
AcDbBlockBegin
  2
*D33
 70
     1
 71
     0
 10
0.0
 20
0.0
 30
0.0
  3
*D33
  1

  0
LINE
  5
740
330
70E
100
AcDbEntity
  8
KCAD_DIMS
 62
     0
370
    -2
100
AcDbLine
 10
216.83309012626
 20
196.1553757634399
 30
0.0
 11
216.83309012626
 21
164.74016137636
 31
0.0
  0
LINE
  5
741
330
70E
100
AcDbEntity
  8
KCAD_DIMS
 62
     0
370
    -2
100
AcDbLine
 10
228.83309012626
 20
196.1553757634399
 30
0.0
 11
228.83309012626
 21
165.2401613763599
 31
0.0
  0
INSERT
  5
742
330
70E
100
AcDbEntity
  8
KCAD_DIMS
 62
     0
370
    -2
100
AcDbBlockReference
  2
_OPEN30
 10
216.83309012626
 20
196.1553757634399
 30
0.0
 41
2.5
 42
2.5
 43
2.5
 50
180.0
  0
INSERT
  5
743
330
70E
100
AcDbEntity
  8
KCAD_DIMS
 62
     0
370
    -2
100
AcDbBlockReference
  2
_OPEN30
 10
228.83309012626
 20
196.1553757634399
 30
0.0
 41
2.5
 42
2.5
 43
2.5
  0
LINE
  5
744
330
70E
100
AcDbEntity
  8
KCAD_DIMS
 62
     0
370
    -2
100
AcDbLine
 10
219.33309012626
 20
196.1553757634399
 30
0.0
 11
226.3330901262599
 21
196.1553757634399
 31
0.0
  0
POINT
  5
745
330
70E
100
AcDbEntity
  8
DEFPOINTS
 62
     0
370
    15
100
AcDbPoint
 10
216.83309012626
 20
164.74016137636
 30
0.0
  0
POINT
  5
746
330
70E
100
AcDbEntity
  8
DEFPOINTS
 62
     0
370
    15
100
AcDbPoint
 10
228.83309012626
 20
165.2401613763599
 30
0.0
  0
POINT
  5
747
330
70E
100
AcDbEntity
  8
DEFPOINTS
 62
     0
370
    15
100
AcDbPoint
 10
228.83309012626
 20
196.1553757634399
 30
0.0
  0
MTEXT
  5
748
330
70E
100
AcDbEntity
  8
KCAD_DIMS
 62
     0
100
AcDbMText
 10
222.83309012626
 20
198.2887087634399
 30
0.0
 40
3.2
 41
0.0
 71
     5
 72
     1
  1
\A1;12
  7
KCADDIMSTANDARD
 73
     1
 44
1.0
  0
ENDBLK
  5
D47
330
70E
100
AcDbEntity
  8
0
100
AcDbBlockEnd
  0
BLOCK
  5
D48
330
74A
100
AcDbEntity
  8
0
100
AcDbBlockBegin
  2
*D34
 70
     1
 71
     0
 10
0.0
 20
0.0
 30
0.0
  3
*D34
  1

  0
LINE
  5
77C
330
74A
100
AcDbEntity
  8
KCAD_DIMS
 62
     0
370
    -2
100
AcDbLine
 10
228.83309012626
 20
196.1553757634399
 30
0.0
 11
228.83309012626
 21
164.74016137636
 31
0.0
  0
LINE
  5
77D
330
74A
100
AcDbEntity
  8
KCAD_DIMS
 62
     0
370
    -2
100
AcDbLine
 10
330.7730901262599
 20
196.1553757634399
 30
0.0
 11
330.7730901262599
 21
164.2401613763599
 31
0.0
  0
INSERT
  5
77E
330
74A
100
AcDbEntity
  8
KCAD_DIMS
 62
     0
370
    -2
100
AcDbBlockReference
  2
_OPEN30
 10
228.83309012626
 20
196.1553757634399
 30
0.0
 41
2.5
 42
2.5
 43
2.5
 50
180.0
  0
INSERT
  5
77F
330
74A
100
AcDbEntity
  8
KCAD_DIMS
 62
     0
370
    -2
100
AcDbBlockReference
  2
_OPEN30
 10
330.7730901262599
 20
196.1553757634399
 30
0.0
 41
2.5
 42
2.5
 43
2.5
  0
LINE
  5
780
330
74A
100
AcDbEntity
  8
KCAD_DIMS
 62
     0
370
    -2
100
AcDbLine
 10
231.33309012626
 20
196.1553757634399
 30
0.0
 11
328.27309012626
 21
196.1553757634399
 31
0.0
  0
POINT
  5
781
330
74A
100
AcDbEntity
  8
DEFPOINTS
 62
     0
370
    15
100
AcDbPoint
 10
228.83309012626
 20
164.74016137636
 30
0.0
  0
POINT
  5
782
330
74A
100
AcDbEntity
  8
DEFPOINTS
 62
     0
370
    15
100
AcDbPoint
 10
330.7730901262599
 20
164.2401613763599
 30
0.0
  0
POINT
  5
783
330
74A
100
AcDbEntity
  8
DEFPOINTS
 62
     0
370
    15
100
AcDbPoint
 10
330.7730901262599
 20
196.1553757634399
 30
0.0
  0
MTEXT
  5
784
330
74A
100
AcDbEntity
  8
KCAD_DIMS
 62
     0
100
AcDbMText
 10
279.8030901262599
 20
198.2887087634399
 30
0.0
 40
3.2
 41
0.0
 71
     5
 72
     1
  1
\A1;101.94
  7
KCADDIMSTANDARD
 73
     1
 44
1.0
  0
ENDBLK
  5
D49
330
74A
100
AcDbEntity
  8
0
100
AcDbBlockEnd
  0
BLOCK
  5
D4A
330
786
100
AcDbEntity
  8
0
100
AcDbBlockBegin
  2
*D35
 70
     1
 71
     0
 10
0.0
 20
0.0
 30
0.0
  3
*D35
  1

  0
LINE
  5
7C2
330
786
100
AcDbEntity
  8
KCAD_DIMS
 62
     0
370
    -2
100
AcDbLine
 10
330.7730901262599
 20
196.1553757634399
 30
0.0
 11
330.7730901262599
 21
160.54016137636
 31
0.0
  0
LINE
  5
7C3
330
786
100
AcDbEntity
  8
KCAD_DIMS
 62
     0
370
    -2
100
AcDbLine
 10
334.7730901262599
 20
196.1553757634399
 30
0.0
 11
334.7730901262599
 21
160.54016137636
 31
0.0
  0
INSERT
  5
7C4
330
786
100
AcDbEntity
  8
KCAD_DIMS
 62
     0
370
    -2
100
AcDbBlockReference
  2
_OPEN30
 10
330.7730901262599
 20
196.1553757634399
 30
0.0
 41
2.5
 42
2.5
 43
2.5
  0
INSERT
  5
7C5
330
786
100
AcDbEntity
  8
KCAD_DIMS
 62
     0
370
    -2
100
AcDbBlockReference
  2
_OPEN30
 10
334.7730901262599
 20
196.1553757634399
 30
0.0
 41
2.5
 42
2.5
 43
2.5
 50
180.0
  0
LINE
  5
7C6
330
786
100
AcDbEntity
  8
KCAD_DIMS
 62
     0
370
    -2
100
AcDbLine
 10
330.7730901262599
 20
196.1553757634399
 30
0.0
 11
334.7730901262599
 21
196.1553757634399
 31
0.0
  0
LINE
  5
7C7
330
786
100
AcDbEntity
  8
KCAD_DIMS
 62
     0
370
    -2
100
AcDbLine
 10
328.27309012626
 20
196.1553757634399
 30
0.0
 11
325.77309012626
 21
196.1553757634399
 31
0.0
  0
LINE
  5
7C8
330
786
100
AcDbEntity
  8
KCAD_DIMS
 62
     0
370
    -2
100
AcDbLine
 10
337.2730901262599
 20
196.1553757634399
 30
0.0
 11
341.3116048778733
 21
196.1553757634399
 31
0.0
  0
POINT
  5
7C9
330
786
100
AcDbEntity
  8
DEFPOINTS
 62
     0
370
    15
100
AcDbPoint
 10
330.7730901262599
 20
160.54016137636
 30
0.0
  0
POINT
  5
7CA
330
786
100
AcDbEntity
  8
DEFPOINTS
 62
     0
370
    15
100
AcDbPoint
 10
334.7730901262599
 20
160.54016137636
 30
0.0
  0
POINT
  5
7CB
330
786
100
AcDbEntity
  8
DEFPOINTS
 62
     0
370
    15
100
AcDbPoint
 10
334.7730901262599
 20
196.1553757634399
 30
0.0
  0
MTEXT
  5
7CC
330
786
100
AcDbEntity
  8
KCAD_DIMS
 62
     0
100
AcDbMText
 10
339.99059266228
 20
198.2887087634399
 30
0.0
 40
3.2
 41
0.0
 71
     5
 72
     1
  1
\A1;4
  7
KCADDIMSTANDARD
 73
     1
 44
1.0
  0
ENDBLK
  5
D4B
330
786
100
AcDbEntity
  8
0
100
AcDbBlockEnd
  0
BLOCK
  5
D4C
330
7CE
100
AcDbEntity
  8
0
100
AcDbBlockBegin
  2
*D36
 70
     1
 71
     0
 10
0.0
 20
0.0
 30
0.0
  3
*D36
  1

  0
LINE
  5
800
330
7CE
100
AcDbEntity
  8
KCAD_DIMS
 62
     0
370
    -2
100
AcDbLine
 10
124.33309012625
 20
208.1369680851099
 30
0.0
 11
124.33309012625
 21
167.2401613763599
 31
0.0
  0
LINE
  5
801
330
7CE
100
AcDbEntity
  8
KCAD_DIMS
 62
     0
370
    -2
100
AcDbLine
 10
63.633090126258
 20
208.1369680851099
 30
0.0
 11
63.633090126258
 21
152.0111726119799
 31
0.0
  0
INSERT
  5
802
330
7CE
100
AcDbEntity
  8
KCAD_DIMS
 62
     0
370
    -2
100
AcDbBlockReference
  2
_OPEN30
 10
124.33309012625
 20
208.1369680851099
 30
0.0
 41
2.5
 42
2.5
 43
2.5
  0
INSERT
  5
803
330
7CE
100
AcDbEntity
  8
KCAD_DIMS
 62
     0
370
    -2
100
AcDbBlockReference
  2
_OPEN30
 10
63.633090126258
 20
208.1369680851099
 30
0.0
 41
2.5
 42
2.5
 43
2.5
 50
180.0
  0
LINE
  5
804
330
7CE
100
AcDbEntity
  8
KCAD_DIMS
 62
     0
370
    -2
100
AcDbLine
 10
121.83309012625
 20
208.1369680851099
 30
0.0
 11
66.133090126258
 21
208.1369680851099
 31
0.0
  0
POINT
  5
805
330
7CE
100
AcDbEntity
  8
DEFPOINTS
 62
     0
370
    15
100
AcDbPoint
 10
124.33309012625
 20
167.2401613763599
 30
0.0
  0
POINT
  5
806
330
7CE
100
AcDbEntity
  8
DEFPOINTS
 62
     0
370
    15
100
AcDbPoint
 10
63.633090126258
 20
152.0111726119799
 30
0.0
  0
POINT
  5
807
330
7CE
100
AcDbEntity
  8
DEFPOINTS
 62
     0
370
    15
100
AcDbPoint
 10
63.633090126258
 20
208.1369680851099
 30
0.0
  0
MTEXT
  5
808
330
7CE
100
AcDbEntity
  8
KCAD_DIMS
 62
     0
100
AcDbMText
 10
93.98309012625602
 20
210.27030108511
 30
0.0
 40
3.2
 41
0.0
 71
     5
 72
     1
  1
\A1;WD=60.7
  7
KCADDIMSTANDARD
 73
     1
 44
1.0
  0
ENDBLK
  5
D4D
330
7CE
100
AcDbEntity
  8
0
100
AcDbBlockEnd
  0
BLOCK
  5
D4E
330
80A
100
AcDbEntity
  8
0
100
AcDbBlockBegin
  2
*D37
 70
     1
 71
     0
 10
0.0
 20
0.0
 30
0.0
  3
*D37
  1

  0
LINE
  5
83C
330
80A
100
AcDbEntity
  8
KCAD_DIMS
 62
     0
370
    -2
100
AcDbLine
 10
330.7730901262599
 20
208.1369680851099
 30
0.0
 11
330.7730901262599
 21
164.74016137636
 31
0.0
  0
LINE
  5
83D
330
80A
100
AcDbEntity
  8
KCAD_DIMS
 62
     0
370
    -2
100
AcDbLine
 10
124.33309012625
 20
208.1369680851099
 30
0.0
 11
124.33309012625
 21
167.2401613763599
 31
0.0
  0
INSERT
  5
83E
330
80A
100
AcDbEntity
  8
KCAD_DIMS
 62
     0
370
    -2
100
AcDbBlockReference
  2
_OPEN30
 10
330.7730901262599
 20
208.1369680851099
 30
0.0
 41
2.5
 42
2.5
 43
2.5
  0
INSERT
  5
83F
330
80A
100
AcDbEntity
  8
KCAD_DIMS
 62
     0
370
    -2
100
AcDbBlockReference
  2
_OPEN30
 10
124.33309012625
 20
208.1369680851099
 30
0.0
 41
2.5
 42
2.5
 43
2.5
 50
180.0
  0
LINE
  5
840
330
80A
100
AcDbEntity
  8
KCAD_DIMS
 62
     0
370
    -2
100
AcDbLine
 10
328.27309012626
 20
208.1369680851099
 30
0.0
 11
126.8330901262499
 21
208.1369680851099
 31
0.0
  0
POINT
  5
841
330
80A
100
AcDbEntity
  8
DEFPOINTS
 62
     0
370
    15
100
AcDbPoint
 10
330.7730901262599
 20
164.74016137636
 30
0.0
  0
POINT
  5
842
330
80A
100
AcDbEntity
  8
DEFPOINTS
 62
     0
370
    15
100
AcDbPoint
 10
124.33309012625
 20
167.2401613763599
 30
0.0
  0
POINT
  5
843
330
80A
100
AcDbEntity
  8
DEFPOINTS
 62
     0
370
    15
100
AcDbPoint
 10
124.33309012625
 20
208.1369680851099
 30
0.0
  0
MTEXT
  5
844
330
80A
100
AcDbEntity
  8
KCAD_DIMS
 62
     0
100
AcDbMText
 10
227.5530901262599
 20
210.27030108511
 30
0.0
 40
3.2
 41
0.0
 71
     5
 72
     1
  1
\A1;206.44
  7
KCADDIMSTANDARD
 73
     1
 44
1.0
  0
ENDBLK
  5
D4F
330
80A
100
AcDbEntity
  8
0
100
AcDbBlockEnd
  0
BLOCK
  5
D50
330
846
100
AcDbEntity
  8
0
100
AcDbBlockBegin
  2
*D38
 70
     1
 71
     0
 10
0.0
 20
0.0
 30
0.0
  3
*D38
  1

  0
LINE
  5
878
330
846
100
AcDbEntity
  8
KCAD_DIMS
 62
     0
370
    -2
100
AcDbLine
 10
330.7730901262599
 20
208.1369680851099
 30
0.0
 11
330.7730901262599
 21
164.74016137636
 31
0.0
  0
LINE
  5
879
330
846
100
AcDbEntity
  8
KCAD_DIMS
 62
     0
370
    -2
100
AcDbLine
 10
348.29909012626
 20
208.1369680851099
 30
0.0
 11
348.29909012626
 21
152.0111726119799
 31
0.0
  0
INSERT
  5
87A
330
846
100
AcDbEntity
  8
KCAD_DIMS
 62
     0
370
    -2
100
AcDbBlockReference
  2
_OPEN30
 10
330.7730901262599
 20
208.1369680851099
 30
0.0
 41
2.5
 42
2.5
 43
2.5
 50
180.0
  0
INSERT
  5
87B
330
846
100
AcDbEntity
  8
KCAD_DIMS
 62
     0
370
    -2
100
AcDbBlockReference
  2
_OPEN30
 10
348.29909012626
 20
208.1369680851099
 30
0.0
 41
2.5
 42
2.5
 43
2.5
  0
LINE
  5
87C
330
846
100
AcDbEntity
  8
KCAD_DIMS
 62
     0
370
    -2
100
AcDbLine
 10
333.27309012626
 20
208.1369680851099
 30
0.0
 11
345.79909012626
 21
208.1369680851099
 31
0.0
  0
POINT
  5
87D
330
846
100
AcDbEntity
  8
DEFPOINTS
 62
     0
370
    15
100
AcDbPoint
 10
330.7730901262599
 20
164.74016137636
 30
0.0
  0
POINT
  5
87E
330
846
100
AcDbEntity
  8
DEFPOINTS
 62
     0
370
    15
100
AcDbPoint
 10
348.29909012626
 20
152.0111726119799
 30
0.0
  0
POINT
  5
87F
330
846
100
AcDbEntity
  8
DEFPOINTS
 62
     0
370
    15
100
AcDbPoint
 10
348.29909012626
 20
208.1369680851099
 30
0.0
  0
MTEXT
  5
880
330
846
100
AcDbEntity
  8
KCAD_DIMS
 62
     0
100
AcDbMText
 10
339.5360901262599
 20
210.27030108511
 30
0.0
 40
3.2
 41
0.0
 71
     5
 72
     1
  1
\A1;17.53
  7
KCADDIMSTANDARD
 73
     1
 44
1.0
  0
ENDBLK
  5
D51
330
846
100
AcDbEntity
  8
0
100
AcDbBlockEnd
  0
BLOCK
  5
D52
330
882
100
AcDbEntity
  8
0
100
AcDbBlockBegin
  2
*D39
 70
     1
 71
     0
 10
0.0
 20
0.0
 30
0.0
  3
*D39
  1

  0
LINE
  5
8B4
330
882
100
AcDbEntity
  8
KCAD_DIMS
 62
     0
370
    -2
100
AcDbLine
 10
63.633090126258
 20
222.35505319149
 30
0.0
 11
63.633090126258
 21
152.0111726119799
 31
0.0
  0
LINE
  5
8B5
330
882
100
AcDbEntity
  8
KCAD_DIMS
 62
     0
370
    -2
100
AcDbLine
 10
348.29909012626
 20
222.35505319149
 30
0.0
 11
348.29909012626
 21
152.0111726119799
 31
0.0
  0
INSERT
  5
8B6
330
882
100
AcDbEntity
  8
KCAD_DIMS
 62
     0
370
    -2
100
AcDbBlockReference
  2
_OPEN30
 10
63.633090126258
 20
222.35505319149
 30
0.0
 41
2.5
 42
2.5
 43
2.5
 50
180.0
  0
INSERT
  5
8B7
330
882
100
AcDbEntity
  8
KCAD_DIMS
 62
     0
370
    -2
100
AcDbBlockReference
  2
_OPEN30
 10
348.29909012626
 20
222.35505319149
 30
0.0
 41
2.5
 42
2.5
 43
2.5
  0
LINE
  5
8B8
330
882
100
AcDbEntity
  8
KCAD_DIMS
 62
     0
370
    -2
100
AcDbLine
 10
66.133090126258
 20
222.35505319149
 30
0.0
 11
345.79909012626
 21
222.35505319149
 31
0.0
  0
POINT
  5
8B9
330
882
100
AcDbEntity
  8
DEFPOINTS
 62
     0
370
    15
100
AcDbPoint
 10
63.633090126258
 20
152.0111726119799
 30
0.0
  0
POINT
  5
8BA
330
882
100
AcDbEntity
  8
DEFPOINTS
 62
     0
370
    15
100
AcDbPoint
 10
348.29909012626
 20
152.0111726119799
 30
0.0
  0
POINT
  5
8BB
330
882
100
AcDbEntity
  8
DEFPOINTS
 62
     0
370
    15
100
AcDbPoint
 10
348.29909012626
 20
222.35505319149
 30
0.0
  0
MTEXT
  5
8BC
330
882
100
AcDbEntity
  8
KCAD_DIMS
 62
     0
100
AcDbMText
 10
205.96609012626
 20
224.4883861914899
 30
0.0
 40
3.2
 41
0.0
 71
     5
 72
     1
  1
\A1;284.67
  7
KCADDIMSTANDARD
 73
     1
 44
1.0
  0
ENDBLK
  5
D53
330
882
100
AcDbEntity
  8
0
100
AcDbBlockEnd
  0
BLOCK
  5
D54
330
8BE
100
AcDbEntity
  8
0
100
AcDbBlockBegin
  2
*D40
 70
     1
 71
     0
 10
0.0
 20
0.0
 30
0.0
  3
*D40
  1

  0
LINE
  5
8F0
330
8BE
100
AcDbEntity
  8
KCAD_DIMS
 62
     0
370
    -2
100
AcDbLine
 10
356.08119849021
 20
160.94016137636
 30
0.0
 11
334.37309012626
 21
160.94016137636
 31
0.0
  0
LINE
  5
8F1
330
8BE
100
AcDbEntity
  8
KCAD_DIMS
 62
     0
370
    -2
100
AcDbLine
 10
356.08119849021
 20
135.54016137636
 30
0.0
 11
334.37309012626
 21
135.54016137636
 31
0.0
  0
INSERT
  5
8F2
330
8BE
100
AcDbEntity
  8
KCAD_DIMS
 62
     0
370
    -2
100
AcDbBlockReference
  2
_OPEN30
 10
356.08119849021
 20
160.94016137636
 30
0.0
 41
2.5
 42
2.5
 43
2.5
 50
90.0
  0
INSERT
  5
8F3
330
8BE
100
AcDbEntity
  8
KCAD_DIMS
 62
     0
370
    -2
100
AcDbBlockReference
  2
_OPEN30
 10
356.08119849021
 20
135.54016137636
 30
0.0
 41
2.5
 42
2.5
 43
2.5
 50
270.0
  0
LINE
  5
8F4
330
8BE
100
AcDbEntity
  8
KCAD_DIMS
 62
     0
370
    -2
100
AcDbLine
 10
356.08119849021
 20
158.44016137636
 30
0.0
 11
356.08119849021
 21
138.04016137636
 31
0.0
  0
POINT
  5
8F5
330
8BE
100
AcDbEntity
  8
DEFPOINTS
 62
     0
370
    15
100
AcDbPoint
 10
334.37309012626
 20
160.94016137636
 30
0.0
  0
POINT
  5
8F6
330
8BE
100
AcDbEntity
  8
DEFPOINTS
 62
     0
370
    15
100
AcDbPoint
 10
334.37309012626
 20
135.54016137636
 30
0.0
  0
POINT
  5
8F7
330
8BE
100
AcDbEntity
  8
DEFPOINTS
 62
     0
370
    15
100
AcDbPoint
 10
356.08119849021
 20
135.54016137636
 30
0.0
  0
MTEXT
  5
8F8
330
8BE
100
AcDbEntity
  8
KCAD_DIMS
 62
     0
100
AcDbMText
 10
353.94786549021
 20
148.24016137636
 30
0.0
 40
3.2
 41
0.0
 71
     5
 72
     1
  1
\A1;\A1;Ｃマウント
  7
KCADDIMSTANDARD
 11
1.000000000000000E-16
 21
1.0
 31
0.0
 73
     1
 44
1.0
  0
ENDBLK
  5
D55
330
8BE
100
AcDbEntity
  8
0
100
AcDbBlockEnd
  0
BLOCK
  5
D56
330
8FC
100
AcDbEntity
  8
0
100
AcDbBlockBegin
  2
*D41
 70
     1
 71
     0
 10
0.0
 20
0.0
 30
0.0
  3
*D41
  1

  0
LINE
  5
92E
330
8FC
100
AcDbEntity
  8
KCAD_DIMS
 62
     0
370
    -2
100
AcDbLine
 10
362.52142293911
 20
164.74016137636
 30
0.0
 11
330.27309012626
 21
164.74016137636
 31
0.0
  0
LINE
  5
92F
330
8FC
100
AcDbEntity
  8
KCAD_DIMS
 62
     0
370
    -2
100
AcDbLine
 10
362.52142293911
 20
131.7401613763599
 30
0.0
 11
330.27309012626
 21
131.7401613763599
 31
0.0
  0
INSERT
  5
930
330
8FC
100
AcDbEntity
  8
KCAD_DIMS
 62
     0
370
    -2
100
AcDbBlockReference
  2
_OPEN30
 10
362.52142293911
 20
164.74016137636
 30
0.0
 41
2.5
 42
2.5
 43
2.5
 50
90.0
  0
INSERT
  5
931
330
8FC
100
AcDbEntity
  8
KCAD_DIMS
 62
     0
370
    -2
100
AcDbBlockReference
  2
_OPEN30
 10
362.52142293911
 20
131.7401613763599
 30
0.0
 41
2.5
 42
2.5
 43
2.5
 50
270.0
  0
LINE
  5
932
330
8FC
100
AcDbEntity
  8
KCAD_DIMS
 62
     0
370
    -2
100
AcDbLine
 10
362.52142293911
 20
162.2401613763599
 30
0.0
 11
362.52142293911
 21
134.2401613763599
 31
0.0
  0
POINT
  5
933
330
8FC
100
AcDbEntity
  8
DEFPOINTS
 62
     0
370
    15
100
AcDbPoint
 10
330.27309012626
 20
164.74016137636
 30
0.0
  0
POINT
  5
934
330
8FC
100
AcDbEntity
  8
DEFPOINTS
 62
     0
370
    15
100
AcDbPoint
 10
330.27309012626
 20
131.7401613763599
 30
0.0
  0
POINT
  5
935
330
8FC
100
AcDbEntity
  8
DEFPOINTS
 62
     0
370
    15
100
AcDbPoint
 10
362.52142293911
 20
131.7401613763599
 30
0.0
  0
MTEXT
  5
936
330
8FC
100
AcDbEntity
  8
KCAD_DIMS
 62
     0
100
AcDbMText
 10
360.38808993911
 20
148.24016137636
 30
0.0
 40
3.2
 41
0.0
 71
     5
 72
     1
  1
\A1;φ33
  7
KCADDIMSTANDARD
 11
1.000000000000000E-16
 21
1.0
 31
0.0
 73
     1
 44
1.0
  0
ENDBLK
  5
D57
330
8FC
100
AcDbEntity
  8
0
100
AcDbBlockEnd
  0
BLOCK
  5
D58
330
93C
100
AcDbEntity
  8
0
100
AcDbBlockBegin
  2
*D42
 70
     1
 71
     0
 10
0.0
 20
0.0
 30
0.0
  3
*D42
  1

  0
LINE
  5
96E
330
93C
100
AcDbEntity
  8
KCAD_DIMS
 62
     0
370
    -2
100
AcDbLine
 10
368.7780012373699
 20
173.24016137636
 30
0.0
 11
203.8330901262499
 21
173.24016137636
 31
0.0
  0
LINE
  5
96F
330
93C
100
AcDbEntity
  8
KCAD_DIMS
 62
     0
370
    -2
100
AcDbLine
 10
368.7780012373699
 20
123.24016137636
 30
0.0
 11
203.8330901262499
 21
123.24016137636
 31
0.0
  0
INSERT
  5
970
330
93C
100
AcDbEntity
  8
KCAD_DIMS
 62
     0
370
    -2
100
AcDbBlockReference
  2
_OPEN30
 10
368.7780012373699
 20
173.24016137636
 30
0.0
 41
2.5
 42
2.5
 43
2.5
 50
90.0
  0
INSERT
  5
971
330
93C
100
AcDbEntity
  8
KCAD_DIMS
 62
     0
370
    -2
100
AcDbBlockReference
  2
_OPEN30
 10
368.7780012373699
 20
123.24016137636
 30
0.0
 41
2.5
 42
2.5
 43
2.5
 50
270.0
  0
LINE
  5
972
330
93C
100
AcDbEntity
  8
KCAD_DIMS
 62
     0
370
    -2
100
AcDbLine
 10
368.7780012373699
 20
170.7401613763599
 30
0.0
 11
368.7780012373699
 21
125.7401613763599
 31
0.0
  0
POINT
  5
973
330
93C
100
AcDbEntity
  8
DEFPOINTS
 62
     0
370
    15
100
AcDbPoint
 10
203.8330901262499
 20
173.24016137636
 30
0.0
  0
POINT
  5
974
330
93C
100
AcDbEntity
  8
DEFPOINTS
 62
     0
370
    15
100
AcDbPoint
 10
203.8330901262499
 20
123.24016137636
 30
0.0
  0
POINT
  5
975
330
93C
100
AcDbEntity
  8
DEFPOINTS
 62
     0
370
    15
100
AcDbPoint
 10
368.7780012373699
 20
123.2401613763599
 30
0.0
  0
MTEXT
  5
976
330
93C
100
AcDbEntity
  8
KCAD_DIMS
 62
     0
100
AcDbMText
 10
366.64466823737
 20
148.24016137636
 30
0.0
 40
3.2
 41
0.0
 71
     5
 72
     1
  1
\A1;□50
  7
KCADDIMSTANDARD
 11
1.000000000000000E-16
 21
1.0
 31
0.0
 73
     1
 44
1.0
  0
ENDBLK
  5
D59
330
93C
100
AcDbEntity
  8
0
100
AcDbBlockEnd
  0
BLOCK
  5
D5A
330
978
100
AcDbEntity
  8
0
100
AcDbBlockBegin
  2
*D43
 70
     1
 71
     0
 10
0.0
 20
0.0
 30
0.0
  3
*D43
  1

  0
LINE
  5
9A5
330
978
100
AcDbEntity
  8
KCAD_DIMS
 62
     0
370
    -2
100
AcDbLine
 10
136.50887144902
 20
98.24016137636
 30
0.0
 11
174.83309012625
 21
98.24016137636
 31
0.0
  0
INSERT
  5
9A6
330
978
100
AcDbEntity
  8
KCAD_DIMS
 62
     0
370
    -2
100
AcDbBlockReference
  2
_OPEN30
 10
136.50887144902
 20
148.24016137636
 30
0.0
 41
2.5
 42
2.5
 43
2.5
 50
90.0
  0
INSERT
  5
9A7
330
978
100
AcDbEntity
  8
KCAD_DIMS
 62
     0
370
    -2
100
AcDbBlockReference
  2
_OPEN30
 10
136.50887144902
 20
98.24016137636
 30
0.0
 41
2.5
 42
2.5
 43
2.5
 50
270.0
  0
LINE
  5
9A8
330
978
100
AcDbEntity
  8
KCAD_DIMS
 62
     0
370
    -2
100
AcDbLine
 10
136.50887144902
 20
145.7401613763599
 30
0.0
 11
136.50887144902
 21
100.74016137636
 31
0.0
  0
POINT
  5
9A9
330
978
100
AcDbEntity
  8
DEFPOINTS
 62
     0
370
    15
100
AcDbPoint
 10
136.50887144902
 20
148.24016137636
 30
0.0
  0
POINT
  5
9AA
330
978
100
AcDbEntity
  8
DEFPOINTS
 62
     0
370
    15
100
AcDbPoint
 10
174.83309012625
 20
98.24016137636
 30
0.0
  0
POINT
  5
9AB
330
978
100
AcDbEntity
  8
DEFPOINTS
 62
     0
370
    15
100
AcDbPoint
 10
136.50887144902
 20
98.24016137636002
 30
0.0
  0
MTEXT
  5
9AC
330
978
100
AcDbEntity
  8
KCAD_DIMS
 62
     0
100
AcDbMText
 10
134.37553844902
 20
113.05571775694
 30
0.0
 40
3.2
 41
0.0
 71
     5
 72
     1
  1
\A1;50
  7
KCADDIMSTANDARD
 11
1.000000000000000E-16
 21
1.0
 31
0.0
 73
     1
 44
1.0
  0
ENDBLK
  5
D5B
330
978
100
AcDbEntity
  8
0
100
AcDbBlockEnd
  0
BLOCK
  5
D5C
330
9AE
100
AcDbEntity
  8
0
100
AcDbBlockBegin
  2
*D44
 70
     1
 71
     0
 10
0.0
 20
0.0
 30
0.0
  3
*D44
  1

  0
LINE
  5
9E0
330
9AE
100
AcDbEntity
  8
KCAD_DIMS
 62
     0
370
    -2
100
AcDbLine
 10
124.33309012625
 20
73.975194910094
 30
0.0
 11
124.33309012625
 21
129.7401613763599
 31
0.0
  0
LINE
  5
9E1
330
9AE
100
AcDbEntity
  8
KCAD_DIMS
 62
     0
370
    -2
100
AcDbLine
 10
181.8330901262499
 20
73.975194910094
 30
0.0
 11
181.8330901262499
 21
92.617732487471
 31
0.0
  0
INSERT
  5
9E2
330
9AE
100
AcDbEntity
  8
KCAD_DIMS
 62
     0
370
    -2
100
AcDbBlockReference
  2
_OPEN30
 10
124.33309012625
 20
73.975194910094
 30
0.0
 41
2.5
 42
2.5
 43
2.5
 50
180.0
  0
INSERT
  5
9E3
330
9AE
100
AcDbEntity
  8
KCAD_DIMS
 62
     0
370
    -2
100
AcDbBlockReference
  2
_OPEN30
 10
181.8330901262499
 20
73.975194910094
 30
0.0
 41
2.5
 42
2.5
 43
2.5
  0
LINE
  5
9E4
330
9AE
100
AcDbEntity
  8
KCAD_DIMS
 62
     0
370
    -2
100
AcDbLine
 10
126.8330901262499
 20
73.975194910094
 30
0.0
 11
179.33309012625
 21
73.975194910094
 31
0.0
  0
POINT
  5
9E5
330
9AE
100
AcDbEntity
  8
DEFPOINTS
 62
     0
370
    15
100
AcDbPoint
 10
124.33309012625
 20
129.7401613763599
 30
0.0
  0
POINT
  5
9E6
330
9AE
100
AcDbEntity
  8
DEFPOINTS
 62
     0
370
    15
100
AcDbPoint
 10
181.8330901262499
 20
92.617732487471
 30
0.0
  0
POINT
  5
9E7
330
9AE
100
AcDbEntity
  8
DEFPOINTS
 62
     0
370
    15
100
AcDbPoint
 10
181.8330901262499
 20
73.975194910094
 30
0.0
  0
MTEXT
  5
9E8
330
9AE
100
AcDbEntity
  8
KCAD_DIMS
 62
     0
100
AcDbMText
 10
153.08309012625
 20
76.108527910094
 30
0.0
 40
3.2
 41
0.0
 71
     5
 72
     1
  1
\A1;57.5
  7
KCADDIMSTANDARD
 73
     1
 44
1.0
  0
ENDBLK
  5
D5D
330
9AE
100
AcDbEntity
  8
0
100
AcDbBlockEnd
  0
BLOCK
  5
D5E
330
9EA
100
AcDbEntity
  8
0
100
AcDbBlockBegin
  2
*D45
 70
     1
 71
     0
 10
0.0
 20
0.0
 30
0.0
  3
*D45
  1

  0
LINE
  5
A1C
330
9EA
100
AcDbEntity
  8
KCAD_DIMS
 62
     0
370
    -2
100
AcDbLine
 10
177.8330901262499
 20
88.284220207879
 30
0.0
 11
177.8330901262499
 21
98.54016137636
 31
0.0
  0
LINE
  5
A1D
330
9EA
100
AcDbEntity
  8
KCAD_DIMS
 62
     0
370
    -2
100
AcDbLine
 10
185.8330901262499
 20
88.284220207879
 30
0.0
 11
185.8330901262499
 21
98.54016137636
 31
0.0
  0
INSERT
  5
A1E
330
9EA
100
AcDbEntity
  8
KCAD_DIMS
 62
     0
370
    -2
100
AcDbBlockReference
  2
_OPEN30
 10
177.8330901262499
 20
88.284220207879
 30
0.0
 41
2.5
 42
2.5
 43
2.5
  0
INSERT
  5
A1F
330
9EA
100
AcDbEntity
  8
KCAD_DIMS
 62
     0
370
    -2
100
AcDbBlockReference
  2
_OPEN30
 10
185.8330901262499
 20
88.284220207879
 30
0.0
 41
2.5
 42
2.5
 43
2.5
 50
180.0
  0
LINE
  5
A20
330
9EA
100
AcDbEntity
  8
KCAD_DIMS
 62
     0
370
    -2
100
AcDbLine
 10
177.8330901262499
 20
88.284220207879
 30
0.0
 11
185.8330901262499
 21
88.284220207879
 31
0.0
  0
LINE
  5
A21
330
9EA
100
AcDbEntity
  8
KCAD_DIMS
 62
     0
370
    -2
100
AcDbLine
 10
175.33309012625
 20
88.284220207879
 30
0.0
 11
172.83309012625
 21
88.284220207879
 31
0.0
  0
LINE
  5
A22
330
9EA
100
AcDbEntity
  8
KCAD_DIMS
 62
     0
370
    -2
100
AcDbLine
 10
188.33309012625
 20
88.284220207879
 30
0.0
 11
196.5992169678999
 21
88.284220207879
 31
0.0
  0
POINT
  5
A23
330
9EA
100
AcDbEntity
  8
DEFPOINTS
 62
     0
370
    15
100
AcDbPoint
 10
177.8330901262499
 20
98.54016137636
 30
0.0
  0
POINT
  5
A24
330
9EA
100
AcDbEntity
  8
DEFPOINTS
 62
     0
370
    15
100
AcDbPoint
 10
185.8330901262499
 20
98.54016137636
 30
0.0
  0
POINT
  5
A25
330
9EA
100
AcDbEntity
  8
DEFPOINTS
 62
     0
370
    15
100
AcDbPoint
 10
185.8330901262499
 20
88.284220207879
 30
0.0
  0
MTEXT
  5
A26
330
9EA
100
AcDbEntity
  8
KCAD_DIMS
 62
     0
100
AcDbMText
 10
194.15320473991
 20
90.417553207879
 30
0.0
 40
3.2
 41
0.0
 71
     5
 72
     1
  1
\A1;φ8
  7
KCADDIMSTANDARD
 73
     1
 44
1.0
  0
ENDBLK
  5
D5F
330
9EA
100
AcDbEntity
  8
0
100
AcDbBlockEnd
  0
BLOCK
  5
D60
330
A2A
100
AcDbEntity
  8
0
100
AcDbBlockBegin
  2
*D46
 70
     1
 71
     0
 10
0.0
 20
0.0
 30
0.0
  3
*D46
  1

  0
LINE
  5
A5C
330
A2A
100
AcDbEntity
  8
KCAD_DIMS
 62
     0
370
    -2
100
AcDbLine
 10
174.83309012625
 20
81.159006874546
 30
0.0
 11
174.83309012625
 21
98.74016137636
 31
0.0
  0
LINE
  5
A5D
330
A2A
100
AcDbEntity
  8
KCAD_DIMS
 62
     0
370
    -2
100
AcDbLine
 10
188.83309012625
 20
81.159006874546
 30
0.0
 11
188.83309012625
 21
98.740161376361
 31
0.0
  0
INSERT
  5
A5E
330
A2A
100
AcDbEntity
  8
KCAD_DIMS
 62
     0
370
    -2
100
AcDbBlockReference
  2
_OPEN30
 10
174.83309012625
 20
81.159006874546
 30
0.0
 41
2.5
 42
2.5
 43
2.5
  0
INSERT
  5
A5F
330
A2A
100
AcDbEntity
  8
KCAD_DIMS
 62
     0
370
    -2
100
AcDbBlockReference
  2
_OPEN30
 10
188.83309012625
 20
81.159006874546
 30
0.0
 41
2.5
 42
2.5
 43
2.5
 50
180.0
  0
LINE
  5
A60
330
A2A
100
AcDbEntity
  8
KCAD_DIMS
 62
     0
370
    -2
100
AcDbLine
 10
174.83309012625
 20
81.159006874546
 30
0.0
 11
188.83309012625
 21
81.159006874546
 31
0.0
  0
LINE
  5
A61
330
A2A
100
AcDbEntity
  8
KCAD_DIMS
 62
     0
370
    -2
100
AcDbLine
 10
172.3330901262499
 20
81.159006874546
 30
0.0
 11
169.83309012625
 21
81.159006874546
 31
0.0
  0
LINE
  5
A62
330
A2A
100
AcDbEntity
  8
KCAD_DIMS
 62
     0
370
    -2
100
AcDbLine
 10
191.3330901262499
 20
81.159006874546
 30
0.0
 11
199.113089831816
 21
81.159006874546
 31
0.0
  0
POINT
  5
A63
330
A2A
100
AcDbEntity
  8
DEFPOINTS
 62
     0
370
    15
100
AcDbPoint
 10
174.83309012625
 20
98.74016137636
 30
0.0
  0
POINT
  5
A64
330
A2A
100
AcDbEntity
  8
DEFPOINTS
 62
     0
370
    15
100
AcDbPoint
 10
188.83309012625
 20
98.740161376361
 30
0.0
  0
POINT
  5
A65
330
A2A
100
AcDbEntity
  8
DEFPOINTS
 62
     0
370
    15
100
AcDbPoint
 10
188.83309012625
 20
81.159006874546
 30
0.0
  0
MTEXT
  5
A66
330
A2A
100
AcDbEntity
  8
KCAD_DIMS
 62
     0
100
AcDbMText
 10
195.54207759143
 20
83.29233987454597
 30
0.0
 40
3.2
 41
0.0
 71
     5
 72
     1
  1
\A1;φ14
  7
KCADDIMSTANDARD
 73
     1
 44
1.0
  0
ENDBLK
  5
D61
330
A2A
100
AcDbEntity
  8
0
100
AcDbBlockEnd
  0
BLOCK
  5
D62
330
AEB
100
AcDbEntity
  8
0
100
AcDbBlockBegin
  2
*D47
 70
     1
 71
     0
 10
0.0
 20
0.0
 30
0.0
  3
*D47
  1

  0
POINT
  5
AE1
330
AEB
100
AcDbEntity
  8
DEFPOINTS
  6
ByBlock
 62
     0
370
    15
100
AcDbPoint
 10
124.33309012625
 20
167.2401613763599
 30
0.0
  0
POINT
  5
AE2
330
AEB
100
AcDbEntity
  8
DEFPOINTS
  6
ByBlock
 62
     0
370
    15
100
AcDbPoint
 10
147.83309012625
 20
170.2401613763599
 30
0.0
  0
LINE
  5
AE3
330
AEB
100
AcDbEntity
  8
0
  6
ByBlock
 62
     0
370
    -2
100
AcDbLine
 10
124.33309012625
 20
167.2401613763599
 30
0.0
 11
124.33309012625
 21
196.1553757634399
 31
0.0
  0
LINE
  5
AE4
330
AEB
100
AcDbEntity
  8
0
  6
ByBlock
 62
     0
370
    -2
100
AcDbLine
 10
147.83309012625
 20
170.2401613763599
 30
0.0
 11
147.83309012625
 21
196.1553757634399
 31
0.0
  0
LINE
  5
AE5
330
AEB
100
AcDbEntity
  8
0
  6
ByBlock
 62
     0
370
    -2
100
AcDbLine
 10
124.33309012625
 20
196.1553757634399
 30
0.0
 11
147.83309012625
 21
196.1553757634399
 31
0.0
  0
SOLID
  5
AE6
330
AEB
100
AcDbEntity
  8
0
  6
ByBlock
 62
     0
370
    15
100
AcDbTrace
 10
124.33309012625
 20
196.1553757634399
 30
0.0
 11
126.83309012625
 21
195.7387090967732
 31
0.0
 12
126.83309012625
 22
196.5720424301066
 32
0.0
 13
126.83309012625
 23
196.5720424301066
 33
0.0
  0
SOLID
  5
AE7
330
AEB
100
AcDbEntity
  8
0
  6
ByBlock
 62
     0
370
    15
100
AcDbTrace
 10
147.83309012625
 20
196.1553757634399
 30
0.0
 11
145.33309012625
 21
195.7387090967732
 31
0.0
 12
145.33309012625
 22
196.5720424301066
 32
0.0
 13
145.33309012625
 23
196.5720424301066
 33
0.0
  0
LINE
  5
AE8
330
AEB
100
AcDbEntity
  8
0
  6
ByBlock
 62
     0
370
    -2
100
AcDbLine
 10
124.33309012625
 20
167.2401613763599
 30
0.0
 11
124.33309012625
 21
167.2401613763599
 31
0.0
  0
MTEXT
  5
AE9
330
AEB
100
AcDbEntity
  8
0
  6
ByBlock
 62
     0
100
AcDbMText
 10
136.0830901262499
 20
198.2887087634399
 30
0.0
 40
3.2
 41
0.0
 71
     5
 72
     1
  1
23.5
  7
KCADDIMSTANDARD
 73
     1
 44
1.0
  0
ENDBLK
  5
D63
330
AEB
100
AcDbEntity
  8
0
100
AcDbBlockEnd
  0
BLOCK
  5
D64
330
AF7
100
AcDbEntity
  8
0
100
AcDbBlockBegin
  2
*D48
 70
     1
 71
     0
 10
0.0
 20
0.0
 30
0.0
  3
*D48
  1

  0
POINT
  5
AED
330
AF7
100
AcDbEntity
  8
DEFPOINTS
  6
ByBlock
 62
     0
370
    15
100
AcDbPoint
 10
124.33309012625
 20
167.2401613763599
 30
0.0
  0
POINT
  5
AEE
330
AF7
100
AcDbEntity
  8
DEFPOINTS
  6
ByBlock
 62
     0
370
    15
100
AcDbPoint
 10
124.33309012625
 20
129.2401613763599
 30
0.0
  0
LINE
  5
AEF
330
AF7
100
AcDbEntity
  8
0
  6
ByBlock
 62
     0
370
    -2
100
AcDbLine
 10
124.33309012625
 20
167.2401613763599
 30
0.0
 11
113.9706879886499
 21
167.2401613763599
 31
0.0
  0
LINE
  5
AF0
330
AF7
100
AcDbEntity
  8
0
  6
ByBlock
 62
     0
370
    -2
100
AcDbLine
 10
124.33309012625
 20
129.2401613763599
 30
0.0
 11
113.9706879886499
 21
129.2401613763599
 31
0.0
  0
LINE
  5
AF1
330
AF7
100
AcDbEntity
  8
0
  6
ByBlock
 62
     0
370
    -2
100
AcDbLine
 10
113.9706879886499
 20
167.2401613763599
 30
0.0
 11
113.9706879886499
 21
129.2401613763599
 31
0.0
  0
SOLID
  5
AF2
330
AF7
100
AcDbEntity
  8
0
  6
ByBlock
 62
     0
370
    15
100
AcDbTrace
 10
113.9706879886499
 20
167.2401613763599
 30
0.0
 11
113.5540213219832
 21
164.7401613763599
 31
0.0
 12
114.3873546553166
 22
164.7401613763599
 32
0.0
 13
114.3873546553166
 23
164.7401613763599
 33
0.0
  0
SOLID
  5
AF3
330
AF7
100
AcDbEntity
  8
0
  6
ByBlock
 62
     0
370
    15
100
AcDbTrace
 10
113.9706879886499
 20
129.2401613763599
 30
0.0
 11
113.5540213219832
 21
131.7401613763599
 31
0.0
 12
114.3873546553166
 22
131.7401613763599
 32
0.0
 13
114.3873546553166
 23
131.7401613763599
 33
0.0
  0
LINE
  5
AF4
330
AF7
100
AcDbEntity
  8
0
  6
ByBlock
 62
     0
370
    -2
100
AcDbLine
 10
124.33309012625
 20
167.2401613763599
 30
0.0
 11
124.33309012625
 21
167.2401613763599
 31
0.0
  0
MTEXT
  5
AF5
330
AF7
100
AcDbEntity
  8
0
  6
ByBlock
 62
     0
100
AcDbMText
 10
111.83735498865
 20
148.24016137636
 30
0.0
 40
3.2
 41
0.0
 71
     5
 72
     1
  1
\A1;φ38
  7
KCADDIMSTANDARD
 11
6.123031769111886E-17
 21
1.0
 31
0.0
 73
     1
 44
1.0
  0
ENDBLK
  5
D65
330
AF7
100
AcDbEntity
  8
0
100
AcDbBlockEnd
  0
BLOCK
  5
D66
330
B03
100
AcDbEntity
  8
0
100
AcDbBlockBegin
  2
*D49
 70
     1
 71
     0
 10
0.0
 20
0.0
 30
0.0
  3
*D49
  1

  0
POINT
  5
AF9
330
B03
100
AcDbEntity
  8
DEFPOINTS
  6
ByBlock
 62
     0
370
    15
100
AcDbPoint
 10
148.3330901262499
 20
170.2401613763599
 30
0.0
  0
POINT
  5
AFA
330
B03
100
AcDbEntity
  8
DEFPOINTS
  6
ByBlock
 62
     0
370
    15
100
AcDbPoint
 10
148.3330901262499
 20
126.24016137636
 30
0.0
  0
LINE
  5
AFB
330
B03
100
AcDbEntity
  8
0
  6
ByBlock
 62
     0
370
    -2
100
AcDbLine
 10
148.3330901262499
 20
170.2401613763599
 30
0.0
 11
107.12370649106
 21
170.2401613763599
 31
0.0
  0
LINE
  5
AFC
330
B03
100
AcDbEntity
  8
0
  6
ByBlock
 62
     0
370
    -2
100
AcDbLine
 10
148.3330901262499
 20
126.24016137636
 30
0.0
 11
107.12370649106
 21
126.24016137636
 31
0.0
  0
LINE
  5
AFD
330
B03
100
AcDbEntity
  8
0
  6
ByBlock
 62
     0
370
    -2
100
AcDbLine
 10
107.12370649106
 20
170.2401613763599
 30
0.0
 11
107.12370649106
 21
126.24016137636
 31
0.0
  0
SOLID
  5
AFE
330
B03
100
AcDbEntity
  8
0
  6
ByBlock
 62
     0
370
    15
100
AcDbTrace
 10
107.12370649106
 20
170.2401613763599
 30
0.0
 11
106.7070398243933
 21
167.7401613763599
 31
0.0
 12
107.5403731577267
 22
167.7401613763599
 32
0.0
 13
107.5403731577267
 23
167.7401613763599
 33
0.0
  0
SOLID
  5
AFF
330
B03
100
AcDbEntity
  8
0
  6
ByBlock
 62
     0
370
    15
100
AcDbTrace
 10
107.12370649106
 20
126.24016137636
 30
0.0
 11
106.7070398243933
 21
128.74016137636
 31
0.0
 12
107.5403731577267
 22
128.74016137636
 32
0.0
 13
107.5403731577267
 23
128.74016137636
 33
0.0
  0
LINE
  5
B00
330
B03
100
AcDbEntity
  8
0
  6
ByBlock
 62
     0
370
    -2
100
AcDbLine
 10
148.3330901262499
 20
170.2401613763599
 30
0.0
 11
148.3330901262499
 21
170.2401613763599
 31
0.0
  0
MTEXT
  5
B01
330
B03
100
AcDbEntity
  8
0
  6
ByBlock
 62
     0
100
AcDbMText
 10
104.99037349106
 20
148.24016137636
 30
0.0
 40
3.2
 41
0.0
 71
     5
 72
     1
  1
\A1;φ44
  7
KCADDIMSTANDARD
 11
6.123031769111886E-17
 21
1.0
 31
0.0
 73
     1
 44
1.0
  0
ENDBLK
  5
D67
330
B03
100
AcDbEntity
  8
0
100
AcDbBlockEnd
  0
BLOCK
  5
D68
330
B0F
100
AcDbEntity
  8
0
100
AcDbBlockBegin
  2
*D50
 70
     1
 71
     0
 10
0.0
 20
0.0
 30
0.0
  3
*D50
  1

  0
POINT
  5
B05
330
B0F
100
AcDbEntity
  8
DEFPOINTS
  6
ByBlock
 62
     0
370
    15
100
AcDbPoint
 10
159.8330901262499
 20
173.24016137636
 30
0.0
  0
POINT
  5
B06
330
B0F
100
AcDbEntity
  8
DEFPOINTS
  6
ByBlock
 62
     0
370
    15
100
AcDbPoint
 10
203.8330901262499
 20
173.24016137636
 30
0.0
  0
LINE
  5
B07
330
B0F
100
AcDbEntity
  8
0
  6
ByBlock
 62
     0
370
    -2
100
AcDbLine
 10
159.8330901262499
 20
173.24016137636
 30
0.0
 11
159.8330901262499
 21
189.4553757634399
 31
0.0
  0
LINE
  5
B08
330
B0F
100
AcDbEntity
  8
0
  6
ByBlock
 62
     0
370
    -2
100
AcDbLine
 10
203.8330901262499
 20
173.24016137636
 30
0.0
 11
203.8330901262499
 21
189.4553757634399
 31
0.0
  0
LINE
  5
B09
330
B0F
100
AcDbEntity
  8
0
  6
ByBlock
 62
     0
370
    -2
100
AcDbLine
 10
159.8330901262499
 20
189.4553757634399
 30
0.0
 11
203.8330901262499
 21
189.4553757634399
 31
0.0
  0
SOLID
  5
B0A
330
B0F
100
AcDbEntity
  8
0
  6
ByBlock
 62
     0
370
    15
100
AcDbTrace
 10
159.8330901262499
 20
189.4553757634399
 30
0.0
 11
162.3330901262499
 21
189.0387090967731
 31
0.0
 12
162.3330901262499
 22
189.8720424301066
 32
0.0
 13
162.3330901262499
 23
189.8720424301066
 33
0.0
  0
SOLID
  5
B0B
330
B0F
100
AcDbEntity
  8
0
  6
ByBlock
 62
     0
370
    15
100
AcDbTrace
 10
203.8330901262499
 20
189.4553757634399
 30
0.0
 11
201.3330901262499
 21
189.0387090967731
 31
0.0
 12
201.3330901262499
 22
189.8720424301066
 32
0.0
 13
201.3330901262499
 23
189.8720424301066
 33
0.0
  0
LINE
  5
B0C
330
B0F
100
AcDbEntity
  8
0
  6
ByBlock
 62
     0
370
    -2
100
AcDbLine
 10
159.8330901262499
 20
173.24016137636
 30
0.0
 11
159.8330901262499
 21
173.24016137636
 31
0.0
  0
MTEXT
  5
B0D
330
B0F
100
AcDbEntity
  8
0
  6
ByBlock
 62
     0
100
AcDbMText
 10
181.8330901262499
 20
191.58870876344
 30
0.0
 40
3.2
 41
0.0
 71
     5
 72
     1
  1
44
  7
KCADDIMSTANDARD
 73
     1
 44
1.0
  0
ENDBLK
  5
D69
330
B0F
100
AcDbEntity
  8
0
100
AcDbBlockEnd
  0
BLOCK
  5
D6A
330
B1B
100
AcDbEntity
  8
0
100
AcDbBlockBegin
  2
*D51
 70
     1
 71
     0
 10
0.0
 20
0.0
 30
0.0
  3
*D51
  1

  0
POINT
  5
B11
330
B1B
100
AcDbEntity
  8
DEFPOINTS
  6
ByBlock
 62
     0
370
    15
100
AcDbPoint
 10
147.83309012625
 20
169.7401613763599
 30
0.0
  0
POINT
  5
B12
330
B1B
100
AcDbEntity
  8
DEFPOINTS
  6
ByBlock
 62
     0
370
    15
100
AcDbPoint
 10
203.8330901262499
 20
173.24016137636
 30
0.0
  0
LINE
  5
B13
330
B1B
100
AcDbEntity
  8
0
  6
ByBlock
 62
     0
370
    -2
100
AcDbLine
 10
147.83309012625
 20
169.7401613763599
 30
0.0
 11
147.83309012625
 21
196.1553757634399
 31
0.0
  0
LINE
  5
B14
330
B1B
100
AcDbEntity
  8
0
  6
ByBlock
 62
     0
370
    -2
100
AcDbLine
 10
203.8330901262499
 20
173.24016137636
 30
0.0
 11
203.8330901262499
 21
196.1553757634399
 31
0.0
  0
LINE
  5
B15
330
B1B
100
AcDbEntity
  8
0
  6
ByBlock
 62
     0
370
    -2
100
AcDbLine
 10
147.83309012625
 20
196.1553757634399
 30
0.0
 11
203.8330901262499
 21
196.1553757634399
 31
0.0
  0
SOLID
  5
B16
330
B1B
100
AcDbEntity
  8
0
  6
ByBlock
 62
     0
370
    15
100
AcDbTrace
 10
147.83309012625
 20
196.1553757634399
 30
0.0
 11
150.33309012625
 21
195.7387090967732
 31
0.0
 12
150.33309012625
 22
196.5720424301066
 32
0.0
 13
150.33309012625
 23
196.5720424301066
 33
0.0
  0
SOLID
  5
B17
330
B1B
100
AcDbEntity
  8
0
  6
ByBlock
 62
     0
370
    15
100
AcDbTrace
 10
203.8330901262499
 20
196.1553757634399
 30
0.0
 11
201.3330901262499
 21
195.7387090967732
 31
0.0
 12
201.3330901262499
 22
196.5720424301066
 32
0.0
 13
201.3330901262499
 23
196.5720424301066
 33
0.0
  0
LINE
  5
B18
330
B1B
100
AcDbEntity
  8
0
  6
ByBlock
 62
     0
370
    -2
100
AcDbLine
 10
147.83309012625
 20
169.7401613763599
 30
0.0
 11
147.83309012625
 21
169.7401613763599
 31
0.0
  0
MTEXT
  5
B19
330
B1B
100
AcDbEntity
  8
0
  6
ByBlock
 62
     0
100
AcDbMText
 10
175.83309012625
 20
198.2887087634399
 30
0.0
 40
3.2
 41
0.0
 71
     5
 72
     1
  1
56
  7
KCADDIMSTANDARD
 73
     1
 44
1.0
  0
ENDBLK
  5
D6B
330
B1B
100
AcDbEntity
  8
0
100
AcDbBlockEnd
  0
BLOCK
  5
D6C
330
B27
100
AcDbEntity
  8
0
100
AcDbBlockBegin
  2
*D52
 70
     1
 71
     0
 10
0.0
 20
0.0
 30
0.0
  3
*D52
  1

  0
POINT
  5
B1D
330
B27
100
AcDbEntity
  8
DEFPOINTS
  6
ByBlock
 62
     0
370
    15
100
AcDbPoint
 10
203.8330901262499
 20
173.24016137636
 30
0.0
  0
POINT
  5
B1E
330
B27
100
AcDbEntity
  8
DEFPOINTS
  6
ByBlock
 62
     0
370
    15
100
AcDbPoint
 10
216.83309012626
 20
165.2401613763599
 30
0.0
  0
LINE
  5
B1F
330
B27
100
AcDbEntity
  8
0
  6
ByBlock
 62
     0
370
    -2
100
AcDbLine
 10
203.8330901262499
 20
173.24016137636
 30
0.0
 11
203.8330901262499
 21
196.1553757634399
 31
0.0
  0
LINE
  5
B20
330
B27
100
AcDbEntity
  8
0
  6
ByBlock
 62
     0
370
    -2
100
AcDbLine
 10
216.83309012626
 20
165.2401613763599
 30
0.0
 11
216.83309012626
 21
196.1553757634399
 31
0.0
  0
LINE
  5
B21
330
B27
100
AcDbEntity
  8
0
  6
ByBlock
 62
     0
370
    -2
100
AcDbLine
 10
203.8330901262499
 20
196.1553757634399
 30
0.0
 11
216.83309012626
 21
196.1553757634399
 31
0.0
  0
SOLID
  5
B22
330
B27
100
AcDbEntity
  8
0
  6
ByBlock
 62
     0
370
    15
100
AcDbTrace
 10
203.8330901262499
 20
196.1553757634399
 30
0.0
 11
206.3330901262499
 21
195.7387090967732
 31
0.0
 12
206.3330901262499
 22
196.5720424301066
 32
0.0
 13
206.3330901262499
 23
196.5720424301066
 33
0.0
  0
SOLID
  5
B23
330
B27
100
AcDbEntity
  8
0
  6
ByBlock
 62
     0
370
    15
100
AcDbTrace
 10
216.83309012626
 20
196.1553757634399
 30
0.0
 11
214.33309012626
 21
195.7387090967732
 31
0.0
 12
214.33309012626
 22
196.5720424301066
 32
0.0
 13
214.33309012626
 23
196.5720424301066
 33
0.0
  0
LINE
  5
B24
330
B27
100
AcDbEntity
  8
0
  6
ByBlock
 62
     0
370
    -2
100
AcDbLine
 10
203.8330901262499
 20
173.24016137636
 30
0.0
 11
203.8330901262499
 21
173.24016137636
 31
0.0
  0
MTEXT
  5
B25
330
B27
100
AcDbEntity
  8
0
  6
ByBlock
 62
     0
100
AcDbMText
 10
210.33309012626
 20
198.2887087634399
 30
0.0
 40
3.2
 41
0.0
 71
     5
 72
     1
  1
13
  7
KCADDIMSTANDARD
 73
     1
 44
1.0
  0
ENDBLK
  5
D6D
330
B27
100
AcDbEntity
  8
0
100
AcDbBlockEnd
  0
BLOCK
  5
D6E
330
B33
100
AcDbEntity
  8
0
100
AcDbBlockBegin
  2
*D53
 70
     1
 71
     0
 10
0.0
 20
0.0
 30
0.0
  3
*D53
  1

  0
POINT
  5
B29
330
B33
100
AcDbEntity
  8
DEFPOINTS
  6
ByBlock
 62
     0
370
    15
100
AcDbPoint
 10
216.83309012626
 20
164.74016137636
 30
0.0
  0
POINT
  5
B2A
330
B33
100
AcDbEntity
  8
DEFPOINTS
  6
ByBlock
 62
     0
370
    15
100
AcDbPoint
 10
228.83309012626
 20
165.2401613763599
 30
0.0
  0
LINE
  5
B2B
330
B33
100
AcDbEntity
  8
0
  6
ByBlock
 62
     0
370
    -2
100
AcDbLine
 10
216.83309012626
 20
164.74016137636
 30
0.0
 11
216.83309012626
 21
196.1553757634399
 31
0.0
  0
LINE
  5
B2C
330
B33
100
AcDbEntity
  8
0
  6
ByBlock
 62
     0
370
    -2
100
AcDbLine
 10
228.83309012626
 20
165.2401613763599
 30
0.0
 11
228.83309012626
 21
196.1553757634399
 31
0.0
  0
LINE
  5
B2D
330
B33
100
AcDbEntity
  8
0
  6
ByBlock
 62
     0
370
    -2
100
AcDbLine
 10
216.83309012626
 20
196.1553757634399
 30
0.0
 11
228.83309012626
 21
196.1553757634399
 31
0.0
  0
SOLID
  5
B2E
330
B33
100
AcDbEntity
  8
0
  6
ByBlock
 62
     0
370
    15
100
AcDbTrace
 10
216.83309012626
 20
196.1553757634399
 30
0.0
 11
219.33309012626
 21
195.7387090967732
 31
0.0
 12
219.33309012626
 22
196.5720424301066
 32
0.0
 13
219.33309012626
 23
196.5720424301066
 33
0.0
  0
SOLID
  5
B2F
330
B33
100
AcDbEntity
  8
0
  6
ByBlock
 62
     0
370
    15
100
AcDbTrace
 10
228.83309012626
 20
196.1553757634399
 30
0.0
 11
226.33309012626
 21
195.7387090967732
 31
0.0
 12
226.33309012626
 22
196.5720424301066
 32
0.0
 13
226.33309012626
 23
196.5720424301066
 33
0.0
  0
LINE
  5
B30
330
B33
100
AcDbEntity
  8
0
  6
ByBlock
 62
     0
370
    -2
100
AcDbLine
 10
216.83309012626
 20
164.74016137636
 30
0.0
 11
216.83309012626
 21
164.74016137636
 31
0.0
  0
MTEXT
  5
B31
330
B33
100
AcDbEntity
  8
0
  6
ByBlock
 62
     0
100
AcDbMText
 10
222.83309012626
 20
198.2887087634399
 30
0.0
 40
3.2
 41
0.0
 71
     5
 72
     1
  1
12
  7
KCADDIMSTANDARD
 73
     1
 44
1.0
  0
ENDBLK
  5
D6F
330
B33
100
AcDbEntity
  8
0
100
AcDbBlockEnd
  0
BLOCK
  5
D70
330
B3F
100
AcDbEntity
  8
0
100
AcDbBlockBegin
  2
*D54
 70
     1
 71
     0
 10
0.0
 20
0.0
 30
0.0
  3
*D54
  1

  0
POINT
  5
B35
330
B3F
100
AcDbEntity
  8
DEFPOINTS
  6
ByBlock
 62
     0
370
    15
100
AcDbPoint
 10
228.83309012626
 20
164.74016137636
 30
0.0
  0
POINT
  5
B36
330
B3F
100
AcDbEntity
  8
DEFPOINTS
  6
ByBlock
 62
     0
370
    15
100
AcDbPoint
 10
330.7730901262599
 20
164.2401613763599
 30
0.0
  0
LINE
  5
B37
330
B3F
100
AcDbEntity
  8
0
  6
ByBlock
 62
     0
370
    -2
100
AcDbLine
 10
228.83309012626
 20
164.74016137636
 30
0.0
 11
228.83309012626
 21
196.1553757634399
 31
0.0
  0
LINE
  5
B38
330
B3F
100
AcDbEntity
  8
0
  6
ByBlock
 62
     0
370
    -2
100
AcDbLine
 10
330.7730901262599
 20
164.2401613763599
 30
0.0
 11
330.7730901262599
 21
196.1553757634399
 31
0.0
  0
LINE
  5
B39
330
B3F
100
AcDbEntity
  8
0
  6
ByBlock
 62
     0
370
    -2
100
AcDbLine
 10
228.83309012626
 20
196.1553757634399
 30
0.0
 11
330.7730901262599
 21
196.1553757634399
 31
0.0
  0
SOLID
  5
B3A
330
B3F
100
AcDbEntity
  8
0
  6
ByBlock
 62
     0
370
    15
100
AcDbTrace
 10
228.83309012626
 20
196.1553757634399
 30
0.0
 11
231.33309012626
 21
195.7387090967732
 31
0.0
 12
231.33309012626
 22
196.5720424301066
 32
0.0
 13
231.33309012626
 23
196.5720424301066
 33
0.0
  0
SOLID
  5
B3B
330
B3F
100
AcDbEntity
  8
0
  6
ByBlock
 62
     0
370
    15
100
AcDbTrace
 10
330.7730901262599
 20
196.1553757634399
 30
0.0
 11
328.2730901262599
 21
195.7387090967732
 31
0.0
 12
328.2730901262599
 22
196.5720424301066
 32
0.0
 13
328.2730901262599
 23
196.5720424301066
 33
0.0
  0
LINE
  5
B3C
330
B3F
100
AcDbEntity
  8
0
  6
ByBlock
 62
     0
370
    -2
100
AcDbLine
 10
228.83309012626
 20
164.74016137636
 30
0.0
 11
228.83309012626
 21
164.74016137636
 31
0.0
  0
MTEXT
  5
B3D
330
B3F
100
AcDbEntity
  8
0
  6
ByBlock
 62
     0
100
AcDbMText
 10
279.8030901262599
 20
198.2887087634399
 30
0.0
 40
3.2
 41
0.0
 71
     5
 72
     1
  1
101.94
  7
KCADDIMSTANDARD
 73
     1
 44
1.0
  0
ENDBLK
  5
D71
330
B3F
100
AcDbEntity
  8
0
100
AcDbBlockEnd
  0
BLOCK
  5
D72
330
B4C
100
AcDbEntity
  8
0
100
AcDbBlockBegin
  2
*D55
 70
     1
 71
     0
 10
0.0
 20
0.0
 30
0.0
  3
*D55
  1

  0
POINT
  5
B41
330
B4C
100
AcDbEntity
  8
DEFPOINTS
  6
ByBlock
 62
     0
370
    15
100
AcDbPoint
 10
330.7730901262599
 20
160.54016137636
 30
0.0
  0
POINT
  5
B42
330
B4C
100
AcDbEntity
  8
DEFPOINTS
  6
ByBlock
 62
     0
370
    15
100
AcDbPoint
 10
334.7730901262599
 20
160.54016137636
 30
0.0
  0
LINE
  5
B43
330
B4C
100
AcDbEntity
  8
0
  6
ByBlock
 62
     0
370
    -2
100
AcDbLine
 10
330.7730901262599
 20
160.54016137636
 30
0.0
 11
330.7730901262599
 21
196.1553757634399
 31
0.0
  0
LINE
  5
B44
330
B4C
100
AcDbEntity
  8
0
  6
ByBlock
 62
     0
370
    -2
100
AcDbLine
 10
334.7730901262599
 20
160.54016137636
 30
0.0
 11
334.7730901262599
 21
196.1553757634399
 31
0.0
  0
LINE
  5
B45
330
B4C
100
AcDbEntity
  8
0
  6
ByBlock
 62
     0
370
    -2
100
AcDbLine
 10
328.2730901262599
 20
196.1553757634399
 30
0.0
 11
325.7730901262599
 21
196.1553757634399
 31
0.0
  0
SOLID
  5
B46
330
B4C
100
AcDbEntity
  8
0
  6
ByBlock
 62
     0
370
    15
100
AcDbTrace
 10
330.7730901262599
 20
196.1553757634399
 30
0.0
 11
328.2730901262599
 21
195.7387090967732
 31
0.0
 12
328.2730901262599
 22
196.5720424301066
 32
0.0
 13
328.2730901262599
 23
196.5720424301066
 33
0.0
  0
LINE
  5
B47
330
B4C
100
AcDbEntity
  8
0
  6
ByBlock
 62
     0
370
    -2
100
AcDbLine
 10
337.2730901262599
 20
196.1553757634399
 30
0.0
 11
339.7730901262599
 21
196.1553757634399
 31
0.0
  0
SOLID
  5
B48
330
B4C
100
AcDbEntity
  8
0
  6
ByBlock
 62
     0
370
    15
100
AcDbTrace
 10
334.7730901262599
 20
196.1553757634399
 30
0.0
 11
337.2730901262599
 21
195.7387090967732
 31
0.0
 12
337.2730901262599
 22
196.5720424301066
 32
0.0
 13
337.2730901262599
 23
196.5720424301066
 33
0.0
  0
LINE
  5
B49
330
B4C
100
AcDbEntity
  8
0
  6
ByBlock
 62
     0
370
    -2
100
AcDbLine
 10
330.7730901262599
 20
196.1553757634399
 30
0.0
 11
334.7730901262599
 21
196.1553757634399
 31
0.0
  0
MTEXT
  5
B4A
330
B4C
100
AcDbEntity
  8
0
  6
ByBlock
 62
     0
100
AcDbMText
 10
339.99059266228
 20
198.2887087634399
 30
0.0
 40
3.2
 41
0.0
 71
     5
 72
     1
  1
4
  7
KCADDIMSTANDARD
 73
     1
 44
1.0
  0
ENDBLK
  5
D73
330
B4C
100
AcDbEntity
  8
0
100
AcDbBlockEnd
  0
BLOCK
  5
D74
330
B58
100
AcDbEntity
  8
0
100
AcDbBlockBegin
  2
*D56
 70
     1
 71
     0
 10
0.0
 20
0.0
 30
0.0
  3
*D56
  1

  0
POINT
  5
B4E
330
B58
100
AcDbEntity
  8
DEFPOINTS
  6
ByBlock
 62
     0
370
    15
100
AcDbPoint
 10
124.33309012625
 20
167.2401613763599
 30
0.0
  0
POINT
  5
B4F
330
B58
100
AcDbEntity
  8
DEFPOINTS
  6
ByBlock
 62
     0
370
    15
100
AcDbPoint
 10
63.633090126258
 20
152.0111726119799
 30
0.0
  0
LINE
  5
B50
330
B58
100
AcDbEntity
  8
0
  6
ByBlock
 62
     0
370
    -2
100
AcDbLine
 10
124.33309012625
 20
167.2401613763599
 30
0.0
 11
124.33309012625
 21
208.1369680851099
 31
0.0
  0
LINE
  5
B51
330
B58
100
AcDbEntity
  8
0
  6
ByBlock
 62
     0
370
    -2
100
AcDbLine
 10
63.633090126258
 20
152.0111726119799
 30
0.0
 11
63.633090126258
 21
208.1369680851099
 31
0.0
  0
LINE
  5
B52
330
B58
100
AcDbEntity
  8
0
  6
ByBlock
 62
     0
370
    -2
100
AcDbLine
 10
124.33309012625
 20
208.1369680851099
 30
0.0
 11
63.633090126258
 21
208.1369680851099
 31
0.0
  0
SOLID
  5
B53
330
B58
100
AcDbEntity
  8
0
  6
ByBlock
 62
     0
370
    15
100
AcDbTrace
 10
124.33309012625
 20
208.1369680851099
 30
0.0
 11
121.83309012625
 21
208.5536347517767
 31
0.0
 12
121.83309012625
 22
207.7203014184432
 32
0.0
 13
121.83309012625
 23
207.7203014184432
 33
0.0
  0
SOLID
  5
B54
330
B58
100
AcDbEntity
  8
0
  6
ByBlock
 62
     0
370
    15
100
AcDbTrace
 10
63.633090126258
 20
208.1369680851099
 30
0.0
 11
66.133090126258
 21
208.5536347517767
 31
0.0
 12
66.133090126258
 22
207.7203014184432
 32
0.0
 13
66.133090126258
 23
207.7203014184432
 33
0.0
  0
LINE
  5
B55
330
B58
100
AcDbEntity
  8
0
  6
ByBlock
 62
     0
370
    -2
100
AcDbLine
 10
124.33309012625
 20
167.2401613763599
 30
0.0
 11
124.33309012625
 21
167.2401613763599
 31
0.0
  0
MTEXT
  5
B56
330
B58
100
AcDbEntity
  8
0
  6
ByBlock
 62
     0
100
AcDbMText
 10
93.98309012625602
 20
210.27030108511
 30
0.0
 40
3.2
 41
0.0
 71
     5
 72
     1
  1
\A1;WD=60.7
  7
KCADDIMSTANDARD
 73
     1
 44
1.0
  0
ENDBLK
  5
D75
330
B58
100
AcDbEntity
  8
0
100
AcDbBlockEnd
  0
BLOCK
  5
D76
330
B64
100
AcDbEntity
  8
0
100
AcDbBlockBegin
  2
*D57
 70
     1
 71
     0
 10
0.0
 20
0.0
 30
0.0
  3
*D57
  1

  0
POINT
  5
B5A
330
B64
100
AcDbEntity
  8
DEFPOINTS
  6
ByBlock
 62
     0
370
    15
100
AcDbPoint
 10
330.7730901262599
 20
164.74016137636
 30
0.0
  0
POINT
  5
B5B
330
B64
100
AcDbEntity
  8
DEFPOINTS
  6
ByBlock
 62
     0
370
    15
100
AcDbPoint
 10
124.33309012625
 20
167.2401613763599
 30
0.0
  0
LINE
  5
B5C
330
B64
100
AcDbEntity
  8
0
  6
ByBlock
 62
     0
370
    -2
100
AcDbLine
 10
330.7730901262599
 20
164.74016137636
 30
0.0
 11
330.7730901262599
 21
208.1369680851099
 31
0.0
  0
LINE
  5
B5D
330
B64
100
AcDbEntity
  8
0
  6
ByBlock
 62
     0
370
    -2
100
AcDbLine
 10
124.33309012625
 20
167.2401613763599
 30
0.0
 11
124.33309012625
 21
208.1369680851099
 31
0.0
  0
LINE
  5
B5E
330
B64
100
AcDbEntity
  8
0
  6
ByBlock
 62
     0
370
    -2
100
AcDbLine
 10
330.7730901262599
 20
208.1369680851099
 30
0.0
 11
124.33309012625
 21
208.1369680851099
 31
0.0
  0
SOLID
  5
B5F
330
B64
100
AcDbEntity
  8
0
  6
ByBlock
 62
     0
370
    15
100
AcDbTrace
 10
330.7730901262599
 20
208.1369680851099
 30
0.0
 11
328.2730901262599
 21
208.5536347517767
 31
0.0
 12
328.2730901262599
 22
207.7203014184432
 32
0.0
 13
328.2730901262599
 23
207.7203014184432
 33
0.0
  0
SOLID
  5
B60
330
B64
100
AcDbEntity
  8
0
  6
ByBlock
 62
     0
370
    15
100
AcDbTrace
 10
124.33309012625
 20
208.1369680851099
 30
0.0
 11
126.83309012625
 21
208.5536347517767
 31
0.0
 12
126.83309012625
 22
207.7203014184432
 32
0.0
 13
126.83309012625
 23
207.7203014184432
 33
0.0
  0
LINE
  5
B61
330
B64
100
AcDbEntity
  8
0
  6
ByBlock
 62
     0
370
    -2
100
AcDbLine
 10
330.7730901262599
 20
164.74016137636
 30
0.0
 11
330.7730901262599
 21
164.74016137636
 31
0.0
  0
MTEXT
  5
B62
330
B64
100
AcDbEntity
  8
0
  6
ByBlock
 62
     0
100
AcDbMText
 10
227.5530901262599
 20
210.27030108511
 30
0.0
 40
3.2
 41
0.0
 71
     5
 72
     1
  1
206.44
  7
KCADDIMSTANDARD
 73
     1
 44
1.0
  0
ENDBLK
  5
D77
330
B64
100
AcDbEntity
  8
0
100
AcDbBlockEnd
  0
BLOCK
  5
D78
330
B70
100
AcDbEntity
  8
0
100
AcDbBlockBegin
  2
*D58
 70
     1
 71
     0
 10
0.0
 20
0.0
 30
0.0
  3
*D58
  1

  0
POINT
  5
B66
330
B70
100
AcDbEntity
  8
DEFPOINTS
  6
ByBlock
 62
     0
370
    15
100
AcDbPoint
 10
330.7730901262599
 20
164.74016137636
 30
0.0
  0
POINT
  5
B67
330
B70
100
AcDbEntity
  8
DEFPOINTS
  6
ByBlock
 62
     0
370
    15
100
AcDbPoint
 10
348.29909012626
 20
152.0111726119799
 30
0.0
  0
LINE
  5
B68
330
B70
100
AcDbEntity
  8
0
  6
ByBlock
 62
     0
370
    -2
100
AcDbLine
 10
330.7730901262599
 20
164.74016137636
 30
0.0
 11
330.7730901262599
 21
208.1369680851099
 31
0.0
  0
LINE
  5
B69
330
B70
100
AcDbEntity
  8
0
  6
ByBlock
 62
     0
370
    -2
100
AcDbLine
 10
348.29909012626
 20
152.0111726119799
 30
0.0
 11
348.29909012626
 21
208.1369680851099
 31
0.0
  0
LINE
  5
B6A
330
B70
100
AcDbEntity
  8
0
  6
ByBlock
 62
     0
370
    -2
100
AcDbLine
 10
330.7730901262599
 20
208.1369680851099
 30
0.0
 11
348.29909012626
 21
208.1369680851099
 31
0.0
  0
SOLID
  5
B6B
330
B70
100
AcDbEntity
  8
0
  6
ByBlock
 62
     0
370
    15
100
AcDbTrace
 10
330.7730901262599
 20
208.1369680851099
 30
0.0
 11
333.2730901262599
 21
207.7203014184432
 31
0.0
 12
333.2730901262599
 22
208.5536347517767
 32
0.0
 13
333.2730901262599
 23
208.5536347517767
 33
0.0
  0
SOLID
  5
B6C
330
B70
100
AcDbEntity
  8
0
  6
ByBlock
 62
     0
370
    15
100
AcDbTrace
 10
348.29909012626
 20
208.1369680851099
 30
0.0
 11
345.79909012626
 21
207.7203014184432
 31
0.0
 12
345.79909012626
 22
208.5536347517767
 32
0.0
 13
345.79909012626
 23
208.5536347517767
 33
0.0
  0
LINE
  5
B6D
330
B70
100
AcDbEntity
  8
0
  6
ByBlock
 62
     0
370
    -2
100
AcDbLine
 10
330.7730901262599
 20
164.74016137636
 30
0.0
 11
330.7730901262599
 21
164.74016137636
 31
0.0
  0
MTEXT
  5
B6E
330
B70
100
AcDbEntity
  8
0
  6
ByBlock
 62
     0
100
AcDbMText
 10
339.5360901262599
 20
210.27030108511
 30
0.0
 40
3.2
 41
0.0
 71
     5
 72
     1
  1
17.53
  7
KCADDIMSTANDARD
 73
     1
 44
1.0
  0
ENDBLK
  5
D79
330
B70
100
AcDbEntity
  8
0
100
AcDbBlockEnd
  0
BLOCK
  5
D7A
330
B7C
100
AcDbEntity
  8
0
100
AcDbBlockBegin
  2
*D59
 70
     1
 71
     0
 10
0.0
 20
0.0
 30
0.0
  3
*D59
  1

  0
POINT
  5
B72
330
B7C
100
AcDbEntity
  8
DEFPOINTS
  6
ByBlock
 62
     0
370
    15
100
AcDbPoint
 10
63.633090126258
 20
152.0111726119799
 30
0.0
  0
POINT
  5
B73
330
B7C
100
AcDbEntity
  8
DEFPOINTS
  6
ByBlock
 62
     0
370
    15
100
AcDbPoint
 10
348.29909012626
 20
152.0111726119799
 30
0.0
  0
LINE
  5
B74
330
B7C
100
AcDbEntity
  8
0
  6
ByBlock
 62
     0
370
    -2
100
AcDbLine
 10
63.633090126258
 20
152.0111726119799
 30
0.0
 11
63.633090126258
 21
222.35505319149
 31
0.0
  0
LINE
  5
B75
330
B7C
100
AcDbEntity
  8
0
  6
ByBlock
 62
     0
370
    -2
100
AcDbLine
 10
348.29909012626
 20
152.0111726119799
 30
0.0
 11
348.29909012626
 21
222.35505319149
 31
0.0
  0
LINE
  5
B76
330
B7C
100
AcDbEntity
  8
0
  6
ByBlock
 62
     0
370
    -2
100
AcDbLine
 10
63.633090126258
 20
222.35505319149
 30
0.0
 11
348.29909012626
 21
222.35505319149
 31
0.0
  0
SOLID
  5
B77
330
B7C
100
AcDbEntity
  8
0
  6
ByBlock
 62
     0
370
    15
100
AcDbTrace
 10
63.633090126258
 20
222.35505319149
 30
0.0
 11
66.133090126258
 21
221.9383865248232
 31
0.0
 12
66.133090126258
 22
222.7717198581568
 32
0.0
 13
66.133090126258
 23
222.7717198581568
 33
0.0
  0
SOLID
  5
B78
330
B7C
100
AcDbEntity
  8
0
  6
ByBlock
 62
     0
370
    15
100
AcDbTrace
 10
348.29909012626
 20
222.35505319149
 30
0.0
 11
345.79909012626
 21
221.9383865248232
 31
0.0
 12
345.79909012626
 22
222.7717198581568
 32
0.0
 13
345.79909012626
 23
222.7717198581568
 33
0.0
  0
LINE
  5
B79
330
B7C
100
AcDbEntity
  8
0
  6
ByBlock
 62
     0
370
    -2
100
AcDbLine
 10
63.633090126258
 20
152.0111726119799
 30
0.0
 11
63.633090126258
 21
152.0111726119799
 31
0.0
  0
MTEXT
  5
B7A
330
B7C
100
AcDbEntity
  8
0
  6
ByBlock
 62
     0
100
AcDbMText
 10
205.96609012626
 20
224.4883861914899
 30
0.0
 40
3.2
 41
0.0
 71
     5
 72
     1
  1
284.67
  7
KCADDIMSTANDARD
 73
     1
 44
1.0
  0
ENDBLK
  5
D7B
330
B7C
100
AcDbEntity
  8
0
100
AcDbBlockEnd
  0
BLOCK
  5
D7C
330
B88
100
AcDbEntity
  8
0
100
AcDbBlockBegin
  2
*D60
 70
     1
 71
     0
 10
0.0
 20
0.0
 30
0.0
  3
*D60
  1

  0
POINT
  5
B7E
330
B88
100
AcDbEntity
  8
DEFPOINTS
  6
ByBlock
 62
     0
370
    15
100
AcDbPoint
 10
334.37309012626
 20
160.94016137636
 30
0.0
  0
POINT
  5
B7F
330
B88
100
AcDbEntity
  8
DEFPOINTS
  6
ByBlock
 62
     0
370
    15
100
AcDbPoint
 10
334.37309012626
 20
135.54016137636
 30
0.0
  0
LINE
  5
B80
330
B88
100
AcDbEntity
  8
0
  6
ByBlock
 62
     0
370
    -2
100
AcDbLine
 10
334.37309012626
 20
160.94016137636
 30
0.0
 11
356.08119849021
 21
160.94016137636
 31
0.0
  0
LINE
  5
B81
330
B88
100
AcDbEntity
  8
0
  6
ByBlock
 62
     0
370
    -2
100
AcDbLine
 10
334.37309012626
 20
135.54016137636
 30
0.0
 11
356.08119849021
 21
135.54016137636
 31
0.0
  0
LINE
  5
B82
330
B88
100
AcDbEntity
  8
0
  6
ByBlock
 62
     0
370
    -2
100
AcDbLine
 10
356.08119849021
 20
160.94016137636
 30
0.0
 11
356.08119849021
 21
135.54016137636
 31
0.0
  0
SOLID
  5
B83
330
B88
100
AcDbEntity
  8
0
  6
ByBlock
 62
     0
370
    15
100
AcDbTrace
 10
356.08119849021
 20
160.94016137636
 30
0.0
 11
355.6645318235433
 21
158.44016137636
 31
0.0
 12
356.4978651568767
 22
158.44016137636
 32
0.0
 13
356.4978651568767
 23
158.44016137636
 33
0.0
  0
SOLID
  5
B84
330
B88
100
AcDbEntity
  8
0
  6
ByBlock
 62
     0
370
    15
100
AcDbTrace
 10
356.08119849021
 20
135.54016137636
 30
0.0
 11
355.6645318235433
 21
138.04016137636
 31
0.0
 12
356.4978651568767
 22
138.04016137636
 32
0.0
 13
356.4978651568767
 23
138.04016137636
 33
0.0
  0
LINE
  5
B85
330
B88
100
AcDbEntity
  8
0
  6
ByBlock
 62
     0
370
    -2
100
AcDbLine
 10
334.37309012626
 20
160.94016137636
 30
0.0
 11
334.37309012626
 21
160.94016137636
 31
0.0
  0
MTEXT
  5
B86
330
B88
100
AcDbEntity
  8
0
  6
ByBlock
 62
     0
100
AcDbMText
 10
353.94786549021
 20
148.24016137636
 30
0.0
 40
3.2
 41
0.0
 71
     5
 72
     1
  1
\A1;Ｃマウント
  7
KCADDIMSTANDARD
 11
6.123031769111886E-17
 21
1.0
 31
0.0
 73
     1
 44
1.0
  0
ENDBLK
  5
D7D
330
B88
100
AcDbEntity
  8
0
100
AcDbBlockEnd
  0
BLOCK
  5
D7E
330
B94
100
AcDbEntity
  8
0
100
AcDbBlockBegin
  2
*D61
 70
     1
 71
     0
 10
0.0
 20
0.0
 30
0.0
  3
*D61
  1

  0
POINT
  5
B8A
330
B94
100
AcDbEntity
  8
DEFPOINTS
  6
ByBlock
 62
     0
370
    15
100
AcDbPoint
 10
330.27309012626
 20
164.74016137636
 30
0.0
  0
POINT
  5
B8B
330
B94
100
AcDbEntity
  8
DEFPOINTS
  6
ByBlock
 62
     0
370
    15
100
AcDbPoint
 10
330.27309012626
 20
131.7401613763599
 30
0.0
  0
LINE
  5
B8C
330
B94
100
AcDbEntity
  8
0
  6
ByBlock
 62
     0
370
    -2
100
AcDbLine
 10
330.27309012626
 20
164.74016137636
 30
0.0
 11
362.52142293911
 21
164.74016137636
 31
0.0
  0
LINE
  5
B8D
330
B94
100
AcDbEntity
  8
0
  6
ByBlock
 62
     0
370
    -2
100
AcDbLine
 10
330.27309012626
 20
131.7401613763599
 30
0.0
 11
362.52142293911
 21
131.7401613763599
 31
0.0
  0
LINE
  5
B8E
330
B94
100
AcDbEntity
  8
0
  6
ByBlock
 62
     0
370
    -2
100
AcDbLine
 10
362.52142293911
 20
164.74016137636
 30
0.0
 11
362.52142293911
 21
131.7401613763599
 31
0.0
  0
SOLID
  5
B8F
330
B94
100
AcDbEntity
  8
0
  6
ByBlock
 62
     0
370
    15
100
AcDbTrace
 10
362.52142293911
 20
164.74016137636
 30
0.0
 11
362.1047562724432
 21
162.24016137636
 31
0.0
 12
362.9380896057767
 22
162.24016137636
 32
0.0
 13
362.9380896057767
 23
162.24016137636
 33
0.0
  0
SOLID
  5
B90
330
B94
100
AcDbEntity
  8
0
  6
ByBlock
 62
     0
370
    15
100
AcDbTrace
 10
362.52142293911
 20
131.7401613763599
 30
0.0
 11
362.1047562724432
 21
134.2401613763599
 31
0.0
 12
362.9380896057767
 22
134.2401613763599
 32
0.0
 13
362.9380896057767
 23
134.2401613763599
 33
0.0
  0
LINE
  5
B91
330
B94
100
AcDbEntity
  8
0
  6
ByBlock
 62
     0
370
    -2
100
AcDbLine
 10
330.27309012626
 20
164.74016137636
 30
0.0
 11
330.27309012626
 21
164.74016137636
 31
0.0
  0
MTEXT
  5
B92
330
B94
100
AcDbEntity
  8
0
  6
ByBlock
 62
     0
100
AcDbMText
 10
360.38808993911
 20
148.24016137636
 30
0.0
 40
3.2
 41
0.0
 71
     5
 72
     1
  1
\A1;φ33
  7
KCADDIMSTANDARD
 11
6.123031769111886E-17
 21
1.0
 31
0.0
 73
     1
 44
1.0
  0
ENDBLK
  5
D7F
330
B94
100
AcDbEntity
  8
0
100
AcDbBlockEnd
  0
BLOCK
  5
D80
330
BA0
100
AcDbEntity
  8
0
100
AcDbBlockBegin
  2
*D62
 70
     1
 71
     0
 10
0.0
 20
0.0
 30
0.0
  3
*D62
  1

  0
POINT
  5
B96
330
BA0
100
AcDbEntity
  8
DEFPOINTS
  6
ByBlock
 62
     0
370
    15
100
AcDbPoint
 10
203.8330901262499
 20
173.24016137636
 30
0.0
  0
POINT
  5
B97
330
BA0
100
AcDbEntity
  8
DEFPOINTS
  6
ByBlock
 62
     0
370
    15
100
AcDbPoint
 10
203.8330901262499
 20
123.24016137636
 30
0.0
  0
LINE
  5
B98
330
BA0
100
AcDbEntity
  8
0
  6
ByBlock
 62
     0
370
    -2
100
AcDbLine
 10
203.8330901262499
 20
173.24016137636
 30
0.0
 11
368.7780012373699
 21
173.24016137636
 31
0.0
  0
LINE
  5
B99
330
BA0
100
AcDbEntity
  8
0
  6
ByBlock
 62
     0
370
    -2
100
AcDbLine
 10
203.8330901262499
 20
123.24016137636
 30
0.0
 11
368.7780012373699
 21
123.24016137636
 31
0.0
  0
LINE
  5
B9A
330
BA0
100
AcDbEntity
  8
0
  6
ByBlock
 62
     0
370
    -2
100
AcDbLine
 10
368.7780012373699
 20
173.24016137636
 30
0.0
 11
368.7780012373699
 21
123.24016137636
 31
0.0
  0
SOLID
  5
B9B
330
BA0
100
AcDbEntity
  8
0
  6
ByBlock
 62
     0
370
    15
100
AcDbTrace
 10
368.7780012373699
 20
173.24016137636
 30
0.0
 11
368.3613345707031
 21
170.74016137636
 31
0.0
 12
369.1946679040366
 22
170.74016137636
 32
0.0
 13
369.1946679040366
 23
170.74016137636
 33
0.0
  0
SOLID
  5
B9C
330
BA0
100
AcDbEntity
  8
0
  6
ByBlock
 62
     0
370
    15
100
AcDbTrace
 10
368.7780012373699
 20
123.24016137636
 30
0.0
 11
368.3613345707031
 21
125.74016137636
 31
0.0
 12
369.1946679040366
 22
125.74016137636
 32
0.0
 13
369.1946679040366
 23
125.74016137636
 33
0.0
  0
LINE
  5
B9D
330
BA0
100
AcDbEntity
  8
0
  6
ByBlock
 62
     0
370
    -2
100
AcDbLine
 10
203.8330901262499
 20
173.24016137636
 30
0.0
 11
203.8330901262499
 21
173.24016137636
 31
0.0
  0
MTEXT
  5
B9E
330
BA0
100
AcDbEntity
  8
0
  6
ByBlock
 62
     0
100
AcDbMText
 10
366.64466823737
 20
148.24016137636
 30
0.0
 40
3.2
 41
0.0
 71
     5
 72
     1
  1
\A1;□50
  7
KCADDIMSTANDARD
 11
6.123031769111886E-17
 21
1.0
 31
0.0
 73
     1
 44
1.0
  0
ENDBLK
  5
D81
330
BA0
100
AcDbEntity
  8
0
100
AcDbBlockEnd
  0
BLOCK
  5
D82
330
BAB
100
AcDbEntity
  8
0
100
AcDbBlockBegin
  2
*D63
 70
     1
 71
     0
 10
0.0
 20
0.0
 30
0.0
  3
*D63
  1

  0
POINT
  5
BA2
330
BAB
100
AcDbEntity
  8
DEFPOINTS
  6
ByBlock
 62
     0
370
    15
100
AcDbPoint
 10
136.50887144902
 20
148.24016137636
 30
0.0
  0
POINT
  5
BA3
330
BAB
100
AcDbEntity
  8
DEFPOINTS
  6
ByBlock
 62
     0
370
    15
100
AcDbPoint
 10
174.83309012625
 20
98.24016137636
 30
0.0
  0
LINE
  5
BA4
330
BAB
100
AcDbEntity
  8
0
  6
ByBlock
 62
     0
370
    -2
100
AcDbLine
 10
174.83309012625
 20
98.24016137636
 30
0.0
 11
136.50887144902
 21
98.24016137636
 31
0.0
  0
LINE
  5
BA5
330
BAB
100
AcDbEntity
  8
0
  6
ByBlock
 62
     0
370
    -2
100
AcDbLine
 10
136.50887144902
 20
148.24016137636
 30
0.0
 11
136.50887144902
 21
98.24016137636
 31
0.0
  0
SOLID
  5
BA6
330
BAB
100
AcDbEntity
  8
0
  6
ByBlock
 62
     0
370
    15
100
AcDbTrace
 10
136.50887144902
 20
148.24016137636
 30
0.0
 11
136.0922047823533
 21
145.74016137636
 31
0.0
 12
136.9255381156867
 22
145.74016137636
 32
0.0
 13
136.9255381156867
 23
145.74016137636
 33
0.0
  0
SOLID
  5
BA7
330
BAB
100
AcDbEntity
  8
0
  6
ByBlock
 62
     0
370
    15
100
AcDbTrace
 10
136.50887144902
 20
98.24016137636
 30
0.0
 11
136.0922047823533
 21
100.74016137636
 31
0.0
 12
136.9255381156867
 22
100.74016137636
 32
0.0
 13
136.9255381156867
 23
100.74016137636
 33
0.0
  0
LINE
  5
BA8
330
BAB
100
AcDbEntity
  8
0
  6
ByBlock
 62
     0
370
    -2
100
AcDbLine
 10
136.50887144902
 20
148.24016137636
 30
0.0
 11
136.50887144902
 21
148.24016137636
 31
0.0
  0
MTEXT
  5
BA9
330
BAB
100
AcDbEntity
  8
0
  6
ByBlock
 62
     0
100
AcDbMText
 10
134.37553844902
 20
113.05571775694
 30
0.0
 40
3.2
 41
0.0
 71
     5
 72
     1
  1
50
  7
KCADDIMSTANDARD
 11
6.123031769111886E-17
 21
1.0
 31
0.0
 73
     1
 44
1.0
  0
ENDBLK
  5
D83
330
BAB
100
AcDbEntity
  8
0
100
AcDbBlockEnd
  0
BLOCK
  5
D84
330
BB7
100
AcDbEntity
  8
0
100
AcDbBlockBegin
  2
*D64
 70
     1
 71
     0
 10
0.0
 20
0.0
 30
0.0
  3
*D64
  1

  0
POINT
  5
BAD
330
BB7
100
AcDbEntity
  8
DEFPOINTS
  6
ByBlock
 62
     0
370
    15
100
AcDbPoint
 10
124.33309012625
 20
129.7401613763599
 30
0.0
  0
POINT
  5
BAE
330
BB7
100
AcDbEntity
  8
DEFPOINTS
  6
ByBlock
 62
     0
370
    15
100
AcDbPoint
 10
181.8330901262499
 20
92.617732487471
 30
0.0
  0
LINE
  5
BAF
330
BB7
100
AcDbEntity
  8
0
  6
ByBlock
 62
     0
370
    -2
100
AcDbLine
 10
124.33309012625
 20
129.7401613763599
 30
0.0
 11
124.33309012625
 21
73.975194910094
 31
0.0
  0
LINE
  5
BB0
330
BB7
100
AcDbEntity
  8
0
  6
ByBlock
 62
     0
370
    -2
100
AcDbLine
 10
181.8330901262499
 20
92.617732487471
 30
0.0
 11
181.8330901262499
 21
73.975194910094
 31
0.0
  0
LINE
  5
BB1
330
BB7
100
AcDbEntity
  8
0
  6
ByBlock
 62
     0
370
    -2
100
AcDbLine
 10
124.33309012625
 20
73.975194910094
 30
0.0
 11
181.8330901262499
 21
73.975194910094
 31
0.0
  0
SOLID
  5
BB2
330
BB7
100
AcDbEntity
  8
0
  6
ByBlock
 62
     0
370
    15
100
AcDbTrace
 10
124.33309012625
 20
73.975194910094
 30
0.0
 11
126.83309012625
 21
73.55852824342725
 31
0.0
 12
126.83309012625
 22
74.39186157676076
 32
0.0
 13
126.83309012625
 23
74.39186157676076
 33
0.0
  0
SOLID
  5
BB3
330
BB7
100
AcDbEntity
  8
0
  6
ByBlock
 62
     0
370
    15
100
AcDbTrace
 10
181.8330901262499
 20
73.975194910094
 30
0.0
 11
179.3330901262499
 21
73.55852824342725
 31
0.0
 12
179.3330901262499
 22
74.39186157676076
 32
0.0
 13
179.3330901262499
 23
74.39186157676076
 33
0.0
  0
LINE
  5
BB4
330
BB7
100
AcDbEntity
  8
0
  6
ByBlock
 62
     0
370
    -2
100
AcDbLine
 10
124.33309012625
 20
129.7401613763599
 30
0.0
 11
124.33309012625
 21
129.7401613763599
 31
0.0
  0
MTEXT
  5
BB5
330
BB7
100
AcDbEntity
  8
0
  6
ByBlock
 62
     0
100
AcDbMText
 10
153.08309012625
 20
76.108527910094
 30
0.0
 40
3.2
 41
0.0
 71
     5
 72
     1
  1
57.5
  7
KCADDIMSTANDARD
 73
     1
 44
1.0
  0
ENDBLK
  5
D85
330
BB7
100
AcDbEntity
  8
0
100
AcDbBlockEnd
  0
BLOCK
  5
D86
330
BC3
100
AcDbEntity
  8
0
100
AcDbBlockBegin
  2
*D65
 70
     1
 71
     0
 10
0.0
 20
0.0
 30
0.0
  3
*D65
  1

  0
POINT
  5
BB9
330
BC3
100
AcDbEntity
  8
DEFPOINTS
  6
ByBlock
 62
     0
370
    15
100
AcDbPoint
 10
177.8330901262499
 20
98.54016137636
 30
0.0
  0
POINT
  5
BBA
330
BC3
100
AcDbEntity
  8
DEFPOINTS
  6
ByBlock
 62
     0
370
    15
100
AcDbPoint
 10
185.8330901262499
 20
98.54016137636
 30
0.0
  0
LINE
  5
BBB
330
BC3
100
AcDbEntity
  8
0
  6
ByBlock
 62
     0
370
    -2
100
AcDbLine
 10
177.8330901262499
 20
98.54016137636
 30
0.0
 11
177.8330901262499
 21
88.284220207879
 31
0.0
  0
LINE
  5
BBC
330
BC3
100
AcDbEntity
  8
0
  6
ByBlock
 62
     0
370
    -2
100
AcDbLine
 10
185.8330901262499
 20
98.54016137636
 30
0.0
 11
185.8330901262499
 21
88.284220207879
 31
0.0
  0
LINE
  5
BBD
330
BC3
100
AcDbEntity
  8
0
  6
ByBlock
 62
     0
370
    -2
100
AcDbLine
 10
177.8330901262499
 20
88.284220207879
 30
0.0
 11
185.8330901262499
 21
88.284220207879
 31
0.0
  0
SOLID
  5
BBE
330
BC3
100
AcDbEntity
  8
0
  6
ByBlock
 62
     0
370
    15
100
AcDbTrace
 10
177.8330901262499
 20
88.284220207879
 30
0.0
 11
180.3330901262499
 21
87.86755354121226
 31
0.0
 12
180.3330901262499
 22
88.70088687454574
 32
0.0
 13
180.3330901262499
 23
88.70088687454574
 33
0.0
  0
SOLID
  5
BBF
330
BC3
100
AcDbEntity
  8
0
  6
ByBlock
 62
     0
370
    15
100
AcDbTrace
 10
185.8330901262499
 20
88.284220207879
 30
0.0
 11
183.3330901262499
 21
87.86755354121226
 31
0.0
 12
183.3330901262499
 22
88.70088687454574
 32
0.0
 13
183.3330901262499
 23
88.70088687454574
 33
0.0
  0
LINE
  5
BC0
330
BC3
100
AcDbEntity
  8
0
  6
ByBlock
 62
     0
370
    -2
100
AcDbLine
 10
177.8330901262499
 20
98.54016137636
 30
0.0
 11
177.8330901262499
 21
98.54016137636
 31
0.0
  0
MTEXT
  5
BC1
330
BC3
100
AcDbEntity
  8
0
  6
ByBlock
 62
     0
100
AcDbMText
 10
194.15320473991
 20
90.417553207879
 30
0.0
 40
3.2
 41
0.0
 71
     5
 72
     1
  1
\A1;φ8
  7
KCADDIMSTANDARD
 73
     1
 44
1.0
  0
ENDBLK
  5
D87
330
BC3
100
AcDbEntity
  8
0
100
AcDbBlockEnd
  0
BLOCK
  5
D88
330
BCF
100
AcDbEntity
  8
0
100
AcDbBlockBegin
  2
*D66
 70
     1
 71
     0
 10
0.0
 20
0.0
 30
0.0
  3
*D66
  1

  0
POINT
  5
BC5
330
BCF
100
AcDbEntity
  8
DEFPOINTS
  6
ByBlock
 62
     0
370
    15
100
AcDbPoint
 10
174.83309012625
 20
98.74016137636
 30
0.0
  0
POINT
  5
BC6
330
BCF
100
AcDbEntity
  8
DEFPOINTS
  6
ByBlock
 62
     0
370
    15
100
AcDbPoint
 10
188.83309012625
 20
98.740161376361
 30
0.0
  0
LINE
  5
BC7
330
BCF
100
AcDbEntity
  8
0
  6
ByBlock
 62
     0
370
    -2
100
AcDbLine
 10
174.83309012625
 20
98.74016137636
 30
0.0
 11
174.83309012625
 21
81.159006874546
 31
0.0
  0
LINE
  5
BC8
330
BCF
100
AcDbEntity
  8
0
  6
ByBlock
 62
     0
370
    -2
100
AcDbLine
 10
188.83309012625
 20
98.740161376361
 30
0.0
 11
188.83309012625
 21
81.159006874546
 31
0.0
  0
LINE
  5
BC9
330
BCF
100
AcDbEntity
  8
0
  6
ByBlock
 62
     0
370
    -2
100
AcDbLine
 10
174.83309012625
 20
81.159006874546
 30
0.0
 11
188.83309012625
 21
81.159006874546
 31
0.0
  0
SOLID
  5
BCA
330
BCF
100
AcDbEntity
  8
0
  6
ByBlock
 62
     0
370
    15
100
AcDbTrace
 10
174.83309012625
 20
81.159006874546
 30
0.0
 11
177.33309012625
 21
80.74234020787924
 31
0.0
 12
177.33309012625
 22
81.57567354121275
 32
0.0
 13
177.33309012625
 23
81.57567354121275
 33
0.0
  0
SOLID
  5
BCB
330
BCF
100
AcDbEntity
  8
0
  6
ByBlock
 62
     0
370
    15
100
AcDbTrace
 10
188.83309012625
 20
81.159006874546
 30
0.0
 11
186.33309012625
 21
80.74234020787924
 31
0.0
 12
186.33309012625
 22
81.57567354121275
 32
0.0
 13
186.33309012625
 23
81.57567354121275
 33
0.0
  0
LINE
  5
BCC
330
BCF
100
AcDbEntity
  8
0
  6
ByBlock
 62
     0
370
    -2
100
AcDbLine
 10
174.83309012625
 20
98.74016137636
 30
0.0
 11
174.83309012625
 21
98.74016137636
 31
0.0
  0
MTEXT
  5
BCD
330
BCF
100
AcDbEntity
  8
0
  6
ByBlock
 62
     0
100
AcDbMText
 10
195.54207759143
 20
83.29233987454597
 30
0.0
 40
3.2
 41
0.0
 71
     5
 72
     1
  1
\A1;φ14
  7
KCADDIMSTANDARD
 73
     1
 44
1.0
  0
ENDBLK
  5
D89
330
BCF
100
AcDbEntity
  8
0
100
AcDbBlockEnd
  0
ENDSEC
  0
SECTION
  2
ENTITIES
  0
LINE
  5
2F0
330
1F
100
AcDbEntity
  8
99
  6
Continuous
 62
     7
370
    30
100
AcDbLine
 10
400.0
 20
282.0000033378499
 30
0.0
 11
20.0
 21
282.0000033378499
 31
0.0
1001
Sigma
1000

  0
LINE
  5
2F2
330
1F
100
AcDbEntity
  8
99
  6
Continuous
 62
     7
370
    30
100
AcDbLine
 10
20.0
 20
282.0000033378499
 30
0.0
 11
20.0
 21
10.00000333785399
 31
0.0
1001
Sigma
1000

  0
LINE
  5
2F4
330
1F
100
AcDbEntity
  8
99
  6
Continuous
 62
     7
370
    30
100
AcDbLine
 10
400.0
 20
282.0000033378499
 30
0.0
 11
400.0
 21
10.00000333785399
 31
0.0
1001
Sigma
1000

  0
LINE
  5
2F6
330
1F
100
AcDbEntity
  8
99
  6
Continuous
 62
     7
370
    15
100
AcDbLine
 10
203.1810012837
 20
281.5000033378499
 30
0.0
 11
203.1810012837
 21
284.0000033378499
 31
0.0
1001
Sigma
1000

  0
LINE
  5
2F8
330
1F
100
AcDbEntity
  8
99
  6
Continuous
 62
     7
370
    15
100
AcDbLine
 10
20.5
 20
136.0680614140499
 30
0.0
 11
18.0
 21
136.0680614140499
 31
0.0
1001
Sigma
1000

  0
LINE
  5
2FA
330
1F
100
AcDbEntity
  8
99
  6
Continuous
 62
     7
370
    15
100
AcDbLine
 10
399.0
 20
136.0680614140499
 30
0.0
 11
401.4999999999999
 21
136.0680614140499
 31
0.0
1001
Sigma
1000

  0
LINE
  5
2FC
330
1F
100
AcDbEntity
  8
99
  6
Continuous
 62
     7
370
    30
100
AcDbLine
 10
400.0
 20
10.00000333785399
 30
0.0
 11
20.0
 21
10.00000333785399
 31
0.0
1001
Sigma
1000

  0
LINE
  5
2FE
330
1F
100
AcDbEntity
  8
99
  6
Continuous
 62
     7
370
    30
100
AcDbLine
 10
210.0
 20
57.500003337854
 30
0.0
 11
400.0
 21
57.500003337854
 31
0.0
1001
Sigma
1000

  0
LINE
  5
300
330
1F
100
AcDbEntity
  8
99
  6
Continuous
 62
     7
370
    30
100
AcDbLine
 10
339.0
 20
10.00000333785399
 30
0.0
 11
339.0
 21
57.500003337854
 31
0.0
1001
Sigma
1000

  0
LINE
  5
302
330
1F
100
AcDbEntity
  8
99
  6
Continuous
 62
     7
370
    30
100
AcDbLine
 10
279.0
 20
30.000003337854
 30
0.0
 11
400.0
 21
30.000003337854
 31
0.0
1001
Sigma
1000

  0
LINE
  5
304
330
1F
100
AcDbEntity
  8
99
  6
Continuous
 62
     7
370
    30
100
AcDbLine
 10
324.0
 20
10.00000333785399
 30
0.0
 11
324.0
 21
30.000003337854
 31
0.0
1001
Sigma
1000

  0
LINE
  5
306
330
1F
100
AcDbEntity
  8
99
  6
Continuous
 62
     7
370
    30
100
AcDbLine
 10
309.0
 20
10.00000333785399
 30
0.0
 11
309.0
 21
30.000003337854
 31
0.0
1001
Sigma
1000

  0
LINE
  5
308
330
1F
100
AcDbEntity
  8
99
  6
Continuous
 62
     7
370
    30
100
AcDbLine
 10
294.0
 20
10.00000333785399
 30
0.0
 11
294.0
 21
57.500003337854
 31
0.0
1001
Sigma
1000

  0
LINE
  5
30A
330
1F
100
AcDbEntity
  8
99
  6
Continuous
 62
     7
370
    30
100
AcDbLine
 10
279.0
 20
10.00000333785399
 30
0.0
 11
279.0
 21
57.500003337854
 31
0.0
1001
Sigma
1000

  0
LINE
  5
30C
330
1F
100
AcDbEntity
  8
99
  6
Continuous
 62
     7
370
    15
100
AcDbLine
 10
210.0
 20
15.000003337854
 30
0.0
 11
279.0
 21
15.000003337854
 31
0.0
1001
Sigma
1000

  0
LINE
  5
30E
330
1F
100
AcDbEntity
  8
99
  6
Continuous
 62
     7
370
    15
100
AcDbLine
 10
210.0
 20
20.000003337854
 30
0.0
 11
279.0
 21
20.000003337854
 31
0.0
1001
Sigma
1000

  0
LINE
  5
310
330
1F
100
AcDbEntity
  8
99
  6
Continuous
 62
     7
370
    15
100
AcDbLine
 10
210.0
 20
25.000003337854
 30
0.0
 11
339.0
 21
25.000003337854
 31
0.0
1001
Sigma
1000

  0
LINE
  5
312
330
1F
100
AcDbEntity
  8
99
  6
Continuous
 62
     7
370
    15
100
AcDbLine
 10
210.0
 20
30.000003337854
 30
0.0
 11
279.0
 21
30.000003337854
 31
0.0
1001
Sigma
1000

  0
LINE
  5
314
330
1F
100
AcDbEntity
  8
99
  6
Continuous
 62
     7
370
    15
100
AcDbLine
 10
210.0
 20
35.00000333785399
 30
0.0
 11
279.0
 21
35.00000333785399
 31
0.0
1001
Sigma
1000

  0
LINE
  5
316
330
1F
100
AcDbEntity
  8
99
  6
Continuous
 62
     7
370
    30
100
AcDbLine
 10
294.0
 20
37.50000333785399
 30
0.0
 11
400.0
 21
37.50000333785399
 31
0.0
1001
Sigma
1000

  0
LINE
  5
318
330
1F
100
AcDbEntity
  8
99
  6
Continuous
 62
     7
370
    15
100
AcDbLine
 10
231.0
 20
10.00000333785399
 30
0.0
 11
231.0
 21
45.000003337854
 31
0.0
1001
Sigma
1000

  0
LINE
  5
31A
330
1F
100
AcDbEntity
  8
99
  6
Continuous
 62
     7
370
    15
100
AcDbLine
 10
242.0
 20
10.00000333785399
 30
0.0
 11
242.0
 21
45.000003337854
 31
0.0
1001
Sigma
1000

  0
LINE
  5
31C
330
1F
100
AcDbEntity
  8
99
  6
Continuous
 62
     7
370
    15
100
AcDbLine
 10
344.0
 20
10.00000333785399
 30
0.0
 11
344.0
 21
45.000003337854
 31
0.0
1001
Sigma
1000

  0
LINE
  5
31E
330
1F
100
AcDbEntity
  8
99
  6
Continuous
 62
     7
370
    30
100
AcDbLine
 10
339.0
 20
20.000003337854
 30
0.0
 11
400.0
 21
20.000003337854
 31
0.0
1001
Sigma
1000

  0
TEXT
  5
320
330
1F
100
AcDbEntity
  8
99
  6
Continuous
 62
     7
370
    30
100
AcDbText
 10
339.72991426151
 20
26.88555517545399
 30
0.0
 40
2.7
  1
製
 41
1.266666666666666
  7
KCADTEXTSTANDARD
100
AcDbText
1001
Sigma
1000

  0
TEXT
  5
322
330
1F
100
AcDbEntity
  8
99
  6
Continuous
 62
     7
370
    30
100
AcDbText
 10
293.225
 20
39.225003337854
 30
0.0
 40
4.049999999999999
  1
 三角法
 41
0.7916666674531168
  7
KCADTEXTSTANDARD
100
AcDbText
1001
Sigma
1000

  0
TEXT
  5
324
330
1F
100
AcDbEntity
  8
99
  6
Continuous
 62
     7
370
    30
100
AcDbText
 10
339.72991426151
 20
23.785555175454
 30
0.0
 40
2.7
  1
品
 41
1.266666666666666
  7
KCADTEXTSTANDARD
100
AcDbText
1001
Sigma
1000

  0
LINE
  5
326
330
1F
100
AcDbEntity
  8
99
  6
Continuous
 62
     7
370
    15
100
AcDbLine
 10
214.13219415271
 20
15.700476192354
 30
0.0
 11
210.9321941527099
 21
15.700476192354
 31
0.0
1001
Sigma
1000

  0
TEXT
  5
328
330
1F
100
AcDbEntity
  8
99
  6
Continuous
 62
     7
370
    30
100
AcDbText
 10
339.72991426151
 20
20.68555517545399
 30
0.0
 40
2.7
  1
名
 41
1.266666666666666
  7
KCADTEXTSTANDARD
100
AcDbText
1001
Sigma
1000

  0
TEXT
  5
32A
330
1F
100
AcDbEntity
  8
99
  6
Continuous
 62
     7
370
    30
100
AcDbText
 10
278.84786821705
 20
25.801069581054
 30
0.0
 40
3.6
  1
 設計  製図  検図  承認
 41
1.147916666666666
  7
KCADTEXTSTANDARD
100
AcDbText
1001
Sigma
1000

  0
TEXT
  5
32C
330
1F
100
AcDbEntity
  8
99
  6
Continuous
 62
     7
370
    30
100
AcDbText
 10
214.5072889221099
 20
10.80335877815399
 30
0.0
 40
3.6
  1
 年月日   担当      訂 正 記 事
 41
0.8102941176470586
  7
KCADTEXTSTANDARD
100
AcDbText
1001
Sigma
1000

  0
TEXT
  5
32E
330
1F
100
AcDbEntity
  8
99
  6
Continuous
 62
     7
370
    30
100
AcDbText
 10
210.7039062499999
 20
10.96975877505399
 30
0.0
 40
3.6
  1
符号
 41
0.4987500003539026
  7
KCADTEXTSTANDARD
100
AcDbText
1001
Sigma
1000

  0
LINE
  5
330
330
1F
100
AcDbEntity
  8
99
  6
Continuous
 62
     7
370
    15
100
AcDbLine
 10
214.13219415271
 20
35.700476192354
 30
0.0
 11
210.9321941527099
 21
35.700476192354
 31
0.0
1001
Sigma
1000

  0
LINE
  5
332
330
1F
100
AcDbEntity
  8
99
  6
Continuous
 62
     7
370
    15
100
AcDbLine
 10
212.5321941527099
 20
39.16457780755399
 30
0.0
 11
214.13219415271
 21
35.700476192354
 31
0.0
1001
Sigma
1000

  0
TEXT
  5
334
330
1F
100
AcDbEntity
  8
99
  6
Continuous
 62
     7
370
    15
100
AcDbText
 10
212.1341035374374
 20
36.28678111258116
 30
0.0
 40
2.082815953445434
  1
5
 41
0.577433628318584
  7
KCADTEXTSTANDARD
100
AcDbText
1001
Sigma
1000

  0
LINE
  5
336
330
1F
100
AcDbEntity
  8
99
  6
Continuous
 62
     7
370
    15
100
AcDbLine
 10
210.9321941527099
 20
35.700476192354
 30
0.0
 11
212.5321941527099
 21
39.16457780755399
 31
0.0
1001
Sigma
1000

  0
LINE
  5
338
330
1F
100
AcDbEntity
  8
99
  6
Continuous
 62
     7
370
    15
100
AcDbLine
 10
214.13219415271
 20
30.700476192354
 30
0.0
 11
210.9321941527099
 21
30.700476192354
 31
0.0
1001
Sigma
1000

  0
LINE
  5
33A
330
1F
100
AcDbEntity
  8
99
  6
Continuous
 62
     7
370
    15
100
AcDbLine
 10
212.5321941527099
 20
34.16457780755399
 30
0.0
 11
214.13219415271
 21
30.700476192354
 31
0.0
1001
Sigma
1000

  0
TEXT
  5
33C
330
1F
100
AcDbEntity
  8
99
  6
Continuous
 62
     7
370
    15
100
AcDbText
 10
212.1341035374374
 20
31.28678111258116
 30
0.0
 40
2.082815953445434
  1
4
 41
0.577433628318584
  7
KCADTEXTSTANDARD
100
AcDbText
1001
Sigma
1000

  0
LINE
  5
33E
330
1F
100
AcDbEntity
  8
99
  6
Continuous
 62
     7
370
    15
100
AcDbLine
 10
210.9321941527099
 20
30.700476192354
 30
0.0
 11
212.5321941527099
 21
34.16457780755399
 31
0.0
1001
Sigma
1000

  0
LINE
  5
340
330
1F
100
AcDbEntity
  8
99
  6
Continuous
 62
     7
370
    15
100
AcDbLine
 10
214.13219415271
 20
25.700476192354
 30
0.0
 11
210.9321941527099
 21
25.700476192354
 31
0.0
1001
Sigma
1000

  0
LINE
  5
342
330
1F
100
AcDbEntity
  8
99
  6
Continuous
 62
     7
370
    15
100
AcDbLine
 10
212.5321941527099
 20
29.164577807554
 30
0.0
 11
214.13219415271
 21
25.700476192354
 31
0.0
1001
Sigma
1000

  0
TEXT
  5
344
330
1F
100
AcDbEntity
  8
99
  6
Continuous
 62
     7
370
    15
100
AcDbText
 10
212.1341035374374
 20
26.28678111258116
 30
0.0
 40
2.082815953445434
  1
3
 41
0.577433628318584
  7
KCADTEXTSTANDARD
100
AcDbText
1001
Sigma
1000

  0
LINE
  5
346
330
1F
100
AcDbEntity
  8
99
  6
Continuous
 62
     7
370
    15
100
AcDbLine
 10
212.5321941527099
 20
19.164577807554
 30
0.0
 11
214.13219415271
 21
15.700476192354
 31
0.0
1001
Sigma
1000

  0
LINE
  5
348
330
1F
100
AcDbEntity
  8
99
  6
Continuous
 62
     7
370
    15
100
AcDbLine
 10
210.9321941527099
 20
15.700476192354
 30
0.0
 11
212.5321941527099
 21
19.164577807554
 31
0.0
1001
Sigma
1000

  0
LINE
  5
34A
330
1F
100
AcDbEntity
  8
99
  6
Continuous
 62
     7
370
    15
100
AcDbLine
 10
210.9321941527099
 20
25.700476192354
 30
0.0
 11
212.5321941527099
 21
29.164577807554
 31
0.0
1001
Sigma
1000

  0
TEXT
  5
34C
330
1F
100
AcDbEntity
  8
99
  6
Continuous
 62
     7
370
    15
100
AcDbText
 10
212.1341035374374
 20
21.28678111258115
 30
0.0
 40
2.082815953445434
  1
2
 41
0.577433628318584
  7
KCADTEXTSTANDARD
100
AcDbText
1001
Sigma
1000

  0
LINE
  5
34E
330
1F
100
AcDbEntity
  8
99
  6
Continuous
 62
     7
370
    15
100
AcDbLine
 10
214.13219415271
 20
20.700476192354
 30
0.0
 11
210.9321941527099
 21
20.700476192354
 31
0.0
1001
Sigma
1000

  0
LINE
  5
350
330
1F
100
AcDbEntity
  8
99
  6
Continuous
 62
     7
370
    15
100
AcDbLine
 10
212.5321941527099
 20
24.164577807554
 30
0.0
 11
214.13219415271
 21
20.700476192354
 31
0.0
1001
Sigma
1000

  0
LINE
  5
352
330
1F
100
AcDbEntity
  8
99
  6
Continuous
 62
     7
370
    15
100
AcDbLine
 10
210.9321941527099
 20
20.700476192354
 30
0.0
 11
212.5321941527099
 21
24.164577807554
 31
0.0
1001
Sigma
1000

  0
TEXT
  5
354
330
1F
100
AcDbEntity
  8
99
  6
Continuous
 62
     7
370
    15
100
AcDbText
 10
212.1341035374374
 20
16.28678111258116
 30
0.0
 40
2.082815953445434
  1
1
 41
0.577433628318584
  7
KCADTEXTSTANDARD
100
AcDbText
1001
Sigma
1000

  0
TEXT
  5
356
330
1F
100
AcDbEntity
  8
99
  6
Continuous
 62
     7
370
    30
100
AcDbText
 10
339.71791405963
 20
30.761873800654
 30
0.0
 40
2.7
  1
差
 41
1.266666666666666
  7
KCADTEXTSTANDARD
100
AcDbText
1001
Sigma
1000

  0
TEXT
  5
358
330
1F
100
AcDbEntity
  8
99
  6
Continuous
 62
     7
370
    30
100
AcDbText
 10
339.71791405963
 20
34.261873800654
 30
0.0
 40
2.7
  1
公
 41
1.266666666666666
  7
KCADTEXTSTANDARD
100
AcDbText
1001
Sigma
1000

  0
TEXT
  5
35A
330
1F
100
AcDbEntity
  8
99
  6
Continuous
 62
     7
370
    30
100
AcDbText
 10
309.8179140834718
 20
41.761873800654
 30
0.0
 40
2.7
  1
面
 41
1.203333318233489
  7
KCADTEXTSTANDARD
100
AcDbText
1001
Sigma
1000

  0
TEXT
  5
35C
330
1F
100
AcDbEntity
  8
99
  6
Continuous
 62
     7
370
    30
100
AcDbText
 10
309.8179140834718
 20
38.261873800654
 30
0.0
 40
2.7
  1
取
 41
1.203333318233489
  7
KCADTEXTSTANDARD
100
AcDbText
1001
Sigma
1000

  0
TEXT
  5
35E
330
1F
100
AcDbEntity
  8
99
  6
Continuous
 62
     7
370
    30
100
AcDbText
 10
339.71791405963
 20
38.261873800654
 30
0.0
 40
2.7
  1
上
 41
1.266666666666666
  7
KCADTEXTSTANDARD
100
AcDbText
1001
Sigma
1000

  0
TEXT
  5
360
330
1F
100
AcDbEntity
  8
99
  6
Continuous
 62
     7
370
    30
100
AcDbText
 10
339.71791405963
 20
41.761873800654
 30
0.0
 40
2.7
  1
仕
 41
1.266666666666666
  7
KCADTEXTSTANDARD
100
AcDbText
1001
Sigma
1000

  0
LINE
  5
362
330
1F
100
AcDbEntity
  8
99
  6
Continuous
 62
     7
370
    30
100
AcDbLine
 10
231.0
 20
45.000003337854
 30
0.0
 11
231.0
 21
57.500003337854
 31
0.0
1001
Sigma
1000

  0
TEXT
  5
364
330
1F
100
AcDbEntity
  8
99
  6
Continuous
 62
     7
370
    30
100
AcDbText
 10
339.6499999999999
 20
16.15000333785399
 30
0.0
 40
2.7
  1
図
 41
1.266666666666666
  7
KCADTEXTSTANDARD
100
AcDbText
1001
Sigma
1000

  0
TEXT
  5
366
330
1F
100
AcDbEntity
  8
99
  6
Continuous
 62
     7
370
    30
100
AcDbText
 10
339.6499999999999
 20
11.650003337854
 30
0.0
 40
2.7
  1
番
 41
1.266666666666666
  7
KCADTEXTSTANDARD
100
AcDbText
1001
Sigma
1000

  0
LINE
  5
368
330
1F
100
AcDbEntity
  8
99
  6
Continuous
 62
     7
370
    15
100
AcDbLine
 10
210.0
 20
50.000003337854
 30
0.0
 11
400.0
 21
50.000003337854
 31
0.0
1001
Sigma
1000

  0
LINE
  5
36A
330
1F
100
AcDbEntity
  8
99
  6
Continuous
 62
     7
370
    15
100
AcDbLine
 10
314.0
 20
45.000003337854
 30
0.0
 11
314.0
 21
37.50000333785399
 31
0.0
1001
Sigma
1000

  0
TEXT
  5
36C
330
1F
100
AcDbEntity
  8
99
  6
Continuous
 62
     7
370
    30
100
AcDbText
 10
281.39189189189
 20
40.902135824254
 30
0.0
 40
3.6
  1
尺度
 41
1.1875
  7
KCADTEXTSTANDARD
100
AcDbText
1001
Sigma
1000

  0
LINE
  5
36E
330
1F
100
AcDbEntity
  8
99
  6
Continuous
 62
     7
370
    15
100
AcDbLine
 10
210.9321941527099
 20
40.700476192354
 30
0.0
 11
212.5321941527099
 21
44.16457780752399
 31
0.0
1001
Sigma
1000

  0
TEXT
  5
370
330
1F
100
AcDbEntity
  8
99
  6
Continuous
 62
     7
370
    15
100
AcDbText
 10
212.1341035374374
 20
41.28678111258116
 30
0.0
 40
2.082815953445434
  1
6
 41
0.577433628318584
  7
KCADTEXTSTANDARD
100
AcDbText
1001
Sigma
1000

  0
LINE
  5
372
330
1F
100
AcDbEntity
  8
99
  6
Continuous
 62
     7
370
    15
100
AcDbLine
 10
212.5321941527099
 20
44.16457780752399
 30
0.0
 11
214.13219415271
 21
40.700476192354
 31
0.0
1001
Sigma
1000

  0
LINE
  5
374
330
1F
100
AcDbEntity
  8
99
  6
Continuous
 62
     7
370
    15
100
AcDbLine
 10
214.13219415271
 20
40.700476192354
 30
0.0
 11
210.9321941527099
 21
40.700476192354
 31
0.0
1001
Sigma
1000

  0
LINE
  5
376
330
1F
100
AcDbEntity
  8
99
  6
Continuous
 62
     7
370
    30
100
AcDbLine
 10
309.0
 20
37.50000333785399
 30
0.0
 11
309.0
 21
45.000003337854
 31
0.0
1001
Sigma
1000

  0
LINE
  5
378
330
1F
100
AcDbEntity
  8
99
  6
Continuous
 62
     7
370
    30
100
AcDbLine
 10
210.0
 20
45.000003337854
 30
0.0
 11
400.0
 21
45.000003337854
 31
0.0
1001
Sigma
1000

  0
LINE
  5
37A
330
1F
100
AcDbEntity
  8
99
  6
Continuous
 62
     7
370
    15
100
AcDbLine
 10
210.0
 20
40.000003337854
 30
0.0
 11
294.0
 21
40.000003337854
 31
0.0
1001
Sigma
1000

  0
LINE
  5
37C
330
1F
100
AcDbEntity
  8
99
  6
Continuous
 62
     7
370
    15
100
AcDbLine
 10
215.0
 20
10.00000333785399
 30
0.0
 11
215.0
 21
45.000003337854
 31
0.0
1001
Sigma
1000

  0
TEXT
  5
37E
330
1F
100
AcDbEntity
  8
99
  6
Continuous
 62
     7
370
    30
100
AcDbText
 10
211.8346979442399
 20
45.704738442754
 30
0.0
 40
3.6
  1
部品番号     部   品   名
 41
0.7659374981911647
  7
KCADTEXTSTANDARD
100
AcDbText
1001
Sigma
1000

  0
TEXT
  5
380
330
1F
100
AcDbEntity
  8
99
  6
Continuous
 62
     7
370
    30
100
AcDbText
 10
281.39189189189
 20
46.002135824244
 30
0.0
 40
3.6
  1
個数
 41
1.1875
  7
KCADTEXTSTANDARD
100
AcDbText
1001
Sigma
1000

  0
TEXT
  5
382
330
1F
100
AcDbEntity
  8
99
  6
Continuous
 62
     7
370
    30
100
AcDbText
 10
302.84786821706
 20
46.001069581044
 30
0.0
 40
3.6
  1
   材       質                 表  面  処  理
 41
0.6678663776994779
  7
KCADTEXTSTANDARD
100
AcDbText
1001
Sigma
1000

  0
LINE
  5
384
330
1F
100
AcDbEntity
  8
99
  6
Continuous
 62
     7
370
    30
100
AcDbLine
 10
210.0
 20
57.500003337854
 30
0.0
 11
210.0
 21
10.00000333785399
 31
0.0
1001
Sigma
1000

  0
TEXT
  5
386
330
1F
100
AcDbEntity
  8
99
  6
Continuous
 62
     7
370
    30
100
AcDbText
 10
281.6344239354599
 20
33.269785139254
 30
0.0
 40
4.067999999999999
  1
1/1
 41
1.222959685349071
  7
KCADTEXTSTANDARD
100
AcDbText
1001
Sigma
1000

  0
TEXT
  5
388
330
1F
100
AcDbEntity
  8
99
  6
Continuous
 62
     7
370
    30
100
AcDbText
 10
352.34573028858
 20
11.989604593454
 30
0.0
 40
5.695199999999999
  1
TSTM-043
 41
0.8309056596859591
  7
KCADTEXTSTANDARD
100
AcDbText
1001
Sigma
1000

  0
TEXT
  5
38A
330
1F
100
AcDbEntity
  8
99
  6
Continuous
 62
     7
370
    30
100
AcDbText
 10
297.8853222537699
 20
32.163408608754
 30
0.0
 40
2.7
  1
２００４年０４月０５日
 41
1.093939393939393
  7
KCADTEXTSTANDARD
100
AcDbText
1001
Sigma
1000

  0
TEXT
  5
38C
330
1F
100
AcDbEntity
  8
99
  6
Continuous
 62
     7
370
    30
100
AcDbText
 10
349.3957302557974
 20
21.98960459345399
 30
0.0
 40
5.695199999999999
  1
KCM-075DTUMP
 41
0.6440205950024289
  7
KCADTEXTSTANDARD
100
AcDbText
1001
Sigma
1000

  0
TEXT
  5
38E
330
1F
100
AcDbEntity
  8
99
  6
Continuous
 62
     7
370
    30
100
AcDbText
 10
355.97540573543
 20
51.032502053474
 30
0.0
 40
4.5
  1
梨地黒アルマイト
 41
0.653125
  7
KCADTEXTSTANDARD
100
AcDbText
1001
Sigma
1000

  0
POINT
  5
390
330
1F
100
AcDbEntity
  8
KCAD_ASST
  6
Continuous
 62
     7
370
    15
100
AcDbPoint
 10
24.375
 20
47.875006675708
 30
0.0
1001
Sigma
1000
ASST
  0
POINT
  5
392
330
1F
100
AcDbEntity
  8
KCAD_ASST
  6
Continuous
 62
     7
370
    15
100
AcDbPoint
 10
124.03146362304
 20
47.875006675708
 30
0.0
1001
Sigma
1000
ASST
  0
POINT
  5
394
330
1F
100
AcDbEntity
  8
KCAD_ASST
  6
Continuous
 62
     7
370
    15
100
AcDbPoint
 10
63.75
 20
47.875006675708
 30
0.0
1001
Sigma
1000
ASST
  0
POINT
  5
396
330
1F
100
AcDbEntity
  8
KCAD_ASST
  6
Continuous
 62
     7
370
    15
100
AcDbPoint
 10
24.375
 20
42.625006675708
 30
0.0
1001
Sigma
1000
ASST
  0
POINT
  5
398
330
1F
100
AcDbEntity
  8
KCAD_ASST
  6
Continuous
 62
     7
370
    15
100
AcDbPoint
 10
63.75
 20
42.625006675708
 30
0.0
1001
Sigma
1000
ASST
  0
POINT
  5
39A
330
1F
100
AcDbEntity
  8
KCAD_ASST
  6
Continuous
 62
     7
370
    15
100
AcDbPoint
 10
124.03146362304
 20
42.625006675708
 30
0.0
1001
Sigma
1000
ASST
  0
POINT
  5
39C
330
1F
100
AcDbEntity
  8
KCAD_ASST
  6
Continuous
 62
     7
370
    15
100
AcDbPoint
 10
180.9064636230399
 20
47.875006675708
 30
0.0
1001
Sigma
1000
ASST
  0
POINT
  5
39E
330
1F
100
AcDbEntity
  8
KCAD_ASST
  6
Continuous
 62
     7
370
    15
100
AcDbPoint
 10
180.9064636230399
 20
42.625006675708
 30
0.0
1001
Sigma
1000
ASST
  0
POINT
  5
3A0
330
1F
100
AcDbEntity
  8
KCAD_ASST
  6
Continuous
 62
     7
370
    15
100
AcDbPoint
 10
124.03146362304
 20
37.375006675708
 30
0.0
1001
Sigma
1000
ASST
  0
POINT
  5
3A2
330
1F
100
AcDbEntity
  8
KCAD_ASST
  6
Continuous
 62
     7
370
    15
100
AcDbPoint
 10
63.75
 20
37.375006675708
 30
0.0
1001
Sigma
1000
ASST
  0
POINT
  5
3A4
330
1F
100
AcDbEntity
  8
KCAD_ASST
  6
Continuous
 62
     7
370
    15
100
AcDbPoint
 10
24.375
 20
37.375006675708
 30
0.0
1001
Sigma
1000
ASST
  0
POINT
  5
3A6
330
1F
100
AcDbEntity
  8
KCAD_ASST
  6
Continuous
 62
     7
370
    15
100
AcDbPoint
 10
150.2814636230399
 20
37.375006675708
 30
0.0
1001
Sigma
1000
ASST
  0
POINT
  5
3A8
330
1F
100
AcDbEntity
  8
KCAD_ASST
  6
Continuous
 62
     7
370
    15
100
AcDbPoint
 10
124.03146362304
 20
32.125006675708
 30
0.0
1001
Sigma
1000
ASST
  0
POINT
  5
3AA
330
1F
100
AcDbEntity
  8
KCAD_ASST
  6
Continuous
 62
     7
370
    15
100
AcDbPoint
 10
63.75
 20
32.125006675708
 30
0.0
1001
Sigma
1000
ASST
  0
POINT
  5
3AC
330
1F
100
AcDbEntity
  8
KCAD_ASST
  6
Continuous
 62
     7
370
    15
100
AcDbPoint
 10
24.375
 20
32.125006675708
 30
0.0
1001
Sigma
1000
ASST
  0
POINT
  5
3AE
330
1F
100
AcDbEntity
  8
KCAD_ASST
  6
Continuous
 62
     7
370
    15
100
AcDbPoint
 10
150.2814636230399
 20
32.125006675708
 30
0.0
1001
Sigma
1000
ASST
  0
POINT
  5
3B0
330
1F
100
AcDbEntity
  8
KCAD_ASST
  6
Continuous
 62
     7
370
    15
100
AcDbPoint
 10
150.2814636230399
 20
26.875006675708
 30
0.0
1001
Sigma
1000
ASST
  0
POINT
  5
3B2
330
1F
100
AcDbEntity
  8
KCAD_ASST
  6
Continuous
 62
     7
370
    15
100
AcDbPoint
 10
124.03146362304
 20
26.875006675708
 30
0.0
1001
Sigma
1000
ASST
  0
POINT
  5
3B4
330
1F
100
AcDbEntity
  8
KCAD_ASST
  6
Continuous
 62
     7
370
    15
100
AcDbPoint
 10
24.375
 20
26.875006675708
 30
0.0
1001
Sigma
1000
ASST
  0
POINT
  5
3B6
330
1F
100
AcDbEntity
  8
KCAD_ASST
  6
Continuous
 62
     7
370
    15
100
AcDbPoint
 10
63.75
 20
26.875006675708
 30
0.0
1001
Sigma
1000
ASST
  0
POINT
  5
3B8
330
1F
100
AcDbEntity
  8
KCAD_ASST
  6
Continuous
 62
     7
370
    15
100
AcDbPoint
 10
63.75
 20
21.625006675707
 30
0.0
1001
Sigma
1000
ASST
  0
POINT
  5
3BA
330
1F
100
AcDbEntity
  8
KCAD_ASST
  6
Continuous
 62
     7
370
    15
100
AcDbPoint
 10
124.03146362304
 20
21.625006675707
 30
0.0
1001
Sigma
1000
ASST
  0
POINT
  5
3BC
330
1F
100
AcDbEntity
  8
KCAD_ASST
  6
Continuous
 62
     7
370
    15
100
AcDbPoint
 10
150.2814636230399
 20
21.625006675707
 30
0.0
1001
Sigma
1000
ASST
  0
POINT
  5
3BE
330
1F
100
AcDbEntity
  8
KCAD_ASST
  6
Continuous
 62
     7
370
    15
100
AcDbPoint
 10
24.375
 20
21.625006675707
 30
0.0
1001
Sigma
1000
ASST
  0
POINT
  5
3C0
330
1F
100
AcDbEntity
  8
KCAD_ASST
  6
Continuous
 62
     7
370
    15
100
AcDbPoint
 10
63.75
 20
16.375006675708
 30
0.0
1001
Sigma
1000
ASST
  0
POINT
  5
3C2
330
1F
100
AcDbEntity
  8
KCAD_ASST
  6
Continuous
 62
     7
370
    15
100
AcDbPoint
 10
150.2814636230399
 20
16.375006675708
 30
0.0
1001
Sigma
1000
ASST
  0
POINT
  5
3C4
330
1F
100
AcDbEntity
  8
KCAD_ASST
  6
Continuous
 62
     7
370
    15
100
AcDbPoint
 10
124.03146362304
 20
16.375006675708
 30
0.0
1001
Sigma
1000
ASST
  0
POINT
  5
3C6
330
1F
100
AcDbEntity
  8
KCAD_ASST
  6
Continuous
 62
     7
370
    15
100
AcDbPoint
 10
24.375
 20
16.375006675708
 30
0.0
1001
Sigma
1000
ASST
  0
POINT
  5
3C8
330
1F
100
AcDbEntity
  8
KCAD_ASST
  6
Continuous
 62
     7
370
    15
100
AcDbPoint
 10
145.90646362304
 20
50.500006675708
 30
0.0
1001
Sigma
1000
ASST
  0
POINT
  5
3CB
330
1F
100
AcDbEntity
  8
1
  6
Continuous
 62
     7
370
    15
100
AcDbPoint
 10
176.5314636230399
 20
50.500006675708
 30
0.0
1001
Sigma
1000

  0
POINT
  5
3CD
330
1F
100
AcDbEntity
  8
KCAD_ASST
  6
Continuous
 62
     7
370
    15
100
AcDbPoint
 10
119.65646362304
 20
54.000005006776
 30
0.0
1001
Sigma
1000
ASST
  0
POINT
  5
3CF
330
1F
100
AcDbEntity
  8
KCAD_ASST
  6
Continuous
 62
     7
370
    15
100
AcDbPoint
 10
24.375
 20
54.000005006776
 30
0.0
1001
Sigma
1000
ASST
  0
LINE
  5
3D1
330
1F
100
AcDbEntity
  8
1
  6
Continuous
 62
     7
370
    30
100
AcDbLine
 10
210.0
 20
57.500003337854
 30
0.0
 11
211.5728580168899
 21
57.500003337854
 31
0.0
1001
Sigma
1000

  0
LINE
  5
3D3
330
1F
100
AcDbEntity
  8
1
  6
Continuous
 62
     7
370
    30
100
AcDbLine
 10
210.0
 20
57.500003337854
 30
0.0
 11
20.0
 21
57.500003337854
 31
0.0
1001
Sigma
1000

  0
LINE
  5
3D5
330
1F
100
AcDbEntity
  8
1
  6
Continuous
 62
     7
370
    30
100
AcDbLine
 10
210.0
 20
13.750006675708
 30
0.0
 11
20.0
 21
13.750006675708
 31
0.0
1001
Sigma
1000

  0
LINE
  5
3D7
330
1F
100
AcDbEntity
  8
1
  6
Continuous
 62
     7
370
    30
100
AcDbLine
 10
119.65646362304
 20
50.500006675708
 30
0.0
 11
119.65646362304
 21
13.750006675708
 31
0.0
1001
Sigma
1000

  0
LINE
  5
3D9
330
1F
100
AcDbEntity
  8
1
  6
Continuous
 62
     7
370
    30
100
AcDbLine
 10
119.65646362304
 20
19.00000667570699
 30
0.0
 11
20.0
 21
19.000006675708
 31
0.0
1001
Sigma
1000

  0
LINE
  5
3DB
330
1F
100
AcDbEntity
  8
1
  6
Continuous
 62
     7
370
    30
100
AcDbLine
 10
119.65646362304
 20
24.250006675708
 30
0.0
 11
20.0
 21
24.250006675708
 31
0.0
1001
Sigma
1000

  0
LINE
  5
3DD
330
1F
100
AcDbEntity
  8
1
  6
Continuous
 62
     7
370
    30
100
AcDbLine
 10
119.65646362304
 20
29.500006675708
 30
0.0
 11
20.0
 21
29.500006675708
 31
0.0
1001
Sigma
1000

  0
LINE
  5
3DF
330
1F
100
AcDbEntity
  8
1
  6
Continuous
 62
     7
370
    30
100
AcDbLine
 10
210.0
 20
34.750006675708
 30
0.0
 11
20.0
 21
34.750006675708
 31
0.0
1001
Sigma
1000

  0
LINE
  5
3E1
330
1F
100
AcDbEntity
  8
1
  6
Continuous
 62
     7
370
    30
100
AcDbLine
 10
210.0
 20
40.000006675708
 30
0.0
 11
20.0
 21
40.000006675708
 31
0.0
1001
Sigma
1000

  0
LINE
  5
3E3
330
1F
100
AcDbEntity
  8
1
  6
Continuous
 62
     7
370
    30
100
AcDbLine
 10
210.0
 20
45.25000667570799
 30
0.0
 11
20.0
 21
45.25000667570799
 31
0.0
1001
Sigma
1000

  0
LINE
  5
3E5
330
1F
100
AcDbEntity
  8
1
  6
Continuous
 62
     7
370
    30
100
AcDbLine
 10
210.0
 20
50.500006675708
 30
0.0
 11
20.0
 21
50.500006675708
 31
0.0
1001
Sigma
1000

  0
LINE
  5
3E7
330
1F
100
AcDbEntity
  8
1
  6
Continuous
 62
     7
370
    30
100
AcDbLine
 10
59.375
 20
50.500006675708
 30
0.0
 11
59.375
 21
13.750006675708
 31
0.0
1001
Sigma
1000

  0
LINE
  5
3E9
330
1F
100
AcDbEntity
  8
1
  6
Continuous
 62
     7
370
    30
100
AcDbLine
 10
176.5314636230399
 20
50.500006675708
 30
0.0
 11
176.5314636230399
 21
34.750006675708
 31
0.0
1001
Sigma
1000

  0
TEXT
  5
3EB
330
1F
100
AcDbEntity
  8
1
  6
Continuous
 62
     7
370
    15
100
AcDbText
 10
23.53487499653919
 20
46.63500665723218
 30
0.0
 40
2.880000042915344
  1
倍率
 41
0.7333685343187336
  7
KCADTEXTSTANDARD
100
AcDbText
1001
Sigma
1000

  0
TEXT
  5
3ED
330
1F
100
AcDbEntity
  8
1
  6
Continuous
 62
     7
370
    15
100
AcDbText
 10
23.53487499653919
 20
30.88500665723119
 30
0.0
 40
2.880000042915344
  1
ＮＡ
 41
0.7333685343187336
  7
KCADTEXTSTANDARD
100
AcDbText
1001
Sigma
1000

  0
TEXT
  5
3EF
330
1F
100
AcDbEntity
  8
1
  6
Continuous
 62
     7
370
    15
100
AcDbText
 10
23.53487499653919
 20
25.63500665723218
 30
0.0
 40
2.880000042915344
  1
光学的分解能
 41
0.7432643676520666
  7
KCADTEXTSTANDARD
100
AcDbText
1001
Sigma
1000

  0
TEXT
  5
3F1
330
1F
100
AcDbEntity
  8
1
  6
Continuous
 62
     7
370
    15
100
AcDbText
 10
23.53487499653919
 20
36.13500665723218
 30
0.0
 40
2.880000042915344
  1
被写界深度
 41
0.7422747843187335
  7
KCADTEXTSTANDARD
100
AcDbText
1001
Sigma
1000

  0
TEXT
  5
3F3
330
1F
100
AcDbEntity
  8
1
  6
Continuous
 62
     7
370
    15
100
AcDbText
 10
23.53487499653919
 20
20.38500665723218
 30
0.0
 40
2.880000042915344
  1
有効Ｆ値
 41
0.7407904093187334
  7
KCADTEXTSTANDARD
100
AcDbText
1001
Sigma
1000

  0
TEXT
  5
3F5
330
1F
100
AcDbEntity
  8
1
  6
Continuous
 62
     7
370
    15
100
AcDbText
 10
123.1813386172
 20
46.625006654848
 30
0.0
 40
2.7
  1
テレセントリシティｔａｎθ（対角値）
 41
0.791292272866876
  7
KCADTEXTSTANDARD
100
AcDbText
1001
Sigma
1000

  0
TEXT
  5
3F7
330
1F
100
AcDbEntity
  8
1
  6
Continuous
 62
     7
370
    15
100
AcDbText
 10
123.1813386172
 20
41.37500665484799
 30
0.0
 40
2.7
  1
ディスト－ション％（対角値）
 41
0.7905383045829479
  7
KCADTEXTSTANDARD
100
AcDbText
1001
Sigma
1000

  0
TEXT
  5
3F9
330
1F
100
AcDbEntity
  8
1
  6
Continuous
 62
     7
370
    15
100
AcDbText
 10
23.53487499653919
 20
41.38500665723219
 30
0.0
 40
2.880000042915344
  1
ＷＤ（作動距離）
 41
0.7445013468187335
  7
KCADTEXTSTANDARD
100
AcDbText
1001
Sigma
1000

  0
TEXT
  5
3FB
330
1F
100
AcDbEntity
  8
1
  6
Continuous
 62
     7
370
    15
100
AcDbText
 10
23.46548646872281
 20
10.60583449816581
 30
0.0
 40
2.519999957084655
  1
オプションによる作動距離変更可能範囲　５～１００ｍｍ
 41
0.7997476850194197
  7
KCADTEXTSTANDARD
100
AcDbText
1001
Sigma
1000

  0
TEXT
  5
3FD
330
1F
100
AcDbEntity
  8
1
  6
Continuous
 62
     7
370
    15
100
AcDbText
 10
62.74393266403318
 20
40.89323608068518
 30
0.0
 40
2.880000042915344
  1
６０．７ｍｍ
 41
0.8064808278310175
  7
KCADTEXTSTANDARD
100
AcDbText
1001
Sigma
1000

  0
TEXT
  5
3FF
330
1F
100
AcDbEntity
  8
1
  6
Continuous
 62
     7
370
    15
100
AcDbText
 10
180.0563386171999
 20
46.625006654848
 30
0.0
 40
2.7
  1
－０．００１１７
 41
0.7879936616246899
  7
KCADTEXTSTANDARD
100
AcDbText
1001
Sigma
1000

  0
TEXT
  5
401
330
1F
100
AcDbEntity
  8
1
  6
Continuous
 62
     7
370
    15
100
AcDbText
 10
180.0563386171999
 20
41.37500665484799
 30
0.0
 40
2.7
  1
－０．０２８
 41
0.7860144948793782
  7
KCADTEXTSTANDARD
100
AcDbText
1001
Sigma
1000

  0
TEXT
  5
403
330
1F
100
AcDbEntity
  8
1
  6
Continuous
 62
     7
370
    15
100
AcDbText
 10
63.39199999570419
 20
46.06000665425218
 30
0.0
 40
2.880000042915344
  1
Ｘ０．７５
 41
0.8064808278310175
  7
KCADTEXTSTANDARD
100
AcDbText
1001
Sigma
1000

  0
TEXT
  5
405
330
1F
100
AcDbEntity
  8
1
  6
Continuous
 62
     7
370
    15
100
AcDbText
 10
63.39199999570419
 20
30.65227598093518
 30
0.0
 40
2.880000042915344
  1
０．０３１３
 41
0.8064808278310175
  7
KCADTEXTSTANDARD
100
AcDbText
1001
Sigma
1000

  0
TEXT
  5
407
330
1F
100
AcDbEntity
  8
1
  6
Continuous
 62
     7
370
    15
100
AcDbText
 10
63.76232418523018
 20
25.67066750213218
 30
0.0
 40
2.880000042915344
  1
１１μｍ
 41
0.8064808278310175
  7
KCADTEXTSTANDARD
100
AcDbText
1001
Sigma
1000

  0
TEXT
  5
409
330
1F
100
AcDbEntity
  8
1
  6
Continuous
 62
     7
370
    15
100
AcDbText
 10
63.48458104308619
 20
35.54130341235618
 30
0.0
 40
2.880000042915344
  1
０．８ｍｍ
 41
0.8064808278310175
  7
KCADTEXTSTANDARD
100
AcDbText
1001
Sigma
1000

  0
TEXT
  5
40B
330
1F
100
AcDbEntity
  8
1
  6
Continuous
 62
     7
370
    15
100
AcDbText
 10
63.02167580617819
 20
20.13357273904018
 30
0.0
 40
2.880000042915344
  1
１２～６０（可変絞りによる）
 41
0.8064808278310175
  7
KCADTEXTSTANDARD
100
AcDbText
1001
Sigma
1000

  0
TEXT
  5
40D
330
1F
100
AcDbEntity
  8
1
  6
Continuous
 62
     7
370
    15
100
AcDbText
 10
115.5078861218758
 20
10.55644597511781
 30
0.0
 40
2.519999957084655
  1
※作動距離の変化により倍率以外の性能が変化します。
 41
0.8487205062375837
  7
KCADTEXTSTANDARD
100
AcDbText
1001
Sigma
1000

  0
TEXT
  5
40F
330
1F
100
AcDbEntity
  8
1
  6
Continuous
 62
     7
370
    15
100
AcDbText
 10
106.5212516164132
 20
52.14675541372226
 30
0.0
 40
3.779999828338623
  1
光　学　仕　様
 41
0.8040322884619707
  7
KCADTEXTSTANDARD
100
AcDbText
1001
Sigma
1000

  0
TEXT
  5
411
330
1F
100
AcDbEntity
  8
1
  6
Continuous
 62
     7
370
    15
100
AcDbText
 10
123.18133872151
 20
36.125006654848
 30
0.0
 40
2.7
  1
重量（ｇ）
 41
0.7844311614831287
  7
KCADTEXTSTANDARD
100
AcDbText
1001
Sigma
1000

  0
TEXT
  5
413
330
1F
100
AcDbEntity
  8
1
  6
Continuous
 62
     7
370
    15
100
AcDbText
 10
123.1813386172
 20
30.875006654847
 30
0.0
 40
2.7
  1
イメ－ジサ－クル%%c１７ｍｍ（１．１インチ対角）に対応。
 41
0.792171902531459
  7
KCADTEXTSTANDARD
100
AcDbText
1001
Sigma
1000

  0
CIRCLE
  5
415
330
1F
100
AcDbEntity
  8
0
  6
Continuous
 62
     7
370
    30
100
AcDbCircle
 10
63.633090126258
 20
148.24016137636
 30
0.0
 40
1.0
1001
Sigma
1000

  0
POINT
  5
417
330
1F
100
AcDbEntity
  8
0
  6
Continuous
 62
     7
370
    15
100
AcDbPoint
 10
63.633090126258
 20
148.24016137636
 30
0.0
1001
Sigma
1000

  0
POINT
  5
419
330
1F
100
AcDbEntity
  8
0
  6
Continuous
 62
     7
370
    15
100
AcDbPoint
 10
124.33309012625
 20
148.24016137636
 30
0.0
1001
Sigma
1000

  0
POINT
  5
41B
330
1F
100
AcDbEntity
  8
0
  6
Continuous
 62
     7
370
    15
100
AcDbPoint
 10
348.29909012626
 20
148.24016137636
 30
0.0
1001
Sigma
1000

  0
LINE
  5
41D
330
1F
100
AcDbEntity
  8
0
  6
CENTER
 62
     7
370
    15
100
AcDbLine
 10
60.209361482858
 20
148.24016137636
 30
0.0
 11
99.380675964597
 21
148.24016137636
 31
0.0
1001
Sigma
1000

  0
LINE
  5
41F
330
1F
100
AcDbEntity
  8
0
  6
Continuous
 62
     7
370
    30
100
AcDbLine
 10
159.33309012625
 20
170.2401613763599
 30
0.0
 11
159.8330901262499
 21
169.7401613763599
 31
0.0
1001
Sigma
1000

  0
LINE
  5
421
330
1F
100
AcDbEntity
  8
0
  6
Continuous
 62
     7
370
    30
100
AcDbLine
 10
159.33309012625
 20
126.24016137636
 30
0.0
 11
159.8330901262499
 21
126.74016137636
 31
0.0
1001
Sigma
1000

  0
LINE
  5
423
330
1F
100
AcDbEntity
  8
0
  6
Continuous
 62
     7
370
    30
100
AcDbLine
 10
334.7730901262599
 20
160.54016137636
 30
0.0
 11
334.7730901262599
 21
135.94016137636
 31
0.0
1001
Sigma
1000

  0
LINE
  5
425
330
1F
100
AcDbEntity
  8
0
  6
Continuous
 62
     7
370
    30
100
AcDbLine
 10
228.83309012626
 20
164.74016137636
 30
0.0
 11
228.83309012626
 21
131.7401613763599
 31
0.0
1001
Sigma
1000

  0
LINE
  5
427
330
1F
100
AcDbEntity
  8
0
  6
Continuous
 62
     7
370
    30
100
AcDbLine
 10
334.37309012626
 20
135.54016137636
 30
0.0
 11
334.7730901262599
 21
135.94016137636
 31
0.0
1001
Sigma
1000

  0
LINE
  5
429
330
1F
100
AcDbEntity
  8
0
  6
Continuous
 62
     7
370
    30
100
AcDbLine
 10
334.37309012626
 20
160.94016137636
 30
0.0
 11
334.7730901262599
 21
160.54016137636
 31
0.0
1001
Sigma
1000

  0
LINE
  5
42B
330
1F
100
AcDbEntity
  8
0
  6
Continuous
 62
     7
370
    30
100
AcDbLine
 10
330.7730901262599
 20
164.2401613763599
 30
0.0
 11
330.7730901262599
 21
132.2401613763599
 31
0.0
1001
Sigma
1000

  0
LINE
  5
42D
330
1F
100
AcDbEntity
  8
0
  6
Continuous
 62
     7
370
    30
100
AcDbLine
 10
331.57309012626
 20
160.54016137636
 30
0.0
 11
334.37309012626
 21
160.54016137636
 31
0.0
1001
Sigma
1000

  0
LINE
  5
42F
330
1F
100
AcDbEntity
  8
0
  6
Continuous
 62
     7
370
    30
100
AcDbLine
 10
225.33309012626
 20
164.74016137636
 30
0.0
 11
228.3330901262599
 21
164.74016137636
 31
0.0
1001
Sigma
1000

  0
LINE
  5
431
330
1F
100
AcDbEntity
  8
0
  6
Continuous
 62
     7
370
    30
100
AcDbLine
 10
330.7730901262599
 20
160.54016137636
 30
0.0
 11
331.57309012626
 21
160.54016137636
 31
0.0
1001
Sigma
1000

  0
LINE
  5
433
330
1F
100
AcDbEntity
  8
0
  6
Continuous
 62
     7
370
    30
100
AcDbLine
 10
330.7730901262599
 20
135.94016137636
 30
0.0
 11
331.57309012626
 21
135.94016137636
 31
0.0
1001
Sigma
1000

  0
LINE
  5
435
330
1F
100
AcDbEntity
  8
0
  6
Continuous
 62
     7
370
    30
100
AcDbLine
 10
331.57309012626
 20
160.94016137636
 30
0.0
 11
331.57309012626
 21
160.54016137636
 31
0.0
1001
Sigma
1000

  0
LINE
  5
437
330
1F
100
AcDbEntity
  8
0
  6
Continuous
 62
     7
370
    30
100
AcDbLine
 10
331.57309012626
 20
135.94016137636
 30
0.0
 11
334.37309012626
 21
135.94016137636
 31
0.0
1001
Sigma
1000

  0
LINE
  5
439
330
1F
100
AcDbEntity
  8
0
  6
Continuous
 62
     7
370
    30
100
AcDbLine
 10
331.57309012626
 20
135.94016137636
 30
0.0
 11
331.57309012626
 21
135.54016137636
 31
0.0
1001
Sigma
1000

  0
LINE
  5
43B
330
1F
100
AcDbEntity
  8
0
  6
Continuous
 62
     7
370
    30
100
AcDbLine
 10
331.57309012626
 20
160.94016137636
 30
0.0
 11
334.37309012626
 21
160.94016137636
 31
0.0
1001
Sigma
1000

  0
LINE
  5
43D
330
1F
100
AcDbEntity
  8
0
  6
Continuous
 62
     7
370
    30
100
AcDbLine
 10
331.57309012626
 20
135.54016137636
 30
0.0
 11
334.37309012626
 21
135.54016137636
 31
0.0
1001
Sigma
1000

  0
LINE
  5
43F
330
1F
100
AcDbEntity
  8
0
  6
Continuous
 62
     7
370
    30
100
AcDbLine
 10
216.83309012626
 20
164.74016137636
 30
0.0
 11
216.83309012626
 21
131.7401613763599
 31
0.0
1001
Sigma
1000

  0
LINE
  5
441
330
1F
100
AcDbEntity
  8
0
  6
Continuous
 62
     7
370
    30
100
AcDbLine
 10
217.1330901262599
 20
131.7401613763599
 30
0.0
 11
224.83309012626
 21
131.7401613763599
 31
0.0
1001
Sigma
1000

  0
LINE
  5
443
330
1F
100
AcDbEntity
  8
0
  6
Continuous
 62
     7
370
    30
100
AcDbLine
 10
217.1330901262599
 20
164.74016137636
 30
0.0
 11
224.83309012626
 21
164.74016137636
 31
0.0
1001
Sigma
1000

  0
LINE
  5
445
330
1F
100
AcDbEntity
  8
0
  6
Continuous
 62
     7
370
    30
100
AcDbLine
 10
224.83309012626
 20
164.74016137636
 30
0.0
 11
224.83309012626
 21
131.7401613763599
 31
0.0
1001
Sigma
1000

  0
LINE
  5
447
330
1F
100
AcDbEntity
  8
0
  6
Continuous
 62
     7
370
    30
100
AcDbLine
 10
225.33309012626
 20
131.7401613763599
 30
0.0
 11
228.3330901262599
 21
131.7401613763599
 31
0.0
1001
Sigma
1000

  0
LINE
  5
449
330
1F
100
AcDbEntity
  8
0
  6
Continuous
 62
     7
370
    30
100
AcDbLine
 10
229.33309012626
 20
164.74016137636
 30
0.0
 11
229.33309012626
 21
131.7401613763599
 31
0.0
1001
Sigma
1000

  0
LINE
  5
44B
330
1F
100
AcDbEntity
  8
0
  6
Continuous
 62
     7
370
    30
100
AcDbLine
 10
225.33309012626
 20
165.2401613763599
 30
0.0
 11
228.3330901262599
 21
165.2401613763599
 31
0.0
1001
Sigma
1000

  0
LINE
  5
44D
330
1F
100
AcDbEntity
  8
0
  6
Continuous
 62
     7
370
    30
100
AcDbLine
 10
219.33309012626
 20
164.74016137636
 30
0.0
 11
219.33309012626
 21
131.7401613763599
 31
0.0
1001
Sigma
1000

  0
LINE
  5
44F
330
1F
100
AcDbEntity
  8
0
  6
Continuous
 62
     7
370
    30
100
AcDbLine
 10
225.33309012626
 20
131.2401613763599
 30
0.0
 11
228.3330901262599
 21
131.2401613763599
 31
0.0
1001
Sigma
1000

  0
LINE
  5
451
330
1F
100
AcDbEntity
  8
0
  6
Continuous
 62
     7
370
    30
100
AcDbLine
 10
225.33309012626
 20
165.2401613763599
 30
0.0
 11
225.33309012626
 21
131.2401613763599
 31
0.0
1001
Sigma
1000

  0
LINE
  5
453
330
1F
100
AcDbEntity
  8
0
  6
Continuous
 62
     7
370
    30
100
AcDbLine
 10
228.3330901262599
 20
165.2401613763599
 30
0.0
 11
228.3330901262599
 21
131.2401613763599
 31
0.0
1001
Sigma
1000

  0
LINE
  5
455
330
1F
100
AcDbEntity
  8
0
  6
Continuous
 62
     7
370
    15
100
AcDbLine
 10
219.33309012626
 20
141.2401613763599
 30
0.0
 11
222.0830901262599
 21
141.2401613763599
 31
0.0
1001
Sigma
1000

  0
LINE
  5
457
330
1F
100
AcDbEntity
  8
0
  6
Continuous
 62
     7
370
    15
100
AcDbLine
 10
219.33309012626
 20
137.74016137636
 30
0.0
 11
222.0830901262599
 21
137.74016137636
 31
0.0
1001
Sigma
1000

  0
LINE
  5
459
330
1F
100
AcDbEntity
  8
0
  6
Continuous
 62
     7
370
    30
100
AcDbLine
 10
224.83309012626
 20
164.74016137636
 30
0.0
 11
225.33309012626
 21
165.2401613763599
 31
0.0
1001
Sigma
1000

  0
LINE
  5
45B
330
1F
100
AcDbEntity
  8
0
  6
Continuous
 62
     7
370
    30
100
AcDbLine
 10
224.83309012626
 20
131.7401613763599
 30
0.0
 11
225.33309012626
 21
131.2401613763599
 31
0.0
1001
Sigma
1000

  0
LINE
  5
45D
330
1F
100
AcDbEntity
  8
0
  6
Continuous
 62
     7
370
    30
100
AcDbLine
 10
228.3330901262599
 20
165.2401613763599
 30
0.0
 11
228.83309012626
 21
164.74016137636
 31
0.0
1001
Sigma
1000

  0
LINE
  5
45F
330
1F
100
AcDbEntity
  8
0
  6
Continuous
 62
     7
370
    30
100
AcDbLine
 10
228.3330901262599
 20
131.2401613763599
 30
0.0
 11
228.83309012626
 21
131.7401613763599
 31
0.0
1001
Sigma
1000

  0
LINE
  5
461
330
1F
100
AcDbEntity
  8
0
  6
Continuous
 62
     7
370
    15
100
AcDbLine
 10
219.33309012626
 20
145.2401613763599
 30
0.0
 11
222.0830901262599
 21
145.2401613763599
 31
0.0
1001
Sigma
1000

  0
LINE
  5
463
330
1F
100
AcDbEntity
  8
0
  6
Continuous
 62
     7
370
    30
100
AcDbLine
 10
225.33309012626
 20
132.2401613763599
 30
0.0
 11
228.3330901262599
 21
132.2401613763599
 31
0.0
1001
Sigma
1000

  0
LINE
  5
465
330
1F
100
AcDbEntity
  8
0
  6
Continuous
 62
     7
370
    15
100
AcDbLine
 10
219.33309012626
 20
134.74016137636
 30
0.0
 11
222.0830901262599
 21
134.74016137636
 31
0.0
1001
Sigma
1000

  0
LINE
  5
467
330
1F
100
AcDbEntity
  8
0
  6
Continuous
 62
     7
370
    15
100
AcDbLine
 10
219.33309012626
 20
132.7401613763599
 30
0.0
 11
222.0830901262599
 21
132.7401613763599
 31
0.0
1001
Sigma
1000

  0
LINE
  5
469
330
1F
100
AcDbEntity
  8
0
  6
Continuous
 62
     7
370
    15
100
AcDbLine
 10
219.33309012626
 20
143.2401613763599
 30
0.0
 11
220.70809012626
 21
143.2401613763599
 31
0.0
1001
Sigma
1000

  0
LINE
  5
46B
330
1F
100
AcDbEntity
  8
0
  6
Continuous
 62
     7
370
    15
100
AcDbLine
 10
219.33309012626
 20
139.4901613763599
 30
0.0
 11
220.70809012626
 21
139.4901613763599
 31
0.0
1001
Sigma
1000

  0
LINE
  5
46D
330
1F
100
AcDbEntity
  8
0
  6
Continuous
 62
     7
370
    15
100
AcDbLine
 10
219.33309012626
 20
136.2401613763599
 30
0.0
 11
220.70809012626
 21
136.2401613763599
 31
0.0
1001
Sigma
1000

  0
LINE
  5
46F
330
1F
100
AcDbEntity
  8
0
  6
Continuous
 62
     7
370
    15
100
AcDbLine
 10
219.33309012626
 20
133.74016137636
 30
0.0
 11
220.70809012626
 21
133.74016137636
 31
0.0
1001
Sigma
1000

  0
LINE
  5
471
330
1F
100
AcDbEntity
  8
0
  6
Continuous
 62
     7
370
    15
100
AcDbLine
 10
219.33309012626
 20
132.2401613763599
 30
0.0
 11
220.70809012626
 21
132.2401613763599
 31
0.0
1001
Sigma
1000

  0
LINE
  5
473
330
1F
100
AcDbEntity
  8
0
  6
Continuous
 62
     7
370
    30
100
AcDbLine
 10
225.33309012626
 20
136.2401613763599
 30
0.0
 11
228.3330901262599
 21
136.2401613763599
 31
0.0
1001
Sigma
1000

  0
LINE
  5
475
330
1F
100
AcDbEntity
  8
0
  6
Continuous
 62
     7
370
    30
100
AcDbLine
 10
225.33309012626
 20
137.2401613763599
 30
0.0
 11
228.3330901262599
 21
137.2401613763599
 31
0.0
1001
Sigma
1000

  0
LINE
  5
477
330
1F
100
AcDbEntity
  8
0
  6
Continuous
 62
     7
370
    30
100
AcDbLine
 10
225.33309012626
 20
134.4901613763599
 30
0.0
 11
228.3330901262599
 21
134.4901613763599
 31
0.0
1001
Sigma
1000

  0
LINE
  5
479
330
1F
100
AcDbEntity
  8
0
  6
Continuous
 62
     7
370
    30
100
AcDbLine
 10
225.33309012626
 20
135.2401613763599
 30
0.0
 11
228.3330901262599
 21
135.2401613763599
 31
0.0
1001
Sigma
1000

  0
LINE
  5
47B
330
1F
100
AcDbEntity
  8
0
  6
Continuous
 62
     7
370
    30
100
AcDbLine
 10
217.1330901262599
 20
164.74016137636
 30
0.0
 11
217.1330901262599
 21
131.7401613763599
 31
0.0
1001
Sigma
1000

  0
LINE
  5
47D
330
1F
100
AcDbEntity
  8
0
  6
Continuous
 62
     7
370
    30
100
AcDbLine
 10
225.33309012626
 20
132.9901613763599
 30
0.0
 11
228.3330901262599
 21
132.9901613763599
 31
0.0
1001
Sigma
1000

  0
LINE
  5
47F
330
1F
100
AcDbEntity
  8
0
  6
Continuous
 62
     7
370
    30
100
AcDbLine
 10
216.83309012626
 20
164.44016137636
 30
0.0
 11
217.1330901262599
 21
164.74016137636
 31
0.0
1001
Sigma
1000

  0
LINE
  5
481
330
1F
100
AcDbEntity
  8
0
  6
Continuous
 62
     7
370
    30
100
AcDbLine
 10
225.33309012626
 20
133.74016137636
 30
0.0
 11
228.3330901262599
 21
133.74016137636
 31
0.0
1001
Sigma
1000

  0
LINE
  5
483
330
1F
100
AcDbEntity
  8
0
  6
Continuous
 62
     7
370
    30
100
AcDbLine
 10
216.83309012626
 20
132.04016137636
 30
0.0
 11
217.1330901262599
 21
131.7401613763599
 31
0.0
1001
Sigma
1000

  0
LINE
  5
485
330
1F
100
AcDbEntity
  8
0
  6
Continuous
 62
     7
370
    30
100
AcDbLine
 10
225.33309012626
 20
138.2401613763599
 30
0.0
 11
228.3330901262599
 21
138.2401613763599
 31
0.0
1001
Sigma
1000

  0
LINE
  5
487
330
1F
100
AcDbEntity
  8
0
  6
Continuous
 62
     7
370
    30
100
AcDbLine
 10
225.33309012626
 20
139.74016137636
 30
0.0
 11
228.3330901262599
 21
139.74016137636
 31
0.0
1001
Sigma
1000

  0
LINE
  5
489
330
1F
100
AcDbEntity
  8
0
  6
Continuous
 62
     7
370
    30
100
AcDbLine
 10
225.33309012626
 20
141.2401613763599
 30
0.0
 11
228.3330901262599
 21
141.2401613763599
 31
0.0
1001
Sigma
1000

  0
LINE
  5
48B
330
1F
100
AcDbEntity
  8
0
  6
Continuous
 62
     7
370
    30
100
AcDbLine
 10
225.33309012626
 20
142.7401613763599
 30
0.0
 11
228.3330901262599
 21
142.7401613763599
 31
0.0
1001
Sigma
1000

  0
LINE
  5
48D
330
1F
100
AcDbEntity
  8
0
  6
Continuous
 62
     7
370
    30
100
AcDbLine
 10
225.33309012626
 20
144.7401613763599
 30
0.0
 11
228.3330901262599
 21
144.7401613763599
 31
0.0
1001
Sigma
1000

  0
LINE
  5
48F
330
1F
100
AcDbEntity
  8
0
  6
Continuous
 62
     7
370
    30
100
AcDbLine
 10
225.33309012626
 20
146.7401613763599
 30
0.0
 11
228.3330901262599
 21
146.7401613763599
 31
0.0
1001
Sigma
1000

  0
LINE
  5
491
330
1F
100
AcDbEntity
  8
0
  6
Continuous
 62
     7
370
    30
100
AcDbLine
 10
225.33309012626
 20
149.7401613763599
 30
0.0
 11
228.3330901262599
 21
149.7401613763599
 31
0.0
1001
Sigma
1000

  0
LINE
  5
493
330
1F
100
AcDbEntity
  8
0
  6
Continuous
 62
     7
370
    30
100
AcDbLine
 10
225.33309012626
 20
151.7401613763599
 30
0.0
 11
228.3330901262599
 21
151.7401613763599
 31
0.0
1001
Sigma
1000

  0
LINE
  5
495
330
1F
100
AcDbEntity
  8
0
  6
Continuous
 62
     7
370
    30
100
AcDbLine
 10
225.33309012626
 20
153.7401613763599
 30
0.0
 11
228.3330901262599
 21
153.7401613763599
 31
0.0
1001
Sigma
1000

  0
LINE
  5
497
330
1F
100
AcDbEntity
  8
0
  6
Continuous
 62
     7
370
    30
100
AcDbLine
 10
225.33309012626
 20
155.2401613763599
 30
0.0
 11
228.3330901262599
 21
155.2401613763599
 31
0.0
1001
Sigma
1000

  0
LINE
  5
499
330
1F
100
AcDbEntity
  8
0
  6
Continuous
 62
     7
370
    30
100
AcDbLine
 10
225.33309012626
 20
156.74016137636
 30
0.0
 11
228.3330901262599
 21
156.74016137636
 31
0.0
1001
Sigma
1000

  0
LINE
  5
49B
330
1F
100
AcDbEntity
  8
0
  6
Continuous
 62
     7
370
    30
100
AcDbLine
 10
225.33309012626
 20
158.2401613763599
 30
0.0
 11
228.3330901262599
 21
158.2401613763599
 31
0.0
1001
Sigma
1000

  0
LINE
  5
49D
330
1F
100
AcDbEntity
  8
0
  6
Continuous
 62
     7
370
    30
100
AcDbLine
 10
225.33309012626
 20
162.7401613763599
 30
0.0
 11
228.3330901262599
 21
162.7401613763599
 31
0.0
1001
Sigma
1000

  0
LINE
  5
49F
330
1F
100
AcDbEntity
  8
0
  6
Continuous
 62
     7
370
    30
100
AcDbLine
 10
225.33309012626
 20
163.4901613763599
 30
0.0
 11
228.3330901262599
 21
163.4901613763599
 31
0.0
1001
Sigma
1000

  0
LINE
  5
4A1
330
1F
100
AcDbEntity
  8
0
  6
Continuous
 62
     7
370
    30
100
AcDbLine
 10
225.33309012626
 20
161.2401613763599
 30
0.0
 11
228.3330901262599
 21
161.2401613763599
 31
0.0
1001
Sigma
1000

  0
LINE
  5
4A3
330
1F
100
AcDbEntity
  8
0
  6
Continuous
 62
     7
370
    30
100
AcDbLine
 10
225.33309012626
 20
161.9901613763599
 30
0.0
 11
228.3330901262599
 21
161.9901613763599
 31
0.0
1001
Sigma
1000

  0
LINE
  5
4A5
330
1F
100
AcDbEntity
  8
0
  6
Continuous
 62
     7
370
    30
100
AcDbLine
 10
225.33309012626
 20
159.2401613763599
 30
0.0
 11
228.3330901262599
 21
159.2401613763599
 31
0.0
1001
Sigma
1000

  0
LINE
  5
4A7
330
1F
100
AcDbEntity
  8
0
  6
Continuous
 62
     7
370
    30
100
AcDbLine
 10
225.33309012626
 20
160.2401613763599
 30
0.0
 11
228.3330901262599
 21
160.2401613763599
 31
0.0
1001
Sigma
1000

  0
LINE
  5
4A9
330
1F
100
AcDbEntity
  8
0
  6
Continuous
 62
     7
370
    30
100
AcDbLine
 10
225.33309012626
 20
164.2401613763599
 30
0.0
 11
228.3330901262599
 21
164.2401613763599
 31
0.0
1001
Sigma
1000

  0
LINE
  5
4AB
330
1F
100
AcDbEntity
  8
0
  6
Continuous
 62
     7
370
    30
100
AcDbLine
 10
225.33309012626
 20
164.74016137636
 30
0.0
 11
228.3330901262599
 21
164.74016137636
 31
0.0
1001
Sigma
1000

  0
LINE
  5
4AD
330
1F
100
AcDbEntity
  8
0
  6
Continuous
 62
     7
370
    30
100
AcDbLine
 10
331.57309012626
 20
160.54016137636
 30
0.0
 11
331.57309012626
 21
135.94016137636
 31
0.0
1001
Sigma
1000

  0
LINE
  5
4AF
330
1F
100
AcDbEntity
  8
0
  6
Continuous
 62
     7
370
    30
100
AcDbLine
 10
334.37309012626
 20
160.94016137636
 30
0.0
 11
334.37309012626
 21
135.54016137636
 31
0.0
1001
Sigma
1000

  0
LINE
  5
4B1
330
1F
100
AcDbEntity
  8
0
  6
Continuous
 62
     7
370
    30
100
AcDbLine
 10
330.27309012626
 20
164.74016137636
 30
0.0
 11
330.27309012626
 21
131.7401613763599
 31
0.0
1001
Sigma
1000

  0
LINE
  5
4B3
330
1F
100
AcDbEntity
  8
0
  6
Continuous
 62
     7
370
    30
100
AcDbLine
 10
272.7330901262599
 20
164.74016137636
 30
0.0
 11
272.7330901262599
 21
131.7401613763599
 31
0.0
1001
Sigma
1000

  0
LINE
  5
4B5
330
1F
100
AcDbEntity
  8
0
  6
Continuous
 62
     7
370
    30
100
AcDbLine
 10
271.7330901262599
 20
164.74016137636
 30
0.0
 11
271.7330901262599
 21
131.7401613763599
 31
0.0
1001
Sigma
1000

  0
LINE
  5
4B7
330
1F
100
AcDbEntity
  8
0
  6
Continuous
 62
     7
370
    30
100
AcDbLine
 10
159.33309012625
 20
170.2401613763599
 30
0.0
 11
159.33309012625
 21
126.24016137636
 31
0.0
1001
Sigma
1000

  0
LINE
  5
4B9
330
1F
100
AcDbEntity
  8
0
  6
CENTER
 62
     7
370
    15
100
AcDbLine
 10
348.29909012626
 20
152.0111726119799
 30
0.0
 11
348.29909012626
 21
144.99892602102
 31
0.0
1001
Sigma
1000

  0
LINE
  5
4BB
330
1F
100
AcDbEntity
  8
0
  6
CENTER
 62
     7
370
    15
100
AcDbLine
 10
63.633090126258
 20
152.0111726119799
 30
0.0
 11
63.633090126258
 21
144.99892602102
 31
0.0
1001
Sigma
1000

  0
LINE
  5
4BD
330
1F
100
AcDbEntity
  8
0
  6
CENTER
 62
     7
370
    15
100
AcDbLine
 10
116.93919428123
 20
148.24016137636
 30
0.0
 11
350.20694928119
 21
148.24016137636
 31
0.0
1001
Sigma
1000

  0
LINE
  5
4BF
330
1F
100
AcDbEntity
  8
0
  6
Continuous
 62
     7
370
    30
100
AcDbLine
 10
124.33309012625
 20
166.7401613763599
 30
0.0
 11
124.83309012625
 21
167.2401613763599
 31
0.0
1001
Sigma
1000

  0
LINE
  5
4C1
330
1F
100
AcDbEntity
  8
0
  6
Continuous
 62
     7
370
    30
100
AcDbLine
 10
147.83309012625
 20
169.7401613763599
 30
0.0
 11
147.83309012625
 21
126.74016137636
 31
0.0
1001
Sigma
1000

  0
LINE
  5
4C3
330
1F
100
AcDbEntity
  8
0
  6
Continuous
 62
     7
370
    30
100
AcDbLine
 10
147.83309012625
 20
169.7401613763599
 30
0.0
 11
148.3330901262499
 21
170.2401613763599
 31
0.0
1001
Sigma
1000

  0
LINE
  5
4C5
330
1F
100
AcDbEntity
  8
0
  6
Continuous
 62
     7
370
    30
100
AcDbLine
 10
124.83309012625
 20
167.2401613763599
 30
0.0
 11
147.83309012625
 21
167.2401613763599
 31
0.0
1001
Sigma
1000

  0
LINE
  5
4C7
330
1F
100
AcDbEntity
  8
0
  6
Continuous
 62
     7
370
    30
100
AcDbLine
 10
124.33309012625
 20
166.7401613763599
 30
0.0
 11
124.33309012625
 21
129.7401613763599
 31
0.0
1001
Sigma
1000

  0
LINE
  5
4C9
330
1F
100
AcDbEntity
  8
0
  6
Continuous
 62
     7
370
    30
100
AcDbLine
 10
148.3330901262499
 20
170.2401613763599
 30
0.0
 11
159.33309012625
 21
170.2401613763599
 31
0.0
1001
Sigma
1000

  0
LINE
  5
4CB
330
1F
100
AcDbEntity
  8
0
  6
Continuous
 62
     7
370
    30
100
AcDbLine
 10
159.33309012625
 20
170.2401613763599
 30
0.0
 11
159.8330901262499
 21
169.7401613763599
 31
0.0
1001
Sigma
1000

  0
LINE
  5
4CD
330
1F
100
AcDbEntity
  8
0
  6
Continuous
 62
     7
370
    30
100
AcDbLine
 10
148.3330901262499
 20
126.24016137636
 30
0.0
 11
159.33309012625
 21
126.24016137636
 31
0.0
1001
Sigma
1000

  0
LINE
  5
4CF
330
1F
100
AcDbEntity
  8
0
  6
Continuous
 62
     7
370
    30
100
AcDbLine
 10
124.83309012625
 20
129.2401613763599
 30
0.0
 11
147.83309012625
 21
129.2401613763599
 31
0.0
1001
Sigma
1000

  0
LINE
  5
4D1
330
1F
100
AcDbEntity
  8
0
  6
Continuous
 62
     7
370
    30
100
AcDbLine
 10
147.83309012625
 20
126.74016137636
 30
0.0
 11
148.3330901262499
 21
126.24016137636
 31
0.0
1001
Sigma
1000

  0
LINE
  5
4D3
330
1F
100
AcDbEntity
  8
0
  6
Continuous
 62
     7
370
    30
100
AcDbLine
 10
124.33309012625
 20
129.7401613763599
 30
0.0
 11
124.83309012625
 21
129.2401613763599
 31
0.0
1001
Sigma
1000

  0
LINE
  5
4D5
330
1F
100
AcDbEntity
  8
0
  6
Continuous
 62
     7
370
    30
100
AcDbLine
 10
124.83309012625
 20
167.2401613763599
 30
0.0
 11
124.83309012625
 21
129.2401613763599
 31
0.0
1001
Sigma
1000

  0
LINE
  5
4D7
330
1F
100
AcDbEntity
  8
0
  6
Continuous
 62
     7
370
    30
100
AcDbLine
 10
148.3330901262499
 20
170.2401613763599
 30
0.0
 11
148.3330901262499
 21
126.24016137636
 31
0.0
1001
Sigma
1000

  0
LINE
  5
4D9
330
1F
100
AcDbEntity
  8
0
  6
CENTER
 62
     7
370
    15
100
AcDbLine
 10
181.8330901262499
 20
148.24016137636
 30
0.0
 11
181.8330901262499
 21
92.617732487471
 31
0.0
1001
Sigma
1000

  0
LINE
  5
4DB
330
1F
100
AcDbEntity
  8
0
  6
Continuous
 62
     7
370
    30
100
AcDbLine
 10
203.8330901262499
 20
124.24016137636
 30
0.0
 11
206.33309012626
 21
124.24016137636
 31
0.0
1001
Sigma
1000

  0
LINE
  5
4DD
330
1F
100
AcDbEntity
  8
0
  6
Continuous
 62
     7
370
    30
100
AcDbLine
 10
206.33309012626
 20
172.24016137636
 30
0.0
 11
206.33309012626
 21
124.24016137636
 31
0.0
1001
Sigma
1000

  0
LINE
  5
4DF
330
1F
100
AcDbEntity
  8
0
  6
Continuous
 62
     7
370
    30
100
AcDbLine
 10
159.8330901262499
 20
123.24016137636
 30
0.0
 11
159.8330901262499
 21
173.24016137636
 31
0.0
1001
Sigma
1000

  0
LINE
  5
4E1
330
1F
100
AcDbEntity
  8
0
  6
CENTER
 62
     7
370
    15
100
AcDbLine
 10
163.83309012625
 20
131.1353080430299
 30
0.0
 11
163.83309012625
 21
118.74351470969
 31
0.0
1001
Sigma
1000

  0
LINE
  5
4E3
330
1F
100
AcDbEntity
  8
0
  6
Continuous
 62
     7
370
    30
100
AcDbLine
 10
203.8330901262499
 20
173.24016137636
 30
0.0
 11
203.8330901262499
 21
123.24016137636
 31
0.0
1001
Sigma
1000

  0
LINE
  5
4E5
330
1F
100
AcDbEntity
  8
0
  6
Continuous
 62
     7
370
    30
100
AcDbLine
 10
174.83309012625
 20
98.74016137636
 30
0.0
 11
188.83309012625
 21
98.74016137636
 31
0.0
1001
Sigma
1000

  0
LINE
  5
4E7
330
1F
100
AcDbEntity
  8
0
  6
Continuous
 62
     7
370
    30
100
AcDbLine
 10
203.8330901262499
 20
172.24016137636
 30
0.0
 11
206.33309012626
 21
172.24016137636
 31
0.0
1001
Sigma
1000

  0
LINE
  5
4E9
330
1F
100
AcDbEntity
  8
0
  6
Continuous
 62
     7
370
    30
100
AcDbLine
 10
160.8330901262499
 20
120.74016137636
 30
0.0
 11
202.83309012625
 21
120.74016137636
 31
0.0
1001
Sigma
1000

  0
LINE
  5
4EB
330
1F
100
AcDbEntity
  8
0
  6
DASHED
 62
     7
370
    15
100
AcDbLine
 10
185.8330901262499
 20
108.24016137636
 30
0.0
 11
185.8330901262499
 21
98.54016137636
 31
0.0
1001
Sigma
1000

  0
LINE
  5
4ED
330
1F
100
AcDbEntity
  8
0
  6
Continuous
 62
     7
370
    30
100
AcDbLine
 10
167.83309012625
 20
106.7401613763599
 30
0.0
 11
195.83309012625
 21
106.7401613763599
 31
0.0
1001
Sigma
1000

  0
LINE
  5
4EF
330
1F
100
AcDbEntity
  8
0
  6
Continuous
 62
     7
370
    30
100
AcDbLine
 10
206.83309012626
 20
165.2401613763599
 30
0.0
 11
216.33309012626
 21
165.2401613763599
 31
0.0
1001
Sigma
1000

  0
LINE
  5
4F1
330
1F
100
AcDbEntity
  8
0
  6
Continuous
 62
     7
370
    30
100
AcDbLine
 10
159.8330901262499
 20
123.24016137636
 30
0.0
 11
203.8330901262499
 21
123.24016137636
 31
0.0
1001
Sigma
1000

  0
LINE
  5
4F3
330
1F
100
AcDbEntity
  8
0
  6
Continuous
 62
     7
370
    30
100
AcDbLine
 10
168.3330901262499
 20
106.24016137636
 30
0.0
 11
195.33309012625
 21
106.24016137636
 31
0.0
1001
Sigma
1000

  0
LINE
  5
4F5
330
1F
100
AcDbEntity
  8
0
  6
DASHED
 62
     7
370
    15
100
AcDbLine
 10
177.8330901262499
 20
108.24016137636
 30
0.0
 11
177.8330901262499
 21
98.54016137636
 31
0.0
1001
Sigma
1000

  0
LINE
  5
4F7
330
1F
100
AcDbEntity
  8
0
  6
Continuous
 62
     7
370
    30
100
AcDbLine
 10
216.33309012626
 20
165.2401613763599
 30
0.0
 11
216.33309012626
 21
131.2401613763599
 31
0.0
1001
Sigma
1000

  0
LINE
  5
4F9
330
1F
100
AcDbEntity
  8
0
  6
Continuous
 62
     7
370
    30
100
AcDbLine
 10
188.83309012625
 20
106.24016137636
 30
0.0
 11
188.83309012625
 21
98.74016137636
 31
0.0
1001
Sigma
1000

  0
LINE
  5
4FB
330
1F
100
AcDbEntity
  8
0
  6
Continuous
 62
     7
370
    30
100
AcDbLine
 10
206.83309012626
 20
171.7401613763599
 30
0.0
 11
206.83309012626
 21
124.74016137636
 31
0.0
1001
Sigma
1000

  0
LINE
  5
4FD
330
1F
100
AcDbEntity
  8
0
  6
Continuous
 62
     7
370
    30
100
AcDbLine
 10
206.83309012626
 20
131.2401613763599
 30
0.0
 11
216.33309012626
 21
131.2401613763599
 31
0.0
1001
Sigma
1000

  0
LINE
  5
4FF
330
1F
100
AcDbEntity
  8
0
  6
Continuous
 62
     7
370
    30
100
AcDbLine
 10
159.8330901262499
 20
173.24016137636
 30
0.0
 11
203.8330901262499
 21
173.24016137636
 31
0.0
1001
Sigma
1000

  0
LINE
  5
501
330
1F
100
AcDbEntity
  8
0
  6
Continuous
 62
     7
370
    30
100
AcDbLine
 10
160.8330901262499
 20
123.24016137636
 30
0.0
 11
160.8330901262499
 21
120.74016137636
 31
0.0
1001
Sigma
1000

  0
LINE
  5
503
330
1F
100
AcDbEntity
  8
0
  6
Continuous
 62
     7
370
    30
100
AcDbLine
 10
202.83309012625
 20
123.24016137636
 30
0.0
 11
202.83309012625
 21
120.74016137636
 31
0.0
1001
Sigma
1000

  0
LINE
  5
505
330
1F
100
AcDbEntity
  8
0
  6
Continuous
 62
     7
370
    30
100
AcDbLine
 10
195.83309012625
 20
120.2401613763599
 30
0.0
 11
195.83309012625
 21
106.7401613763599
 31
0.0
1001
Sigma
1000

  0
LINE
  5
507
330
1F
100
AcDbEntity
  8
0
  6
Continuous
 62
     7
370
    30
100
AcDbLine
 10
167.83309012625
 20
120.2401613763599
 30
0.0
 11
167.83309012625
 21
106.7401613763599
 31
0.0
1001
Sigma
1000

  0
LINE
  5
509
330
1F
100
AcDbEntity
  8
0
  6
Continuous
 62
     7
370
    30
100
AcDbLine
 10
175.33309012625
 20
98.24016137636
 30
0.0
 11
188.33309012625
 21
98.24016137636
 31
0.0
1001
Sigma
1000

  0
LINE
  5
50B
330
1F
100
AcDbEntity
  8
0
  6
Continuous
 62
     7
370
    30
100
AcDbLine
 10
161.33309012625
 20
120.2401613763599
 30
0.0
 11
202.3330901262499
 21
120.2401613763599
 31
0.0
1001
Sigma
1000

  0
LINE
  5
50D
330
1F
100
AcDbEntity
  8
0
  6
Continuous
 62
     7
370
    30
100
AcDbLine
 10
174.83309012625
 20
106.24016137636
 30
0.0
 11
174.83309012625
 21
98.74016137636
 31
0.0
1001
Sigma
1000

  0
LINE
  5
50F
330
1F
100
AcDbEntity
  8
0
  6
CENTER
 62
     7
370
    15
100
AcDbLine
 10
179.66192640508
 20
101.24016137636
 30
0.0
 11
183.78286835378
 21
101.24016137636
 31
0.0
1001
Sigma
1000

  0
LINE
  5
511
330
1F
100
AcDbEntity
  8
0
  6
CENTER
 62
     7
370
    15
100
AcDbLine
 10
196.7486011483
 20
169.1996173683399
 30
0.0
 11
196.7486011483
 21
127.44538133628
 31
0.0
1001
Sigma
1000

  0
LINE
  5
513
330
1F
100
AcDbEntity
  8
0
  6
CENTER
 62
     7
370
    15
100
AcDbLine
 10
166.7486011482999
 20
169.3784363663399
 30
0.0
 11
166.7486011482999
 21
126.90892434229
 31
0.0
1001
Sigma
1000

  0
LINE
  5
515
330
1F
100
AcDbEntity
  8
0
  6
CENTER
 62
     7
370
    15
100
AcDbLine
 10
164.4100038026099
 20
130.2401613763599
 30
0.0
 11
199.42104824706
 21
130.2401613763599
 31
0.0
1001
Sigma
1000

  0
LINE
  5
517
330
1F
100
AcDbEntity
  8
0
  6
Continuous
 62
     7
370
    30
100
AcDbLine
 10
160.8330901262499
 20
120.74016137636
 30
0.0
 11
161.33309012625
 21
120.2401613763599
 31
0.0
1001
Sigma
1000

  0
LINE
  5
519
330
1F
100
AcDbEntity
  8
0
  6
Continuous
 62
     7
370
    30
100
AcDbLine
 10
202.3330901262499
 20
120.2401613763599
 30
0.0
 11
202.83309012625
 21
120.74016137636
 31
0.0
1001
Sigma
1000

  0
LINE
  5
51B
330
1F
100
AcDbEntity
  8
0
  6
Continuous
 62
     7
370
    30
100
AcDbLine
 10
167.83309012625
 20
106.7401613763599
 30
0.0
 11
168.3330901262499
 21
106.24016137636
 31
0.0
1001
Sigma
1000

  0
LINE
  5
51D
330
1F
100
AcDbEntity
  8
0
  6
Continuous
 62
     7
370
    30
100
AcDbLine
 10
216.33309012626
 20
131.2401613763599
 30
0.0
 11
216.83309012626
 21
131.7401613763599
 31
0.0
1001
Sigma
1000

  0
LINE
  5
51F
330
1F
100
AcDbEntity
  8
0
  6
Continuous
 62
     7
370
    30
100
AcDbLine
 10
195.33309012625
 20
106.24016137636
 30
0.0
 11
195.83309012625
 21
106.7401613763599
 31
0.0
1001
Sigma
1000

  0
LINE
  5
521
330
1F
100
AcDbEntity
  8
0
  6
Continuous
 62
     7
370
    30
100
AcDbLine
 10
188.33309012625
 20
98.24016137636
 30
0.0
 11
188.83309012625
 21
98.74016137636
 31
0.0
1001
Sigma
1000

  0
LINE
  5
523
330
1F
100
AcDbEntity
  8
0
  6
Continuous
 62
     7
370
    30
100
AcDbLine
 10
206.83309012626
 20
124.74016137636
 30
0.0
 11
206.33309012626
 21
124.24016137636
 31
0.0
1001
Sigma
1000

  0
LINE
  5
525
330
1F
100
AcDbEntity
  8
0
  6
Continuous
 62
     7
370
    30
100
AcDbLine
 10
174.83309012625
 20
98.740161376359
 30
0.0
 11
175.33309012625
 21
98.24016137636
 31
0.0
1001
Sigma
1000

  0
LINE
  5
527
330
1F
100
AcDbEntity
  8
0
  6
CENTER
 62
     7
370
    15
100
AcDbLine
 10
164.4100038026099
 20
166.2401613763599
 30
0.0
 11
199.42104824706
 21
166.2401613763599
 31
0.0
1001
Sigma
1000

  0
LINE
  5
529
330
1F
100
AcDbEntity
  8
0
  6
Continuous
 62
     7
370
    30
100
AcDbLine
 10
206.33309012626
 20
172.24016137636
 30
0.0
 11
206.83309012626
 21
171.7401613763599
 31
0.0
1001
Sigma
1000

  0
LINE
  5
52B
330
1F
100
AcDbEntity
  8
0
  6
Continuous
 62
     7
370
    30
100
AcDbLine
 10
216.33309012626
 20
165.2401613763599
 30
0.0
 11
216.83309012626
 21
164.74016137636
 31
0.0
1001
Sigma
1000

  0
LINE
  5
52D
330
1F
100
AcDbEntity
  8
0
  6
Continuous
 62
     7
370
    30
100
AcDbLine
 10
272.23309012626
 20
164.2401613763599
 30
0.0
 11
272.23309012626
 21
132.2401613763599
 31
0.0
1001
Sigma
1000

  0
LINE
  5
52F
330
1F
100
AcDbEntity
  8
0
  6
Continuous
 62
     7
370
    30
100
AcDbLine
 10
229.33309012626
 20
164.74016137636
 30
0.0
 11
271.7330901262599
 21
164.74016137636
 31
0.0
1001
Sigma
1000

  0
LINE
  5
531
330
1F
100
AcDbEntity
  8
0
  6
Continuous
 62
     7
370
    30
100
AcDbLine
 10
272.7330901262599
 20
164.74016137636
 30
0.0
 11
298.13309012626
 21
164.74016137636
 31
0.0
1001
Sigma
1000

  0
LINE
  5
533
330
1F
100
AcDbEntity
  8
0
  6
Continuous
 62
     7
370
    30
100
AcDbLine
 10
272.7330901262599
 20
131.7401613763599
 30
0.0
 11
298.13309012626
 21
131.7401613763599
 31
0.0
1001
Sigma
1000

  0
LINE
  5
535
330
1F
100
AcDbEntity
  8
0
  6
Continuous
 62
     7
370
    30
100
AcDbLine
 10
229.33309012626
 20
131.7401613763599
 30
0.0
 11
271.7330901262599
 21
131.7401613763599
 31
0.0
1001
Sigma
1000

  0
LINE
  5
537
330
1F
100
AcDbEntity
  8
0
  6
Continuous
 62
     7
370
    30
100
AcDbLine
 10
271.7330901262599
 20
164.74016137636
 30
0.0
 11
272.23309012626
 21
164.2401613763599
 31
0.0
1001
Sigma
1000

  0
LINE
  5
539
330
1F
100
AcDbEntity
  8
0
  6
Continuous
 62
     7
370
    30
100
AcDbLine
 10
271.7330901262599
 20
131.7401613763599
 30
0.0
 11
272.23309012626
 21
132.2401613763599
 31
0.0
1001
Sigma
1000

  0
LINE
  5
53B
330
1F
100
AcDbEntity
  8
0
  6
Continuous
 62
     7
370
    30
100
AcDbLine
 10
228.83309012626
 20
132.2401613763599
 30
0.0
 11
229.33309012626
 21
131.7401613763599
 31
0.0
1001
Sigma
1000

  0
LINE
  5
53D
330
1F
100
AcDbEntity
  8
0
  6
Continuous
 62
     7
370
    30
100
AcDbLine
 10
228.83309012626
 20
164.2401613763599
 30
0.0
 11
229.33309012626
 21
164.74016137636
 31
0.0
1001
Sigma
1000

  0
LINE
  5
53F
330
1F
100
AcDbEntity
  8
0
  6
Continuous
 62
     7
370
    30
100
AcDbLine
 10
272.23309012626
 20
164.2401613763599
 30
0.0
 11
272.7330901262599
 21
164.74016137636
 31
0.0
1001
Sigma
1000

  0
LINE
  5
541
330
1F
100
AcDbEntity
  8
0
  6
Continuous
 62
     7
370
    30
100
AcDbLine
 10
272.23309012626
 20
132.2401613763599
 30
0.0
 11
272.7330901262599
 21
131.7401613763599
 31
0.0
1001
Sigma
1000

  0
LINE
  5
543
330
1F
100
AcDbEntity
  8
0
  6
Continuous
 62
     7
370
    30
100
AcDbLine
 10
298.63309012626
 20
164.2401613763599
 30
0.0
 11
298.63309012626
 21
132.2401613763599
 31
0.0
1001
Sigma
1000

  0
LINE
  5
545
330
1F
100
AcDbEntity
  8
0
  6
Continuous
 62
     7
370
    30
100
AcDbLine
 10
298.63309012626
 20
164.2401613763599
 30
0.0
 11
299.13309012626
 21
164.74016137636
 31
0.0
1001
Sigma
1000

  0
LINE
  5
547
330
1F
100
AcDbEntity
  8
0
  6
Continuous
 62
     7
370
    30
100
AcDbLine
 10
298.63309012626
 20
132.2401613763599
 30
0.0
 11
299.13309012626
 21
131.7401613763599
 31
0.0
1001
Sigma
1000

  0
LINE
  5
549
330
1F
100
AcDbEntity
  8
0
  6
Continuous
 62
     7
370
    30
100
AcDbLine
 10
298.13309012626
 20
164.74016137636
 30
0.0
 11
298.63309012626
 21
164.2401613763599
 31
0.0
1001
Sigma
1000

  0
LINE
  5
54B
330
1F
100
AcDbEntity
  8
0
  6
Continuous
 62
     7
370
    30
100
AcDbLine
 10
298.13309012626
 20
164.74016137636
 30
0.0
 11
298.13309012626
 21
131.7401613763599
 31
0.0
1001
Sigma
1000

  0
LINE
  5
54D
330
1F
100
AcDbEntity
  8
0
  6
Continuous
 62
     7
370
    30
100
AcDbLine
 10
299.13309012626
 20
164.74016137636
 30
0.0
 11
299.13309012626
 21
131.7401613763599
 31
0.0
1001
Sigma
1000

  0
LINE
  5
54F
330
1F
100
AcDbEntity
  8
0
  6
Continuous
 62
     7
370
    30
100
AcDbLine
 10
298.13309012626
 20
131.7401613763599
 30
0.0
 11
298.63309012626
 21
132.2401613763599
 31
0.0
1001
Sigma
1000

  0
LINE
  5
551
330
1F
100
AcDbEntity
  8
0
  6
Continuous
 62
     7
370
    30
100
AcDbLine
 10
299.13309012626
 20
164.74016137636
 30
0.0
 11
330.27309012626
 21
164.74016137636
 31
0.0
1001
Sigma
1000

  0
LINE
  5
553
330
1F
100
AcDbEntity
  8
0
  6
Continuous
 62
     7
370
    30
100
AcDbLine
 10
299.13309012626
 20
131.7401613763599
 30
0.0
 11
330.27309012626
 21
131.7401613763599
 31
0.0
1001
Sigma
1000

  0
LINE
  5
555
330
1F
100
AcDbEntity
  8
0
  6
Continuous
 62
     7
370
    30
100
AcDbLine
 10
330.27309012626
 20
164.74016137636
 30
0.0
 11
330.7730901262599
 21
164.2401613763599
 31
0.0
1001
Sigma
1000

  0
LINE
  5
557
330
1F
100
AcDbEntity
  8
0
  6
Continuous
 62
     7
370
    30
100
AcDbLine
 10
330.27309012626
 20
131.7401613763599
 30
0.0
 11
330.7730901262599
 21
132.2401613763599
 31
0.0
1001
Sigma
1000

  0
CIRCLE
  5
559
330
1F
100
AcDbEntity
  8
0
  6
Continuous
 62
     7
370
    30
100
AcDbCircle
 10
348.29909012626
 20
148.24016137636
 30
0.0
 40
1.0
1001
Sigma
1000

  0
CIRCLE
  5
55B
330
1F
100
AcDbEntity
  8
0
  6
Continuous
 62
     7
370
    30
100
AcDbCircle
 10
63.633090126258
 20
148.24016137636
 30
0.0
 40
1.0
1001
Sigma
1000

  0
CIRCLE
  5
55D
330
1F
100
AcDbEntity
  8
0
  6
Continuous
 62
     7
370
    30
100
AcDbCircle
 10
166.7486011482999
 20
130.2401613763599
 30
0.0
 40
2.0
1001
Sigma
1000

  0
CIRCLE
  5
55F
330
1F
100
AcDbEntity
  8
0
  6
Continuous
 62
     7
370
    30
100
AcDbCircle
 10
196.7486011483
 20
130.2401613763599
 30
0.0
 40
2.0
1001
Sigma
1000

  0
CIRCLE
  5
561
330
1F
100
AcDbEntity
  8
0
  6
Continuous
 62
     7
370
    30
100
AcDbCircle
 10
196.7486011483
 20
166.2401613763599
 30
0.0
 40
2.0
1001
Sigma
1000

  0
CIRCLE
  5
563
330
1F
100
AcDbEntity
  8
0
  6
Continuous
 62
     7
370
    30
100
AcDbCircle
 10
166.7486011482999
 20
130.2401613763599
 30
0.0
 40
1.649999999999999
1001
Sigma
1000

  0
CIRCLE
  5
565
330
1F
100
AcDbEntity
  8
0
  6
Continuous
 62
     7
370
    30
100
AcDbCircle
 10
196.71081834269
 20
130.3068768072199
 30
0.0
 40
1.649999999999999
1001
Sigma
1000

  0
CIRCLE
  5
567
330
1F
100
AcDbEntity
  8
0
  6
Continuous
 62
     7
370
    30
100
AcDbCircle
 10
196.71081834269
 20
166.1734459454999
 30
0.0
 40
1.649999999999999
1001
Sigma
1000

  0
CIRCLE
  5
569
330
1F
100
AcDbEntity
  8
0
  6
Continuous
 62
     7
370
    30
100
AcDbCircle
 10
166.7486011482999
 20
166.2401613763599
 30
0.0
 40
1.649999999999999
1001
Sigma
1000

  0
CIRCLE
  5
56B
330
1F
100
AcDbEntity
  8
0
  6
Continuous
 62
     7
370
    30
100
AcDbCircle
 10
166.7486011482999
 20
166.2401613763599
 30
0.0
 40
2.0
1001
Sigma
1000

  0
CIRCLE
  5
56D
330
1F
100
AcDbEntity
  8
0
  6
Continuous
 62
     7
370
    30
100
AcDbCircle
 10
181.8330901262499
 20
101.24016137636
 30
0.0
 40
1.5
1001
Sigma
1000

  0
CIRCLE
  5
56F
330
1F
100
AcDbEntity
  8
0
  6
Continuous
 62
     7
370
    30
100
AcDbCircle
 10
181.8330901262499
 20
101.24016137636
 30
0.0
 40
1.25
1001
Sigma
1000

  0
TEXT
  5
571
330
1F
100
AcDbEntity
  8
0
  6
Continuous
 62
     7
370
    15
100
AcDbText
 10
223.65809012626
 20
132.54297386682
 30
0.0
 40
1.6272
  1
2
 50
90.0
 41
1.154867256637168
  7
KCADTEXTSTANDARD
100
AcDbText
1001
Sigma
1000

  0
TEXT
  5
573
330
1F
100
AcDbEntity
  8
0
  6
Continuous
 62
     7
370
    15
100
AcDbText
 10
223.65809012626
 20
134.54297386682
 30
0.0
 40
1.6272
  1
3
 50
90.0
 41
1.154867256637168
  7
KCADTEXTSTANDARD
100
AcDbText
1001
Sigma
1000

  0
TEXT
  5
575
330
1F
100
AcDbEntity
  8
0
  6
Continuous
 62
     7
370
    15
100
AcDbText
 10
223.65809012626
 20
137.54297386682
 30
0.0
 40
1.6272
  1
4
 50
90.0
 41
1.154867256637168
  7
KCADTEXTSTANDARD
100
AcDbText
1001
Sigma
1000

  0
TEXT
  5
577
330
1F
100
AcDbEntity
  8
0
  6
Continuous
 62
     7
370
    15
100
AcDbText
 10
223.65809012626
 20
145.04297386682
 30
0.0
 40
1.6272
  1
6
 50
90.0
 41
1.154867256637168
  7
KCADTEXTSTANDARD
100
AcDbText
1001
Sigma
1000

  0
TEXT
  5
579
330
1F
100
AcDbEntity
  8
0
  6
Continuous
 62
     7
370
    15
100
AcDbText
 10
223.65809012626
 20
141.04297386682
 30
0.0
 40
1.6272
  1
5
 50
90.0
 41
1.154867256637168
  7
KCADTEXTSTANDARD
100
AcDbText
1001
Sigma
1000

  0
LINE
  5
57C
102
{ACAD_REACTORS
330
57B
102
}
330
1F
100
AcDbEntity
  8
0
  6
Continuous
 62
     7
370
    15
100
AcDbLine
 10
235.26364204398
 20
110.25349470969
 30
0.0
 11
253.09274193383
 21
110.25349470969
 31
0.0
1001
Sigma
1000

  0
LINE
  5
57E
102
{ACAD_REACTORS
330
57B
102
}
330
1F
100
AcDbEntity
  8
0
  6
Continuous
 62
     7
370
    15
100
AcDbLine
 10
219.33309012626
 20
131.7401613763599
 30
0.0
 11
235.26364204398
 21
110.25349470969
 31
0.0
1001
Sigma
1000

  0
TEXT
  5
580
102
{ACAD_REACTORS
330
57B
102
}
330
1F
100
AcDbEntity
  8
0
  6
Continuous
 62
     7
370
    30
100
AcDbText
 10
236.35275676765
 20
111.2284947216099
 30
0.0
 40
3.149999999999999
  1
可変絞り部
 41
0.9934285720757075
  7
KCADTEXTSTANDARD
100
AcDbText
1001
Sigma
1000

  0
LINE
  5
582
102
{ACAD_REACTORS
330
57B
102
}
330
1F
100
AcDbEntity
  8
0
  6
Continuous
 62
     7
370
    15
100
AcDbLine
 10
219.33309012626
 20
131.7401613763599
 30
0.0
 11
220.3165250887999
 21
128.73469046915
 31
0.0
1001
Sigma
1000

  0
LINE
  5
584
102
{ACAD_REACTORS
330
57B
102
}
330
1F
100
AcDbEntity
  8
0
  6
Continuous
 62
     7
370
    15
100
AcDbLine
 10
219.33309012626
 20
131.7401613763599
 30
0.0
 11
221.9231206406099
 21
129.9258456281199
 31
0.0
1001
Sigma
1000

  0
LINE
  5
586
102
{ACAD_REACTORS
330
57B
102
}
330
1F
100
AcDbEntity
  8
0
  6
Continuous
 62
     7
370
    15
100
AcDbLine
 10
219.33309012626
 20
131.7401613763599
 30
0.0
 11
235.26364204398
 21
110.25349470969
 31
0.0
1001
Sigma
1000

  0
LINE
  5
589
102
{ACAD_REACTORS
330
588
102
}
330
1F
100
AcDbEntity
  8
0
  6
Continuous
 62
     7
370
    15
100
AcDbLine
 10
212.12048559776
 20
99.094140207879
 30
0.0
 11
231.4824232653899
 21
99.094140207879
 31
0.0
1001
Sigma
1000

  0
LINE
  5
58B
102
{ACAD_REACTORS
330
588
102
}
330
1F
100
AcDbEntity
  8
0
  6
Continuous
 62
     7
370
    15
100
AcDbLine
 10
198.4551015803899
 20
125.52368148751
 30
0.0
 11
212.12048559776
 21
99.094140207879
 31
0.0
1001
Sigma
1000

  0
TEXT
  5
58D
102
{ACAD_REACTORS
330
588
102
}
330
1F
100
AcDbEntity
  8
0
  6
Continuous
 62
     7
370
    30
100
AcDbText
 10
214.7434233502599
 20
100.0691402198
 30
0.0
 40
3.149999999999999
  1
同軸照明部
 41
0.9934285720757075
  7
KCADTEXTSTANDARD
100
AcDbText
1001
Sigma
1000

  0
LINE
  5
58F
102
{ACAD_REACTORS
330
588
102
}
330
1F
100
AcDbEntity
  8
0
  6
Continuous
 62
     7
370
    15
100
AcDbLine
 10
198.4551015803899
 20
125.52368148751
 30
0.0
 11
198.9446799947
 21
122.399531575
 31
0.0
1001
Sigma
1000

  0
LINE
  5
591
102
{ACAD_REACTORS
330
588
102
}
330
1F
100
AcDbEntity
  8
0
  6
Continuous
 62
     7
370
    15
100
AcDbLine
 10
198.4551015803899
 20
125.52368148751
 30
0.0
 11
200.7212542593499
 21
123.31810860609
 31
0.0
1001
Sigma
1000

  0
LINE
  5
593
102
{ACAD_REACTORS
330
588
102
}
330
1F
100
AcDbEntity
  8
0
  6
Continuous
 62
     7
370
    15
100
AcDbLine
 10
198.4551015803899
 20
125.52368148751
 30
0.0
 11
212.12048559776
 21
99.094140207879
 31
0.0
1001
Sigma
1000

  0
LINE
  5
596
102
{ACAD_REACTORS
330
595
102
}
330
1F
100
AcDbEntity
  8
0
  6
Continuous
 62
     7
370
    15
100
AcDbLine
 10
157.9514989310899
 20
106.49611354121
 30
0.0
 11
142.33222791821
 21
106.49611354121
 31
0.0
1001
Sigma
1000

  0
LINE
  5
598
102
{ACAD_REACTORS
330
595
102
}
330
1F
100
AcDbEntity
  8
0
  6
Continuous
 62
     7
370
    15
100
AcDbLine
 10
166.10130610733
 20
128.34780593143
 30
0.0
 11
157.9514989310899
 21
106.49611354121
 31
0.0
1001
Sigma
1000

  0
TEXT
  5
59A
102
{ACAD_REACTORS
330
595
102
}
330
1F
100
AcDbEntity
  8
0
  6
Continuous
 62
     7
370
    30
100
AcDbText
 10
144.33522786766
 20
107.4711135531299
 30
0.0
 40
3.149999999999999
  1
４－Ｍ４
 41
0.9907142863209758
  7
KCADTEXTSTANDARD
100
AcDbText
1001
Sigma
1000

  0
LINE
  5
59C
102
{ACAD_REACTORS
330
595
102
}
330
1F
100
AcDbEntity
  8
0
  6
Continuous
 62
     7
370
    15
100
AcDbLine
 10
166.10130610733
 20
128.34780593143
 30
0.0
 11
164.11600863932
 21
125.88638486563
 31
0.0
1001
Sigma
1000

  0
LINE
  5
59E
102
{ACAD_REACTORS
330
595
102
}
330
1F
100
AcDbEntity
  8
0
  6
Continuous
 62
     7
370
    15
100
AcDbLine
 10
166.10130610733
 20
128.34780593143
 30
0.0
 11
165.9899207724099
 21
125.18749059799
 31
0.0
1001
Sigma
1000

  0
LINE
  5
5A0
102
{ACAD_REACTORS
330
595
102
}
330
1F
100
AcDbEntity
  8
0
  6
Continuous
 62
     7
370
    15
100
AcDbLine
 10
166.10130610733
 20
128.34780593143
 30
0.0
 11
157.9514989310899
 21
106.49611354121
 31
0.0
1001
Sigma
1000

  0
DIMENSION
  5
5A2
330
1F
100
AcDbEntity
  8
KCAD_DIMS
 62
     7
100
AcDbDimension
  2
*D47
 10
147.83309012625
 20
196.1553757634399
 30
0.0
 11
136.0830901262499
 21
198.2887087634399
 31
0.0
 70
    32
 71
     5
 42
-1.0
  3
Standard
100
AcDbAlignedDimension
 13
124.33309012625
 23
167.2401613763599
 33
0.0
 14
147.83309012625
 24
170.2401613763599
 34
0.0
100
AcDbRotatedDimension
1001
Sigma
1000
DIM_TPHO
1001
KCAD_DIM_EXT
1002
{
1071
 20001212
1070
     0
1070
     2
1070
     2
1040
2.5
1040
0.0
1040
0.0
1040
0.0
1040
0.0
1040
0.0
1040
0.0
1040
0.0
1070
     0
1040
50.0
1040
-1.0
1013
1.0
1023
0.0
1033
0.0
1040
0.0
1013
1.0
1023
0.0
1033
0.0
1000
_None
1040
1.0
1040
23.5
1070
     0
1070
     0
1070
     0
1012
1.0
1022
0.0
1032
0.0
1013
1.0
1023
0.0
1033
0.0
1002
}
1001
ACAD
1000
DSTYLE
1002
{
1070
    41
1040
2.5
1070
    42
1040
0.0
1070
    43
1040
8.0
1070
    44
1040
0.0
1070
    45
1040
0.0
1070
    73
1070
     0
1070
    74
1070
     0
1070
    77
1070
     1
1070
    78
1070
     8
1070
    79
1070
     2
1070
   140
1040
3.2
1070
   141
1040
2.5
1070
   145
1040
0.0001
1070
   146
1040
0.667
1070
   147
1040
0.5333000000000001
1070
   172
1070
     1
1070
   173
1070
     1
1070
   179
1070
     3
1070
   271
1070
     2
1070
   272
1070
     3
1070
   279
1070
     2
1070
   284
1070
     8
1070
   289
1070
     2
1070
   340
1005
189
1070
   341
1005
21
1070
   343
1005
12D
1070
   344
1005
12D
1002
}
  0
DIMENSION
  5
5DE
330
1F
100
AcDbEntity
  8
KCAD_DIMS
 62
     7
100
AcDbDimension
  2
*D48
 10
113.9706879886499
 20
129.2401613763599
 30
0.0
 11
111.83735498865
 21
148.24016137636
 31
0.0
 70
    32
 71
     5
 42
-1.0
 53
90.0
  3
Standard
100
AcDbAlignedDimension
 13
124.33309012625
 23
167.2401613763599
 33
0.0
 14
124.33309012625
 24
129.2401613763599
 34
0.0
 50
90.0
100
AcDbRotatedDimension
1001
Sigma
1000
DIM_TPVO
1001
KCAD_DIM_EXT
1002
{
1071
 20001212
1070
     0
1070
     2
1070
     2
1040
2.5
1040
0.0
1040
0.0
1040
0.0
1040
0.0
1040
0.0
1040
0.0
1040
0.0
1070
     0
1040
50.0
1040
-1.0
1013
1.0
1023
0.0
1033
0.0
1040
0.0
1013
1.0
1023
0.0
1033
0.0
1000
_None
1040
1.0
1040
38.0
1070
     0
1070
     0
1070
     0
1012
1.0
1022
0.0
1032
0.0
1013
1.0
1023
0.0
1033
0.0
1002
}
1001
ACAD
1000
DSTYLE
1002
{
1070
     3
1000
φ<>
1070
    41
1040
2.5
1070
    42
1040
0.0
1070
    43
1040
8.0
1070
    44
1040
0.0
1070
    45
1040
0.0
1070
    73
1070
     0
1070
    74
1070
     0
1070
    77
1070
     1
1070
    78
1070
     8
1070
    79
1070
     2
1070
   140
1040
3.2
1070
   141
1040
2.5
1070
   145
1040
0.0001
1070
   146
1040
0.667
1070
   147
1040
0.5333000000000001
1070
   172
1070
     1
1070
   173
1070
     1
1070
   179
1070
     3
1070
   271
1070
     2
1070
   272
1070
     3
1070
   279
1070
     2
1070
   284
1070
     8
1070
   289
1070
     2
1070
   340
1005
189
1070
   341
1005
21
1070
   343
1005
12D
1070
   344
1005
12D
1002
}
  0
DIMENSION
  5
61A
330
1F
100
AcDbEntity
  8
KCAD_DIMS
 62
     7
100
AcDbDimension
  2
*D49
 10
107.12370649106
 20
126.24016137636
 30
0.0
 11
104.99037349106
 21
148.24016137636
 31
0.0
 70
    32
 71
     5
 42
-1.0
 53
90.0
  3
Standard
100
AcDbAlignedDimension
 13
148.3330901262499
 23
170.2401613763599
 33
0.0
 14
148.3330901262499
 24
126.24016137636
 34
0.0
 50
90.0
100
AcDbRotatedDimension
1001
Sigma
1000
DIM_TPVO
1001
KCAD_DIM_EXT
1002
{
1071
 20001212
1070
     0
1070
     2
1070
     2
1040
2.5
1040
0.0
1040
0.0
1040
0.0
1040
0.0
1040
0.0
1040
0.0
1040
0.0
1070
     0
1040
50.0
1040
-1.0
1013
1.0
1023
0.0
1033
0.0
1040
0.0
1013
1.0
1023
0.0
1033
0.0
1000
_None
1040
1.0
1040
44.0
1070
     0
1070
     0
1070
     0
1012
1.0
1022
0.0
1032
0.0
1013
1.0
1023
0.0
1033
0.0
1002
}
1001
ACAD
1000
DSTYLE
1002
{
1070
     3
1000
φ<>
1070
    41
1040
2.5
1070
    42
1040
0.0
1070
    43
1040
8.0
1070
    44
1040
0.0
1070
    45
1040
0.0
1070
    73
1070
     0
1070
    74
1070
     0
1070
    77
1070
     1
1070
    78
1070
     8
1070
    79
1070
     2
1070
   140
1040
3.2
1070
   141
1040
2.5
1070
   145
1040
0.0001
1070
   146
1040
0.667
1070
   147
1040
0.5333000000000001
1070
   172
1070
     1
1070
   173
1070
     1
1070
   179
1070
     3
1070
   271
1070
     2
1070
   272
1070
     3
1070
   279
1070
     2
1070
   284
1070
     8
1070
   289
1070
     2
1070
   340
1005
189
1070
   341
1005
21
1070
   343
1005
12D
1070
   344
1005
12D
1002
}
  0
DIMENSION
  5
656
330
1F
100
AcDbEntity
  8
KCAD_DIMS
 62
     7
100
AcDbDimension
  2
*D50
 10
203.8330901262499
 20
189.4553757634399
 30
0.0
 11
181.8330901262499
 21
191.58870876344
 31
0.0
 70
    32
 71
     5
 42
-1.0
  3
Standard
100
AcDbAlignedDimension
 13
159.8330901262499
 23
173.24016137636
 33
0.0
 14
203.8330901262499
 24
173.24016137636
 34
0.0
100
AcDbRotatedDimension
1001
Sigma
1000
DIM_TPHO
1001
KCAD_DIM_EXT
1002
{
1071
 20001212
1070
     0
1070
     2
1070
     2
1040
2.5
1040
0.0
1040
0.0
1040
0.0
1040
0.0
1040
0.0
1040
0.0
1040
0.0
1070
     0
1040
50.0
1040
-1.0
1013
1.0
1023
0.0
1033
0.0
1040
0.0
1013
1.0
1023
0.0
1033
0.0
1000
_None
1040
1.0
1040
44.0
1070
     0
1070
     0
1070
     0
1012
1.0
1022
0.0
1032
0.0
1013
1.0
1023
0.0
1033
0.0
1002
}
1001
ACAD
1000
DSTYLE
1002
{
1070
    41
1040
2.5
1070
    42
1040
0.0
1070
    43
1040
8.0
1070
    44
1040
0.0
1070
    45
1040
0.0
1070
    73
1070
     0
1070
    74
1070
     0
1070
    77
1070
     1
1070
    78
1070
     8
1070
    79
1070
     2
1070
   140
1040
3.2
1070
   141
1040
2.5
1070
   145
1040
0.0001
1070
   146
1040
0.667
1070
   147
1040
0.5333000000000001
1070
   172
1070
     1
1070
   173
1070
     1
1070
   179
1070
     3
1070
   271
1070
     2
1070
   272
1070
     3
1070
   279
1070
     2
1070
   284
1070
     8
1070
   289
1070
     2
1070
   340
1005
189
1070
   341
1005
21
1070
   343
1005
12D
1070
   344
1005
12D
1002
}
  0
POINT
  5
693
330
1F
100
AcDbEntity
  8
3
  6
Continuous
 62
     7
370
    15
100
AcDbPoint
 10
203.8330901262499
 20
189.4553757634399
 30
0.0
1001
Sigma
1000

  0
DIMENSION
  5
695
330
1F
100
AcDbEntity
  8
KCAD_DIMS
 62
     7
100
AcDbDimension
  2
*D51
 10
203.8330901262499
 20
196.1553757634399
 30
0.0
 11
175.83309012625
 21
198.2887087634399
 31
0.0
 70
    32
 71
     5
 42
-1.0
  3
Standard
100
AcDbAlignedDimension
 13
147.83309012625
 23
169.7401613763599
 33
0.0
 14
203.8330901262499
 24
173.24016137636
 34
0.0
100
AcDbRotatedDimension
1001
Sigma
1000
DIM_TPHO
1001
KCAD_DIM_EXT
1002
{
1071
 20001212
1070
     0
1070
     2
1070
     2
1040
2.5
1040
0.0
1040
0.0
1040
0.0
1040
0.0
1040
0.0
1040
0.0
1040
0.0
1070
     0
1040
50.0
1040
-1.0
1013
1.0
1023
0.0
1033
0.0
1040
0.0
1013
1.0
1023
0.0
1033
0.0
1000
_None
1040
1.0
1040
56.0
1070
     0
1070
     0
1070
     0
1012
1.0
1022
0.0
1032
0.0
1013
1.0
1023
0.0
1033
0.0
1002
}
1001
ACAD
1000
DSTYLE
1002
{
1070
    41
1040
2.5
1070
    42
1040
0.0
1070
    43
1040
8.0
1070
    44
1040
0.0
1070
    45
1040
0.0
1070
    73
1070
     0
1070
    74
1070
     0
1070
    77
1070
     1
1070
    78
1070
     8
1070
    79
1070
     2
1070
   140
1040
3.2
1070
   141
1040
2.5
1070
   145
1040
0.0001
1070
   146
1040
0.667
1070
   147
1040
0.5333000000000001
1070
   172
1070
     1
1070
   173
1070
     1
1070
   179
1070
     3
1070
   271
1070
     2
1070
   272
1070
     3
1070
   279
1070
     2
1070
   284
1070
     8
1070
   289
1070
     2
1070
   340
1005
189
1070
   341
1005
21
1070
   343
1005
12D
1070
   344
1005
12D
1002
}
  0
DIMENSION
  5
6D1
330
1F
100
AcDbEntity
  8
KCAD_DIMS
 62
     7
100
AcDbDimension
  2
*D52
 10
216.83309012626
 20
196.1553757634399
 30
0.0
 11
210.33309012626
 21
198.2887087634399
 31
0.0
 70
    32
 71
     5
 42
-1.0
  3
Standard
100
AcDbAlignedDimension
 13
203.8330901262499
 23
173.24016137636
 33
0.0
 14
216.83309012626
 24
165.2401613763599
 34
0.0
100
AcDbRotatedDimension
1001
Sigma
1000
DIM_TPHO
1001
KCAD_DIM_EXT
1002
{
1071
 20001212
1070
     0
1070
     2
1070
     2
1040
2.5
1040
0.0
1040
0.0
1040
0.0
1040
0.0
1040
0.0
1040
0.0
1040
0.0
1070
     0
1040
50.0
1040
-1.0
1013
1.0
1023
0.0
1033
0.0
1040
0.0
1013
1.0
1023
0.0
1033
0.0
1000
_None
1040
1.0
1040
13.000000000004
1070
     0
1070
     0
1070
     0
1012
1.0
1022
0.0
1032
0.0
1013
1.0
1023
0.0
1033
0.0
1002
}
1001
ACAD
1000
DSTYLE
1002
{
1070
    41
1040
2.5
1070
    42
1040
0.0
1070
    43
1040
8.0
1070
    44
1040
0.0
1070
    45
1040
0.0
1070
    73
1070
     0
1070
    74
1070
     0
1070
    77
1070
     1
1070
    78
1070
     8
1070
    79
1070
     2
1070
   140
1040
3.2
1070
   141
1040
2.5
1070
   145
1040
0.0001
1070
   146
1040
0.667
1070
   147
1040
0.5333000000000001
1070
   172
1070
     1
1070
   173
1070
     1
1070
   179
1070
     3
1070
   271
1070
     2
1070
   272
1070
     3
1070
   279
1070
     2
1070
   284
1070
     8
1070
   289
1070
     2
1070
   340
1005
189
1070
   341
1005
21
1070
   343
1005
12D
1070
   344
1005
12D
1002
}
  0
DIMENSION
  5
70D
330
1F
100
AcDbEntity
  8
KCAD_DIMS
 62
     7
100
AcDbDimension
  2
*D53
 10
228.83309012626
 20
196.1553757634399
 30
0.0
 11
222.83309012626
 21
198.2887087634399
 31
0.0
 70
    32
 71
     5
 42
-1.0
  3
Standard
100
AcDbAlignedDimension
 13
216.83309012626
 23
164.74016137636
 33
0.0
 14
228.83309012626
 24
165.2401613763599
 34
0.0
100
AcDbRotatedDimension
1001
Sigma
1000
DIM_TPHO
1001
KCAD_DIM_EXT
1002
{
1071
 20001212
1070
     0
1070
     2
1070
     2
1040
2.5
1040
0.0
1040
0.0
1040
0.0
1040
0.0
1040
0.0
1040
0.0
1040
0.0
1070
     0
1040
50.0
1040
-1.0
1013
1.0
1023
0.0
1033
0.0
1040
0.0
1013
1.0
1023
0.0
1033
0.0
1000
_None
1040
1.0
1040
12.0
1070
     0
1070
     0
1070
     0
1012
1.0
1022
0.0
1032
0.0
1013
1.0
1023
0.0
1033
0.0
1002
}
1001
ACAD
1000
DSTYLE
1002
{
1070
    41
1040
2.5
1070
    42
1040
0.0
1070
    43
1040
8.0
1070
    44
1040
0.0
1070
    45
1040
0.0
1070
    73
1070
     0
1070
    74
1070
     0
1070
    77
1070
     1
1070
    78
1070
     8
1070
    79
1070
     2
1070
   140
1040
3.2
1070
   141
1040
2.5
1070
   145
1040
0.0001
1070
   146
1040
0.667
1070
   147
1040
0.5333000000000001
1070
   172
1070
     1
1070
   173
1070
     1
1070
   179
1070
     3
1070
   271
1070
     2
1070
   272
1070
     3
1070
   279
1070
     2
1070
   284
1070
     8
1070
   289
1070
     2
1070
   340
1005
189
1070
   341
1005
21
1070
   343
1005
12D
1070
   344
1005
12D
1002
}
  0
DIMENSION
  5
749
330
1F
100
AcDbEntity
  8
KCAD_DIMS
 62
     7
100
AcDbDimension
  2
*D54
 10
330.7730901262599
 20
196.1553757634399
 30
0.0
 11
279.8030901262599
 21
198.2887087634399
 31
0.0
 70
    32
 71
     5
 42
-1.0
  3
Standard
100
AcDbAlignedDimension
 13
228.83309012626
 23
164.74016137636
 33
0.0
 14
330.7730901262599
 24
164.2401613763599
 34
0.0
100
AcDbRotatedDimension
1001
Sigma
1000
DIM_TPHO
1001
KCAD_DIM_EXT
1002
{
1071
 20001212
1070
     0
1070
     2
1070
     2
1040
2.5
1040
0.0
1040
0.0
1040
0.0
1040
0.0
1040
0.0
1040
0.0
1040
0.0
1070
     0
1040
50.0
1040
-1.0
1013
1.0
1023
0.0
1033
0.0
1040
0.0
1013
1.0
1023
0.0
1033
0.0
1000
_None
1040
1.0
1040
101.94
1070
     0
1070
     0
1070
     0
1012
1.0
1022
0.0
1032
0.0
1013
1.0
1023
0.0
1033
0.0
1002
}
1001
ACAD
1000
DSTYLE
1002
{
1070
    41
1040
2.5
1070
    42
1040
0.0
1070
    43
1040
8.0
1070
    44
1040
0.0
1070
    45
1040
0.0
1070
    73
1070
     0
1070
    74
1070
     0
1070
    77
1070
     1
1070
    78
1070
     8
1070
    79
1070
     2
1070
   140
1040
3.2
1070
   141
1040
2.5
1070
   145
1040
0.0001
1070
   146
1040
0.667
1070
   147
1040
0.5333000000000001
1070
   172
1070
     1
1070
   173
1070
     1
1070
   179
1070
     3
1070
   271
1070
     2
1070
   272
1070
     3
1070
   279
1070
     2
1070
   284
1070
     8
1070
   289
1070
     2
1070
   340
1005
189
1070
   341
1005
21
1070
   343
1005
12D
1070
   344
1005
12D
1002
}
  0
DIMENSION
  5
785
330
1F
100
AcDbEntity
  8
KCAD_DIMS
 62
     7
100
AcDbDimension
  2
*D55
 10
334.7730901262599
 20
196.1553757634399
 30
0.0
 11
339.99059266228
 21
198.2887087634399
 31
0.0
 70
    32
 71
     5
 42
-1.0
  3
Standard
100
AcDbAlignedDimension
 13
330.7730901262599
 23
160.54016137636
 33
0.0
 14
334.7730901262599
 24
160.54016137636
 34
0.0
100
AcDbRotatedDimension
1001
Sigma
1000
DIM_TPHO
1001
KCAD_DIM_EXT
1002
{
1071
 20001212
1070
     0
1070
     1
1070
     1
1040
2.5
1040
5.0
1040
6.5385147516134
1040
0.0
1040
0.0
1040
0.0
1040
0.0
1040
0.0
1070
     0
1040
50.0
1040
-1.0
1013
1.0
1023
0.0
1033
0.0
1040
0.0
1013
1.0
1023
0.0
1033
0.0
1000
_None
1040
1.0
1040
4.0
1070
     0
1070
     0
1070
     0
1012
1.0
1022
0.0
1032
0.0
1013
1.0
1023
0.0
1033
0.0
1002
}
1001
ACAD
1000
DSTYLE
1002
{
1070
    41
1040
2.5
1070
    42
1040
0.0
1070
    43
1040
8.0
1070
    44
1040
0.0
1070
    45
1040
0.0
1070
    73
1070
     0
1070
    74
1070
     0
1070
    77
1070
     1
1070
    78
1070
     8
1070
    79
1070
     2
1070
   140
1040
3.2
1070
   141
1040
2.5
1070
   145
1040
0.0001
1070
   146
1040
0.667
1070
   147
1040
0.5333000000000001
1070
   172
1070
     1
1070
   173
1070
     1
1070
   179
1070
     3
1070
   271
1070
     2
1070
   272
1070
     3
1070
   279
1070
     2
1070
   284
1070
     8
1070
   289
1070
     2
1070
   340
1005
189
1070
   341
1005
21
1070
   343
1005
12D
1070
   344
1005
12D
1002
}
  0
DIMENSION
  5
7CD
330
1F
100
AcDbEntity
  8
KCAD_DIMS
 62
     7
100
AcDbDimension
  2
*D56
 10
63.633090126258
 20
208.1369680851099
 30
0.0
 11
93.98309012625602
 21
210.27030108511
 31
0.0
 70
    32
 71
     5
 42
-1.0
  3
Standard
100
AcDbAlignedDimension
 13
124.33309012625
 23
167.2401613763599
 33
0.0
 14
63.633090126258
 24
152.0111726119799
 34
0.0
100
AcDbRotatedDimension
1001
Sigma
1000
DIM_TPHO
1001
KCAD_DIM_EXT
1002
{
1071
 20001212
1070
     0
1070
     2
1070
     2
1040
2.5
1040
0.0
1040
0.0
1040
0.0
1040
0.0
1040
0.0
1040
0.0
1040
0.0
1070
     0
1040
50.0
1040
-1.0
1013
1.0
1023
0.0
1033
0.0
1040
0.0
1013
1.0
1023
0.0
1033
0.0
1000
_None
1040
1.0
1040
60.699999999996
1070
     0
1070
     0
1070
     0
1012
1.0
1022
0.0
1032
0.0
1013
1.0
1023
0.0
1033
0.0
1002
}
1001
ACAD
1000
DSTYLE
1002
{
1070
     3
1000
WD=<>
1070
    41
1040
2.5
1070
    42
1040
0.0
1070
    43
1040
8.0
1070
    44
1040
0.0
1070
    45
1040
0.0
1070
    73
1070
     0
1070
    74
1070
     0
1070
    77
1070
     1
1070
    78
1070
     8
1070
    79
1070
     2
1070
   140
1040
3.2
1070
   141
1040
2.5
1070
   145
1040
0.0001
1070
   146
1040
0.667
1070
   147
1040
0.5333000000000001
1070
   172
1070
     1
1070
   173
1070
     1
1070
   179
1070
     3
1070
   271
1070
     2
1070
   272
1070
     3
1070
   279
1070
     2
1070
   284
1070
     8
1070
   289
1070
     2
1070
   340
1005
189
1070
   341
1005
21
1070
   343
1005
12D
1070
   344
1005
12D
1002
}
  0
DIMENSION
  5
809
330
1F
100
AcDbEntity
  8
KCAD_DIMS
 62
     7
100
AcDbDimension
  2
*D57
 10
124.33309012625
 20
208.1369680851099
 30
0.0
 11
227.5530901262599
 21
210.27030108511
 31
0.0
 70
    32
 71
     5
 42
-1.0
  3
Standard
100
AcDbAlignedDimension
 13
330.7730901262599
 23
164.74016137636
 33
0.0
 14
124.33309012625
 24
167.2401613763599
 34
0.0
100
AcDbRotatedDimension
1001
Sigma
1000
DIM_TPHO
1001
KCAD_DIM_EXT
1002
{
1071
 20001212
1070
     0
1070
     2
1070
     2
1040
2.5
1040
0.0
1040
0.0
1040
0.0
1040
0.0
1040
0.0
1040
0.0
1040
0.0
1070
     0
1040
50.0
1040
-1.0
1013
1.0
1023
0.0
1033
0.0
1040
0.0
1013
1.0
1023
0.0
1033
0.0
1000
_None
1040
1.0
1040
206.44
1070
     0
1070
     0
1070
     0
1012
1.0
1022
0.0
1032
0.0
1013
1.0
1023
0.0
1033
0.0
1002
}
1001
ACAD
1000
DSTYLE
1002
{
1070
    41
1040
2.5
1070
    42
1040
0.0
1070
    43
1040
8.0
1070
    44
1040
0.0
1070
    45
1040
0.0
1070
    73
1070
     0
1070
    74
1070
     0
1070
    77
1070
     1
1070
    78
1070
     8
1070
    79
1070
     2
1070
   140
1040
3.2
1070
   141
1040
2.5
1070
   145
1040
0.0001
1070
   146
1040
0.667
1070
   147
1040
0.5333000000000001
1070
   172
1070
     1
1070
   173
1070
     1
1070
   179
1070
     3
1070
   271
1070
     2
1070
   272
1070
     3
1070
   279
1070
     2
1070
   284
1070
     8
1070
   289
1070
     2
1070
   340
1005
189
1070
   341
1005
21
1070
   343
1005
12D
1070
   344
1005
12D
1002
}
  0
DIMENSION
  5
845
330
1F
100
AcDbEntity
  8
KCAD_DIMS
 62
     7
100
AcDbDimension
  2
*D58
 10
348.29909012626
 20
208.1369680851099
 30
0.0
 11
339.5360901262599
 21
210.27030108511
 31
0.0
 70
    32
 71
     5
 42
-1.0
  3
Standard
100
AcDbAlignedDimension
 13
330.7730901262599
 23
164.74016137636
 33
0.0
 14
348.29909012626
 24
152.0111726119799
 34
0.0
100
AcDbRotatedDimension
1001
Sigma
1000
DIM_TPHO
1001
KCAD_DIM_EXT
1002
{
1071
 20001212
1070
     0
1070
     2
1070
     2
1040
2.5
1040
0.0
1040
0.0
1040
0.0
1040
0.0
1040
0.0
1040
0.0
1040
0.0
1070
     0
1040
50.0
1040
-1.0
1013
1.0
1023
0.0
1033
0.0
1040
0.0
1013
1.0
1023
0.0
1033
0.0
1000
_None
1040
1.0
1040
17.526
1070
     0
1070
     0
1070
     0
1012
1.0
1022
0.0
1032
0.0
1013
1.0
1023
0.0
1033
0.0
1002
}
1001
ACAD
1000
DSTYLE
1002
{
1070
    41
1040
2.5
1070
    42
1040
0.0
1070
    43
1040
8.0
1070
    44
1040
0.0
1070
    45
1040
0.0
1070
    73
1070
     0
1070
    74
1070
     0
1070
    77
1070
     1
1070
    78
1070
     8
1070
    79
1070
     2
1070
   140
1040
3.2
1070
   141
1040
2.5
1070
   145
1040
0.0001
1070
   146
1040
0.667
1070
   147
1040
0.5333000000000001
1070
   172
1070
     1
1070
   173
1070
     1
1070
   179
1070
     3
1070
   271
1070
     2
1070
   272
1070
     3
1070
   279
1070
     2
1070
   284
1070
     8
1070
   289
1070
     2
1070
   340
1005
189
1070
   341
1005
21
1070
   343
1005
12D
1070
   344
1005
12D
1002
}
  0
DIMENSION
  5
881
330
1F
100
AcDbEntity
  8
KCAD_DIMS
 62
     7
100
AcDbDimension
  2
*D59
 10
348.29909012626
 20
222.35505319149
 30
0.0
 11
205.96609012626
 21
224.4883861914899
 31
0.0
 70
    32
 71
     5
 42
-1.0
  3
Standard
100
AcDbAlignedDimension
 13
63.633090126258
 23
152.0111726119799
 33
0.0
 14
348.29909012626
 24
152.0111726119799
 34
0.0
100
AcDbRotatedDimension
1001
Sigma
1000
DIM_TPHO
1001
KCAD_DIM_EXT
1002
{
1071
 20001212
1070
     0
1070
     2
1070
     2
1040
2.5
1040
0.0
1040
0.0
1040
0.0
1040
0.0
1040
0.0
1040
0.0
1040
0.0
1070
     0
1040
50.0
1040
-1.0
1013
1.0
1023
0.0
1033
0.0
1040
0.0
1013
1.0
1023
0.0
1033
0.0
1000
_None
1040
1.0
1040
284.6659999999999
1070
     0
1070
     0
1070
     0
1012
1.0
1022
0.0
1032
0.0
1013
1.0
1023
0.0
1033
0.0
1002
}
1001
ACAD
1000
DSTYLE
1002
{
1070
    41
1040
2.5
1070
    42
1040
0.0
1070
    43
1040
8.0
1070
    44
1040
0.0
1070
    45
1040
0.0
1070
    73
1070
     0
1070
    74
1070
     0
1070
    77
1070
     1
1070
    78
1070
     8
1070
    79
1070
     2
1070
   140
1040
3.2
1070
   141
1040
2.5
1070
   145
1040
0.0001
1070
   146
1040
0.667
1070
   147
1040
0.5333000000000001
1070
   172
1070
     1
1070
   173
1070
     1
1070
   179
1070
     3
1070
   271
1070
     2
1070
   272
1070
     3
1070
   279
1070
     2
1070
   284
1070
     8
1070
   289
1070
     2
1070
   340
1005
189
1070
   341
1005
21
1070
   343
1005
12D
1070
   344
1005
12D
1002
}
  0
DIMENSION
  5
8BD
330
1F
100
AcDbEntity
  8
KCAD_DIMS
 62
     7
100
AcDbDimension
  2
*D60
 10
356.08119849021
 20
135.54016137636
 30
0.0
 11
353.94786549021
 21
148.24016137636
 31
0.0
 70
    32
  1
\A1;Ｃマウント
 71
     5
 42
-1.0
 53
90.0
  3
Standard
100
AcDbAlignedDimension
 13
334.37309012626
 23
160.94016137636
 33
0.0
 14
334.37309012626
 24
135.54016137636
 34
0.0
 50
90.0
100
AcDbRotatedDimension
1001
Sigma
1000
DIM_TPVO
1001
KCAD_DIM_EXT
1002
{
1071
 20001212
1070
     0
1070
     2
1070
     2
1040
2.5
1040
0.0
1040
0.0
1040
0.0
1040
0.0
1040
0.0
1040
0.0
1040
0.0
1070
     0
1040
50.0
1040
-1.0
1013
1.0
1023
0.0
1033
0.0
1040
0.0
1013
1.0
1023
0.0
1033
0.0
1000
_None
1040
1.0
1040
25.4
1070
     1
1070
     0
1070
     0
1012
1.0
1022
0.0
1032
0.0
1013
1.0
1023
0.0
1033
0.0
1002
}
1001
ACAD
1000
DSTYLE
1002
{
1070
    41
1040
2.5
1070
    42
1040
0.0
1070
    43
1040
8.0
1070
    44
1040
0.0
1070
    45
1040
0.0
1070
    73
1070
     0
1070
    74
1070
     0
1070
    77
1070
     1
1070
    78
1070
     8
1070
    79
1070
     2
1070
   140
1040
3.2
1070
   141
1040
2.5
1070
   145
1040
0.0001
1070
   146
1040
0.667
1070
   147
1040
0.5333000000000001
1070
   172
1070
     1
1070
   173
1070
     1
1070
   179
1070
     3
1070
   271
1070
     2
1070
   272
1070
     3
1070
   279
1070
     2
1070
   284
1070
     8
1070
   289
1070
     2
1070
   340
1005
189
1070
   341
1005
21
1070
   343
1005
12D
1070
   344
1005
12D
1002
}
  0
POINT
  5
8F9
330
1F
100
AcDbEntity
  8
3
  6
Continuous
 62
     7
370
    15
100
AcDbPoint
 10
356.08119849021
 20
135.54016137636
 30
0.0
1001
Sigma
1000

  0
DIMENSION
  5
8FB
330
1F
100
AcDbEntity
  8
KCAD_DIMS
 62
     7
100
AcDbDimension
  2
*D61
 10
362.52142293911
 20
131.7401613763599
 30
0.0
 11
360.38808993911
 21
148.24016137636
 31
0.0
 70
    32
 71
     5
 42
-1.0
 53
90.0
  3
Standard
100
AcDbAlignedDimension
 13
330.27309012626
 23
164.74016137636
 33
0.0
 14
330.27309012626
 24
131.7401613763599
 34
0.0
 50
90.0
100
AcDbRotatedDimension
1001
Sigma
1000
DIM_TPVO
1001
KCAD_DIM_EXT
1002
{
1071
 20001212
1070
     0
1070
     2
1070
     2
1040
2.5
1040
0.0
1040
0.0
1040
0.0
1040
0.0
1040
0.0
1040
0.0
1040
0.0
1070
     0
1040
50.0
1040
-1.0
1013
1.0
1023
0.0
1033
0.0
1040
0.0
1013
1.0
1023
0.0
1033
0.0
1000
_None
1040
1.0
1040
33.0
1070
     0
1070
     0
1070
     0
1012
1.0
1022
0.0
1032
0.0
1013
1.0
1023
0.0
1033
0.0
1002
}
1001
ACAD
1000
DSTYLE
1002
{
1070
     3
1000
φ<>
1070
    41
1040
2.5
1070
    42
1040
0.0
1070
    43
1040
8.0
1070
    44
1040
0.0
1070
    45
1040
0.0
1070
    73
1070
     0
1070
    74
1070
     0
1070
    77
1070
     1
1070
    78
1070
     8
1070
    79
1070
     2
1070
   140
1040
3.2
1070
   141
1040
2.5
1070
   145
1040
0.0001
1070
   146
1040
0.667
1070
   147
1040
0.5333000000000001
1070
   172
1070
     1
1070
   173
1070
     1
1070
   179
1070
     3
1070
   271
1070
     2
1070
   272
1070
     3
1070
   279
1070
     2
1070
   284
1070
     8
1070
   289
1070
     2
1070
   340
1005
189
1070
   341
1005
21
1070
   343
1005
12D
1070
   344
1005
12D
1002
}
  0
POINT
  5
937
330
1F
100
AcDbEntity
  8
3
  6
Continuous
 62
     7
370
    15
100
AcDbPoint
 10
362.52142293911
 20
164.74016137636
 30
0.0
1001
Sigma
1000

  0
POINT
  5
939
330
1F
100
AcDbEntity
  8
3
  6
Continuous
 62
     7
370
    15
100
AcDbPoint
 10
368.77800123737
 20
173.24016137636
 30
0.0
1001
Sigma
1000

  0
DIMENSION
  5
93B
330
1F
100
AcDbEntity
  8
KCAD_DIMS
 62
     7
100
AcDbDimension
  2
*D62
 10
368.7780012373699
 20
123.24016137636
 30
0.0
 11
366.64466823737
 21
148.24016137636
 31
0.0
 70
    32
 71
     5
 42
-1.0
 53
90.0
  3
Standard
100
AcDbAlignedDimension
 13
203.8330901262499
 23
173.24016137636
 33
0.0
 14
203.8330901262499
 24
123.24016137636
 34
0.0
 50
90.0
100
AcDbRotatedDimension
1001
Sigma
1000
DIM_TPVO
1001
KCAD_DIM_EXT
1002
{
1071
 20001212
1070
     0
1070
     2
1070
     2
1040
2.5
1040
0.0
1040
0.0
1040
0.0
1040
0.0
1040
0.0
1040
0.0
1040
0.0
1070
     0
1040
50.0
1040
-1.0
1013
1.0
1023
0.0
1033
0.0
1040
0.0
1013
1.0
1023
0.0
1033
0.0
1000
_None
1040
1.0
1040
50.0
1070
     0
1070
     0
1070
     0
1012
1.0
1022
0.0
1032
0.0
1013
1.0
1023
0.0
1033
0.0
1002
}
1001
ACAD
1000
DSTYLE
1002
{
1070
     3
1000
□<>
1070
    41
1040
2.5
1070
    42
1040
0.0
1070
    43
1040
8.0
1070
    44
1040
0.0
1070
    45
1040
0.0
1070
    73
1070
     0
1070
    74
1070
     0
1070
    77
1070
     1
1070
    78
1070
     8
1070
    79
1070
     2
1070
   140
1040
3.2
1070
   141
1040
2.5
1070
   145
1040
0.0001
1070
   146
1040
0.667
1070
   147
1040
0.5333000000000001
1070
   172
1070
     1
1070
   173
1070
     1
1070
   179
1070
     3
1070
   271
1070
     2
1070
   272
1070
     3
1070
   279
1070
     2
1070
   284
1070
     8
1070
   289
1070
     2
1070
   340
1005
189
1070
   341
1005
21
1070
   343
1005
12D
1070
   344
1005
12D
1002
}
  0
DIMENSION
  5
977
330
1F
100
AcDbEntity
  8
KCAD_DIMS
 62
     7
100
AcDbDimension
  2
*D63
 10
136.50887144902
 20
98.24016137636
 30
0.0
 11
134.37553844902
 21
113.05571775694
 31
0.0
 70
    32
 71
     5
 42
-1.0
 53
90.0
  3
Standard
100
AcDbAlignedDimension
 13
136.50887144902
 23
148.24016137636
 33
0.0
 14
174.83309012625
 24
98.24016137636
 34
0.0
 50
90.0
100
AcDbRotatedDimension
1001
Sigma
1000
DIM_TPVO
1001
KCAD_DIM_EXT
1002
{
1071
 20001212
1070
     0
1070
     2
1070
     2
1040
2.5
1040
0.0
1040
0.0
1040
0.0
1040
0.0
1040
0.0
1040
0.0
1040
0.0
1070
     0
1040
50.0
1040
-1.0
1013
1.0
1023
0.0
1033
0.0
1040
0.0
1013
1.0
1023
0.0
1033
0.0
1000
_None
1040
1.0
1040
50.0
1070
     0
1070
     0
1070
     0
1012
1.0
1022
0.0
1032
0.0
1013
1.0
1023
0.0
1033
0.0
1002
}
1001
ACAD
1000
DSTYLE
1002
{
1070
    41
1040
2.5
1070
    42
1040
0.0
1070
    43
1040
8.0
1070
    44
1040
0.0
1070
    45
1040
0.0
1070
    73
1070
     0
1070
    74
1070
     0
1070
    75
1070
     1
1070
    77
1070
     1
1070
    78
1070
     8
1070
    79
1070
     2
1070
   140
1040
3.2
1070
   141
1040
2.5
1070
   145
1040
0.0001
1070
   146
1040
0.667
1070
   147
1040
0.5333000000000001
1070
   172
1070
     1
1070
   173
1070
     1
1070
   179
1070
     3
1070
   271
1070
     2
1070
   272
1070
     3
1070
   279
1070
     2
1070
   284
1070
     8
1070
   289
1070
     2
1070
   340
1005
189
1070
   341
1005
21
1070
   343
1005
12D
1070
   344
1005
12D
1002
}
  0
DIMENSION
  5
9AD
330
1F
100
AcDbEntity
  8
KCAD_DIMS
 62
     7
100
AcDbDimension
  2
*D64
 10
181.8330901262499
 20
73.975194910094
 30
0.0
 11
153.08309012625
 21
76.108527910094
 31
0.0
 70
    32
 71
     5
 42
-1.0
  3
Standard
100
AcDbAlignedDimension
 13
124.33309012625
 23
129.7401613763599
 33
0.0
 14
181.8330901262499
 24
92.617732487471
 34
0.0
100
AcDbRotatedDimension
1001
Sigma
1000
DIM_TPHO
1001
KCAD_DIM_EXT
1002
{
1071
 20001212
1070
     0
1070
     2
1070
     2
1040
2.5
1040
0.0
1040
0.0
1040
0.0
1040
0.0
1040
0.0
1040
0.0
1040
0.0
1070
     0
1040
50.0
1040
-1.0
1013
1.0
1023
0.0
1033
0.0
1040
0.0
1013
1.0
1023
0.0
1033
0.0
1000
_None
1040
1.0
1040
57.5
1070
     0
1070
     0
1070
     0
1012
1.0
1022
0.0
1032
0.0
1013
1.0
1023
0.0
1033
0.0
1002
}
1001
ACAD
1000
DSTYLE
1002
{
1070
    41
1040
2.5
1070
    42
1040
0.0
1070
    43
1040
8.0
1070
    44
1040
0.0
1070
    45
1040
0.0
1070
    73
1070
     0
1070
    74
1070
     0
1070
    77
1070
     1
1070
    78
1070
     8
1070
    79
1070
     2
1070
   140
1040
3.2
1070
   141
1040
2.5
1070
   145
1040
0.0001
1070
   146
1040
0.667
1070
   147
1040
0.5333000000000001
1070
   172
1070
     1
1070
   173
1070
     1
1070
   179
1070
     3
1070
   271
1070
     2
1070
   272
1070
     3
1070
   279
1070
     2
1070
   284
1070
     8
1070
   289
1070
     2
1070
   340
1005
189
1070
   341
1005
21
1070
   343
1005
12D
1070
   344
1005
12D
1002
}
  0
DIMENSION
  5
9E9
330
1F
100
AcDbEntity
  8
KCAD_DIMS
 62
     7
100
AcDbDimension
  2
*D65
 10
185.8330901262499
 20
88.284220207879
 30
0.0
 11
194.15320473991
 21
90.417553207879
 31
0.0
 70
    32
 71
     5
 42
-1.0
  3
Standard
100
AcDbAlignedDimension
 13
177.8330901262499
 23
98.54016137636
 33
0.0
 14
185.8330901262499
 24
98.54016137636
 34
0.0
100
AcDbRotatedDimension
1001
Sigma
1000
DIM_TPHO
1001
KCAD_DIM_EXT
1002
{
1071
 20001212
1070
     0
1070
     1
1070
     1
1040
2.5
1040
5.0
1040
10.76612684164999
1040
0.0
1040
0.0
1040
0.0
1040
0.0
1040
0.0
1070
     0
1040
50.0
1040
-1.0
1013
1.0
1023
0.0
1033
0.0
1040
0.0
1013
1.0
1023
0.0
1033
0.0
1000
_None
1040
1.0
1040
8.0
1070
     0
1070
     0
1070
     0
1012
1.0
1022
0.0
1032
0.0
1013
1.0
1023
0.0
1033
0.0
1002
}
1001
ACAD
1000
DSTYLE
1002
{
1070
     3
1000
φ<>
1070
    41
1040
2.5
1070
    42
1040
0.0
1070
    43
1040
8.0
1070
    44
1040
0.0
1070
    45
1040
0.0
1070
    73
1070
     0
1070
    74
1070
     0
1070
    77
1070
     1
1070
    78
1070
     8
1070
    79
1070
     2
1070
   140
1040
3.2
1070
   141
1040
2.5
1070
   145
1040
0.0001
1070
   146
1040
0.667
1070
   147
1040
0.5333000000000001
1070
   172
1070
     1
1070
   173
1070
     1
1070
   179
1070
     3
1070
   271
1070
     2
1070
   272
1070
     3
1070
   279
1070
     2
1070
   284
1070
     8
1070
   289
1070
     2
1070
   340
1005
189
1070
   341
1005
21
1070
   343
1005
12D
1070
   344
1005
12D
1002
}
  0
POINT
  5
A27
330
1F
100
AcDbEntity
  8
3
  6
Continuous
 62
     7
370
    15
100
AcDbPoint
 10
185.8330901262499
 20
88.284220207879
 30
0.0
1001
Sigma
1000

  0
DIMENSION
  5
A29
330
1F
100
AcDbEntity
  8
KCAD_DIMS
 62
     7
100
AcDbDimension
  2
*D66
 10
188.83309012625
 20
81.159006874546
 30
0.0
 11
195.54207759143
 21
83.29233987454597
 31
0.0
 70
    32
 71
     5
 42
-1.0
  3
Standard
100
AcDbAlignedDimension
 13
174.83309012625
 23
98.74016137636
 33
0.0
 14
188.83309012625
 24
98.740161376361
 34
0.0
100
AcDbRotatedDimension
1001
Sigma
1000
DIM_TPHO
1001
KCAD_DIM_EXT
1002
{
1071
 20001212
1070
     0
1070
     1
1070
     1
1040
2.5
1040
5.0
1040
10.279999705566
1040
0.0
1040
0.0
1040
0.0
1040
0.0
1040
0.0
1070
     0
1040
50.0
1040
-1.0
1013
1.0
1023
0.0
1033
0.0
1040
0.0
1013
1.0
1023
0.0
1033
0.0
1000
_None
1040
1.0
1040
14.0
1070
     0
1070
     0
1070
     0
1012
1.0
1022
0.0
1032
0.0
1013
1.0
1023
0.0
1033
0.0
1002
}
1001
ACAD
1000
DSTYLE
1002
{
1070
     3
1000
φ<>
1070
    41
1040
2.5
1070
    42
1040
0.0
1070
    43
1040
8.0
1070
    44
1040
0.0
1070
    45
1040
0.0
1070
    73
1070
     0
1070
    74
1070
     0
1070
    77
1070
     1
1070
    78
1070
     8
1070
    79
1070
     2
1070
   140
1040
3.2
1070
   141
1040
2.5
1070
   145
1040
0.0001
1070
   146
1040
0.667
1070
   147
1040
0.5333000000000001
1070
   172
1070
     1
1070
   173
1070
     1
1070
   179
1070
     3
1070
   271
1070
     2
1070
   272
1070
     3
1070
   279
1070
     2
1070
   284
1070
     8
1070
   289
1070
     2
1070
   340
1005
189
1070
   341
1005
21
1070
   343
1005
12D
1070
   344
1005
12D
1002
}
  0
OLE2FRAME
  5
A6F
330
1F
100
AcDbEntity
  8
0
  6
Continuous
 62
   214
370
    15
100
AcDbOle2Frame
 70
     2
 10
187.4421084337352
 20
8.775256349902179
 30
0.0
 11
236.6878313253007
 21
1.198991289661336
 31
0.0
 72
     0
 73
   205
 90
     9344
310
0055B70596C0256E674040B17966EE8C2140000000000000000098EAD6B60296
310
6D4040B17966EE8C2140000000000000000098EAD6B602966D40808C947D112F
310
F33F0000000000000000B70596C0256E6740808C947D112FF33F000000000000
310
0000000000000100000000010000010000000100000000000100000000240000
310
D0CF11E0A1B11AE1000000000000000000000000000000003E000300FEFF0900
310
0600000000000000000000000100000001000000000000000010000002000000
310
01000000FEFFFFFF0000000000000000FFFFFFFFFFFFFFFFFFFFFFFFFFFFFFFF
310
FFFFFFFFFFFFFFFFFFFFFFFFFFFFFFFFFFFFFFFFFFFFFFFFFFFFFFFFFFFFFFFF
310
FFFFFFFFFFFFFFFFFFFFFFFFFFFFFFFFFFFFFFFFFFFFFFFFFFFFFFFFFFFFFFFF
310
FFFFFFFFFFFFFFFFFFFFFFFFFFFFFFFFFFFFFFFFFFFFFFFFFFFFFFFFFFFFFFFF
310
FFFFFFFFFFFFFFFFFFFFFFFFFFFFFFFFFFFFFFFFFFFFFFFFFFFFFFFFFFFFFFFF
310
FFFFFFFFFFFFFFFFFFFFFFFFFFFFFFFFFFFFFFFFFFFFFFFFFFFFFFFFFFFFFFFF
310
FFFFFFFFFFFFFFFFFFFFFFFFFFFFFFFFFFFFFFFFFFFFFFFFFFFFFFFFFFFFFFFF
310
FFFFFFFFFFFFFFFFFFFFFFFFFFFFFFFFFFFFFFFFFFFFFFFFFFFFFFFFFFFFFFFF
310
FFFFFFFFFFFFFFFFFFFFFFFFFFFFFFFFFFFFFFFFFFFFFFFFFFFFFFFFFFFFFFFF
310
FFFFFFFFFFFFFFFFFFFFFFFFFFFFFFFFFFFFFFFFFFFFFFFFFFFFFFFFFFFFFFFF
310
FFFFFFFFFFFFFFFFFFFFFFFFFFFFFFFFFFFFFFFFFFFFFFFFFFFFFFFFFFFFFFFF
310
FFFFFFFFFFFFFFFFFFFFFFFFFFFFFFFFFFFFFFFFFFFFFFFFFFFFFFFFFFFFFFFF
310
FFFFFFFFFFFFFFFFFFFFFFFFFFFFFFFFFFFFFFFFFFFFFFFFFFFFFFFFFFFFFFFF
310
FFFFFFFFFFFFFFFFFFFFFFFFFFFFFFFFFFFFFFFFFFFFFFFFFFFFFFFFFFFFFFFF
310
FDFFFFFFFEFFFFFFFEFFFFFFFEFFFFFF05000000060000000700000008000000
310
090000000A0000000B0000000C0000000D0000000E0000000F00000010000000
310
FEFFFFFFFFFFFFFFFFFFFFFFFFFFFFFFFFFFFFFFFFFFFFFFFFFFFFFFFFFFFFFF
310
FFFFFFFFFFFFFFFFFFFFFFFFFFFFFFFFFFFFFFFFFFFFFFFFFFFFFFFFFFFFFFFF
310
FFFFFFFFFFFFFFFFFFFFFFFFFFFFFFFFFFFFFFFFFFFFFFFFFFFFFFFFFFFFFFFF
310
FFFFFFFFFFFFFFFFFFFFFFFFFFFFFFFFFFFFFFFFFFFFFFFFFFFFFFFFFFFFFFFF
310
FFFFFFFFFFFFFFFFFFFFFFFFFFFFFFFFFFFFFFFFFFFFFFFFFFFFFFFFFFFFFFFF
310
FFFFFFFFFFFFFFFFFFFFFFFFFFFFFFFFFFFFFFFFFFFFFFFFFFFFFFFFFFFFFFFF
310
FFFFFFFFFFFFFFFFFFFFFFFFFFFFFFFFFFFFFFFFFFFFFFFFFFFFFFFFFFFFFFFF
310
FFFFFFFFFFFFFFFFFFFFFFFFFFFFFFFFFFFFFFFFFFFFFFFFFFFFFFFFFFFFFFFF
310
FFFFFFFFFFFFFFFFFFFFFFFFFFFFFFFFFFFFFFFFFFFFFFFFFFFFFFFFFFFFFFFF
310
FFFFFFFFFFFFFFFFFFFFFFFFFFFFFFFFFFFFFFFFFFFFFFFFFFFFFFFFFFFFFFFF
310
FFFFFFFFFFFFFFFFFFFFFFFFFFFFFFFFFFFFFFFFFFFFFFFFFFFFFFFFFFFFFFFF
310
FFFFFFFFFFFFFFFFFFFFFFFFFFFFFFFFFFFFFFFFFFFFFFFFFFFFFFFFFFFFFFFF
310
FFFFFFFFFFFFFFFFFFFFFFFFFFFFFFFFFFFFFFFFFFFFFFFFFFFFFFFFFFFFFFFF
310
FFFFFFFFFFFFFFFFFFFFFFFFFFFFFFFFFFFFFFFFFFFFFFFFFFFFFFFFFFFFFFFF
310
52006F006F007400200045006E00740072007900000000000000000000000000
310
0000000000000000000000000000000000000000000000000000000000000000
310
16000500FFFFFFFFFFFFFFFF020000000A00030000000000C000000000000046
310
00000000000000000000000090CE178D9F6FC80103000000C000000000000000
310
01004F006C006500310030004E00610074006900760065000000000000000000
310
0000000000000000000000000000000000000000000000000000000000000000
310
1A000200FFFFFFFFFFFFFFFFFFFFFFFF00000000000000000000000000000000
310
0000000000000000000000000000000000000000040000000419000000000000
310
010043006F006D0070004F0062006A0000000000000000000000000000000000
310
0000000000000000000000000000000000000000000000000000000000000000
310
120002010300000001000000FFFFFFFF00000000000000000000000000000000
310
0000000000000000000000000000000000000000000000004D00000000000000
310
01004F006C006500000000000000000000000000000000000000000000000000
310
0000000000000000000000000000000000000000000000000000000000000000
310
0A000200FFFFFFFFFFFFFFFFFFFFFFFF00000000000000000000000000000000
310
0000000000000000000000000000000000000000020000001400000000000000
310
01000000FEFFFFFFFEFFFFFFFFFFFFFFFFFFFFFFFFFFFFFFFFFFFFFFFFFFFFFF
310
FFFFFFFFFFFFFFFFFFFFFFFFFFFFFFFFFFFFFFFFFFFFFFFFFFFFFFFFFFFFFFFF
310
FFFFFFFFFFFFFFFFFFFFFFFFFFFFFFFFFFFFFFFFFFFFFFFFFFFFFFFFFFFFFFFF
310
FFFFFFFFFFFFFFFFFFFFFFFFFFFFFFFFFFFFFFFFFFFFFFFFFFFFFFFFFFFFFFFF
310
FFFFFFFFFFFFFFFFFFFFFFFFFFFFFFFFFFFFFFFFFFFFFFFFFFFFFFFFFFFFFFFF
310
FFFFFFFFFFFFFFFFFFFFFFFFFFFFFFFFFFFFFFFFFFFFFFFFFFFFFFFFFFFFFFFF
310
FFFFFFFFFFFFFFFFFFFFFFFFFFFFFFFFFFFFFFFFFFFFFFFFFFFFFFFFFFFFFFFF
310
FFFFFFFFFFFFFFFFFFFFFFFFFFFFFFFFFFFFFFFFFFFFFFFFFFFFFFFFFFFFFFFF
310
FFFFFFFFFFFFFFFFFFFFFFFFFFFFFFFFFFFFFFFFFFFFFFFFFFFFFFFFFFFFFFFF
310
FFFFFFFFFFFFFFFFFFFFFFFFFFFFFFFFFFFFFFFFFFFFFFFFFFFFFFFFFFFFFFFF
310
FFFFFFFFFFFFFFFFFFFFFFFFFFFFFFFFFFFFFFFFFFFFFFFFFFFFFFFFFFFFFFFF
310
FFFFFFFFFFFFFFFFFFFFFFFFFFFFFFFFFFFFFFFFFFFFFFFFFFFFFFFFFFFFFFFF
310
FFFFFFFFFFFFFFFFFFFFFFFFFFFFFFFFFFFFFFFFFFFFFFFFFFFFFFFFFFFFFFFF
310
FFFFFFFFFFFFFFFFFFFFFFFFFFFFFFFFFFFFFFFFFFFFFFFFFFFFFFFFFFFFFFFF
310
FFFFFFFFFFFFFFFFFFFFFFFFFFFFFFFFFFFFFFFFFFFFFFFFFFFFFFFFFFFFFFFF
310
FFFFFFFFFFFFFFFFFFFFFFFFFFFFFFFFFFFFFFFFFFFFFFFFFFFFFFFFFFFFFFFF
310
0100FEFF030A0000FFFFFFFF0A00030000000000C00000000000004607000000
310
5042727573680007000000504272757368000700000050427275736800F439B2
310
71000000000000000000000000006300740073004400690076005C0035002D00
310
D75365510D4E69900854F8665C00540053003000370031003200320037002800
310
01000002000000000000000000000000000000004E00470029005C004B004300
310
4D002D005A00300038003B75CF503000380030003100310035005C0030003800
310
30003100310035002D0031003100320030003100320061002E0062006D007000
310
0000000000000000000000000000000000000000000000000000000000000000
310
0000000000000000000000000000000000000000000000000000000000000000
310
0000000000000000000000000000000000000000000000000000000000000000
310
0000000000000000000000000000000000000000000000000000000000000000
310
0000000000000000000000000000000000000000000000000000000000000000
310
0000000000000000000000000000000000000000000000000000000000000000
310
0000000000000000000000000000000000000000000000000000000000000000
310
0000000000000000000000000000000000000000000000000000000000000000
310
00000000000000000000000000000000000000006500730015008C006F006D00
310
00190000424DF618000000000000360000002800000075000000120000000100
310
180000000000C018000000000000000000000000000000000000FFFFFFFFFFFF
310
FFFFFFFFFFFFFFFFFFFFFFFFFFFFFFFFFFFF6666660808081212120C0C0C3535
310
35FFFFFFFFFFFFFFFFFFFFFFFFFFFFFFFFFFFFFFFFFFFFFFFFFFFFFFC0C0C045
310
4545151515121212121212121212131313141414151515151515161616181818
310
1818181919191919191E1E1E484848B0B0B0FFFFFFFFFFFFFFFFFFD4D4D42424
310
242424242424242E2E2EF1F1F1FFFFFFFFFFFFFFFFFFFFFFFFFFFFFFFFFFFFFF
310
FFFFDEDEDE4B4B4B3333333838383A3A3A3838382C2C2C5E5E5EEBEBEBFFFFFF
310
F1F1F14949494242424444444D4D4DF5F5F5FFFFFFA5A5A54343435050504848
310
48999999FFFFFFFFFFFFFFFFFFFFFFFFFFFFFFFFFFFFFFFFFFFFFFFFFFFFFFFF
310
FFFFFFFFFFBCBCBC6666667171716C6C6C9A9A9AFFFFFFFFFFFFFFFFFFE9E9E9
310
9393938181818080808282828484848484848585858888888888888989898B8B
310
8B8C8C8C8D8D8D8F8F8F90909090909092929291919199999900FFFFFFFFFFFF
310
FFFFFFFFFFFFFFFFFFFFFFFFFFFFFFFFFFFF5D5D5D0000000202020000002727
310
27FFFFFFFFFFFFFFFFFFFFFFFFFFFFFFFFFFFFFFFFFFFFFFFFA6A6A600000000
310
0000020202030303020202030303020202020202020202020202020202020202
310
0202020202020101010000000000000000006B6B6BFFFFFFFFFFFFCECECE0000
310
00000000000000080808EDEDEDFFFFFFFFFFFFFFFFFFFFFFFFFFFFFFFFFFFF9B
310
9B9B000000000000000000000000000000000000838383FFFFFFFFFFFFFFFFFF
310
ECECEC060606000000000000050505EEEEEEFFFFFF7B7B7B0000000000000000
310
00656565FFFFFFFFFFFFFFFFFFFFFFFFFFFFFFFFFFFFFFFFFFFFFFFFFFFFFFFF
310
FFFFFFFFFF8888880000000000000000003F3F3FFFFFFFFFFFFFC1C1C1000000
310
0000000000000000000000000000000000000000000000000000000000000000
310
0000000000000000000000000000000000000000000003030300FFFFFFFFFFFF
310
FFFFFFFFFFFFFFFFFFFFFFFFFFFFFFFFFFFF5E5E5E0000000404040000002525
310
25FFFFFFFFFFFFFFFFFFFFFFFFFFFFFFFFFFFFFFFFFFFEFEFE13131300000005
310
0505030303000000000000000000000000000000000000000000000000000000
310
000000000000000000000000050505010101000000CDCDCDFFFFFFCECECE0303
310
030202020101010B0B0BEDEDEDFFFFFFFFFFFFFFFFFFFFFFFFF7F7F759595900
310
0000000000050505000000000000383838D8D8D8FFFFFFFFFFFFFFFFFFFFFFFF
310
EDEDED0B0B0B0101010101010B0B0BEFEFEFFFFFFF7F7F7F0000000505050000
310
00686868FFFFFFFFFFFFFFFFFFFFFFFFFFFFFFFFFFFFFFFFFFFFFFFFFFFFFFFF
310
FFFFFFFFFF8D8D8D000000040404000000464646FFFFFFFFFFFF2E2E2E000000
310
0404040404040000000000000000000000000000000000000000000000000000
310
0000000000000000000000000003030305050503030312121200FFFFFFFFFFFF
310
FFFFFFFFFFFFFFFFFFFFFFFFFFFFFFFFFFFF5F5F5F0000000505050000002424
310
24FFFFFFFFFFFFFFFFFFFFFFFFFFFFFFFFFFFFFFFFFFD9D9D900000003030304
310
04040000007070709D9D9D9797979797979696969393939292928F8F8F8C8C8C
310
8A8A8A8B8B8B7E7E7E131313010101040404000000858585FFFFFFCECECE0404
310
040202020101010C0C0CEDEDEDFFFFFFFFFFFFFFFFFFCBCBCB23232300000003
310
03030404040000000606068D8D8DFFFFFFFFFFFFFFFFFFFFFFFFFFFFFFFFFFFF
310
EDEDED0C0C0C0101010101010B0B0BEFEFEFFFFFFF7F7F7F0000000505050000
310
00686868FFFFFFFFFFFFFFFFFFFFFFFFFFFFFFFFFFFFFFFFFFFFFFFFFFFFFFFF
310
FFFFFFFFFF8D8D8D000000050505000000444444FFFFFFFEFEFE050505010101
310
0404040101015A5A5A6666666464646464646464646464646363636262626262
310
626060606060606060605E5E5E00000004040403030312121200FFFFFFFFFFFF
310
FFFFFFFFFFFFFFFFFFFFFFFFFFFFFFFFFFFF5F5F5F0000000404040000002323
310
23FFFFFFFFFFFFFFFFFFFFFFFFFFFFFFFFFFFFFFFFFFD2D2D200000003030302
310
0202060606FFFFFFFFFFFFFFFFFFFFFFFFFFFFFFFFFFFFFFFFFFFFFFFFFFFFFF
310
FFFFFFFFFFFFFFFFFF666666000000040404000000808080FFFFFFCECECE0404
310
040202020101010B0B0BEDEDEDFFFFFFFFFFFF8C8C8C03030300000003030300
310
00000000003E3E3ED9D9D9FFFFFFFFFFFFFFFFFFFFFFFFFFFFFFFFFFFFFFFFFF
310
EDEDED0C0C0C0101010101010B0B0BEFEFEFFFFFFF7F7F7F0000000505050000
310
00676767FFFFFFFFFFFFFFFFFFFFFFFFFFFFFFFFFFFFFFFFFFFFFFFFFFFFFFFF
310
FFFFFFFFFF8D8D8D000000040404000000444444FFFFFFFFFFFF070707010101
310
030303000000F7F7F7FFFFFFFFFFFFFFFFFFFFFFFFFFFFFFFFFFFFFFFFFFFFFF
310
FFFFFFFFFFFFFFFFFFFFFFFFFF00000003030303030311111100FFFFFFFFFFFF
310
FFFFFFFFFFFFFFFFFFFFFFFFFFFFFFFFFFFF6161610000000404040000002222
310
22FFFFFFFFFFFFFFFFFFFFFFFFFFFFFFFFFFFFFFFFFFD3D3D300000002020202
310
0202070707FCFCFCFFFFFFFFFFFFFFFFFFFFFFFFFFFFFFFFFFFFFFFFFFFFFFFF
310
FFFFFFFFFFFFFFFFFF696969000000040404000000818181FFFFFFCECECE0404
310
040202020101010D0D0DFAFAFAEEEEEE4D4D4D0000000000000303030000000D
310
0D0D949494FFFFFFFFFFFFFFFFFFFFFFFFFFFFFFFFFFFFFFFFFFFFFFFFFFFFFF
310
EDEDED0C0C0C0101010101010B0B0BEFEFEFFFFFFF7F7F7F0000000505050000
310
00676767FFFFFFFFFFFFFFFFFFFFFFFFFFFFFFFFFFFFFFFFFFFFFFFFFFFFFFFF
310
FFFFFFFFFF8D8D8D000000040404000000434343FFFFFFFEFEFE050505010101
310
030303010101A9A9A9C1C1C1BEBEBEC1C1C1C1C1C1C2C2C2C3C3C3C4C4C4C5C5
310
C5C5C5C5C8C8C8CACACACCCCCC00000003030303030311111100FFFFFFFFFFFF
310
FFFFFFFFFFFFFFFFFFFFFFFFFFFFFFFFFFFF6161610000000404040000002121
310
21FFFFFFFFFFFFFFFFFFFFFFFFFFFFFFFFFFFFFFFFFFD5D5D500000002020202
310
0202060606FCFCFCFFFFFFFFFFFFFFFFFFFFFFFFFFFFFFFFFFFFFFFFFFFFFFFF
310
FFFFFFFFFFFFFFFFFF686868000000050505000000818181FFFFFFCCCCCC0303
310
030202020202020D0D0D9898981D1D1D000000030303040404010101545454E1
310
E1E1FFFFFFFFFFFFFFFFFFFFFFFFFFFFFFFFFFFFFFFFFFFFFFFFFFFFFFFFFFFF
310
EDEDED0C0C0C0101010101010B0B0BEFEFEFFFFFFF7F7F7F0000000505050000
310
00666666FFFFFFFFFFFFFFFFFFFFFFFFFFFFFFFFFFFFFFFFFFFFFFFFFFFFFFFF
310
FFFFFFFFFF8D8D8D000000040404000000424242FFFFFFFFFFFF1E1E1E000000
310
0505050303030000000000000000000000000000000101010101010101010202
310
0202020203030304040405050502020204040403030311111100FFFFFFFFFFFF
310
FFFFFFFFFFFFFFFFFFFFFFFFFFFFFFFFFFFF6363630000000505050000001F1F
310
1FFFFFFFFFFFFFFFFFFFFFFFFFFFFFFFFEFEFEFFFFFFD5D5D500000003030302
310
0202050505FCFCFCFFFFFFFFFFFFFFFFFFFFFFFFFFFFFFFFFFFFFFFFFFFFFFFF
310
FFFFFFFFFFFFFFFFFF686868000000040404000000818181FFFFFFCDCDCD0303
310
030202020303030707074545450000000000000404040303030303039E9E9EFF
310
FFFFFFFFFFFFFFFFFFFFFFFFFFFFFFFFFFFFFFFFFFFFFFFFFFFFFFFFFFFFFFFF
310
EDEDED0C0C0C0101010101010B0B0BEEEEEEFFFFFF7F7F7F0000000505050000
310
00666666FFFFFFFFFFFFFFFFFFFFFFFFFFFFFFFFFFFFFFFFFFFFFFFFFFFFFFFF
310
FFFFFFFFFF8D8D8D000000040404000000434343FFFFFFFFFFFF9C9C9C000000
310
0000000000000000000000000000000000000000000000000000000000000000
310
0000000000000000000000000004040405050503030311111100FFFFFFFFFFFF
310
FFFFFFFFFFFFFFFFFFFFFFFFFFFFFFFFFFFF6262620000000505050000002121
310
21FFFFFFFFFFFFFFFFFFFFFFFFFFFFFFFEFEFEFFFFFFD5D5D500000002020201
310
0101070707FDFDFDFFFFFFFFFFFFFFFFFFFFFFFFFFFFFFFFFFFFFFFFFFFFFFFF
310
FFFFFFFFFFFFFFFFFF696969000000050505000000818181FFFFFFCCCCCC0303
310
030202020101010D0D0DF6F6F6B3B3B319191900000003030302020200000057
310
5757E8E8E8FFFFFFFFFFFFFFFFFFFFFFFFFFFFFFFFFFFFFFFFFFFFFFFFFFFFFF
310
EDEDED0C0C0C0101010101010C0C0CEDEDEDFFFFFF7F7F7F0000000505050000
310
00666666FFFFFFFFFFFFFFFFFFFFFFFFFFFFFFFFFFFFFFFFFFFFFFFFFFFFFFFF
310
FFFFFFFFFF8D8D8D000000040404000000434343FFFFFFFFFFFFFFFFFFA8A8A8
310
3C3C3C2E2E2E2C2C2C2B2B2B2A2A2A2A2A2A2929292828282727272727272626
310
2626262625252525252524242400000004040403030311111100FFFFFFFFFFFF
310
FFFFFFFFFFFFFFFFFFFFFFFFFFFFFFFFFFFF6161610000000505050000002121
310
21FFFFFFFFFFFFFFFFFFFFFFFFFFFFFFFFFFFFFFFFFFD2D2D200000003030302
310
0202060606FFFFFFFFFFFFFFFFFFFFFFFFFFFFFFFFFFFFFFFFFFFFFFFFFFFFFF
310
FFFFFFFFFFFFFFFFFF666666000000050505000000808080FFFFFFCCCCCC0202
310
020202020101010B0B0BECECECFFFFFFE5E5E54D4D4D00000000000003030300
310
00001B1B1BABABABFFFFFFFFFFFFFFFFFFFFFFFFFFFFFFFFFFFFFFFFFFFFFFFF
310
EDEDED0C0C0C0101010101010B0B0BEEEEEEFFFFFF7F7F7F0000000505050000
310
00696969FFFFFFFFFFFFFFFFFFFFFFFFFFFFFFFFFFFFFFFFFFFFFFFFFFFFFFFF
310
FFFFFFFFFF909090000000040404000000414141FFFFFFFFFFFFFFFFFFFFFFFF
310
FFFFFFFDFDFDFAFAFAF9F9F9F9F9F9F7F7F7F7F7F7F7F7F7F5F5F5F5F5F5F4F4
310
F4F4F4F4F2F2F2F4F4F4F7F7F700000004040403030311111100FFFFFFFFFFFF
310
FFFFFFFFFFFFFFFFFFFFFFFFFFFFFFFFFFFF5F5F5F0000000505050000002222
310
22FFFFFFFFFFFFFFFFFFFFFFFFFFFFFFFFFFFFFFFFFFDBDBDB00000003030304
310
04040000005858588585858383838585858686868989898989898D8D8D8E8E8E
310
919191949494898989161616010101040404000000828282FFFFFFCCCCCC0303
310
030202020101010B0B0BECECECFFFFFFFFFFFFFFFFFF8F8F8F0A0A0A00000003
310
0303000000000000636363EDEDEDFFFFFFFFFFFFFFFFFFFFFFFFFFFFFFFFFFFF
310
ECECEC0C0C0C0101010101010B0B0BEFEFEFFFFFFF7F7F7F0000000505050000
310
00555555D8D8D8D1D1D1D1D1D1D2D2D2D2D2D2D2D2D2D4D4D4D4D4D4D4D4D4D5
310
D5D5DCDCDC565656000000050505000000424242FFFFFFFFFFFFFFFFFFFFFFFF
310
FFFFFFFFFFFFFFFFFFFFFFFFFFFFFFFFFFFFFFFFFFFFFFFFFFFFFFFFFFFFFFFF
310
FFFFFFFFFFFFFFFFFFFFFDFDFD00000003030303030310101000FFFFFFFFFFFF
310
FFFFFFFFFFFFFFFFFFFFFFFFFFFFFFFFFFFF5F5F5F0000000505050000002121
310
21FFFFFFFFFFFFFFFFFFFFFFFFFFFFFFFFFFFFFFFFFFFFFFFF1D1D1D00000004
310
0404040404000000000000000000000000000000000000000000000000000000
310
000000000000000000000000050505020202000000BFBFBFFFFFFFCBCBCB0202
310
020202020101010C0C0CECECECFFFFFFFFFFFFFFFFFFFFFFFFD2D2D235353500
310
00000101010202020000001F1F1FB5B5B5FFFFFFFFFFFFFFFFFFFFFFFFFFFFFF
310
ECECEC0C0C0C0101010101010B0B0BEFEFEFFFFFFF7F7F7F0000000505050404
310
0400000000000000000000000000000000000000000000000000000000000000
310
00000000000000000404040404040000006E6E6EFFFFFFFFFFFF7C7C7C464646
310
4D4D4D4D4D4D4D4D4D4D4D4D4D4D4D4D4D4D4D4D4D4D4D4D4C4C4C4D4D4D4E4E
310
4E4F4F4F50505055555530303000000004040401010115151500FFFFFFFFFFFF
310
FFFFFFFFFFFFFFFFFFFFFFFFFFFFFFFFFFFF6060600000000505050000001F1F
310
1FFFFFFFFFFFFFFFFFFFFFFFFFFFFFFFFFFFFFFFFFFFFFFFFFB3B3B300000000
310
0000000000000000000000000000000000000000000000000000000000000000
310
000000000000000000000000000000000000585858FFFFFFFFFFFFCCCCCC0303
310
030202020101010B0B0BEAEAEAFFFFFFFFFFFFFFFFFFFFFFFFFFFFFFFEFEFE77
310
7777010101000000010101000000000000656565F0F0F0FFFFFFFFFFFFFFFFFF
310
EDEDED0A0A0A0000000000000A0A0AEDEDEDFFFFFF7E7E7E0000000303030303
310
0303030302020202020202020202020202020202020202020202020202020202
310
0202020202030303020202000000040404DADADAFFFFFFFFFFFF3F3F3F000000
310
0000000000000000000000000000000000000000000000000000000000000000
310
0000000000000000000000000004040402020200000082828200F1F1F1F1F1F1
310
F1F1F1F1F1F1F2F2F2F2F2F2F3F3F3FFFFFF5F5F5F0000000505050000001E1E
310
1EFFFFFFFCFCFCFCFCFCFBFBFBFDFDFDFDFDFDFEFEFEFEFEFEFFFFFFC6C6C646
310
4646131313131313131313131313121212121212121212111111111111111111
310
1010101010101010100F0F0F1C1C1C848484FEFEFEFFFFFFFFFFFFCDCDCD0404
310
040202020101010B0B0BEBEBEBFFFFFFFFFFFFFFFFFFFFFFFFFFFFFFFFFFFFFF
310
FFFFC0C0C0222222030303060606030303000000222222BCBCBCFFFFFFFFFFFF
310
ECECEC0D0D0D0000000000000B0B0BECECECFFFFFF7E7E7E0000000000000000
310
0000000000000000000000000000000000000000000000000000000000000000
310
00000000000000000000001C1C1CBBBBBBFFFFFFFFFFFFFFFFFF3F3F3F000000
310
0000000000000000000000000000000000000000000000000000000000000000
310
000000000000000000000000000000000000004F4F4FFFFFFF00111111101010
310
1010101111111313131313131515151919190909090303030505050404040404
310
043030302E2E2E2F2F2F3131313333333333333636362F2F2F7F7F7FFFFFFFFF
310
FFFFFFFFFFFDFDFDFCFCFCFBFBFBFAFAFAF8F8F8F7F7F7F7F7F7F6F6F6F5F5F5
310
F3F3F3F3F3F3F0F0F0F4F4F4FFFFFFFFFFFFFFFFFFFFFFFFFFFFFFCECECE0404
310
040303030000000B0B0BEBEBEBFFFFFFFFFFFFFFFFFFFFFFFFFFFFFFFFFFFFFF
310
FFFFFFFFFFF5F5F5D3D3D3D5D5D5D3D3D3D1D1D1C6C6C6C9C9C9FCFCFCFFFFFF
310
FFFFFFD5D5D5D4D4D4D4D4D4D1D1D1FDFDFDFFFFFFDFDFDFBBBBBBBDBDBDBDBD
310
BDBBBBBBB9B9B9B8B8B8B5B5B5B4B4B4B3B3B3B1B1B1AFAFAFAEAEAEADADADAB
310
ABABA9A9A9A9A9A9C4C4C4FDFDFDFFFFFFFFFFFFFFFFFFFFFFFFB8B8B89B9B9B
310
9D9D9D9B9B9B9B9B9B9999999999999999999999999999999999999999999999
310
999A9A9A989898979797979797989898CCCCCCFFFFFFFFFFFF00010101000000
310
0000000000000000000000000000000000000303030505050505050404040404
310
04000000000000000000000000000000000000000000000000555555FFFFFFFF
310
FFFFFFFFFFFFFFFFFFFFFFFFFFFFFFFFFFFFFFFFFFFFFFFFFFFFFFFFFFFFFFFF
310
FFFFFFFFFFFFFFFFFFFFFFFFFFFFFFFFFFFFFFFFFFFFFFFFFFFFFFCECECE0404
310
040101010101010B0B0BEBEBEBFFFFFFFFFFFFFFFFFFFFFFFFFFFFFFFFFFFFFF
310
FFFFFFFFFFFFFFFFFFFFFFFFFFFFFFFFFFFFFFFFFFFFFFFFFFFFFFFFFFFFFFFF
310
F5F5F57979797272727373737A7A7AF6F6F6FFFFFFFFFFFFFFFFFFFFFFFFFFFF
310
FFFFFFFFFFFFFFFFFFFFFFFFFFFFFFFFFFFFFFFFFFFFFFFFFFFFFFFFFFFFFFFF
310
FFFFFFFFFFFFFFFFFFFFFFFFFFFFFFFFFFFFFFFFFFFFFFFFFFFFFFFFFFFFFFFF
310
FFFFFFFFFFFFFFFFFFFFFFFFFFFFFFFFFFFFFFFFFFFFFFFFFFFFFFFFFFFFFFFF
310
FFFFFFFFFFFFFFFFFFFFFFFFFFFFFFFFFFFFFFFFFFFFFFFFFF00030303020202
310
0303030202020303030303030303030303030303030303030303030303030303
310
030303030303030303030303030303030303030303030000005A5A5AFFFFFFFF
310
FFFFFFFFFFFFFFFFFFFFFFFFFFFFFFFFFFFFFFFFFFFFFFFFFFFFFFFFFFFFFFFF
310
FFFFFFFFFFFFFFFFFFFFFFFFFFFFFFFFFFFFFFFFFFFFFFFFFFFFFFCECECE0303
310
030202020101010A0A0AEBEBEBFFFFFFFFFFFFFFFFFFFFFFFFFFFFFFFFFFFFFF
310
FFFFFFFFFFFFFFFFFFFFFFFFFFFFFFFFFFFFFFFFFFFFFFFFFFFFFFFFFFFFFFFF
310
EDEDED000000000000000000000000EDEDEDFFFFFFFFFFFFFFFFFFFFFFFFFFFF
310
FFFFFFFFFFFFFFFFFFFFFFFFFFFFFFFFFFFFFFFFFFFFFFFFFFFFFFFFFFFFFFFF
310
FFFFFFFFFFFFFFFFFFFFFFFFFFFFFFFFFFFFFFFFFFFFFFFFFFFFFFFFFFFFFFFF
310
FFFFFFFFFFFFFFFFFFFFFFFFFFFFFFFFFFFFFFFFFFFFFFFFFFFFFFFFFFFFFFFF
310
FFFFFFFFFFFFFFFFFFFFFFFFFFFFFFFFFFFFFFFFFFFFFFFFFF00141414121212
310
1212121212121111111212121111111111111111111111111111111010101010
310
101010100F0F0F1010101010100F0F0F0F0F0F0F0F0F030303646464FFFFFFFF
310
FFFFFFFFFFFFFFFFFFFFFFFFFFFFFFFFFFFFFFFFFFFFFFFFFFFFFFFFFFFFFFFF
310
FFFFFFFFFFFFFFFFFFFFFFFFFFFFFFFFFFFFFFFFFFFFFFFFFFFFFFD0D0D00A0A
310
0A070707060606111111ECECECFFFFFFFFFFFFFFFFFFFFFFFFFFFFFFFFFFFFFF
310
FFFFFFFFFFFFFFFFFFFFFFFFFFFFFFFFFFFFFFFFFFFFFFFFFFFFFFFFFFFFFFFF
310
F0F0F00E0E0E0000000101010C0C0CEFEFEFFFFFFFFFFFFFFFFFFFFFFFFFFFFF
310
FFFFFFFFFFFFFFFFFFFFFFFFFFFFFFFFFFFFFFFFFFFFFFFFFFFFFFFFFFFFFFFF
310
FFFFFFFFFFFFFFFFFFFFFFFFFFFFFFFFFFFFFFFFFFFFFFFFFFFFFFFFFFFFFFFF
310
FFFFFFFFFFFFFFFFFFFFFFFFFFFFFFFFFFFFFFFFFFFFFFFFFFFFFFFFFFFFFFFF
310
FFFFFFFFFFFFFFFFFFFFFFFFFFFFFFFFFFFFFFFFFFFFFFFFFF00000000000000
310
0000000000000000000000000000000000000000000000000000000000000000
310
0000000000000000000000000000000000000000000000000000000000000000
310
0000000000000000000000000000000000000000000000000000000000000000
310
0000000000000000000000000000000000000000000000000000000000000000
310
0000000000000000000000000000000000000000000000000000000000000000
310
0000000000000000000000000000000000000000000000000000000000000000
310
0000000000000000000000000000000000000000000000000000000000000000
310
0000000000000000000000000000000000000000000000000000000000000000
  1
OLE
  0
TEXT
  5
A70
330
1F
100
AcDbEntity
  8
99
  6
Continuous
 62
     7
370
    30
100
AcDbText
 10
318.1076088469384
 20
3.892815090278898
 30
0.0
 40
4.0
  1
株式会社トキナー
  7
KCADTEXTSTANDARD
100
AcDbText
1001
Sigma
1000

  0
TEXT
  5
A71
330
1F
100
AcDbEntity
  8
99
  6
Continuous
 62
     7
370
    30
100
AcDbText
 10
366.0482373773513
 20
4.391213594041232
 30
0.0
 40
4.0
  1
Tokina Co.,Ltd.
 41
0.7000000000000001
  7
KCADTEXTSTANDARD
100
AcDbText
1001
Sigma
1000

  0
TEXT
  5
C65
330
1F
100
AcDbEntity
  8
99
  6
Continuous
 62
     7
370
    30
100
AcDbText
 10
297.3602541224034
 20
16.91466156783215
 30
0.0
 40
2.5
  1
図番登録
 41
0.7000000000000001
  7
KCADTEXTSTANDARD
100
AcDbText
1001
Sigma
1000

  0
TEXT
  5
C66
330
1F
100
AcDbEntity
  8
99
  6
Continuous
 62
     7
370
    30
100
AcDbText
 10
296.9038030556297
 20
11.73901261411777
 30
0.0
 40
2.0
  1
2008.5.15
 41
0.7000000000000001
  7
KCADTEXTSTANDARD
100
AcDbText
1001
Sigma
1000

  0
ENDSEC
  0
SECTION
  2
OBJECTS
  0
DICTIONARY
  5
C
330
0
100
AcDbDictionary
281
     1
  3
ACAD_COLOR
350
6C
  3
ACAD_GROUP
350
D
  3
ACAD_LAYOUT
350
1A
  3
ACAD_MATERIAL
350
6B
  3
ACAD_MLINESTYLE
350
17
  3
ACAD_PLOTSETTINGS
350
19
  3
ACAD_PLOTSTYLENAME
350
E
  3
ACAD_TABLESTYLE
350
92
  3
ACDBHEADERROUNDTRIPXREC
350
D8B
  3
AcDbVariableDictionary
350
59
  3
DWGPROPS
350
D8E
  3
KCADFRAMEINFO
350
2A7
  0
DICTIONARY
  5
6C
102
{ACAD_REACTORS
330
C
102
}
330
C
100
AcDbDictionary
281
     1
  0
DICTIONARY
  5
D
102
{ACAD_REACTORS
330
C
102
}
330
C
100
AcDbDictionary
281
     1
  3
*A1
350
57B
  3
*A2
350
588
  3
*A3
350
595
  0
DICTIONARY
  5
1A
102
{ACAD_REACTORS
330
C
102
}
330
C
100
AcDbDictionary
281
     1
  3
Model
350
22
  3
ﾚｲｱｳﾄ1
350
22F
  0
DICTIONARY
  5
6B
102
{ACAD_REACTORS
330
C
102
}
330
C
100
AcDbDictionary
281
     1
  0
DICTIONARY
  5
17
102
{ACAD_REACTORS
330
C
102
}
330
C
100
AcDbDictionary
281
     1
  3
Standard
350
18
  0
DICTIONARY
  5
19
102
{ACAD_REACTORS
330
C
102
}
330
C
100
AcDbDictionary
281
     1
  0
ACDBDICTIONARYWDFLT
  5
E
102
{ACAD_REACTORS
330
C
102
}
330
C
100
AcDbDictionary
281
     1
  3
Normal
350
F
100
AcDbDictionaryWithDefault
340
F
  0
DICTIONARY
  5
92
102
{ACAD_REACTORS
330
C
102
}
330
C
100
AcDbDictionary
281
     1
  0
DICTIONARY
  5
D8B
102
{ACAD_REACTORS
330
C
102
}
330
C
100
AcDbDictionary
281
     1
  3
COLORDICT
350
D8C
  3
MATERIALDICT
350
D8D
  0
DICTIONARY
  5
59
102
{ACAD_REACTORS
330
C
102
}
330
C
100
AcDbDictionary
281
     1
  3
DIMASSOC
350
D8A
  0
XRECORD
  5
D8E
102
{ACAD_REACTORS
330
C
102
}
330
C
100
AcDbXrecord
280
     1
  1
DWGPROPS COOKIE
  2

  3

  4

  6

  7

  8
fottrem
  9

300
=
301
=
302
=
303
=
304
=
305
=
306
=
307
=
308
=
309
=
 40
0.0
 41
2453353.717125822
 42
2453304.11839066
  1

 90
        0
  0
XRECORD
  5
2A7
102
{ACAD_REACTORS
330
C
102
}
330
C
100
AcDbXrecord
280
     1
  1
A3
 40
420.0
 40
297.0
 90
        1
 90
        1
  0
GROUP
  5
57B
102
{ACAD_REACTORS
330
D
102
}
330
D
100
AcDbGroup
300
group from kcad family
 70
     1
 71
     1
340
57C
340
57E
340
580
340
582
340
584
340
586
  0
GROUP
  5
588
102
{ACAD_REACTORS
330
D
102
}
330
D
100
AcDbGroup
300
group from kcad family
 70
     1
 71
     1
340
589
340
58B
340
58D
340
58F
340
591
340
593
  0
GROUP
  5
595
102
{ACAD_REACTORS
330
D
102
}
330
D
100
AcDbGroup
300
group from kcad family
 70
     1
 71
     1
340
596
340
598
340
59A
340
59C
340
59E
340
5A0
  0
LAYOUT
  5
22
102
{ACAD_REACTORS
330
1A
102
}
330
1A
100
AcDbPlotSettings
  1

  2
DWF ePlot.pc3
  4
ISO_A3_(297.00_x_420.00_MM)
  6

 40
5.793749809265136
 41
17.79375076293945
 42
5.79376220703125
 43
17.79376220703125
 44
297.0
 45
420.0
 46
0.0
 47
0.0
 48
0.0
 49
0.0
140
0.0
141
0.0
142
0.0
143
0.0
 70
 11952
 72
     1
 73
     0
 74
     2
  7

 75
     0
147
1.0
148
0.0
149
0.0
100
AcDbLayout
  1
Model
 70
     1
 71
     0
 10
0.0
 20
0.0
 11
420.0
 21
297.0
 12
0.0
 22
0.0
 32
0.0
 14
18.0
 24
1.198991289661336
 34
0.0
 15
401.4999999999999
 25
284.0000033378499
 35
0.0
146
0.0
 13
0.0
 23
0.0
 33
0.0
 16
1.0
 26
0.0
 36
0.0
 17
0.0
 27
1.0
 37
0.0
 76
     0
330
1F
  0
LAYOUT
  5
22F
102
{ACAD_REACTORS
330
1A
102
}
330
1A
100
AcDbPlotSettings
  1

  2
D:\ACAD2000\plotters\HP DesignJet 700(System).pc3
  4

  6

 40
0.0
 41
0.0
 42
0.0
 43
0.0
 44
0.0
 45
0.0
 46
0.0
 47
0.0
 48
0.0
 49
0.0
140
0.0
141
0.0
142
1.0
143
1.0
 70
   688
 72
     0
 73
     0
 74
     5
  7
monochrome.ctb
 75
    16
147
1.0
148
0.0
149
0.0
100
AcDbLayout
  1
ﾚｲｱｳﾄ1
 70
     1
 71
     1
 10
0.0
 20
0.0
 11
12.0
 21
9.0
 12
0.0
 22
0.0
 32
0.0
 14
0.0
 24
0.0
 34
0.0
 15
0.0
 25
0.0
 35
0.0
146
0.0
 13
0.0
 23
0.0
 33
0.0
 16
1.0
 26
0.0
 36
0.0
 17
0.0
 27
1.0
 37
0.0
 76
     0
330
73
  0
MLINESTYLE
  5
18
102
{ACAD_REACTORS
330
17
102
}
330
17
100
AcDbMlineStyle
  2
Standard
 70
     0
  3

 62
   256
 51
90.0
 52
90.0
 71
     2
 49
0.5
 62
   256
  6
BYLAYER
 49
-0.5
 62
   256
  6
BYLAYER
  0
ACDBPLACEHOLDER
  5
F
102
{ACAD_REACTORS
330
E
102
}
330
E
  0
XRECORD
  5
D8C
102
{ACAD_REACTORS
330
D8B
102
}
330
D8B
100
AcDbXrecord
280
     1
340
6C
  0
XRECORD
  5
D8D
102
{ACAD_REACTORS
330
D8B
102
}
330
D8B
100
AcDbXrecord
280
     1
340
6B
  0
DICTIONARYVAR
  5
D8A
102
{ACAD_REACTORS
330
59
102
}
330
59
100
DictionaryVariables
280
     0
  1
1
  0
ENDSEC
  0
EOF
