  0
SECTION
  2
HEADER
  9
$ACADVER
  1
AC1015
  9
$ACADMAINTVER
 70
     6
  9
$DWGCODEPAGE
  3
ANSI_932
  9
$INSBASE
 10
0.0
 20
0.0
 30
0.0
  9
$EXTMIN
 10
25.8189987163
 20
9.342313819960644
 30
0.0
  9
$EXTMAX
 10
412.31900676123
 20
288.431941923775
 30
0.0
  9
$LIMMIN
 10
0.0
 20
0.0
  9
$LIMMAX
 10
420.0
 20
297.0
  9
$ORTHOMODE
 70
     0
  9
$REGENMODE
 70
     1
  9
$FILLMODE
 70
     1
  9
$QTEXTMODE
 70
     0
  9
$MIRRTEXT
 70
     1
  9
$LTSCALE
 40
0.2
  9
$ATTMODE
 70
     1
  9
$TEXTSIZE
 40
3.2
  9
$TRACEWID
 40
1.0
  9
$TEXTSTYLE
  7
KCADTEXTSTANDARD
  9
$CLAYER
  8
0
  9
$CELTYPE
  6
Continuous
  9
$CECOLOR
 62
   134
  9
$CELTSCALE
 40
1.0
  9
$DISPSILH
 70
     0
  9
$DIMSCALE
 40
1.0
  9
$DIMASZ
 40
3.0
  9
$DIMEXO
 40
1.0
  9
$DIMDLI
 40
8.0
  9
$DIMRND
 40
0.0
  9
$DIMDLE
 40
0.0
  9
$DIMEXE
 40
1.0
  9
$DIMTP
 40
0.0
  9
$DIMTM
 40
0.0
  9
$DIMTXT
 40
3.2
  9
$DIMCEN
 40
2.5
  9
$DIMTSZ
 40
0.0
  9
$DIMTOL
 70
     0
  9
$DIMLIM
 70
     0
  9
$DIMTIH
 70
     0
  9
$DIMTOH
 70
     0
  9
$DIMSE1
 70
     0
  9
$DIMSE2
 70
     0
  9
$DIMTAD
 70
     1
  9
$DIMZIN
 70
     8
  9
$DIMBLK
  1

  9
$DIMASO
 70
     1
  9
$DIMSHO
 70
     1
  9
$DIMPOST
  1

  9
$DIMAPOST
  1

  9
$DIMALT
 70
     0
  9
$DIMALTD
 70
     2
  9
$DIMALTF
 40
25.4
  9
$DIMLFAC
 40
1.0
  9
$DIMTOFL
 70
     1
  9
$DIMTVP
 40
0.0
  9
$DIMTIX
 70
     0
  9
$DIMSOXD
 70
     0
  9
$DIMSAH
 70
     1
  9
$DIMBLK1
  1
KCAD_OPEN30
  9
$DIMBLK2
  1
KCAD_OPEN30
  9
$DIMSTYLE
  2
Standard
  9
$DIMCLRD
 70
     0
  9
$DIMCLRE
 70
     0
  9
$DIMCLRT
 70
     0
  9
$DIMTFAC
 40
0.667
  9
$DIMGAP
 40
0.5333000000000001
  9
$DIMJUST
 70
     0
  9
$DIMSD1
 70
     0
  9
$DIMSD2
 70
     0
  9
$DIMTOLJ
 70
     1
  9
$DIMTZIN
 70
     8
  9
$DIMALTZ
 70
     0
  9
$DIMALTTZ
 70
     0
  9
$DIMUPT
 70
     0
  9
$DIMDEC
 70
     3
  9
$DIMTDEC
 70
     3
  9
$DIMALTU
 70
     2
  9
$DIMALTTD
 70
     2
  9
$DIMTXSTY
  7
KCADDIMSTANDARD
  9
$DIMAUNIT
 70
     0
  9
$DIMADEC
 70
     3
  9
$DIMALTRND
 40
0.0
  9
$DIMAZIN
 70
     2
  9
$DIMDSEP
 70
    46
  9
$DIMATFIT
 70
     3
  9
$DIMFRAC
 70
     0
  9
$DIMLDRBLK
  1
KCAD_OPEN
  9
$DIMLUNIT
 70
     2
  9
$DIMLWD
 70
    -2
  9
$DIMLWE
 70
    -2
  9
$DIMTMOVE
 70
     0
  9
$LUNITS
 70
     2
  9
$LUPREC
 70
     4
  9
$SKETCHINC
 40
1.0
  9
$FILLETRAD
 40
5.0
  9
$AUNITS
 70
     0
  9
$AUPREC
 70
     0
  9
$MENU
  1
.
  9
$ELEVATION
 40
0.0
  9
$PELEVATION
 40
0.0
  9
$THICKNESS
 40
0.0
  9
$LIMCHECK
 70
     0
  9
$CHAMFERA
 40
5.0
  9
$CHAMFERB
 40
5.0
  9
$CHAMFERC
 40
5.0
  9
$CHAMFERD
 40
0.7853981633974483
  9
$SKPOLY
 70
     0
  9
$TDCREATE
 40
2453354.092125822
  9
$TDUCREATE
 40
2453353.717125822
  9
$TDUPDATE
 40
2453294.490895544
  9
$TDUUPDATE
 40
2453294.115895544
  9
$TDINDWG
 40
0.0813661574
  9
$TDUSRTIMER
 40
0.0813429745
  9
$USRTIMER
 70
     1
  9
$ANGBASE
 50
0.0
  9
$ANGDIR
 70
     0
  9
$PDMODE
 70
     0
  9
$PDSIZE
 40
0.0
  9
$PLINEWID
 40
0.0
  9
$SPLFRAME
 70
     0
  9
$SPLINETYPE
 70
     6
  9
$SPLINESEGS
 70
     8
  9
$HANDSEED
  5
C7B
  9
$SURFTAB1
 70
     6
  9
$SURFTAB2
 70
     6
  9
$SURFTYPE
 70
     6
  9
$SURFU
 70
     6
  9
$SURFV
 70
     6
  9
$UCSBASE
  2

  9
$UCSNAME
  2

  9
$UCSORG
 10
0.0
 20
0.0
 30
0.0
  9
$UCSXDIR
 10
1.0
 20
0.0
 30
0.0
  9
$UCSYDIR
 10
0.0
 20
1.0
 30
0.0
  9
$UCSORTHOREF
  2

  9
$UCSORTHOVIEW
 70
     0
  9
$UCSORGTOP
 10
0.0
 20
0.0
 30
0.0
  9
$UCSORGBOTTOM
 10
0.0
 20
0.0
 30
0.0
  9
$UCSORGLEFT
 10
0.0
 20
0.0
 30
0.0
  9
$UCSORGRIGHT
 10
0.0
 20
0.0
 30
0.0
  9
$UCSORGFRONT
 10
0.0
 20
0.0
 30
0.0
  9
$UCSORGBACK
 10
0.0
 20
0.0
 30
0.0
  9
$PUCSBASE
  2

  9
$PUCSNAME
  2

  9
$PUCSORG
 10
0.0
 20
0.0
 30
0.0
  9
$PUCSXDIR
 10
1.0
 20
0.0
 30
0.0
  9
$PUCSYDIR
 10
0.0
 20
1.0
 30
0.0
  9
$PUCSORTHOREF
  2

  9
$PUCSORTHOVIEW
 70
     0
  9
$PUCSORGTOP
 10
0.0
 20
0.0
 30
0.0
  9
$PUCSORGBOTTOM
 10
0.0
 20
0.0
 30
0.0
  9
$PUCSORGLEFT
 10
0.0
 20
0.0
 30
0.0
  9
$PUCSORGRIGHT
 10
0.0
 20
0.0
 30
0.0
  9
$PUCSORGFRONT
 10
0.0
 20
0.0
 30
0.0
  9
$PUCSORGBACK
 10
0.0
 20
0.0
 30
0.0
  9
$USERI1
 70
     0
  9
$USERI2
 70
     0
  9
$USERI3
 70
     0
  9
$USERI4
 70
   257
  9
$USERI5
 70
     0
  9
$USERR1
 40
0.0
  9
$USERR2
 40
0.0
  9
$USERR3
 40
0.0
  9
$USERR4
 40
0.0
  9
$USERR5
 40
0.0
  9
$WORLDVIEW
 70
     1
  9
$SHADEDGE
 70
     3
  9
$SHADEDIF
 70
    70
  9
$TILEMODE
 70
     1
  9
$MAXACTVP
 70
    48
  9
$PINSBASE
 10
0.0
 20
0.0
 30
0.0
  9
$PLIMCHECK
 70
     0
  9
$PEXTMIN
 10
0.0
 20
0.0
 30
0.0
  9
$PEXTMAX
 10
0.0
 20
0.0
 30
0.0
  9
$PLIMMIN
 10
0.0
 20
0.0
  9
$PLIMMAX
 10
12.0
 20
9.0
  9
$UNITMODE
 70
     0
  9
$VISRETAIN
 70
     1
  9
$PLINEGEN
 70
     0
  9
$PSLTSCALE
 70
     1
  9
$TREEDEPTH
 70
  3020
  9
$CMLSTYLE
  2
Standard
  9
$CMLJUST
 70
     0
  9
$CMLSCALE
 40
20.0
  9
$PROXYGRAPHICS
 70
     1
  9
$MEASUREMENT
 70
     1
  9
$CELWEIGHT
370
    15
  9
$ENDCAPS
280
     0
  9
$JOINSTYLE
280
     0
  9
$LWDISPLAY
290
     0
  9
$INSUNITS
 70
     0
  9
$HYPERLINKBASE
  1

  9
$STYLESHEET
  1

  9
$XEDIT
290
     0
  9
$CEPSNTYPE
380
     0
  9
$PSTYLEMODE
290
     1
  9
$FINGERPRINTGUID
  2
{1989D620-E742-11D2-9219-00105A146177}
  9
$VERSIONGUID
  2
{F78E0A63-5755-409B-94E1-640859D57542}
  9
$EXTNAMES
290
     1
  9
$PSVPSCALE
 40
0.0
  9
$OLESTARTUP
290
     0
  0
ENDSEC
  0
SECTION
  2
CLASSES
  0
CLASS
  1
ACDBDICTIONARYWDFLT
  2
AcDbDictionaryWithDefault
  3
ObjectDBX Classes
 90
        0
280
     0
281
     0
  0
CLASS
  1
ACDBPLACEHOLDER
  2
AcDbPlaceHolder
  3
ObjectDBX Classes
 90
        0
280
     0
281
     0
  0
CLASS
  1
LAYOUT
  2
AcDbLayout
  3
ObjectDBX Classes
 90
        0
280
     0
281
     0
  0
CLASS
  1
DICTIONARYVAR
  2
AcDbDictionaryVar
  3
ObjectDBX Classes
 90
        0
280
     0
281
     0
  0
CLASS
  1
TABLESTYLE
  2
AcDbTableStyle
  3
ObjectDBX Classes
 90
     2047
280
     0
281
     0
  0
ENDSEC
  0
SECTION
  2
TABLES
  0
TABLE
  2
VPORT
  5
8
330
0
100
AcDbSymbolTable
 70
     2
  0
VPORT
  5
97
330
8
100
AcDbSymbolTableRecord
100
AcDbViewportTableRecord
  2
*Active
 70
     0
 10
0.0
 20
0.0
 11
1.0
 21
1.0
 12
219.069002738765
 22
148.8871278718678
 13
0.0
 23
0.0
 14
10.0
 24
10.0
 15
10.0
 25
10.0
 16
0.0
 26
0.0
 36
1.0
 17
0.0
 27
0.0
 37
0.0
 40
308.2888657325681
 41
2.20035778175313
 42
50.0
 43
0.0
 44
0.0
 50
0.0
 51
0.0
 71
    16
 72
 20000
 73
     1
 74
     1
 75
     0
 76
     0
 77
     0
 78
     0
281
     0
 65
     0
110
0.0
120
0.0
130
0.0
111
1.0
121
0.0
131
0.0
112
0.0
122
1.0
132
0.0
 79
     0
146
0.0
  0
ENDTAB
  0
TABLE
  2
LTYPE
  5
5
330
0
100
AcDbSymbolTable
 70
     6
  0
LTYPE
  5
14
330
5
100
AcDbSymbolTableRecord
100
AcDbLinetypeTableRecord
  2
ByBlock
 70
     0
  3

 72
    65
 73
     0
 40
0.0
  0
LTYPE
  5
15
330
5
100
AcDbSymbolTableRecord
100
AcDbLinetypeTableRecord
  2
ByLayer
 70
     0
  3

 72
    65
 73
     0
 40
0.0
  0
LTYPE
  5
16
330
5
100
AcDbSymbolTableRecord
100
AcDbLinetypeTableRecord
  2
Continuous
 70
     0
  3
Solid line
 72
    65
 73
     0
 40
0.0
  0
LTYPE
  5
BE9
330
5
100
AcDbSymbolTableRecord
100
AcDbLinetypeTableRecord
  2
CENTER
 70
     0
  3
Center ____ _ ____ _ ____ _ ____ _ ____ _ ____
 72
    65
 73
     4
 40
50.8
 49
31.75
 74
     4
 75
     0
340
0
 46
1.0
 50
0.0
 44
0.0
 45
0.0
 49
-6.349999999999999
 74
     4
 75
     0
340
0
 46
1.0
 50
0.0
 44
0.0
 45
0.0
 49
6.349999999999999
 74
     4
 75
     0
340
0
 46
1.0
 50
0.0
 44
0.0
 45
0.0
 49
-6.349999999999999
 74
     4
 75
     0
340
0
 46
1.0
 50
0.0
 44
0.0
 45
0.0
  0
LTYPE
  5
BEA
330
5
100
AcDbSymbolTableRecord
100
AcDbLinetypeTableRecord
  2
DASHED
 70
     0
  3
Dashed __ __ __ __ __ __ __ __ __ __ __ __ __ _
 72
    65
 73
     2
 40
19.05
 49
12.7
 74
     4
 75
     0
340
0
 46
1.0
 50
0.0
 44
0.0
 45
0.0
 49
-6.349999999999999
 74
     4
 75
     0
340
0
 46
1.0
 50
0.0
 44
0.0
 45
0.0
  0
LTYPE
  5
BEB
330
5
100
AcDbSymbolTableRecord
100
AcDbLinetypeTableRecord
  2
HIDDEN
 70
     0
  3
Hidden __ __ __ __ __ __ __ __ __ __ __ __ __ _
 72
    65
 73
     2
 40
9.524999999999999
 49
6.349999999999999
 74
     4
 75
     0
340
0
 46
1.0
 50
0.0
 44
0.0
 45
0.0
 49
-3.174999999999999
 74
     4
 75
     0
340
0
 46
1.0
 50
0.0
 44
0.0
 45
0.0
  0
LTYPE
  5
BEC
330
5
100
AcDbSymbolTableRecord
100
AcDbLinetypeTableRecord
  2
PHANTOM
 70
     0
  3
Phantom ______  __  __  ______  __  __  ______
 72
    65
 73
     6
 40
63.50000000000001
 49
31.75
 74
     4
 75
     0
340
0
 46
1.0
 50
0.0
 44
0.0
 45
0.0
 49
-6.349999999999999
 74
     4
 75
     0
340
0
 46
1.0
 50
0.0
 44
0.0
 45
0.0
 49
6.349999999999999
 74
     4
 75
     0
340
0
 46
1.0
 50
0.0
 44
0.0
 45
0.0
 49
-6.349999999999999
 74
     4
 75
     0
340
0
 46
1.0
 50
0.0
 44
0.0
 45
0.0
 49
6.349999999999999
 74
     4
 75
     0
340
0
 46
1.0
 50
0.0
 44
0.0
 45
0.0
 49
-6.349999999999999
 74
     4
 75
     0
340
0
 46
1.0
 50
0.0
 44
0.0
 45
0.0
  0
LTYPE
  5
BED
330
5
100
AcDbSymbolTableRecord
100
AcDbLinetypeTableRecord
  2
RUPTURE
 70
     0
  3
Rupture line
 72
    65
 73
     4
 40
45.72
 49
25.4
 74
     4
 75
     0
340
0
 46
1.0
 50
0.0
 44
0.0
 45
0.0
 49
-5.08
 74
     4
 75
   131
340
11
 46
5.08
 50
0.0
 44
-5.08
 45
0.0
 49
-10.16
 74
     4
 75
   131
340
11
 46
5.08
 50
180.0
 44
5.08
 45
0.0
 49
-5.08
 74
     4
 75
     0
340
0
 46
1.0
 50
0.0
 44
0.0
 45
0.0
  0
ENDTAB
  0
TABLE
  2
LAYER
  5
2
330
0
100
AcDbSymbolTable
 70
    17
  0
LAYER
  5
10
330
2
100
AcDbSymbolTableRecord
100
AcDbLayerTableRecord
  2
0
 70
     0
 62
     7
  6
Continuous
370
    -3
390
F
  0
LAYER
  5
851
330
2
100
AcDbSymbolTableRecord
100
AcDbLayerTableRecord
  2
KCAD_DIMS
 70
     0
 62
   134
  6
Continuous
370
    15
390
F
  0
LAYER
  5
4F
330
2
100
AcDbSymbolTableRecord
100
AcDbLayerTableRecord
  2
DEFPOINTS
 70
     0
 62
     7
  6
Continuous
290
     0
370
    -3
390
F
  0
LAYER
  5
20B
330
2
100
AcDbSymbolTableRecord
100
AcDbLayerTableRecord
  2
KCAD_ASST
 70
     0
 62
   134
  6
Continuous
370
    15
390
F
  0
LAYER
  5
20C
330
2
100
AcDbSymbolTableRecord
100
AcDbLayerTableRecord
  2
KCAD_RASTER
 70
     0
 62
     7
  6
Continuous
370
    30
390
F
  0
LAYER
  5
20D
330
2
100
AcDbSymbolTableRecord
100
AcDbLayerTableRecord
  2
SYBCENTER
 70
     0
 62
   134
  6
CENTER
370
    15
390
F
  0
LAYER
  5
20E
330
2
100
AcDbSymbolTableRecord
100
AcDbLayerTableRecord
  2
SYBHIDE
 70
     0
 62
   134
  6
HIDDEN
370
    15
390
F
  0
LAYER
  5
20F
330
2
100
AcDbSymbolTableRecord
100
AcDbLayerTableRecord
  2
SYBOUTLINE
 70
     0
 62
     7
  6
Continuous
370
    30
390
F
  0
LAYER
  5
210
330
2
100
AcDbSymbolTableRecord
100
AcDbLayerTableRecord
  2
SYBTHREAD
 70
     0
 62
   134
  6
Continuous
370
    15
390
F
  0
LAYER
  5
211
330
2
100
AcDbSymbolTableRecord
100
AcDbLayerTableRecord
  2
SYBTHRHID
 70
     0
 62
   134
  6
HIDDEN
370
    15
390
F
  0
LAYER
  5
282
330
2
100
AcDbSymbolTableRecord
100
AcDbLayerTableRecord
  2
KCAD_UIR_TMP_LAYER_
 70
     0
 62
     7
  6
Continuous
370
    -3
390
F
  0
LAYER
  5
2A8
330
2
100
AcDbSymbolTableRecord
100
AcDbLayerTableRecord
  2
KCAD_CPM_MAX_LAYER
 70
     3
 62
     7
  6
Continuous
370
    -3
390
F
  0
LAYER
  5
2F3
330
2
100
AcDbSymbolTableRecord
100
AcDbLayerTableRecord
  2
90-ScaleR0.4
 70
     0
 62
     7
  6
Continuous
370
    -3
390
F
1001
Layer_Scale
1002
{
1071
   200007
1070
     0
1040
0.4
1040
1.0
1002
}
  0
LAYER
  5
395
330
2
100
AcDbSymbolTableRecord
100
AcDbLayerTableRecord
  2
2
 70
     0
 62
     7
  6
Continuous
370
    -3
390
F
  0
LAYER
  5
3B0
330
2
100
AcDbSymbolTableRecord
100
AcDbLayerTableRecord
  2
3
 70
     0
 62
     7
  6
Continuous
370
    -3
390
F
  0
LAYER
  5
3F4
330
2
100
AcDbSymbolTableRecord
100
AcDbLayerTableRecord
  2
4
 70
     0
 62
     7
  6
Continuous
370
    -3
390
F
  0
LAYER
  5
9E6
330
2
100
AcDbSymbolTableRecord
100
AcDbLayerTableRecord
  2
99
 70
     0
 62
     7
  6
Continuous
370
    -3
390
F
  0
ENDTAB
  0
TABLE
  2
STYLE
  5
3
330
0
100
AcDbSymbolTable
 70
     5
  0
STYLE
  5
11
330
3
100
AcDbSymbolTableRecord
100
AcDbTextStyleTableRecord
  2
Standard
 70
     0
 40
0.0
 41
1.0
 50
0.0
 71
     0
 42
3.2
  3
txt.shx
  4
bigfont.shx
  0
STYLE
  5
17F
330
3
100
AcDbSymbolTableRecord
100
AcDbTextStyleTableRecord
  2

 70
     1
 40
0.0
 41
1.0
 50
0.0
 71
     0
 42
3.2
  3
ltypeshp.shx
  4

  0
STYLE
  5
189
330
3
100
AcDbSymbolTableRecord
100
AcDbTextStyleTableRecord
  2
KCADDIMSTANDARD
 70
     0
 40
0.0
 41
1.0
 50
0.0
 71
     0
 42
3.2
  3
txt.shx
  4
bigfont.shx
  0
STYLE
  5
18A
330
3
100
AcDbSymbolTableRecord
100
AcDbTextStyleTableRecord
  2
KCADTEXTSTANDARD
 70
     0
 40
0.0
 41
1.0
 50
0.0
 71
     0
 42
3.2
  3
txt.shx
  4
bigfont.shx
  0
STYLE
  5
1AD
330
3
100
AcDbSymbolTableRecord
100
AcDbTextStyleTableRecord
  2
KCADTEXT2
 70
     0
 40
0.0
 41
1.0
 50
0.0
 71
     0
 42
3.2
  3
txt.shx
  4
extfont.shx
  0
ENDTAB
  0
TABLE
  2
VIEW
  5
6
330
0
100
AcDbSymbolTable
 70
     0
  0
ENDTAB
  0
TABLE
  2
UCS
  5
7
330
0
100
AcDbSymbolTable
 70
     0
  0
ENDTAB
  0
TABLE
  2
APPID
  5
9
330
0
100
AcDbSymbolTable
 70
     4
  0
APPID
  5
12
330
9
100
AcDbSymbolTableRecord
100
AcDbRegAppTableRecord
  2
ACAD
 70
     0
  0
APPID
  5
BE6
330
9
100
AcDbSymbolTableRecord
100
AcDbRegAppTableRecord
  2
Sigma
 70
     0
  0
APPID
  5
BE7
330
9
100
AcDbSymbolTableRecord
100
AcDbRegAppTableRecord
  2
Layer_Scale
 70
     0
  0
APPID
  5
BE8
330
9
100
AcDbSymbolTableRecord
100
AcDbRegAppTableRecord
  2
KCAD_DIM_EXT
 70
     0
  0
ENDTAB
  0
TABLE
  2
DIMSTYLE
  5
A
330
0
100
AcDbSymbolTable
 70
     1
100
AcDbDimStyleTable
  0
DIMSTYLE
105
27
102
{ACAD_REACTORS
330
42A
330
466
330
4A2
330
4DE
330
523
330
55F
330
59B
330
5D7
330
613
330
651
330
68F
330
6CD
330
706
330
741
330
77D
330
7C7
330
7FD
102
}
330
A
100
AcDbSymbolTableRecord
100
AcDbDimStyleTableRecord
  2
Standard
 70
     0
340
11
  0
ENDTAB
  0
TABLE
  2
BLOCK_RECORD
  5
1
330
0
100
AcDbSymbolTable
 70
    67
  0
BLOCK_RECORD
  5
1F
330
1
100
AcDbSymbolTableRecord
100
AcDbBlockTableRecord
  2
*Model_Space
340
22
  0
BLOCK_RECORD
  5
73
330
1
100
AcDbSymbolTableRecord
100
AcDbBlockTableRecord
  2
*Paper_Space
340
22F
  0
BLOCK_RECORD
  5
852
330
1
100
AcDbSymbolTableRecord
100
AcDbBlockTableRecord
  2
KCAD_OPEN
340
0
  0
BLOCK_RECORD
  5
3C
330
1
100
AcDbSymbolTableRecord
100
AcDbBlockTableRecord
  2
KCAD_DOTSMALL
340
0
  0
BLOCK_RECORD
  5
44
330
1
100
AcDbSymbolTableRecord
100
AcDbBlockTableRecord
  2
KCAD_NONE
340
0
  0
BLOCK_RECORD
  5
FC
330
1
100
AcDbSymbolTableRecord
100
AcDbBlockTableRecord
  2
_CLOSED
340
0
  0
BLOCK_RECORD
  5
103
330
1
100
AcDbSymbolTableRecord
100
AcDbBlockTableRecord
  2
_DOT
340
0
  0
BLOCK_RECORD
  5
10B
330
1
100
AcDbSymbolTableRecord
100
AcDbBlockTableRecord
  2
_CLOSEDBLANK
340
0
  0
BLOCK_RECORD
  5
111
330
1
100
AcDbSymbolTableRecord
100
AcDbBlockTableRecord
  2
_OBLIQUE
340
0
  0
BLOCK_RECORD
  5
115
330
1
100
AcDbSymbolTableRecord
100
AcDbBlockTableRecord
  2
_ARCHTICK
340
0
  0
BLOCK_RECORD
  5
11C
330
1
100
AcDbSymbolTableRecord
100
AcDbBlockTableRecord
  2
_OPEN
340
0
  0
BLOCK_RECORD
  5
122
330
1
100
AcDbSymbolTableRecord
100
AcDbBlockTableRecord
  2
_ORIGIN
340
0
  0
BLOCK_RECORD
  5
127
330
1
100
AcDbSymbolTableRecord
100
AcDbBlockTableRecord
  2
_OPEN90
340
0
  0
BLOCK_RECORD
  5
12D
330
1
100
AcDbSymbolTableRecord
100
AcDbBlockTableRecord
  2
_OPEN30
340
0
102
{BLKREFS
331
45F
331
460
331
49B
331
49C
331
4D7
331
4D8
331
51D
331
51E
331
558
331
559
331
594
331
595
331
5D0
331
5D1
331
60C
331
60D
331
64A
331
64B
331
686
331
687
331
6C4
331
6C5
331
705
331
73E
331
776
331
777
331
7BE
331
7BF
331
7F6
331
7F7
331
832
331
833
331
3F7
102
}
  0
BLOCK_RECORD
  5
133
330
1
100
AcDbSymbolTableRecord
100
AcDbBlockTableRecord
  2
_DOTBLANK
340
0
  0
BLOCK_RECORD
  5
138
330
1
100
AcDbSymbolTableRecord
100
AcDbBlockTableRecord
  2
_DOTSMALL
340
0
  0
BLOCK_RECORD
  5
13F
330
1
100
AcDbSymbolTableRecord
100
AcDbBlockTableRecord
  2
_BOXFILLED
340
0
  0
BLOCK_RECORD
  5
144
330
1
100
AcDbSymbolTableRecord
100
AcDbBlockTableRecord
  2
_BOXBLANK
340
0
  0
BLOCK_RECORD
  5
14C
330
1
100
AcDbSymbolTableRecord
100
AcDbBlockTableRecord
  2
_DATUMFILLED
340
0
  0
BLOCK_RECORD
  5
150
330
1
100
AcDbSymbolTableRecord
100
AcDbBlockTableRecord
  2
_DATUMBLANK
340
0
  0
BLOCK_RECORD
  5
156
330
1
100
AcDbSymbolTableRecord
100
AcDbBlockTableRecord
  2
_INTEGRAL
340
0
  0
BLOCK_RECORD
  5
1F1
330
1
100
AcDbSymbolTableRecord
100
AcDbBlockTableRecord
  2
_Origin2
340
0
  0
BLOCK_RECORD
  5
1F7
330
1
100
AcDbSymbolTableRecord
100
AcDbBlockTableRecord
  2
KCAD_OPEN30
340
0
  0
BLOCK_RECORD
  5
222
330
1
100
AcDbSymbolTableRecord
100
AcDbBlockTableRecord
  2
_None
340
0
  0
BLOCK_RECORD
  5
283
330
1
100
AcDbSymbolTableRecord
100
AcDbBlockTableRecord
  2
_Small
340
0
  0
BLOCK_RECORD
  5
287
330
1
100
AcDbSymbolTableRecord
100
AcDbBlockTableRecord
  2
KCAD_OPEN_2
340
0
  0
BLOCK_RECORD
  5
28E
330
1
100
AcDbSymbolTableRecord
100
AcDbBlockTableRecord
  2
KCAD_OPEN30_2
340
0
  0
BLOCK_RECORD
  5
2AD
330
1
100
AcDbSymbolTableRecord
100
AcDbBlockTableRecord
  2
KCAD_OPEN30ANG
340
0
  0
BLOCK_RECORD
  5
2B6
330
1
100
AcDbSymbolTableRecord
100
AcDbBlockTableRecord
  2
KCAD_DOTANG
340
0
  0
BLOCK_RECORD
  5
42B
330
1
100
AcDbSymbolTableRecord
100
AcDbBlockTableRecord
  2
*D27
340
0
  0
BLOCK_RECORD
  5
467
330
1
100
AcDbSymbolTableRecord
100
AcDbBlockTableRecord
  2
*D28
340
0
  0
BLOCK_RECORD
  5
4A3
330
1
100
AcDbSymbolTableRecord
100
AcDbBlockTableRecord
  2
*D29
340
0
  0
BLOCK_RECORD
  5
4DF
330
1
100
AcDbSymbolTableRecord
100
AcDbBlockTableRecord
  2
*D30
340
0
  0
BLOCK_RECORD
  5
524
330
1
100
AcDbSymbolTableRecord
100
AcDbBlockTableRecord
  2
*D31
340
0
  0
BLOCK_RECORD
  5
560
330
1
100
AcDbSymbolTableRecord
100
AcDbBlockTableRecord
  2
*D32
340
0
  0
BLOCK_RECORD
  5
59C
330
1
100
AcDbSymbolTableRecord
100
AcDbBlockTableRecord
  2
*D33
340
0
  0
BLOCK_RECORD
  5
5D8
330
1
100
AcDbSymbolTableRecord
100
AcDbBlockTableRecord
  2
*D34
340
0
  0
BLOCK_RECORD
  5
614
330
1
100
AcDbSymbolTableRecord
100
AcDbBlockTableRecord
  2
*D35
340
0
  0
BLOCK_RECORD
  5
652
330
1
100
AcDbSymbolTableRecord
100
AcDbBlockTableRecord
  2
*D36
340
0
  0
BLOCK_RECORD
  5
690
330
1
100
AcDbSymbolTableRecord
100
AcDbBlockTableRecord
  2
*D37
340
0
  0
BLOCK_RECORD
  5
6CE
330
1
100
AcDbSymbolTableRecord
100
AcDbBlockTableRecord
  2
*D38
340
0
  0
BLOCK_RECORD
  5
707
330
1
100
AcDbSymbolTableRecord
100
AcDbBlockTableRecord
  2
*D39
340
0
  0
BLOCK_RECORD
  5
742
330
1
100
AcDbSymbolTableRecord
100
AcDbBlockTableRecord
  2
*D40
340
0
  0
BLOCK_RECORD
  5
77E
330
1
100
AcDbSymbolTableRecord
100
AcDbBlockTableRecord
  2
*D41
340
0
  0
BLOCK_RECORD
  5
7C8
330
1
100
AcDbSymbolTableRecord
100
AcDbBlockTableRecord
  2
*D42
340
0
  0
BLOCK_RECORD
  5
7FE
330
1
100
AcDbSymbolTableRecord
100
AcDbBlockTableRecord
  2
*D43
340
0
  0
BLOCK_RECORD
  5
924
330
1
100
AcDbSymbolTableRecord
100
AcDbBlockTableRecord
  2
*D44
340
0
  0
BLOCK_RECORD
  5
930
330
1
100
AcDbSymbolTableRecord
100
AcDbBlockTableRecord
  2
*D45
340
0
  0
BLOCK_RECORD
  5
93C
330
1
100
AcDbSymbolTableRecord
100
AcDbBlockTableRecord
  2
*D46
340
0
  0
BLOCK_RECORD
  5
949
330
1
100
AcDbSymbolTableRecord
100
AcDbBlockTableRecord
  2
*D47
340
0
  0
BLOCK_RECORD
  5
955
330
1
100
AcDbSymbolTableRecord
100
AcDbBlockTableRecord
  2
*D48
340
0
  0
BLOCK_RECORD
  5
961
330
1
100
AcDbSymbolTableRecord
100
AcDbBlockTableRecord
  2
*D49
340
0
  0
BLOCK_RECORD
  5
96D
330
1
100
AcDbSymbolTableRecord
100
AcDbBlockTableRecord
  2
*D50
340
0
  0
BLOCK_RECORD
  5
979
330
1
100
AcDbSymbolTableRecord
100
AcDbBlockTableRecord
  2
*D51
340
0
  0
BLOCK_RECORD
  5
985
330
1
100
AcDbSymbolTableRecord
100
AcDbBlockTableRecord
  2
*D52
340
0
  0
BLOCK_RECORD
  5
991
330
1
100
AcDbSymbolTableRecord
100
AcDbBlockTableRecord
  2
*D53
340
0
  0
BLOCK_RECORD
  5
99D
330
1
100
AcDbSymbolTableRecord
100
AcDbBlockTableRecord
  2
*D54
340
0
  0
BLOCK_RECORD
  5
9A8
330
1
100
AcDbSymbolTableRecord
100
AcDbBlockTableRecord
  2
*D55
340
0
  0
BLOCK_RECORD
  5
9B3
330
1
100
AcDbSymbolTableRecord
100
AcDbBlockTableRecord
  2
*D56
340
0
  0
BLOCK_RECORD
  5
9BF
330
1
100
AcDbSymbolTableRecord
100
AcDbBlockTableRecord
  2
*D57
340
0
  0
BLOCK_RECORD
  5
9CC
330
1
100
AcDbSymbolTableRecord
100
AcDbBlockTableRecord
  2
*D58
340
0
  0
BLOCK_RECORD
  5
9D7
330
1
100
AcDbSymbolTableRecord
100
AcDbBlockTableRecord
  2
*D59
340
0
  0
BLOCK_RECORD
  5
9E3
330
1
100
AcDbSymbolTableRecord
100
AcDbBlockTableRecord
  2
*D60
340
0
  0
BLOCK_RECORD
  5
A7E
330
1
100
AcDbSymbolTableRecord
100
AcDbBlockTableRecord
  2
*D61
340
0
  0
BLOCK_RECORD
  5
A8A
330
1
100
AcDbSymbolTableRecord
100
AcDbBlockTableRecord
  2
*D62
340
0
  0
BLOCK_RECORD
  5
A96
330
1
100
AcDbSymbolTableRecord
100
AcDbBlockTableRecord
  2
*D63
340
0
  0
BLOCK_RECORD
  5
AA2
330
1
100
AcDbSymbolTableRecord
100
AcDbBlockTableRecord
  2
*D64
340
0
  0
BLOCK_RECORD
  5
AAD
330
1
100
AcDbSymbolTableRecord
100
AcDbBlockTableRecord
  2
*D65
340
0
  0
BLOCK_RECORD
  5
AB8
330
1
100
AcDbSymbolTableRecord
100
AcDbBlockTableRecord
  2
*D66
340
0
  0
ENDTAB
  0
ENDSEC
  0
SECTION
  2
BLOCKS
  0
BLOCK
  5
20
330
1F
100
AcDbEntity
  8
0
100
AcDbBlockBegin
  2
*Model_Space
 70
     0
 71
     0
 10
0.0
 20
0.0
 30
0.0
  3
*Model_Space
  1

  0
ENDBLK
  5
21
330
1F
100
AcDbEntity
  8
0
100
AcDbBlockEnd
  0
BLOCK
  5
75
330
73
100
AcDbEntity
 67
     1
  8
0
100
AcDbBlockBegin
  2
*Paper_Space
 70
     0
 71
     0
 10
0.0
 20
0.0
 30
0.0
  3
*Paper_Space
  1

  0
ENDBLK
  5
76
330
73
100
AcDbEntity
 67
     1
  8
0
100
AcDbBlockEnd
  0
BLOCK
  5
BF0
330
852
100
AcDbEntity
  8
KCAD_DIMS
100
AcDbBlockBegin
  2
KCAD_OPEN
 70
     0
 71
     0
 10
0.0
 20
0.0
 30
0.0
  3
KCAD_OPEN
  1

  0
LINE
  5
8AB
330
852
100
AcDbEntity
  8
0
  6
Continuous
 62
     0
370
    -2
100
AcDbLine
 10
0.0
 20
0.0
 30
0.0
 11
-1.0
 21
0.0
 31
0.0
  0
LINE
  5
23
330
852
100
AcDbEntity
  8
0
  6
Continuous
 62
     0
370
    -2
100
AcDbLine
 10
0.0
 20
0.0
 30
0.0
 11
-1.0
 21
0.158384
 31
0.0
  0
LINE
  5
24
330
852
100
AcDbEntity
  8
0
  6
Continuous
 62
     0
370
    -2
100
AcDbLine
 10
0.0
 20
0.0
 30
0.0
 11
-1.0
 21
-0.158384
 31
0.0
  0
ENDBLK
  5
BF1
330
852
100
AcDbEntity
  8
KCAD_DIMS
100
AcDbBlockEnd
  0
BLOCK
  5
BF2
330
3C
100
AcDbEntity
  8
KCAD_DIMS
100
AcDbBlockBegin
  2
KCAD_DOTSMALL
 70
     0
 71
     0
 10
0.0
 20
0.0
 30
0.0
  3
KCAD_DOTSMALL
  1

  0
LWPOLYLINE
  5
3D
330
3C
100
AcDbEntity
  8
KCAD_DIMS
 62
     0
100
AcDbPolyline
 90
        2
 70
     1
 43
0.5
 10
0.06252
 20
0.0
 42
1.0
 10
-0.06262
 20
0.0
 42
1.0
  0
LINE
  5
41
330
3C
100
AcDbEntity
  8
0
  6
Continuous
 62
     0
370
    -2
100
AcDbLine
 10
0.0
 20
0.0
 30
0.0
 11
-1.0
 21
0.0
 31
0.0
  0
ENDBLK
  5
BF3
330
3C
100
AcDbEntity
  8
0
100
AcDbBlockEnd
  0
BLOCK
  5
BF4
330
44
100
AcDbEntity
  8
KCAD_DIMS
100
AcDbBlockBegin
  2
KCAD_NONE
 70
     0
 71
     0
 10
0.0
 20
0.0
 30
0.0
  3
KCAD_NONE
  1

  0
LINE
  5
45
330
44
100
AcDbEntity
  8
0
  6
Continuous
 62
     0
370
    -2
100
AcDbLine
 10
0.0
 20
0.0
 30
0.0
 11
-1.0
 21
0.0
 31
0.0
  0
ENDBLK
  5
BF5
330
44
100
AcDbEntity
  8
0
100
AcDbBlockEnd
  0
BLOCK
  5
BF6
330
FC
100
AcDbEntity
  8
0
100
AcDbBlockBegin
  2
_CLOSED
 70
     0
 71
     0
 10
0.0
 20
0.0
 30
0.0
  3
_CLOSED
  1

  0
LINE
  5
FE
330
FC
100
AcDbEntity
  8
0
  6
Continuous
 62
     0
370
    -2
100
AcDbLine
 10
-1.0
 20
0.166667
 30
0.0
 11
0.0
 21
0.0
 31
0.0
  0
LINE
  5
FF
330
FC
100
AcDbEntity
  8
0
  6
Continuous
 62
     0
370
    -2
100
AcDbLine
 10
0.0
 20
0.0
 30
0.0
 11
-1.0
 21
-0.166667
 31
0.0
  0
LINE
  5
100
330
FC
100
AcDbEntity
  8
0
  6
Continuous
 62
     0
370
    -2
100
AcDbLine
 10
-1.0
 20
0.166667
 30
0.0
 11
-1.0
 21
-0.166667
 31
0.0
  0
LINE
  5
101
330
FC
100
AcDbEntity
  8
0
  6
Continuous
 62
     0
370
    -2
100
AcDbLine
 10
0.0
 20
0.0
 30
0.0
 11
-1.0
 21
0.0
 31
0.0
  0
ENDBLK
  5
BF7
330
FC
100
AcDbEntity
  8
0
100
AcDbBlockEnd
  0
BLOCK
  5
BF8
330
103
100
AcDbEntity
  8
0
100
AcDbBlockBegin
  2
_DOT
 70
     0
 71
     0
 10
0.0
 20
0.0
 30
0.0
  3
_DOT
  1

  0
LWPOLYLINE
  5
105
330
103
100
AcDbEntity
  8
0
  6
ByBlock
 62
     0
100
AcDbPolyline
 90
        2
 70
     1
 43
0.5
 10
-0.25
 20
0.0
 42
1.0
 10
0.25
 20
0.0
 42
1.0
  0
LINE
  5
109
330
103
100
AcDbEntity
  8
0
  6
Continuous
 62
     0
370
    -2
100
AcDbLine
 10
-0.5
 20
0.0
 30
0.0
 11
-1.0
 21
0.0
 31
0.0
  0
ENDBLK
  5
BF9
330
103
100
AcDbEntity
  8
0
100
AcDbBlockEnd
  0
BLOCK
  5
BFA
330
10B
100
AcDbEntity
  8
0
100
AcDbBlockBegin
  2
_CLOSEDBLANK
 70
     0
 71
     0
 10
0.0
 20
0.0
 30
0.0
  3
_CLOSEDBLANK
  1

  0
LINE
  5
10D
330
10B
100
AcDbEntity
  8
0
  6
Continuous
 62
     0
370
    -2
100
AcDbLine
 10
-1.0
 20
0.166667
 30
0.0
 11
0.0
 21
0.0
 31
0.0
  0
LINE
  5
10E
330
10B
100
AcDbEntity
  8
0
  6
Continuous
 62
     0
370
    -2
100
AcDbLine
 10
0.0
 20
0.0
 30
0.0
 11
-1.0
 21
-0.166667
 31
0.0
  0
LINE
  5
10F
330
10B
100
AcDbEntity
  8
0
  6
Continuous
 62
     0
370
    -2
100
AcDbLine
 10
-1.0
 20
0.166667
 30
0.0
 11
-1.0
 21
-0.166667
 31
0.0
  0
ENDBLK
  5
BFB
330
10B
100
AcDbEntity
  8
0
100
AcDbBlockEnd
  0
BLOCK
  5
BFC
330
111
100
AcDbEntity
  8
0
100
AcDbBlockBegin
  2
_OBLIQUE
 70
     0
 71
     0
 10
0.0
 20
0.0
 30
0.0
  3
_OBLIQUE
  1

  0
LINE
  5
113
330
111
100
AcDbEntity
  8
0
  6
Continuous
 62
     0
370
    -2
100
AcDbLine
 10
-0.5
 20
-0.5
 30
0.0
 11
0.5
 21
0.5
 31
0.0
  0
ENDBLK
  5
BFD
330
111
100
AcDbEntity
  8
0
100
AcDbBlockEnd
  0
BLOCK
  5
BFE
330
115
100
AcDbEntity
  8
0
100
AcDbBlockBegin
  2
_ARCHTICK
 70
     0
 71
     0
 10
0.0
 20
0.0
 30
0.0
  3
_ARCHTICK
  1

  0
LWPOLYLINE
  5
117
330
115
100
AcDbEntity
  8
0
  6
ByBlock
 62
     0
100
AcDbPolyline
 90
        2
 70
     0
 43
0.15
 10
-0.5
 20
-0.5
 10
0.5
 20
0.5
  0
ENDBLK
  5
BFF
330
115
100
AcDbEntity
  8
0
100
AcDbBlockEnd
  0
BLOCK
  5
C00
330
11C
100
AcDbEntity
  8
0
100
AcDbBlockBegin
  2
_OPEN
 70
     0
 71
     0
 10
0.0
 20
0.0
 30
0.0
  3
_OPEN
  1

  0
LINE
  5
11E
330
11C
100
AcDbEntity
  8
0
  6
Continuous
 62
     0
370
    -2
100
AcDbLine
 10
-1.0
 20
0.166667
 30
0.0
 11
0.0
 21
0.0
 31
0.0
  0
LINE
  5
11F
330
11C
100
AcDbEntity
  8
0
  6
Continuous
 62
     0
370
    -2
100
AcDbLine
 10
0.0
 20
0.0
 30
0.0
 11
-1.0
 21
-0.166667
 31
0.0
  0
LINE
  5
120
330
11C
100
AcDbEntity
  8
0
  6
Continuous
 62
     0
370
    -2
100
AcDbLine
 10
0.0
 20
0.0
 30
0.0
 11
-1.0
 21
0.0
 31
0.0
  0
ENDBLK
  5
C01
330
11C
100
AcDbEntity
  8
0
100
AcDbBlockEnd
  0
BLOCK
  5
C02
330
122
100
AcDbEntity
  8
0
100
AcDbBlockBegin
  2
_ORIGIN
 70
     0
 71
     0
 10
0.0
 20
0.0
 30
0.0
  3
_ORIGIN
  1

  0
CIRCLE
  5
124
330
122
100
AcDbEntity
  8
0
  6
ByBlock
 62
     0
100
AcDbCircle
 10
0.0
 20
0.0
 30
0.0
 40
0.5
  0
LINE
  5
125
330
122
100
AcDbEntity
  8
0
  6
Continuous
 62
     0
370
    -2
100
AcDbLine
 10
0.0
 20
0.0
 30
0.0
 11
-1.0
 21
0.0
 31
0.0
  0
ENDBLK
  5
C03
330
122
100
AcDbEntity
  8
0
100
AcDbBlockEnd
  0
BLOCK
  5
C04
330
127
100
AcDbEntity
  8
0
100
AcDbBlockBegin
  2
_OPEN90
 70
     0
 71
     0
 10
0.0
 20
0.0
 30
0.0
  3
_OPEN90
  1

  0
LINE
  5
129
330
127
100
AcDbEntity
  8
0
  6
Continuous
 62
     0
370
    -2
100
AcDbLine
 10
-0.5
 20
0.5
 30
0.0
 11
0.0
 21
0.0
 31
0.0
  0
LINE
  5
12A
330
127
100
AcDbEntity
  8
0
  6
Continuous
 62
     0
370
    -2
100
AcDbLine
 10
0.0
 20
0.0
 30
0.0
 11
-0.5
 21
-0.5
 31
0.0
  0
LINE
  5
12B
330
127
100
AcDbEntity
  8
0
  6
Continuous
 62
     0
370
    -2
100
AcDbLine
 10
0.0
 20
0.0
 30
0.0
 11
-1.0
 21
0.0
 31
0.0
  0
ENDBLK
  5
C05
330
127
100
AcDbEntity
  8
0
100
AcDbBlockEnd
  0
BLOCK
  5
C06
330
12D
100
AcDbEntity
  8
0
100
AcDbBlockBegin
  2
_OPEN30
 70
     0
 71
     0
 10
0.0
 20
0.0
 30
0.0
  3
_OPEN30
  1

  0
LINE
  5
12F
330
12D
100
AcDbEntity
  8
0
  6
Continuous
 62
     0
370
    -2
100
AcDbLine
 10
-1.0
 20
0.267949
 30
0.0
 11
0.0
 21
0.0
 31
0.0
  0
LINE
  5
130
330
12D
100
AcDbEntity
  8
0
  6
Continuous
 62
     0
370
    -2
100
AcDbLine
 10
0.0
 20
0.0
 30
0.0
 11
-1.0
 21
-0.267949
 31
0.0
  0
LINE
  5
131
330
12D
100
AcDbEntity
  8
0
  6
Continuous
 62
     0
370
    -2
100
AcDbLine
 10
0.0
 20
0.0
 30
0.0
 11
-1.0
 21
0.0
 31
0.0
  0
ENDBLK
  5
C07
330
12D
100
AcDbEntity
  8
0
100
AcDbBlockEnd
  0
BLOCK
  5
C08
330
133
100
AcDbEntity
  8
0
100
AcDbBlockBegin
  2
_DOTBLANK
 70
     0
 71
     0
 10
0.0
 20
0.0
 30
0.0
  3
_DOTBLANK
  1

  0
CIRCLE
  5
135
330
133
100
AcDbEntity
  8
0
  6
ByBlock
 62
     0
100
AcDbCircle
 10
0.0
 20
0.0
 30
0.0
 40
0.5
  0
LINE
  5
136
330
133
100
AcDbEntity
  8
0
  6
Continuous
 62
     0
370
    -2
100
AcDbLine
 10
-0.5
 20
0.0
 30
0.0
 11
-1.0
 21
0.0
 31
0.0
  0
ENDBLK
  5
C09
330
133
100
AcDbEntity
  8
0
100
AcDbBlockEnd
  0
BLOCK
  5
C0A
330
138
100
AcDbEntity
  8
0
100
AcDbBlockBegin
  2
_DOTSMALL
 70
     0
 71
     0
 10
0.0
 20
0.0
 30
0.0
  3
_DOTSMALL
  1

  0
LWPOLYLINE
  5
13A
330
138
100
AcDbEntity
  8
0
  6
ByBlock
 62
     0
100
AcDbPolyline
 90
        2
 70
     1
 43
0.5
 10
-0.0625
 20
0.0
 42
1.0
 10
0.0625
 20
0.0
 42
1.0
  0
ENDBLK
  5
C0B
330
138
100
AcDbEntity
  8
0
100
AcDbBlockEnd
  0
BLOCK
  5
C0C
330
13F
100
AcDbEntity
  8
0
100
AcDbBlockBegin
  2
_BOXFILLED
 70
     0
 71
     0
 10
0.0
 20
0.0
 30
0.0
  3
_BOXFILLED
  1

  0
SOLID
  5
141
330
13F
100
AcDbEntity
  8
0
  6
ByBlock
 62
     0
100
AcDbTrace
 10
-0.5
 20
0.5
 30
0.0
 11
0.5
 21
0.5
 31
0.0
 12
-0.5
 22
-0.5
 32
0.0
 13
0.5
 23
-0.5
 33
0.0
  0
LINE
  5
142
330
13F
100
AcDbEntity
  8
0
  6
Continuous
 62
     0
370
    -2
100
AcDbLine
 10
-0.5
 20
0.0
 30
0.0
 11
-1.0
 21
0.0
 31
0.0
  0
ENDBLK
  5
C0D
330
13F
100
AcDbEntity
  8
0
100
AcDbBlockEnd
  0
BLOCK
  5
C0E
330
144
100
AcDbEntity
  8
0
100
AcDbBlockBegin
  2
_BOXBLANK
 70
     0
 71
     0
 10
0.0
 20
0.0
 30
0.0
  3
_BOXBLANK
  1

  0
LINE
  5
146
330
144
100
AcDbEntity
  8
0
  6
Continuous
 62
     0
370
    -2
100
AcDbLine
 10
-0.5
 20
-0.5
 30
0.0
 11
0.5
 21
-0.5
 31
0.0
  0
LINE
  5
147
330
144
100
AcDbEntity
  8
0
  6
Continuous
 62
     0
370
    -2
100
AcDbLine
 10
0.5
 20
-0.5
 30
0.0
 11
0.5
 21
0.5
 31
0.0
  0
LINE
  5
148
330
144
100
AcDbEntity
  8
0
  6
Continuous
 62
     0
370
    -2
100
AcDbLine
 10
0.5
 20
0.5
 30
0.0
 11
-0.5
 21
0.5
 31
0.0
  0
LINE
  5
149
330
144
100
AcDbEntity
  8
0
  6
Continuous
 62
     0
370
    -2
100
AcDbLine
 10
-0.5
 20
0.5
 30
0.0
 11
-0.5
 21
-0.5
 31
0.0
  0
LINE
  5
14A
330
144
100
AcDbEntity
  8
0
  6
Continuous
 62
     0
370
    -2
100
AcDbLine
 10
-0.5
 20
0.0
 30
0.0
 11
-1.0
 21
0.0
 31
0.0
  0
ENDBLK
  5
C0F
330
144
100
AcDbEntity
  8
0
100
AcDbBlockEnd
  0
BLOCK
  5
C10
330
14C
100
AcDbEntity
  8
0
100
AcDbBlockBegin
  2
_DATUMFILLED
 70
     0
 71
     0
 10
0.0
 20
0.0
 30
0.0
  3
_DATUMFILLED
  1

  0
SOLID
  5
14E
330
14C
100
AcDbEntity
  8
0
  6
ByBlock
 62
     0
100
AcDbTrace
 10
0.0
 20
0.5773500000000001
 30
0.0
 11
-1.0
 21
0.0
 31
0.0
 12
0.0
 22
-0.5773500000000001
 32
0.0
 13
0.0
 23
-0.5773500000000001
 33
0.0
  0
ENDBLK
  5
C11
330
14C
100
AcDbEntity
  8
0
100
AcDbBlockEnd
  0
BLOCK
  5
C12
330
150
100
AcDbEntity
  8
0
100
AcDbBlockBegin
  2
_DATUMBLANK
 70
     0
 71
     0
 10
0.0
 20
0.0
 30
0.0
  3
_DATUMBLANK
  1

  0
LINE
  5
152
330
150
100
AcDbEntity
  8
0
  6
Continuous
 62
     0
370
    -2
100
AcDbLine
 10
0.0
 20
0.5773500000000001
 30
0.0
 11
-1.0
 21
0.0
 31
0.0
  0
LINE
  5
153
330
150
100
AcDbEntity
  8
0
  6
Continuous
 62
     0
370
    -2
100
AcDbLine
 10
-1.0
 20
0.0
 30
0.0
 11
0.0
 21
-0.5773500000000001
 31
0.0
  0
LINE
  5
154
330
150
100
AcDbEntity
  8
0
  6
Continuous
 62
     0
370
    -2
100
AcDbLine
 10
0.0
 20
-0.5773500000000001
 30
0.0
 11
0.0
 21
0.5773500000000001
 31
0.0
  0
ENDBLK
  5
C13
330
150
100
AcDbEntity
  8
0
100
AcDbBlockEnd
  0
BLOCK
  5
C14
330
156
100
AcDbEntity
  8
0
100
AcDbBlockBegin
  2
_INTEGRAL
 70
     0
 71
     0
 10
0.0
 20
0.0
 30
0.0
  3
_INTEGRAL
  1

  0
ARC
  5
158
330
156
100
AcDbEntity
  8
0
  6
ByBlock
 62
     0
100
AcDbCircle
 10
0.444888
 20
-0.091335
 30
0.0
 40
0.454167
100
AcDbArc
 50
102.0
 51
168.0
  0
ARC
  5
159
330
156
100
AcDbEntity
  8
0
  6
ByBlock
 62
     0
100
AcDbCircle
 10
-0.444888
 20
0.091335
 30
0.0
 40
0.454167
100
AcDbArc
 50
282.0
 51
348.0
  0
ENDBLK
  5
C15
330
156
100
AcDbEntity
  8
0
100
AcDbBlockEnd
  0
BLOCK
  5
C16
330
1F1
100
AcDbEntity
  8
0
100
AcDbBlockBegin
  2
_Origin2
 70
     0
 71
     0
 10
0.0
 20
0.0
 30
0.0
  3
_Origin2
  1

  0
CIRCLE
  5
1F2
330
1F1
100
AcDbEntity
  8
0
  6
Continuous
 62
     0
370
    -2
100
AcDbCircle
 10
0.0
 20
0.0
 30
0.0
 40
0.5
  0
CIRCLE
  5
1F3
330
1F1
100
AcDbEntity
  8
0
  6
Continuous
 62
     0
370
    -2
100
AcDbCircle
 10
0.0
 20
0.0
 30
0.0
 40
0.25
  0
LINE
  5
1F4
330
1F1
100
AcDbEntity
  8
0
  6
Continuous
 62
     0
370
    -2
100
AcDbLine
 10
-0.5
 20
0.0
 30
0.0
 11
-1.0
 21
0.0
 31
0.0
  0
ENDBLK
  5
C17
330
1F1
100
AcDbEntity
  8
0
100
AcDbBlockEnd
  0
BLOCK
  5
C18
330
1F7
100
AcDbEntity
  8
0
100
AcDbBlockBegin
  2
KCAD_OPEN30
 70
     0
 71
     0
 10
0.0
 20
0.0
 30
0.0
  3
KCAD_OPEN30
  1

  0
LINE
  5
1F8
330
1F7
100
AcDbEntity
  8
0
  6
Continuous
 62
     0
370
    -2
100
AcDbLine
 10
0.0
 20
0.0
 30
0.0
 11
-1.0
 21
0.0
 31
0.0
  0
LINE
  5
1F9
330
1F7
100
AcDbEntity
  8
0
  6
Continuous
 62
     0
370
    -2
100
AcDbLine
 10
0.0
 20
0.0
 30
0.0
 11
-1.0
 21
0.2679491924311227
 31
0.0
  0
LINE
  5
1FA
330
1F7
100
AcDbEntity
  8
0
  6
Continuous
 62
     0
370
    -2
100
AcDbLine
 10
0.0
 20
0.0
 30
0.0
 11
-1.0
 21
-0.2679491924311227
 31
0.0
  0
ENDBLK
  5
C19
330
1F7
100
AcDbEntity
  8
0
100
AcDbBlockEnd
  0
BLOCK
  5
C1A
330
222
100
AcDbEntity
  8
0
100
AcDbBlockBegin
  2
_None
 70
     0
 71
     0
 10
0.0
 20
0.0
 30
0.0
  3
_None
  1

  0
ENDBLK
  5
C1B
330
222
100
AcDbEntity
  8
0
100
AcDbBlockEnd
  0
BLOCK
  5
C1C
330
283
100
AcDbEntity
  8
0
100
AcDbBlockBegin
  2
_Small
 70
     0
 71
     0
 10
0.0
 20
0.0
 30
0.0
  3
_Small
  1

  0
CIRCLE
  5
284
330
283
100
AcDbEntity
  8
0
  6
ByBlock
 62
     0
370
    -2
100
AcDbCircle
 10
0.0
 20
0.0
 30
0.0
 40
0.25
  0
ENDBLK
  5
C1D
330
283
100
AcDbEntity
  8
0
100
AcDbBlockEnd
  0
BLOCK
  5
C1E
330
287
100
AcDbEntity
  8
0
100
AcDbBlockBegin
  2
KCAD_OPEN_2
 70
     0
 71
     0
 10
0.0
 20
0.0
 30
0.0
  3
KCAD_OPEN_2
  1

  0
LINE
  5
288
330
287
100
AcDbEntity
  8
0
  6
Continuous
 62
     0
370
    -2
100
AcDbLine
 10
0.0
 20
0.0
 30
0.0
 11
-2.0
 21
0.0
 31
0.0
  0
LINE
  5
289
330
287
100
AcDbEntity
  8
0
  6
Continuous
 62
     0
370
    -2
100
AcDbLine
 10
0.0
 20
0.0
 30
0.0
 11
-2.0
 21
0.3167688806490725
 31
0.0
  0
LINE
  5
28A
330
287
100
AcDbEntity
  8
0
  6
Continuous
 62
     0
370
    -2
100
AcDbLine
 10
0.0
 20
0.0
 30
0.0
 11
-2.0
 21
-0.3167688806490725
 31
0.0
  0
LINE
  5
28B
330
287
100
AcDbEntity
  8
0
  6
Continuous
 62
     0
370
    -2
100
AcDbLine
 10
-2.0
 20
0.0
 30
0.0
 11
-4.0
 21
0.0
 31
0.0
  0
ENDBLK
  5
C1F
330
287
100
AcDbEntity
  8
0
100
AcDbBlockEnd
  0
BLOCK
  5
C20
330
28E
100
AcDbEntity
  8
0
100
AcDbBlockBegin
  2
KCAD_OPEN30_2
 70
     0
 71
     0
 10
0.0
 20
0.0
 30
0.0
  3
KCAD_OPEN30_2
  1

  0
LINE
  5
28F
330
28E
100
AcDbEntity
  8
0
  6
Continuous
 62
     0
370
    -2
100
AcDbLine
 10
0.0
 20
0.0
 30
0.0
 11
-2.0
 21
0.0
 31
0.0
  0
LINE
  5
290
330
28E
100
AcDbEntity
  8
0
  6
Continuous
 62
     0
370
    -2
100
AcDbLine
 10
0.0
 20
0.0
 30
0.0
 11
-2.0
 21
0.5358983848622455
 31
0.0
  0
LINE
  5
291
330
28E
100
AcDbEntity
  8
0
  6
Continuous
 62
     0
370
    -2
100
AcDbLine
 10
0.0
 20
0.0
 30
0.0
 11
-2.0
 21
-0.5358983848622455
 31
0.0
  0
LINE
  5
292
330
28E
100
AcDbEntity
  8
0
  6
Continuous
 62
     0
370
    -2
100
AcDbLine
 10
-2.0
 20
0.0
 30
0.0
 11
-4.0
 21
0.0
 31
0.0
  0
ENDBLK
  5
C21
330
28E
100
AcDbEntity
  8
0
100
AcDbBlockEnd
  0
BLOCK
  5
C22
330
2AD
100
AcDbEntity
  8
0
100
AcDbBlockBegin
  2
KCAD_OPEN30ANG
 70
     0
 71
     0
 10
0.0
 20
0.0
 30
0.0
  3
KCAD_OPEN30ANG
  1

  0
LINE
  5
2D7
330
2AD
100
AcDbEntity
  8
0
  6
Continuous
 62
     0
370
    -2
100
AcDbLine
 10
0.0
 20
0.0
 30
0.0
 11
-1.0
 21
-0.267949
 31
0.0
  0
LINE
  5
2D8
330
2AD
100
AcDbEntity
  8
0
  6
Continuous
 62
     0
370
    -2
100
AcDbLine
 10
-1.0
 20
0.267949
 30
0.0
 11
0.0
 21
0.0
 31
0.0
  0
ENDBLK
  5
C23
330
2AD
100
AcDbEntity
  8
0
100
AcDbBlockEnd
  0
BLOCK
  5
C24
330
2B6
100
AcDbEntity
  8
0
100
AcDbBlockBegin
  2
KCAD_DOTANG
 70
     0
 71
     0
 10
0.0
 20
0.0
 30
0.0
  3
KCAD_DOTANG
  1

  0
LWPOLYLINE
  5
2DD
330
2B6
100
AcDbEntity
  8
0
  6
ByBlock
 62
     0
100
AcDbPolyline
 90
        2
 70
     1
 43
0.5
 10
-0.25
 20
0.0
 42
1.0
 10
0.25
 20
0.0
 42
1.0
  0
ENDBLK
  5
C25
330
2B6
100
AcDbEntity
  8
0
100
AcDbBlockEnd
  0
BLOCK
  5
C26
330
42B
100
AcDbEntity
  8
0
100
AcDbBlockBegin
  2
*D27
 70
     1
 71
     0
 10
0.0
 20
0.0
 30
0.0
  3
*D27
  1

  0
LINE
  5
45D
330
42B
100
AcDbEntity
  8
KCAD_DIMS
 62
     0
370
    -2
100
AcDbLine
 10
81.2351834430861
 20
181.156590890895
 30
0.0
 11
81.2351834430861
 21
149.4999999999996
 31
0.0
  0
LINE
  5
45E
330
42B
100
AcDbEntity
  8
KCAD_DIMS
 62
     0
370
    -2
100
AcDbLine
 10
152.3351834430854
 20
181.156590890895
 30
0.0
 11
152.3351834430854
 21
149.4999999999998
 31
0.0
  0
INSERT
  5
45F
330
42B
100
AcDbEntity
  8
KCAD_DIMS
 62
     0
370
    -2
100
AcDbBlockReference
  2
_OPEN30
 10
81.2351834430861
 20
180.156590890895
 30
0.0
 41
3.0
 42
3.0
 43
3.0
 50
180.0
  0
INSERT
  5
460
330
42B
100
AcDbEntity
  8
KCAD_DIMS
 62
     0
370
    -2
100
AcDbBlockReference
  2
_OPEN30
 10
152.3351834430854
 20
180.156590890895
 30
0.0
 41
3.0
 42
3.0
 43
3.0
  0
LINE
  5
461
330
42B
100
AcDbEntity
  8
KCAD_DIMS
 62
     0
370
    -2
100
AcDbLine
 10
84.23518344308609
 20
180.156590890895
 30
0.0
 11
149.3351834430854
 21
180.156590890895
 31
0.0
  0
POINT
  5
462
330
42B
100
AcDbEntity
  8
DEFPOINTS
 62
     0
370
    15
100
AcDbPoint
 10
81.2351834430861
 20
148.4999999999996
 30
0.0
  0
POINT
  5
463
330
42B
100
AcDbEntity
  8
DEFPOINTS
 62
     0
370
    15
100
AcDbPoint
 10
152.3351834430854
 20
148.4999999999998
 30
0.0
  0
POINT
  5
464
330
42B
100
AcDbEntity
  8
DEFPOINTS
 62
     0
370
    15
100
AcDbPoint
 10
152.3351834430854
 20
180.156590890895
 30
0.0
  0
MTEXT
  5
465
330
42B
100
AcDbEntity
  8
KCAD_DIMS
 62
     0
100
AcDbMText
 10
116.7851834430857
 20
182.289923890895
 30
0.0
 40
3.2
 41
0.0
 71
     5
 72
     1
  1
\A1;WD=71.1
  7
KCADDIMSTANDARD
 73
     1
 44
1.0
  0
ENDBLK
  5
C27
330
42B
100
AcDbEntity
  8
0
100
AcDbBlockEnd
  0
BLOCK
  5
C28
330
467
100
AcDbEntity
  8
0
100
AcDbBlockBegin
  2
*D28
 70
     1
 71
     0
 10
0.0
 20
0.0
 30
0.0
  3
*D28
  1

  0
LINE
  5
499
330
467
100
AcDbEntity
  8
KCAD_DIMS
 62
     0
370
    -2
100
AcDbLine
 10
131.5303857008464
 20
157.5000000000003
 30
0.0
 11
167.3351834430854
 21
157.5000000000003
 31
0.0
  0
LINE
  5
49A
330
467
100
AcDbEntity
  8
KCAD_DIMS
 62
     0
370
    -2
100
AcDbLine
 10
131.5303857008465
 20
139.4999999999998
 30
0.0
 11
151.6351834430854
 21
139.4999999999998
 31
0.0
  0
INSERT
  5
49B
330
467
100
AcDbEntity
  8
KCAD_DIMS
 62
     0
370
    -2
100
AcDbBlockReference
  2
_OPEN30
 10
132.5303857008464
 20
157.5000000000003
 30
0.0
 41
3.0
 42
3.0
 43
3.0
 50
90.00000000000007
  0
INSERT
  5
49C
330
467
100
AcDbEntity
  8
KCAD_DIMS
 62
     0
370
    -2
100
AcDbBlockReference
  2
_OPEN30
 10
132.5303857008465
 20
139.4999999999998
 30
0.0
 41
3.0
 42
3.0
 43
3.0
 50
270.0000000000001
  0
LINE
  5
49D
330
467
100
AcDbEntity
  8
KCAD_DIMS
 62
     0
370
    -2
100
AcDbLine
 10
132.5303857008464
 20
154.5000000000003
 30
0.0
 11
132.5303857008465
 21
142.4999999999998
 31
0.0
  0
POINT
  5
49E
330
467
100
AcDbEntity
  8
DEFPOINTS
 62
     0
370
    15
100
AcDbPoint
 10
168.3351834430854
 20
157.5000000000003
 30
0.0
  0
POINT
  5
49F
330
467
100
AcDbEntity
  8
DEFPOINTS
 62
     0
370
    15
100
AcDbPoint
 10
152.6351834430854
 20
139.4999999999998
 30
0.0
  0
POINT
  5
4A0
330
467
100
AcDbEntity
  8
DEFPOINTS
 62
     0
370
    15
100
AcDbPoint
 10
132.5303857008465
 20
139.4999999999998
 30
0.0
  0
MTEXT
  5
4A1
330
467
100
AcDbEntity
  8
KCAD_DIMS
 62
     0
100
AcDbMText
 10
130.3970527008465
 20
148.5
 30
0.0
 40
3.2
 41
0.0
 71
     5
 72
     1
  1
\A1;%%c18
  7
KCADDIMSTANDARD
 11
1.000000000000000E-16
 21
1.0
 31
0.0
 73
     1
 44
1.0
  0
ENDBLK
  5
C29
330
467
100
AcDbEntity
  8
0
100
AcDbBlockEnd
  0
BLOCK
  5
C2A
330
4A3
100
AcDbEntity
  8
0
100
AcDbBlockBegin
  2
*D29
 70
     1
 71
     0
 10
0.0
 20
0.0
 30
0.0
  3
*D29
  1

  0
LINE
  5
4D5
330
4A3
100
AcDbEntity
  8
KCAD_DIMS
 62
     0
370
    -2
100
AcDbLine
 10
152.3351834430854
 20
123.8943838694182
 30
0.0
 11
152.3351834430854
 21
138.7999999999998
 31
0.0
  0
LINE
  5
4D6
330
4A3
100
AcDbEntity
  8
KCAD_DIMS
 62
     0
370
    -2
100
AcDbLine
 10
168.3351834430854
 20
123.8943838694182
 30
0.0
 11
168.3351834430854
 21
138.4999999999998
 31
0.0
  0
INSERT
  5
4D7
330
4A3
100
AcDbEntity
  8
KCAD_DIMS
 62
     0
370
    -2
100
AcDbBlockReference
  2
_OPEN30
 10
152.3351834430854
 20
124.8943838694182
 30
0.0
 41
3.0
 42
3.0
 43
3.0
 50
180.0
  0
INSERT
  5
4D8
330
4A3
100
AcDbEntity
  8
KCAD_DIMS
 62
     0
370
    -2
100
AcDbBlockReference
  2
_OPEN30
 10
168.3351834430854
 20
124.8943838694182
 30
0.0
 41
3.0
 42
3.0
 43
3.0
  0
LINE
  5
4D9
330
4A3
100
AcDbEntity
  8
KCAD_DIMS
 62
     0
370
    -2
100
AcDbLine
 10
155.3351834430854
 20
124.8943838694182
 30
0.0
 11
165.3351834430854
 21
124.8943838694182
 31
0.0
  0
POINT
  5
4DA
330
4A3
100
AcDbEntity
  8
DEFPOINTS
 62
     0
370
    15
100
AcDbPoint
 10
152.3351834430854
 20
139.7999999999998
 30
0.0
  0
POINT
  5
4DB
330
4A3
100
AcDbEntity
  8
DEFPOINTS
 62
     0
370
    15
100
AcDbPoint
 10
168.3351834430854
 20
139.4999999999998
 30
0.0
  0
POINT
  5
4DC
330
4A3
100
AcDbEntity
  8
DEFPOINTS
 62
     0
370
    15
100
AcDbPoint
 10
168.3351834430854
 20
124.8943838694182
 30
0.0
  0
MTEXT
  5
4DD
330
4A3
100
AcDbEntity
  8
KCAD_DIMS
 62
     0
100
AcDbMText
 10
160.3351834430853
 20
127.0277168694182
 30
0.0
 40
3.2
 41
0.0
 71
     5
 72
     1
  1
\A1;16
  7
KCADDIMSTANDARD
 73
     1
 44
1.0
  0
ENDBLK
  5
C2B
330
4A3
100
AcDbEntity
  8
0
100
AcDbBlockEnd
  0
BLOCK
  5
C2C
330
4DF
100
AcDbEntity
  8
0
100
AcDbBlockBegin
  2
*D30
 70
     1
 71
     0
 10
0.0
 20
0.0
 30
0.0
  3
*D30
  1

  0
LINE
  5
51B
330
4DF
100
AcDbEntity
  8
KCAD_DIMS
 62
     0
370
    -2
100
AcDbLine
 10
168.3351834430854
 20
123.8943838694182
 30
0.0
 11
168.3351834430854
 21
138.4999999999998
 31
0.0
  0
LINE
  5
51C
330
4DF
100
AcDbEntity
  8
KCAD_DIMS
 62
     0
370
    -2
100
AcDbLine
 10
174.3351834430854
 20
123.8943838694182
 30
0.0
 11
174.3351834430854
 21
138.4999999999998
 31
0.0
  0
INSERT
  5
51D
330
4DF
100
AcDbEntity
  8
KCAD_DIMS
 62
     0
370
    -2
100
AcDbBlockReference
  2
_OPEN30
 10
168.3351834430854
 20
124.8943838694182
 30
0.0
 41
3.0
 42
3.0
 43
3.0
 50
180.0
  0
INSERT
  5
51E
330
4DF
100
AcDbEntity
  8
KCAD_DIMS
 62
     0
370
    -2
100
AcDbBlockReference
  2
_OPEN30
 10
174.3351834430854
 20
124.8943838694182
 30
0.0
 41
3.0
 42
3.0
 43
3.0
  0
POINT
  5
51F
330
4DF
100
AcDbEntity
  8
DEFPOINTS
 62
     0
370
    15
100
AcDbPoint
 10
168.3351834430854
 20
139.4999999999998
 30
0.0
  0
POINT
  5
520
330
4DF
100
AcDbEntity
  8
DEFPOINTS
 62
     0
370
    15
100
AcDbPoint
 10
174.3351834430854
 20
139.4999999999998
 30
0.0
  0
POINT
  5
521
330
4DF
100
AcDbEntity
  8
DEFPOINTS
 62
     0
370
    15
100
AcDbPoint
 10
174.3351834430854
 20
124.8943838694182
 30
0.0
  0
MTEXT
  5
522
330
4DF
100
AcDbEntity
  8
KCAD_DIMS
 62
     0
100
AcDbMText
 10
171.3351834430854
 20
127.0277168694182
 30
0.0
 40
3.2
 41
0.0
 71
     5
 72
     1
  1
\A1;6
  7
KCADDIMSTANDARD
 73
     1
 44
1.0
  0
ENDBLK
  5
C2D
330
4DF
100
AcDbEntity
  8
0
100
AcDbBlockEnd
  0
BLOCK
  5
C2E
330
524
100
AcDbEntity
  8
0
100
AcDbBlockBegin
  2
*D31
 70
     1
 71
     0
 10
0.0
 20
0.0
 30
0.0
  3
*D31
  1

  0
LINE
  5
556
330
524
100
AcDbEntity
  8
KCAD_DIMS
 62
     0
370
    -2
100
AcDbLine
 10
174.3351834430854
 20
124.0919379616101
 30
0.0
 11
174.3351834430854
 21
147.4999999999999
 31
0.0
  0
LINE
  5
557
330
524
100
AcDbEntity
  8
KCAD_DIMS
 62
     0
370
    -2
100
AcDbLine
 10
185.3351834430854
 20
124.0919379616101
 30
0.0
 11
185.3351834430854
 21
138.4999999999998
 31
0.0
  0
INSERT
  5
558
330
524
100
AcDbEntity
  8
KCAD_DIMS
 62
     0
370
    -2
100
AcDbBlockReference
  2
_OPEN30
 10
174.3351834430854
 20
125.0919379616101
 30
0.0
 41
3.0
 42
3.0
 43
3.0
 50
180.0
  0
INSERT
  5
559
330
524
100
AcDbEntity
  8
KCAD_DIMS
 62
     0
370
    -2
100
AcDbBlockReference
  2
_OPEN30
 10
185.3351834430854
 20
125.0919379616101
 30
0.0
 41
3.0
 42
3.0
 43
3.0
  0
LINE
  5
55A
330
524
100
AcDbEntity
  8
KCAD_DIMS
 62
     0
370
    -2
100
AcDbLine
 10
177.3351834430854
 20
125.0919379616101
 30
0.0
 11
182.3351834430854
 21
125.0919379616101
 31
0.0
  0
POINT
  5
55B
330
524
100
AcDbEntity
  8
DEFPOINTS
 62
     0
370
    15
100
AcDbPoint
 10
174.3351834430854
 20
148.4999999999999
 30
0.0
  0
POINT
  5
55C
330
524
100
AcDbEntity
  8
DEFPOINTS
 62
     0
370
    15
100
AcDbPoint
 10
185.3351834430854
 20
139.4999999999998
 30
0.0
  0
POINT
  5
55D
330
524
100
AcDbEntity
  8
DEFPOINTS
 62
     0
370
    15
100
AcDbPoint
 10
185.3351834430854
 20
125.0919379616101
 30
0.0
  0
MTEXT
  5
55E
330
524
100
AcDbEntity
  8
KCAD_DIMS
 62
     0
100
AcDbMText
 10
179.8351834430854
 20
127.2252709616101
 30
0.0
 40
3.2
 41
0.0
 71
     5
 72
     1
  1
\A1;11
  7
KCADDIMSTANDARD
 73
     1
 44
1.0
  0
ENDBLK
  5
C2F
330
524
100
AcDbEntity
  8
0
100
AcDbBlockEnd
  0
BLOCK
  5
C30
330
560
100
AcDbEntity
  8
0
100
AcDbBlockBegin
  2
*D32
 70
     1
 71
     0
 10
0.0
 20
0.0
 30
0.0
  3
*D32
  1

  0
LINE
  5
592
330
560
100
AcDbEntity
  8
KCAD_DIMS
 62
     0
370
    -2
100
AcDbLine
 10
185.3351834430854
 20
124.1981382978724
 30
0.0
 11
185.3351834430854
 21
138.4999999999998
 31
0.0
  0
LINE
  5
593
330
560
100
AcDbEntity
  8
KCAD_DIMS
 62
     0
370
    -2
100
AcDbLine
 10
215.3351834430854
 20
124.1981382978724
 30
0.0
 11
215.3351834430854
 21
138.4999999999998
 31
0.0
  0
INSERT
  5
594
330
560
100
AcDbEntity
  8
KCAD_DIMS
 62
     0
370
    -2
100
AcDbBlockReference
  2
_OPEN30
 10
185.3351834430854
 20
125.1981382978724
 30
0.0
 41
3.0
 42
3.0
 43
3.0
 50
180.0
  0
INSERT
  5
595
330
560
100
AcDbEntity
  8
KCAD_DIMS
 62
     0
370
    -2
100
AcDbBlockReference
  2
_OPEN30
 10
215.3351834430854
 20
125.1981382978724
 30
0.0
 41
3.0
 42
3.0
 43
3.0
  0
LINE
  5
596
330
560
100
AcDbEntity
  8
KCAD_DIMS
 62
     0
370
    -2
100
AcDbLine
 10
188.3351834430854
 20
125.1981382978724
 30
0.0
 11
212.3351834430854
 21
125.1981382978724
 31
0.0
  0
POINT
  5
597
330
560
100
AcDbEntity
  8
DEFPOINTS
 62
     0
370
    15
100
AcDbPoint
 10
185.3351834430854
 20
139.4999999999998
 30
0.0
  0
POINT
  5
598
330
560
100
AcDbEntity
  8
DEFPOINTS
 62
     0
370
    15
100
AcDbPoint
 10
215.3351834430854
 20
139.4999999999998
 30
0.0
  0
POINT
  5
599
330
560
100
AcDbEntity
  8
DEFPOINTS
 62
     0
370
    15
100
AcDbPoint
 10
215.3351834430854
 20
125.1981382978724
 30
0.0
  0
MTEXT
  5
59A
330
560
100
AcDbEntity
  8
KCAD_DIMS
 62
     0
100
AcDbMText
 10
200.3351834430854
 20
127.3314712978724
 30
0.0
 40
3.2
 41
0.0
 71
     5
 72
     1
  1
\A1;30
  7
KCADDIMSTANDARD
 73
     1
 44
1.0
  0
ENDBLK
  5
C31
330
560
100
AcDbEntity
  8
0
100
AcDbBlockEnd
  0
BLOCK
  5
C32
330
59C
100
AcDbEntity
  8
0
100
AcDbBlockBegin
  2
*D33
 70
     1
 71
     0
 10
0.0
 20
0.0
 30
0.0
  3
*D33
  1

  0
LINE
  5
5CE
330
59C
100
AcDbEntity
  8
KCAD_DIMS
 62
     0
370
    -2
100
AcDbLine
 10
152.3351834430854
 20
181.156590890895
 30
0.0
 11
152.3351834430854
 21
149.5000000000003
 31
0.0
  0
LINE
  5
5CF
330
59C
100
AcDbEntity
  8
KCAD_DIMS
 62
     0
370
    -2
100
AcDbLine
 10
256.4351834430853
 20
181.156590890895
 30
0.0
 11
256.4351834430853
 21
149.5
 31
0.0
  0
INSERT
  5
5D0
330
59C
100
AcDbEntity
  8
KCAD_DIMS
 62
     0
370
    -2
100
AcDbBlockReference
  2
_OPEN30
 10
152.3351834430854
 20
180.156590890895
 30
0.0
 41
3.0
 42
3.0
 43
3.0
 50
180.0
  0
INSERT
  5
5D1
330
59C
100
AcDbEntity
  8
KCAD_DIMS
 62
     0
370
    -2
100
AcDbBlockReference
  2
_OPEN30
 10
256.4351834430853
 20
180.156590890895
 30
0.0
 41
3.0
 42
3.0
 43
3.0
  0
LINE
  5
5D2
330
59C
100
AcDbEntity
  8
KCAD_DIMS
 62
     0
370
    -2
100
AcDbLine
 10
155.3351834430854
 20
180.156590890895
 30
0.0
 11
253.4351834430852
 21
180.156590890895
 31
0.0
  0
POINT
  5
5D3
330
59C
100
AcDbEntity
  8
DEFPOINTS
 62
     0
370
    15
100
AcDbPoint
 10
152.3351834430854
 20
148.5000000000003
 30
0.0
  0
POINT
  5
5D4
330
59C
100
AcDbEntity
  8
DEFPOINTS
 62
     0
370
    15
100
AcDbPoint
 10
256.4351834430853
 20
148.5000000000001
 30
0.0
  0
POINT
  5
5D5
330
59C
100
AcDbEntity
  8
DEFPOINTS
 62
     0
370
    15
100
AcDbPoint
 10
256.4351834430853
 20
180.156590890895
 30
0.0
  0
MTEXT
  5
5D6
330
59C
100
AcDbEntity
  8
KCAD_DIMS
 62
     0
100
AcDbMText
 10
204.3851834430852
 20
182.289923890895
 30
0.0
 40
3.2
 41
0.0
 71
     5
 72
     1
  1
\A1;104.1
  7
KCADDIMSTANDARD
 73
     1
 44
1.0
  0
ENDBLK
  5
C33
330
59C
100
AcDbEntity
  8
0
100
AcDbBlockEnd
  0
BLOCK
  5
C34
330
5D8
100
AcDbEntity
  8
0
100
AcDbBlockBegin
  2
*D34
 70
     1
 71
     0
 10
0.0
 20
0.0
 30
0.0
  3
*D34
  1

  0
LINE
  5
60A
330
5D8
100
AcDbEntity
  8
KCAD_DIMS
 62
     0
370
    -2
100
AcDbLine
 10
256.4351834430853
 20
181.156590890895
 30
0.0
 11
256.4351834430853
 21
149.5
 31
0.0
  0
LINE
  5
60B
330
5D8
100
AcDbEntity
  8
KCAD_DIMS
 62
     0
370
    -2
100
AcDbLine
 10
268.4351834430852
 20
181.156590890895
 30
0.0
 11
268.4351834430852
 21
149.5
 31
0.0
  0
INSERT
  5
60C
330
5D8
100
AcDbEntity
  8
KCAD_DIMS
 62
     0
370
    -2
100
AcDbBlockReference
  2
_OPEN30
 10
256.4351834430853
 20
180.156590890895
 30
0.0
 41
3.0
 42
3.0
 43
3.0
 50
180.0
  0
INSERT
  5
60D
330
5D8
100
AcDbEntity
  8
KCAD_DIMS
 62
     0
370
    -2
100
AcDbBlockReference
  2
_OPEN30
 10
268.4351834430852
 20
180.156590890895
 30
0.0
 41
3.0
 42
3.0
 43
3.0
  0
LINE
  5
60E
330
5D8
100
AcDbEntity
  8
KCAD_DIMS
 62
     0
370
    -2
100
AcDbLine
 10
259.4351834430852
 20
180.156590890895
 30
0.0
 11
265.4351834430852
 21
180.156590890895
 31
0.0
  0
POINT
  5
60F
330
5D8
100
AcDbEntity
  8
DEFPOINTS
 62
     0
370
    15
100
AcDbPoint
 10
256.4351834430853
 20
148.5000000000001
 30
0.0
  0
POINT
  5
610
330
5D8
100
AcDbEntity
  8
DEFPOINTS
 62
     0
370
    15
100
AcDbPoint
 10
268.4351834430852
 20
148.5000000000001
 30
0.0
  0
POINT
  5
611
330
5D8
100
AcDbEntity
  8
DEFPOINTS
 62
     0
370
    15
100
AcDbPoint
 10
268.4351834430852
 20
180.156590890895
 30
0.0
  0
MTEXT
  5
612
330
5D8
100
AcDbEntity
  8
KCAD_DIMS
 62
     0
100
AcDbMText
 10
262.4351834430852
 20
182.289923890895
 30
0.0
 40
3.2
 41
0.0
 71
     5
 72
     1
  1
\A1;12
  7
KCADDIMSTANDARD
 73
     1
 44
1.0
  0
ENDBLK
  5
C35
330
5D8
100
AcDbEntity
  8
0
100
AcDbBlockEnd
  0
BLOCK
  5
C36
330
614
100
AcDbEntity
  8
0
100
AcDbBlockBegin
  2
*D35
 70
     1
 71
     0
 10
0.0
 20
0.0
 30
0.0
  3
*D35
  1

  0
LINE
  5
646
330
614
100
AcDbEntity
  8
KCAD_DIMS
 62
     0
370
    -2
100
AcDbLine
 10
268.4351834430852
 20
200.843085106383
 30
0.0
 11
268.4351834430852
 21
149.5
 31
0.0
  0
LINE
  5
647
330
614
100
AcDbEntity
  8
KCAD_DIMS
 62
     0
370
    -2
100
AcDbLine
 10
285.9611834430852
 20
200.843085106383
 30
0.0
 11
285.9611834430852
 21
149.5
 31
0.0
  0
LINE
  5
648
330
614
100
AcDbEntity
  8
KCAD_DIMS
 62
     0
370
    -2
100
AcDbLine
 10
277.1981834430852
 20
199.843085106383
 30
0.0
 11
290.6230479774222
 21
219.9731077740637
 31
0.0
  0
LINE
  5
649
330
614
100
AcDbEntity
  8
KCAD_DIMS
 62
     0
370
    -2
100
AcDbLine
 10
290.6230479774222
 20
219.9731077740637
 30
0.0
 11
330.1479814524582
 21
219.9731077740637
 31
0.0
  0
INSERT
  5
64A
330
614
100
AcDbEntity
  8
KCAD_DIMS
 62
     0
370
    -2
100
AcDbBlockReference
  2
_OPEN30
 10
268.4351834430852
 20
199.843085106383
 30
0.0
 41
3.0
 42
3.0
 43
3.0
 50
180.0
  0
INSERT
  5
64B
330
614
100
AcDbEntity
  8
KCAD_DIMS
 62
     0
370
    -2
100
AcDbBlockReference
  2
_OPEN30
 10
285.9611834430852
 20
199.843085106383
 30
0.0
 41
3.0
 42
3.0
 43
3.0
  0
LINE
  5
64C
330
614
100
AcDbEntity
  8
KCAD_DIMS
 62
     0
370
    -2
100
AcDbLine
 10
271.4351834430853
 20
199.843085106383
 30
0.0
 11
282.9611834430853
 21
199.843085106383
 31
0.0
  0
POINT
  5
64D
330
614
100
AcDbEntity
  8
DEFPOINTS
 62
     0
370
    15
100
AcDbPoint
 10
268.4351834430852
 20
148.5000000000001
 30
0.0
  0
POINT
  5
64E
330
614
100
AcDbEntity
  8
DEFPOINTS
 62
     0
370
    15
100
AcDbPoint
 10
285.9611834430852
 20
148.5000000000001
 30
0.0
  0
POINT
  5
64F
330
614
100
AcDbEntity
  8
DEFPOINTS
 62
     0
370
    15
100
AcDbPoint
 10
285.9611834430852
 20
199.843085106383
 30
0.0
  0
MTEXT
  5
650
330
614
100
AcDbEntity
  8
KCAD_DIMS
 62
     0
100
AcDbMText
 10
316.9730036274461
 20
222.1064407740637
 30
0.0
 40
3.2
 41
0.0
 71
     5
 72
     1
  1
\A1;FB=17.526
  7
KCADDIMSTANDARD
 73
     1
 44
1.0
  0
ENDBLK
  5
C37
330
614
100
AcDbEntity
  8
0
100
AcDbBlockEnd
  0
BLOCK
  5
C38
330
652
100
AcDbEntity
  8
0
100
AcDbBlockBegin
  2
*D36
 70
     1
 71
     0
 10
0.0
 20
0.0
 30
0.0
  3
*D36
  1

  0
LINE
  5
684
330
652
100
AcDbEntity
  8
KCAD_DIMS
 62
     0
370
    -2
100
AcDbLine
 10
170.9918156161804
 20
157.2500000000002
 30
0.0
 11
173.3351834430854
 21
157.2500000000002
 31
0.0
  0
LINE
  5
685
330
652
100
AcDbEntity
  8
KCAD_DIMS
 62
     0
370
    -2
100
AcDbLine
 10
170.9918156161804
 20
139.7499999999998
 30
0.0
 11
173.3351834430854
 21
139.7499999999998
 31
0.0
  0
INSERT
  5
686
330
652
100
AcDbEntity
  8
KCAD_DIMS
 62
     0
370
    -2
100
AcDbBlockReference
  2
_OPEN30
 10
171.9918156161804
 20
157.2500000000002
 30
0.0
 41
3.0
 42
3.0
 43
3.0
 50
270.0000000000001
  0
INSERT
  5
687
330
652
100
AcDbEntity
  8
KCAD_DIMS
 62
     0
370
    -2
100
AcDbBlockReference
  2
_OPEN30
 10
171.9918156161804
 20
139.7499999999998
 30
0.0
 41
3.0
 42
3.0
 43
3.0
 50
90.0000000000001
  0
LINE
  5
688
330
652
100
AcDbEntity
  8
KCAD_DIMS
 62
     0
370
    -2
100
AcDbLine
 10
171.9918156161804
 20
157.2500000000002
 30
0.0
 11
171.9918156161804
 21
139.7499999999998
 31
0.0
  0
LINE
  5
689
330
652
100
AcDbEntity
  8
KCAD_DIMS
 62
     0
370
    -2
100
AcDbLine
 10
171.9918156161804
 20
160.2500000000002
 30
0.0
 11
171.9918156161804
 21
172.8435164990195
 31
0.0
  0
LINE
  5
68A
330
652
100
AcDbEntity
  8
KCAD_DIMS
 62
     0
370
    -2
100
AcDbLine
 10
171.9918156161804
 20
136.7499999999998
 30
0.0
 11
171.9918156161804
 21
134.7499999999998
 31
0.0
  0
POINT
  5
68B
330
652
100
AcDbEntity
  8
DEFPOINTS
 62
     0
370
    15
100
AcDbPoint
 10
174.3351834430854
 20
157.2500000000002
 30
0.0
  0
POINT
  5
68C
330
652
100
AcDbEntity
  8
DEFPOINTS
 62
     0
370
    15
100
AcDbPoint
 10
174.3351834430854
 20
139.7499999999998
 30
0.0
  0
POINT
  5
68D
330
652
100
AcDbEntity
  8
DEFPOINTS
 62
     0
370
    15
100
AcDbPoint
 10
171.9918156161804
 20
139.7499999999998
 30
0.0
  0
MTEXT
  5
68E
330
652
100
AcDbEntity
  8
KCAD_DIMS
 62
     0
100
AcDbMText
 10
169.8584826161804
 20
167.1685389603892
 30
0.0
 40
3.2
 41
0.0
 71
     5
 72
     1
  1
\A1;%%c17.5
  7
KCADDIMSTANDARD
 11
1.000000000000000E-16
 21
1.0
 31
0.0
 73
     1
 44
1.0
  0
ENDBLK
  5
C39
330
652
100
AcDbEntity
  8
0
100
AcDbBlockEnd
  0
BLOCK
  5
C3A
330
690
100
AcDbEntity
  8
0
100
AcDbBlockBegin
  2
*D37
 70
     1
 71
     0
 10
0.0
 20
0.0
 30
0.0
  3
*D37
  1

  0
LINE
  5
6C2
330
690
100
AcDbEntity
  8
KCAD_DIMS
 62
     0
370
    -2
100
AcDbLine
 10
207.9344308560675
 20
157.5000000000003
 30
0.0
 11
214.3351834430854
 21
157.5000000000003
 31
0.0
  0
LINE
  5
6C3
330
690
100
AcDbEntity
  8
KCAD_DIMS
 62
     0
370
    -2
100
AcDbLine
 10
207.9344308560675
 20
139.4999999999998
 30
0.0
 11
214.3351834430854
 21
139.4999999999998
 31
0.0
  0
INSERT
  5
6C4
330
690
100
AcDbEntity
  8
KCAD_DIMS
 62
     0
370
    -2
100
AcDbBlockReference
  2
_OPEN30
 10
208.9344308560675
 20
157.5000000000003
 30
0.0
 41
3.0
 42
3.0
 43
3.0
 50
270.0000000000001
  0
INSERT
  5
6C5
330
690
100
AcDbEntity
  8
KCAD_DIMS
 62
     0
370
    -2
100
AcDbBlockReference
  2
_OPEN30
 10
208.9344308560675
 20
139.4999999999998
 30
0.0
 41
3.0
 42
3.0
 43
3.0
 50
90.0000000000001
  0
LINE
  5
6C6
330
690
100
AcDbEntity
  8
KCAD_DIMS
 62
     0
370
    -2
100
AcDbLine
 10
208.9344308560675
 20
157.5000000000003
 30
0.0
 11
208.9344308560675
 21
139.4999999999998
 31
0.0
  0
LINE
  5
6C7
330
690
100
AcDbEntity
  8
KCAD_DIMS
 62
     0
370
    -2
100
AcDbLine
 10
208.9344308560675
 20
160.5000000000003
 30
0.0
 11
208.9344308560675
 21
172.989422805939
 31
0.0
  0
LINE
  5
6C8
330
690
100
AcDbEntity
  8
KCAD_DIMS
 62
     0
370
    -2
100
AcDbLine
 10
208.9344308560675
 20
136.4999999999998
 30
0.0
 11
208.9344308560675
 21
134.4999999999998
 31
0.0
  0
POINT
  5
6C9
330
690
100
AcDbEntity
  8
DEFPOINTS
 62
     0
370
    15
100
AcDbPoint
 10
215.3351834430854
 20
157.5000000000003
 30
0.0
  0
POINT
  5
6CA
330
690
100
AcDbEntity
  8
DEFPOINTS
 62
     0
370
    15
100
AcDbPoint
 10
215.3351834430854
 20
139.4999999999998
 30
0.0
  0
POINT
  5
6CB
330
690
100
AcDbEntity
  8
DEFPOINTS
 62
     0
370
    15
100
AcDbPoint
 10
208.9344308560675
 20
139.4999999999998
 30
0.0
  0
MTEXT
  5
6CC
330
690
100
AcDbEntity
  8
KCAD_DIMS
 62
     0
100
AcDbMText
 10
206.8010978560676
 20
167.3144452673087
 30
0.0
 40
3.2
 41
0.0
 71
     5
 72
     1
  1
\A1;%%c18
  7
KCADDIMSTANDARD
 11
1.000000000000000E-16
 21
1.0
 31
0.0
 73
     1
 44
1.0
  0
ENDBLK
  5
C3B
330
690
100
AcDbEntity
  8
0
100
AcDbBlockEnd
  0
BLOCK
  5
C3C
330
6CE
100
AcDbEntity
  8
0
100
AcDbBlockBegin
  2
*D38
 70
     1
 71
     0
 10
0.0
 20
0.0
 30
0.0
  3
*D38
  1

  0
MTEXT
  5
703
330
6CE
100
AcDbEntity
  8
KCAD_DIMS
 62
     0
100
AcDbMText
 10
275.1389943572855
 20
168.4863158266048
 30
0.0
 40
3.2
 41
0.0
 71
     5
 72
     1
  1
\A1;C1{\H0.667000x;}
  7
KCADDIMSTANDARD
 73
     1
 44
1.0
  0
LINE
  5
704
330
6CE
100
AcDbEntity
  8
KCAD_DIMS
 62
     0
370
    -2
100
AcDbLine
 10
270.1320819876418
 20
164.0457421425627
 30
0.0
 11
272.441706341185
 21
166.3553664961059
 31
0.0
  0
INSERT
  5
705
330
6CE
100
AcDbEntity
  8
KCAD_DIMS
 62
     0
370
    -2
100
AcDbBlockReference
  2
_OPEN30
 10
268.0107616440822
 20
161.924421799003
 30
0.0
 41
3.0
 42
3.0
 43
3.0
 50
225.0000000000005
  0
ENDBLK
  5
C3D
330
6CE
100
AcDbEntity
  8
0
100
AcDbBlockEnd
  0
BLOCK
  5
C3E
330
707
100
AcDbEntity
  8
0
100
AcDbBlockBegin
  2
*D39
 70
     1
 71
     0
 10
0.0
 20
0.0
 30
0.0
  3
*D39
  1

  0
MTEXT
  5
73C
330
707
100
AcDbEntity
  8
KCAD_DIMS
 62
     0
100
AcDbMText
 10
246.082901106713
 20
169.4370448952783
 30
0.0
 40
3.2
 41
0.0
 71
     5
 72
     1
  1
\A1;C0.5{\H0.667000x;}
  7
KCADDIMSTANDARD
 73
     1
 44
1.0
  0
LINE
  5
73D
330
707
100
AcDbEntity
  8
KCAD_DIMS
 62
     0
370
    -2
100
AcDbLine
 10
254.6270666482937
 20
164.4345238923279
 30
0.0
 11
251.7949224346306
 21
167.266668105991
 31
0.0
  0
INSERT
  5
73E
330
707
100
AcDbEntity
  8
KCAD_DIMS
 62
     0
370
    -2
100
AcDbBlockReference
  2
_OPEN30
 10
256.7483869918534
 20
162.3132035487682
 30
0.0
 41
3.0
 42
3.0
 43
3.0
 50
315.0000000000005
  0
LINE
  5
73F
330
707
100
AcDbEntity
  8
KCAD_DIMS
 62
     0
370
    -2
100
AcDbLine
 10
255.8077375352775
 20
163.2538530053442
 30
0.0
 11
251.7578786453433
 21
167.3037118952783
 31
0.0
  0
LINE
  5
740
330
707
100
AcDbEntity
  8
KCAD_DIMS
 62
     0
370
    -2
100
AcDbLine
 10
251.7578786453433
 20
167.3037118952783
 30
0.0
 11
240.4079235680827
 21
167.3037118952783
 31
0.0
  0
ENDBLK
  5
C3F
330
707
100
AcDbEntity
  8
0
100
AcDbBlockEnd
  0
BLOCK
  5
C40
330
742
100
AcDbEntity
  8
0
100
AcDbBlockBegin
  2
*D40
 70
     1
 71
     0
 10
0.0
 20
0.0
 30
0.0
  3
*D40
  1

  0
LINE
  5
774
330
742
100
AcDbEntity
  8
KCAD_DIMS
 62
     0
370
    -2
100
AcDbLine
 10
311.2342427093132
 20
162.5000000000001
 30
0.0
 11
268.4351834430852
 21
162.5
 31
0.0
  0
LINE
  5
775
330
742
100
AcDbEntity
  8
KCAD_DIMS
 62
     0
370
    -2
100
AcDbLine
 10
311.2342427093132
 20
134.5000000000001
 30
0.0
 11
268.4351834430852
 21
134.5
 31
0.0
  0
INSERT
  5
776
330
742
100
AcDbEntity
  8
KCAD_DIMS
 62
     0
370
    -2
100
AcDbBlockReference
  2
_OPEN30
 10
310.2342427093132
 20
162.5000000000001
 30
0.0
 41
3.0
 42
3.0
 43
3.0
 50
90.00000000000011
  0
INSERT
  5
777
330
742
100
AcDbEntity
  8
KCAD_DIMS
 62
     0
370
    -2
100
AcDbBlockReference
  2
_OPEN30
 10
310.2342427093132
 20
134.5000000000001
 30
0.0
 41
3.0
 42
3.0
 43
3.0
 50
270.0000000000001
  0
LINE
  5
778
330
742
100
AcDbEntity
  8
KCAD_DIMS
 62
     0
370
    -2
100
AcDbLine
 10
310.2342427093132
 20
159.5000000000001
 30
0.0
 11
310.2342427093132
 21
137.5000000000001
 31
0.0
  0
POINT
  5
779
330
742
100
AcDbEntity
  8
DEFPOINTS
 62
     0
370
    15
100
AcDbPoint
 10
267.4351834430853
 20
162.5
 30
0.0
  0
POINT
  5
77A
330
742
100
AcDbEntity
  8
DEFPOINTS
 62
     0
370
    15
100
AcDbPoint
 10
267.4351834430853
 20
134.5
 30
0.0
  0
POINT
  5
77B
330
742
100
AcDbEntity
  8
DEFPOINTS
 62
     0
370
    15
100
AcDbPoint
 10
310.2342427093132
 20
134.5
 30
0.0
  0
MTEXT
  5
77C
330
742
100
AcDbEntity
  8
KCAD_DIMS
 62
     0
100
AcDbMText
 10
308.1009097093132
 20
148.5000000000002
 30
0.0
 40
3.2
 41
0.0
 71
     5
 72
     1
  1
\A1;%%c28
  7
KCADDIMSTANDARD
 11
1.000000000000000E-16
 21
1.0
 31
0.0
 73
     1
 44
1.0
  0
ENDBLK
  5
C41
330
742
100
AcDbEntity
  8
0
100
AcDbBlockEnd
  0
BLOCK
  5
C42
330
77E
100
AcDbEntity
  8
0
100
AcDbBlockBegin
  2
*D41
 70
     1
 71
     0
 10
0.0
 20
0.0
 30
0.0
  3
*D41
  1

  0
LINE
  5
7BA
330
77E
100
AcDbEntity
  8
KCAD_DIMS
 62
     0
370
    -2
100
AcDbLine
 10
268.4351834430852
 20
181.156590890895
 30
0.0
 11
268.4351834430852
 21
149.5
 31
0.0
  0
LINE
  5
7BB
330
77E
100
AcDbEntity
  8
KCAD_DIMS
 62
     0
370
    -2
100
AcDbLine
 10
272.4351834430852
 20
181.156590890895
 30
0.0
 11
272.4351834430852
 21
149.5
 31
0.0
  0
LINE
  5
7BC
330
77E
100
AcDbEntity
  8
KCAD_DIMS
 62
     0
370
    -2
100
AcDbLine
 10
270.4351834430852
 20
180.156590890895
 30
0.0
 11
274.6004233301975
 21
180.1778962590821
 31
0.0
  0
LINE
  5
7BD
330
77E
100
AcDbEntity
  8
KCAD_DIMS
 62
     0
370
    -2
100
AcDbLine
 10
274.6004233301975
 20
180.1778962590821
 30
0.0
 11
276.9503780638001
 21
180.1778962590821
 31
0.0
  0
INSERT
  5
7BE
330
77E
100
AcDbEntity
  8
KCAD_DIMS
 62
     0
370
    -2
100
AcDbBlockReference
  2
_OPEN30
 10
268.4351834430852
 20
180.156590890895
 30
0.0
 41
3.0
 42
3.0
 43
3.0
  0
INSERT
  5
7BF
330
77E
100
AcDbEntity
  8
KCAD_DIMS
 62
     0
370
    -2
100
AcDbBlockReference
  2
_OPEN30
 10
272.4351834430852
 20
180.156590890895
 30
0.0
 41
3.0
 42
3.0
 43
3.0
 50
180.0
  0
LINE
  5
7C0
330
77E
100
AcDbEntity
  8
KCAD_DIMS
 62
     0
370
    -2
100
AcDbLine
 10
268.4351834430852
 20
180.156590890895
 30
0.0
 11
272.4351834430852
 21
180.156590890895
 31
0.0
  0
LINE
  5
7C1
330
77E
100
AcDbEntity
  8
KCAD_DIMS
 62
     0
370
    -2
100
AcDbLine
 10
265.4351834430852
 20
180.156590890895
 30
0.0
 11
263.4351834430852
 21
180.156590890895
 31
0.0
  0
LINE
  5
7C2
330
77E
100
AcDbEntity
  8
KCAD_DIMS
 62
     0
370
    -2
100
AcDbLine
 10
275.4351834430853
 20
180.156590890895
 30
0.0
 11
277.4351834430853
 21
180.156590890895
 31
0.0
  0
POINT
  5
7C3
330
77E
100
AcDbEntity
  8
DEFPOINTS
 62
     0
370
    15
100
AcDbPoint
 10
268.4351834430852
 20
148.5000000000001
 30
0.0
  0
POINT
  5
7C4
330
77E
100
AcDbEntity
  8
DEFPOINTS
 62
     0
370
    15
100
AcDbPoint
 10
272.4351834430852
 20
148.5000000000001
 30
0.0
  0
POINT
  5
7C5
330
77E
100
AcDbEntity
  8
DEFPOINTS
 62
     0
370
    15
100
AcDbPoint
 10
272.4351834430852
 20
180.156590890895
 30
0.0
  0
MTEXT
  5
7C6
330
77E
100
AcDbEntity
  8
KCAD_DIMS
 62
     0
100
AcDbMText
 10
275.7754006969988
 20
182.311229259082
 30
0.0
 40
3.2
 41
0.0
 71
     5
 72
     1
  1
\A1;4
  7
KCADDIMSTANDARD
 73
     1
 44
1.0
  0
ENDBLK
  5
C43
330
77E
100
AcDbEntity
  8
0
100
AcDbBlockEnd
  0
BLOCK
  5
C44
330
7C8
100
AcDbEntity
  8
0
100
AcDbBlockBegin
  2
*D42
 70
     1
 71
     0
 10
0.0
 20
0.0
 30
0.0
  3
*D42
  1

  0
LINE
  5
7F5
330
7C8
100
AcDbEntity
  8
KCAD_DIMS
 62
     0
370
    -2
100
AcDbLine
 10
152.3351834430854
 20
200.843085106383
 30
0.0
 11
152.3351834430854
 21
181.156590890895
 31
0.0
  0
INSERT
  5
7F6
330
7C8
100
AcDbEntity
  8
KCAD_DIMS
 62
     0
370
    -2
100
AcDbBlockReference
  2
_OPEN30
 10
268.4351834430852
 20
199.843085106383
 30
0.0
 41
3.0
 42
3.0
 43
3.0
  0
INSERT
  5
7F7
330
7C8
100
AcDbEntity
  8
KCAD_DIMS
 62
     0
370
    -2
100
AcDbBlockReference
  2
_OPEN30
 10
152.3351834430854
 20
199.843085106383
 30
0.0
 41
3.0
 42
3.0
 43
3.0
 50
180.0
  0
LINE
  5
7F8
330
7C8
100
AcDbEntity
  8
KCAD_DIMS
 62
     0
370
    -2
100
AcDbLine
 10
265.4351834430852
 20
199.843085106383
 30
0.0
 11
155.3351834430854
 21
199.843085106383
 31
0.0
  0
POINT
  5
7F9
330
7C8
100
AcDbEntity
  8
DEFPOINTS
 62
     0
370
    15
100
AcDbPoint
 10
268.4351834430852
 20
199.843085106383
 30
0.0
  0
POINT
  5
7FA
330
7C8
100
AcDbEntity
  8
DEFPOINTS
 62
     0
370
    15
100
AcDbPoint
 10
152.3351834430854
 20
180.156590890895
 30
0.0
  0
POINT
  5
7FB
330
7C8
100
AcDbEntity
  8
DEFPOINTS
 62
     0
370
    15
100
AcDbPoint
 10
152.3351834430854
 20
199.843085106383
 30
0.0
  0
MTEXT
  5
7FC
330
7C8
100
AcDbEntity
  8
KCAD_DIMS
 62
     0
100
AcDbMText
 10
210.3851834430853
 20
201.976418106383
 30
0.0
 40
3.2
 41
0.0
 71
     5
 72
     1
  1
\A1;116.1
  7
KCADDIMSTANDARD
 73
     1
 44
1.0
  0
ENDBLK
  5
C45
330
7C8
100
AcDbEntity
  8
0
100
AcDbBlockEnd
  0
BLOCK
  5
C46
330
7FE
100
AcDbEntity
  8
0
100
AcDbBlockBegin
  2
*D43
 70
     1
 71
     0
 10
0.0
 20
0.0
 30
0.0
  3
*D43
  1

  0
LINE
  5
830
330
7FE
100
AcDbEntity
  8
KCAD_DIMS
 62
     0
370
    -2
100
AcDbLine
 10
81.23518344308474
 20
220.5904255319148
 30
0.0
 11
81.23518344308474
 21
149.4999999999996
 31
0.0
  0
LINE
  5
831
330
7FE
100
AcDbEntity
  8
KCAD_DIMS
 62
     0
370
    -2
100
AcDbLine
 10
285.9611834430852
 20
220.5904255319148
 30
0.0
 11
285.9611834430852
 21
149.5
 31
0.0
  0
INSERT
  5
832
330
7FE
100
AcDbEntity
  8
KCAD_DIMS
 62
     0
370
    -2
100
AcDbBlockReference
  2
_OPEN30
 10
81.23518344308474
 20
219.5904255319149
 30
0.0
 41
3.0
 42
3.0
 43
3.0
 50
180.0
  0
INSERT
  5
833
330
7FE
100
AcDbEntity
  8
KCAD_DIMS
 62
     0
370
    -2
100
AcDbBlockReference
  2
_OPEN30
 10
285.9611834430852
 20
219.5904255319149
 30
0.0
 41
3.0
 42
3.0
 43
3.0
  0
LINE
  5
834
330
7FE
100
AcDbEntity
  8
KCAD_DIMS
 62
     0
370
    -2
100
AcDbLine
 10
84.23518344308474
 20
219.5904255319149
 30
0.0
 11
282.9611834430853
 21
219.5904255319149
 31
0.0
  0
POINT
  5
835
330
7FE
100
AcDbEntity
  8
DEFPOINTS
 62
     0
370
    15
100
AcDbPoint
 10
81.23518344308474
 20
148.4999999999996
 30
0.0
  0
POINT
  5
836
330
7FE
100
AcDbEntity
  8
DEFPOINTS
 62
     0
370
    15
100
AcDbPoint
 10
285.9611834430852
 20
148.5000000000001
 30
0.0
  0
POINT
  5
837
330
7FE
100
AcDbEntity
  8
DEFPOINTS
 62
     0
370
    15
100
AcDbPoint
 10
285.9611834430852
 20
219.5904255319149
 30
0.0
  0
MTEXT
  5
838
330
7FE
100
AcDbEntity
  8
KCAD_DIMS
 62
     0
100
AcDbMText
 10
183.598183443085
 20
221.7237585319149
 30
0.0
 40
3.2
 41
0.0
 71
     5
 72
     1
  1
\A1;204.73
  7
KCADDIMSTANDARD
 73
     1
 44
1.0
  0
ENDBLK
  5
C47
330
7FE
100
AcDbEntity
  8
0
100
AcDbBlockEnd
  0
BLOCK
  5
C48
330
924
100
AcDbEntity
  8
0
100
AcDbBlockBegin
  2
*D44
 70
     1
 71
     0
 10
0.0
 20
0.0
 30
0.0
  3
*D44
  1

  0
POINT
  5
91A
330
924
100
AcDbEntity
  8
DEFPOINTS
  6
ByBlock
 62
     0
370
    15
100
AcDbPoint
 10
81.2351834430861
 20
148.4999999999996
 30
0.0
  0
POINT
  5
91B
330
924
100
AcDbEntity
  8
DEFPOINTS
  6
ByBlock
 62
     0
370
    15
100
AcDbPoint
 10
152.3351834430854
 20
148.4999999999998
 30
0.0
  0
LINE
  5
91C
330
924
100
AcDbEntity
  8
0
  6
ByBlock
 62
     0
370
    -2
100
AcDbLine
 10
81.2351834430861
 20
149.4999999999996
 30
0.0
 11
81.2351834430861
 21
181.156590890895
 31
0.0
  0
LINE
  5
91D
330
924
100
AcDbEntity
  8
0
  6
ByBlock
 62
     0
370
    -2
100
AcDbLine
 10
152.3351834430854
 20
149.4999999999998
 30
0.0
 11
152.3351834430854
 21
181.156590890895
 31
0.0
  0
LINE
  5
91E
330
924
100
AcDbEntity
  8
0
  6
ByBlock
 62
     0
370
    -2
100
AcDbLine
 10
81.2351834430861
 20
180.156590890895
 30
0.0
 11
152.3351834430854
 21
180.156590890895
 31
0.0
  0
SOLID
  5
91F
330
924
100
AcDbEntity
  8
0
  6
ByBlock
 62
     0
370
    15
100
AcDbTrace
 10
81.2351834430861
 20
180.156590890895
 30
0.0
 11
84.2351834430861
 21
179.6565908908949
 31
0.0
 12
84.2351834430861
 22
180.6565908908951
 32
0.0
 13
84.2351834430861
 23
180.6565908908951
 33
0.0
  0
SOLID
  5
920
330
924
100
AcDbEntity
  8
0
  6
ByBlock
 62
     0
370
    15
100
AcDbTrace
 10
152.3351834430854
 20
180.156590890895
 30
0.0
 11
149.3351834430854
 21
179.6565908908949
 31
0.0
 12
149.3351834430854
 22
180.6565908908951
 32
0.0
 13
149.3351834430854
 23
180.6565908908951
 33
0.0
  0
LINE
  5
921
330
924
100
AcDbEntity
  8
0
  6
ByBlock
 62
     0
370
    -2
100
AcDbLine
 10
81.2351834430861
 20
148.4999999999996
 30
0.0
 11
81.2351834430861
 21
148.4999999999996
 31
0.0
  0
MTEXT
  5
922
330
924
100
AcDbEntity
  8
0
  6
ByBlock
 62
     0
100
AcDbMText
 10
116.7851834430857
 20
182.289923890895
 30
0.0
 40
3.2
 41
0.0
 71
     5
 72
     1
  1
\A1;WD=71.1
  7
KCADDIMSTANDARD
 73
     1
 44
1.0
  0
ENDBLK
  5
C49
330
924
100
AcDbEntity
  8
0
100
AcDbBlockEnd
  0
BLOCK
  5
C4A
330
930
100
AcDbEntity
  8
0
100
AcDbBlockBegin
  2
*D45
 70
     1
 71
     0
 10
0.0
 20
0.0
 30
0.0
  3
*D45
  1

  0
POINT
  5
926
330
930
100
AcDbEntity
  8
DEFPOINTS
  6
ByBlock
 62
     0
370
    15
100
AcDbPoint
 10
168.3351834430854
 20
157.5000000000003
 30
0.0
  0
POINT
  5
927
330
930
100
AcDbEntity
  8
DEFPOINTS
  6
ByBlock
 62
     0
370
    15
100
AcDbPoint
 10
152.6351834430854
 20
139.4999999999998
 30
0.0
  0
LINE
  5
928
330
930
100
AcDbEntity
  8
0
  6
ByBlock
 62
     0
370
    -2
100
AcDbLine
 10
167.3351834430854
 20
157.5000000000003
 30
0.0
 11
131.5303857008465
 21
157.5000000000003
 31
0.0
  0
LINE
  5
929
330
930
100
AcDbEntity
  8
0
  6
ByBlock
 62
     0
370
    -2
100
AcDbLine
 10
151.6351834430854
 20
139.4999999999998
 30
0.0
 11
131.5303857008465
 21
139.4999999999998
 31
0.0
  0
LINE
  5
92A
330
930
100
AcDbEntity
  8
0
  6
ByBlock
 62
     0
370
    -2
100
AcDbLine
 10
132.5303857008465
 20
157.5000000000003
 30
0.0
 11
132.5303857008465
 21
139.4999999999998
 31
0.0
  0
SOLID
  5
92B
330
930
100
AcDbEntity
  8
0
  6
ByBlock
 62
     0
370
    15
100
AcDbTrace
 10
132.5303857008465
 20
157.5000000000003
 30
0.0
 11
132.0303857008464
 21
154.5000000000003
 31
0.0
 12
133.0303857008466
 22
154.5000000000003
 32
0.0
 13
133.0303857008466
 23
154.5000000000003
 33
0.0
  0
SOLID
  5
92C
330
930
100
AcDbEntity
  8
0
  6
ByBlock
 62
     0
370
    15
100
AcDbTrace
 10
132.5303857008465
 20
139.4999999999998
 30
0.0
 11
132.0303857008464
 21
142.4999999999998
 31
0.0
 12
133.0303857008466
 22
142.4999999999998
 32
0.0
 13
133.0303857008466
 23
142.4999999999998
 33
0.0
  0
LINE
  5
92D
330
930
100
AcDbEntity
  8
0
  6
ByBlock
 62
     0
370
    -2
100
AcDbLine
 10
168.3351834430854
 20
157.5000000000003
 30
0.0
 11
168.3351834430854
 21
157.5000000000003
 31
0.0
  0
MTEXT
  5
92E
330
930
100
AcDbEntity
  8
0
  6
ByBlock
 62
     0
100
AcDbMText
 10
130.3970527008465
 20
148.5
 30
0.0
 40
3.2
 41
0.0
 71
     5
 72
     1
  1
\A1;%%c18
  7
KCADDIMSTANDARD
 11
-1.271037311859069E-15
 21
1.0
 31
0.0
 73
     1
 44
1.0
  0
ENDBLK
  5
C4B
330
930
100
AcDbEntity
  8
0
100
AcDbBlockEnd
  0
BLOCK
  5
C4C
330
93C
100
AcDbEntity
  8
0
100
AcDbBlockBegin
  2
*D46
 70
     1
 71
     0
 10
0.0
 20
0.0
 30
0.0
  3
*D46
  1

  0
POINT
  5
932
330
93C
100
AcDbEntity
  8
DEFPOINTS
  6
ByBlock
 62
     0
370
    15
100
AcDbPoint
 10
152.3351834430854
 20
139.7999999999998
 30
0.0
  0
POINT
  5
933
330
93C
100
AcDbEntity
  8
DEFPOINTS
  6
ByBlock
 62
     0
370
    15
100
AcDbPoint
 10
168.3351834430854
 20
139.4999999999998
 30
0.0
  0
LINE
  5
934
330
93C
100
AcDbEntity
  8
0
  6
ByBlock
 62
     0
370
    -2
100
AcDbLine
 10
152.3351834430854
 20
138.7999999999998
 30
0.0
 11
152.3351834430854
 21
123.8943838694182
 31
0.0
  0
LINE
  5
935
330
93C
100
AcDbEntity
  8
0
  6
ByBlock
 62
     0
370
    -2
100
AcDbLine
 10
168.3351834430854
 20
138.4999999999998
 30
0.0
 11
168.3351834430854
 21
123.8943838694182
 31
0.0
  0
LINE
  5
936
330
93C
100
AcDbEntity
  8
0
  6
ByBlock
 62
     0
370
    -2
100
AcDbLine
 10
152.3351834430854
 20
124.8943838694182
 30
0.0
 11
168.3351834430854
 21
124.8943838694182
 31
0.0
  0
SOLID
  5
937
330
93C
100
AcDbEntity
  8
0
  6
ByBlock
 62
     0
370
    15
100
AcDbTrace
 10
152.3351834430854
 20
124.8943838694182
 30
0.0
 11
155.3351834430854
 21
124.3943838694181
 31
0.0
 12
155.3351834430854
 22
125.3943838694183
 32
0.0
 13
155.3351834430854
 23
125.3943838694183
 33
0.0
  0
SOLID
  5
938
330
93C
100
AcDbEntity
  8
0
  6
ByBlock
 62
     0
370
    15
100
AcDbTrace
 10
168.3351834430854
 20
124.8943838694182
 30
0.0
 11
165.3351834430854
 21
124.3943838694181
 31
0.0
 12
165.3351834430854
 22
125.3943838694183
 32
0.0
 13
165.3351834430854
 23
125.3943838694183
 33
0.0
  0
LINE
  5
939
330
93C
100
AcDbEntity
  8
0
  6
ByBlock
 62
     0
370
    -2
100
AcDbLine
 10
152.3351834430854
 20
139.7999999999998
 30
0.0
 11
152.3351834430854
 21
139.7999999999998
 31
0.0
  0
MTEXT
  5
93A
330
93C
100
AcDbEntity
  8
0
  6
ByBlock
 62
     0
100
AcDbMText
 10
160.3351834430853
 20
127.0277168694182
 30
0.0
 40
3.2
 41
0.0
 71
     5
 72
     1
  1
16
  7
KCADDIMSTANDARD
 73
     1
 44
1.0
  0
ENDBLK
  5
C4D
330
93C
100
AcDbEntity
  8
0
100
AcDbBlockEnd
  0
BLOCK
  5
C4E
330
949
100
AcDbEntity
  8
0
100
AcDbBlockBegin
  2
*D47
 70
     1
 71
     0
 10
0.0
 20
0.0
 30
0.0
  3
*D47
  1

  0
POINT
  5
93E
330
949
100
AcDbEntity
  8
DEFPOINTS
  6
ByBlock
 62
     0
370
    15
100
AcDbPoint
 10
168.3351834430854
 20
139.4999999999998
 30
0.0
  0
POINT
  5
93F
330
949
100
AcDbEntity
  8
DEFPOINTS
  6
ByBlock
 62
     0
370
    15
100
AcDbPoint
 10
174.3351834430854
 20
139.4999999999998
 30
0.0
  0
LINE
  5
940
330
949
100
AcDbEntity
  8
0
  6
ByBlock
 62
     0
370
    -2
100
AcDbLine
 10
168.3351834430854
 20
138.4999999999998
 30
0.0
 11
168.3351834430854
 21
123.8943838694182
 31
0.0
  0
LINE
  5
941
330
949
100
AcDbEntity
  8
0
  6
ByBlock
 62
     0
370
    -2
100
AcDbLine
 10
174.3351834430854
 20
138.4999999999998
 30
0.0
 11
174.3351834430854
 21
123.8943838694182
 31
0.0
  0
LINE
  5
942
330
949
100
AcDbEntity
  8
0
  6
ByBlock
 62
     0
370
    -2
100
AcDbLine
 10
165.3351834430854
 20
124.8943838694182
 30
0.0
 11
162.3351834430854
 21
124.8943838694182
 31
0.0
  0
SOLID
  5
943
330
949
100
AcDbEntity
  8
0
  6
ByBlock
 62
     0
370
    15
100
AcDbTrace
 10
168.3351834430854
 20
124.8943838694182
 30
0.0
 11
165.3351834430854
 21
124.3943838694181
 31
0.0
 12
165.3351834430854
 22
125.3943838694183
 32
0.0
 13
165.3351834430854
 23
125.3943838694183
 33
0.0
  0
LINE
  5
944
330
949
100
AcDbEntity
  8
0
  6
ByBlock
 62
     0
370
    -2
100
AcDbLine
 10
177.3351834430854
 20
124.8943838694182
 30
0.0
 11
180.3351834430854
 21
124.8943838694182
 31
0.0
  0
SOLID
  5
945
330
949
100
AcDbEntity
  8
0
  6
ByBlock
 62
     0
370
    15
100
AcDbTrace
 10
174.3351834430854
 20
124.8943838694182
 30
0.0
 11
177.3351834430854
 21
124.3943838694181
 31
0.0
 12
177.3351834430854
 22
125.3943838694183
 32
0.0
 13
177.3351834430854
 23
125.3943838694183
 33
0.0
  0
LINE
  5
946
330
949
100
AcDbEntity
  8
0
  6
ByBlock
 62
     0
370
    -2
100
AcDbLine
 10
168.3351834430854
 20
124.8943838694182
 30
0.0
 11
174.3351834430854
 21
124.8943838694182
 31
0.0
  0
MTEXT
  5
947
330
949
100
AcDbEntity
  8
0
  6
ByBlock
 62
     0
100
AcDbMText
 10
171.3351834430854
 20
127.0277168694182
 30
0.0
 40
3.2
 41
0.0
 71
     5
 72
     1
  1
6
  7
KCADDIMSTANDARD
 73
     1
 44
1.0
  0
ENDBLK
  5
C4F
330
949
100
AcDbEntity
  8
0
100
AcDbBlockEnd
  0
BLOCK
  5
C50
330
955
100
AcDbEntity
  8
0
100
AcDbBlockBegin
  2
*D48
 70
     1
 71
     0
 10
0.0
 20
0.0
 30
0.0
  3
*D48
  1

  0
POINT
  5
94B
330
955
100
AcDbEntity
  8
DEFPOINTS
  6
ByBlock
 62
     0
370
    15
100
AcDbPoint
 10
174.3351834430854
 20
148.4999999999999
 30
0.0
  0
POINT
  5
94C
330
955
100
AcDbEntity
  8
DEFPOINTS
  6
ByBlock
 62
     0
370
    15
100
AcDbPoint
 10
185.3351834430854
 20
139.4999999999998
 30
0.0
  0
LINE
  5
94D
330
955
100
AcDbEntity
  8
0
  6
ByBlock
 62
     0
370
    -2
100
AcDbLine
 10
174.3351834430854
 20
147.4999999999999
 30
0.0
 11
174.3351834430854
 21
124.0919379616101
 31
0.0
  0
LINE
  5
94E
330
955
100
AcDbEntity
  8
0
  6
ByBlock
 62
     0
370
    -2
100
AcDbLine
 10
185.3351834430854
 20
138.4999999999998
 30
0.0
 11
185.3351834430854
 21
124.0919379616101
 31
0.0
  0
LINE
  5
94F
330
955
100
AcDbEntity
  8
0
  6
ByBlock
 62
     0
370
    -2
100
AcDbLine
 10
174.3351834430854
 20
125.0919379616101
 30
0.0
 11
185.3351834430854
 21
125.0919379616101
 31
0.0
  0
SOLID
  5
950
330
955
100
AcDbEntity
  8
0
  6
ByBlock
 62
     0
370
    15
100
AcDbTrace
 10
174.3351834430854
 20
125.0919379616101
 30
0.0
 11
177.3351834430854
 21
124.59193796161
 31
0.0
 12
177.3351834430854
 22
125.5919379616102
 32
0.0
 13
177.3351834430854
 23
125.5919379616102
 33
0.0
  0
SOLID
  5
951
330
955
100
AcDbEntity
  8
0
  6
ByBlock
 62
     0
370
    15
100
AcDbTrace
 10
185.3351834430854
 20
125.0919379616101
 30
0.0
 11
182.3351834430854
 21
124.59193796161
 31
0.0
 12
182.3351834430854
 22
125.5919379616102
 32
0.0
 13
182.3351834430854
 23
125.5919379616102
 33
0.0
  0
LINE
  5
952
330
955
100
AcDbEntity
  8
0
  6
ByBlock
 62
     0
370
    -2
100
AcDbLine
 10
174.3351834430854
 20
148.4999999999999
 30
0.0
 11
174.3351834430854
 21
148.4999999999999
 31
0.0
  0
MTEXT
  5
953
330
955
100
AcDbEntity
  8
0
  6
ByBlock
 62
     0
100
AcDbMText
 10
179.8351834430854
 20
127.2252709616101
 30
0.0
 40
3.2
 41
0.0
 71
     5
 72
     1
  1
11
  7
KCADDIMSTANDARD
 73
     1
 44
1.0
  0
ENDBLK
  5
C51
330
955
100
AcDbEntity
  8
0
100
AcDbBlockEnd
  0
BLOCK
  5
C52
330
961
100
AcDbEntity
  8
0
100
AcDbBlockBegin
  2
*D49
 70
     1
 71
     0
 10
0.0
 20
0.0
 30
0.0
  3
*D49
  1

  0
POINT
  5
957
330
961
100
AcDbEntity
  8
DEFPOINTS
  6
ByBlock
 62
     0
370
    15
100
AcDbPoint
 10
185.3351834430854
 20
139.4999999999998
 30
0.0
  0
POINT
  5
958
330
961
100
AcDbEntity
  8
DEFPOINTS
  6
ByBlock
 62
     0
370
    15
100
AcDbPoint
 10
215.3351834430854
 20
139.4999999999998
 30
0.0
  0
LINE
  5
959
330
961
100
AcDbEntity
  8
0
  6
ByBlock
 62
     0
370
    -2
100
AcDbLine
 10
185.3351834430854
 20
138.4999999999998
 30
0.0
 11
185.3351834430854
 21
124.1981382978724
 31
0.0
  0
LINE
  5
95A
330
961
100
AcDbEntity
  8
0
  6
ByBlock
 62
     0
370
    -2
100
AcDbLine
 10
215.3351834430854
 20
138.4999999999998
 30
0.0
 11
215.3351834430854
 21
124.1981382978724
 31
0.0
  0
LINE
  5
95B
330
961
100
AcDbEntity
  8
0
  6
ByBlock
 62
     0
370
    -2
100
AcDbLine
 10
185.3351834430854
 20
125.1981382978724
 30
0.0
 11
215.3351834430854
 21
125.1981382978724
 31
0.0
  0
SOLID
  5
95C
330
961
100
AcDbEntity
  8
0
  6
ByBlock
 62
     0
370
    15
100
AcDbTrace
 10
185.3351834430854
 20
125.1981382978724
 30
0.0
 11
188.3351834430854
 21
124.6981382978723
 31
0.0
 12
188.3351834430854
 22
125.6981382978725
 32
0.0
 13
188.3351834430854
 23
125.6981382978725
 33
0.0
  0
SOLID
  5
95D
330
961
100
AcDbEntity
  8
0
  6
ByBlock
 62
     0
370
    15
100
AcDbTrace
 10
215.3351834430854
 20
125.1981382978724
 30
0.0
 11
212.3351834430854
 21
124.6981382978723
 31
0.0
 12
212.3351834430854
 22
125.6981382978725
 32
0.0
 13
212.3351834430854
 23
125.6981382978725
 33
0.0
  0
LINE
  5
95E
330
961
100
AcDbEntity
  8
0
  6
ByBlock
 62
     0
370
    -2
100
AcDbLine
 10
185.3351834430854
 20
139.4999999999998
 30
0.0
 11
185.3351834430854
 21
139.4999999999998
 31
0.0
  0
MTEXT
  5
95F
330
961
100
AcDbEntity
  8
0
  6
ByBlock
 62
     0
100
AcDbMText
 10
200.3351834430854
 20
127.3314712978724
 30
0.0
 40
3.2
 41
0.0
 71
     5
 72
     1
  1
30
  7
KCADDIMSTANDARD
 73
     1
 44
1.0
  0
ENDBLK
  5
C53
330
961
100
AcDbEntity
  8
0
100
AcDbBlockEnd
  0
BLOCK
  5
C54
330
96D
100
AcDbEntity
  8
0
100
AcDbBlockBegin
  2
*D50
 70
     1
 71
     0
 10
0.0
 20
0.0
 30
0.0
  3
*D50
  1

  0
POINT
  5
963
330
96D
100
AcDbEntity
  8
DEFPOINTS
  6
ByBlock
 62
     0
370
    15
100
AcDbPoint
 10
152.3351834430854
 20
148.5000000000003
 30
0.0
  0
POINT
  5
964
330
96D
100
AcDbEntity
  8
DEFPOINTS
  6
ByBlock
 62
     0
370
    15
100
AcDbPoint
 10
256.4351834430853
 20
148.5000000000001
 30
0.0
  0
LINE
  5
965
330
96D
100
AcDbEntity
  8
0
  6
ByBlock
 62
     0
370
    -2
100
AcDbLine
 10
152.3351834430854
 20
149.5000000000003
 30
0.0
 11
152.3351834430854
 21
181.156590890895
 31
0.0
  0
LINE
  5
966
330
96D
100
AcDbEntity
  8
0
  6
ByBlock
 62
     0
370
    -2
100
AcDbLine
 10
256.4351834430853
 20
149.5000000000001
 30
0.0
 11
256.4351834430853
 21
181.156590890895
 31
0.0
  0
LINE
  5
967
330
96D
100
AcDbEntity
  8
0
  6
ByBlock
 62
     0
370
    -2
100
AcDbLine
 10
152.3351834430854
 20
180.156590890895
 30
0.0
 11
256.4351834430853
 21
180.156590890895
 31
0.0
  0
SOLID
  5
968
330
96D
100
AcDbEntity
  8
0
  6
ByBlock
 62
     0
370
    15
100
AcDbTrace
 10
152.3351834430854
 20
180.156590890895
 30
0.0
 11
155.3351834430854
 21
179.6565908908949
 31
0.0
 12
155.3351834430854
 22
180.6565908908951
 32
0.0
 13
155.3351834430854
 23
180.6565908908951
 33
0.0
  0
SOLID
  5
969
330
96D
100
AcDbEntity
  8
0
  6
ByBlock
 62
     0
370
    15
100
AcDbTrace
 10
256.4351834430853
 20
180.156590890895
 30
0.0
 11
253.4351834430853
 21
179.6565908908949
 31
0.0
 12
253.4351834430853
 22
180.6565908908951
 32
0.0
 13
253.4351834430853
 23
180.6565908908951
 33
0.0
  0
LINE
  5
96A
330
96D
100
AcDbEntity
  8
0
  6
ByBlock
 62
     0
370
    -2
100
AcDbLine
 10
152.3351834430854
 20
148.5000000000003
 30
0.0
 11
152.3351834430854
 21
148.5000000000003
 31
0.0
  0
MTEXT
  5
96B
330
96D
100
AcDbEntity
  8
0
  6
ByBlock
 62
     0
100
AcDbMText
 10
204.3851834430852
 20
182.289923890895
 30
0.0
 40
3.2
 41
0.0
 71
     5
 72
     1
  1
104.1
  7
KCADDIMSTANDARD
 73
     1
 44
1.0
  0
ENDBLK
  5
C55
330
96D
100
AcDbEntity
  8
0
100
AcDbBlockEnd
  0
BLOCK
  5
C56
330
979
100
AcDbEntity
  8
0
100
AcDbBlockBegin
  2
*D51
 70
     1
 71
     0
 10
0.0
 20
0.0
 30
0.0
  3
*D51
  1

  0
POINT
  5
96F
330
979
100
AcDbEntity
  8
DEFPOINTS
  6
ByBlock
 62
     0
370
    15
100
AcDbPoint
 10
256.4351834430853
 20
148.5000000000001
 30
0.0
  0
POINT
  5
970
330
979
100
AcDbEntity
  8
DEFPOINTS
  6
ByBlock
 62
     0
370
    15
100
AcDbPoint
 10
268.4351834430852
 20
148.5000000000001
 30
0.0
  0
LINE
  5
971
330
979
100
AcDbEntity
  8
0
  6
ByBlock
 62
     0
370
    -2
100
AcDbLine
 10
256.4351834430853
 20
149.5000000000001
 30
0.0
 11
256.4351834430853
 21
181.156590890895
 31
0.0
  0
LINE
  5
972
330
979
100
AcDbEntity
  8
0
  6
ByBlock
 62
     0
370
    -2
100
AcDbLine
 10
268.4351834430852
 20
149.5000000000001
 30
0.0
 11
268.4351834430852
 21
181.156590890895
 31
0.0
  0
LINE
  5
973
330
979
100
AcDbEntity
  8
0
  6
ByBlock
 62
     0
370
    -2
100
AcDbLine
 10
256.4351834430853
 20
180.156590890895
 30
0.0
 11
268.4351834430852
 21
180.156590890895
 31
0.0
  0
SOLID
  5
974
330
979
100
AcDbEntity
  8
0
  6
ByBlock
 62
     0
370
    15
100
AcDbTrace
 10
256.4351834430853
 20
180.156590890895
 30
0.0
 11
259.4351834430853
 21
179.6565908908949
 31
0.0
 12
259.4351834430853
 22
180.6565908908951
 32
0.0
 13
259.4351834430853
 23
180.6565908908951
 33
0.0
  0
SOLID
  5
975
330
979
100
AcDbEntity
  8
0
  6
ByBlock
 62
     0
370
    15
100
AcDbTrace
 10
268.4351834430852
 20
180.156590890895
 30
0.0
 11
265.4351834430852
 21
179.6565908908949
 31
0.0
 12
265.4351834430852
 22
180.6565908908951
 32
0.0
 13
265.4351834430852
 23
180.6565908908951
 33
0.0
  0
LINE
  5
976
330
979
100
AcDbEntity
  8
0
  6
ByBlock
 62
     0
370
    -2
100
AcDbLine
 10
256.4351834430853
 20
148.5000000000001
 30
0.0
 11
256.4351834430853
 21
148.5000000000001
 31
0.0
  0
MTEXT
  5
977
330
979
100
AcDbEntity
  8
0
  6
ByBlock
 62
     0
100
AcDbMText
 10
262.4351834430852
 20
182.289923890895
 30
0.0
 40
3.2
 41
0.0
 71
     5
 72
     1
  1
12
  7
KCADDIMSTANDARD
 73
     1
 44
1.0
  0
ENDBLK
  5
C57
330
979
100
AcDbEntity
  8
0
100
AcDbBlockEnd
  0
BLOCK
  5
C58
330
985
100
AcDbEntity
  8
0
100
AcDbBlockBegin
  2
*D52
 70
     1
 71
     0
 10
0.0
 20
0.0
 30
0.0
  3
*D52
  1

  0
POINT
  5
97B
330
985
100
AcDbEntity
  8
DEFPOINTS
  6
ByBlock
 62
     0
370
    15
100
AcDbPoint
 10
268.4351834430852
 20
148.5000000000001
 30
0.0
  0
POINT
  5
97C
330
985
100
AcDbEntity
  8
DEFPOINTS
  6
ByBlock
 62
     0
370
    15
100
AcDbPoint
 10
285.9611834430852
 20
148.5000000000001
 30
0.0
  0
LINE
  5
97D
330
985
100
AcDbEntity
  8
0
  6
ByBlock
 62
     0
370
    -2
100
AcDbLine
 10
268.4351834430852
 20
149.5000000000001
 30
0.0
 11
268.4351834430852
 21
200.843085106383
 31
0.0
  0
LINE
  5
97E
330
985
100
AcDbEntity
  8
0
  6
ByBlock
 62
     0
370
    -2
100
AcDbLine
 10
285.9611834430852
 20
149.5000000000001
 30
0.0
 11
285.9611834430852
 21
200.843085106383
 31
0.0
  0
LINE
  5
97F
330
985
100
AcDbEntity
  8
0
  6
ByBlock
 62
     0
370
    -2
100
AcDbLine
 10
268.4351834430852
 20
199.843085106383
 30
0.0
 11
285.9611834430852
 21
199.843085106383
 31
0.0
  0
SOLID
  5
980
330
985
100
AcDbEntity
  8
0
  6
ByBlock
 62
     0
370
    15
100
AcDbTrace
 10
268.4351834430852
 20
199.843085106383
 30
0.0
 11
271.4351834430852
 21
199.3430851063829
 31
0.0
 12
271.4351834430852
 22
200.3430851063831
 32
0.0
 13
271.4351834430852
 23
200.3430851063831
 33
0.0
  0
SOLID
  5
981
330
985
100
AcDbEntity
  8
0
  6
ByBlock
 62
     0
370
    15
100
AcDbTrace
 10
285.9611834430852
 20
199.843085106383
 30
0.0
 11
282.9611834430852
 21
199.3430851063829
 31
0.0
 12
282.9611834430852
 22
200.3430851063831
 32
0.0
 13
282.9611834430852
 23
200.3430851063831
 33
0.0
  0
LINE
  5
982
330
985
100
AcDbEntity
  8
0
  6
ByBlock
 62
     0
370
    -2
100
AcDbLine
 10
268.4351834430852
 20
148.5000000000001
 30
0.0
 11
268.4351834430852
 21
148.5000000000001
 31
0.0
  0
MTEXT
  5
983
330
985
100
AcDbEntity
  8
0
  6
ByBlock
 62
     0
100
AcDbMText
 10
316.9730036274461
 20
222.1064407740637
 30
0.0
 40
3.2
 41
0.0
 71
     5
 72
     1
  1
\A1;FB=17.526
  7
KCADDIMSTANDARD
 73
     1
 44
1.0
  0
ENDBLK
  5
C59
330
985
100
AcDbEntity
  8
0
100
AcDbBlockEnd
  0
BLOCK
  5
C5A
330
991
100
AcDbEntity
  8
0
100
AcDbBlockBegin
  2
*D53
 70
     1
 71
     0
 10
0.0
 20
0.0
 30
0.0
  3
*D53
  1

  0
POINT
  5
987
330
991
100
AcDbEntity
  8
DEFPOINTS
  6
ByBlock
 62
     0
370
    15
100
AcDbPoint
 10
174.3351834430854
 20
157.2500000000002
 30
0.0
  0
POINT
  5
988
330
991
100
AcDbEntity
  8
DEFPOINTS
  6
ByBlock
 62
     0
370
    15
100
AcDbPoint
 10
174.3351834430854
 20
139.7499999999998
 30
0.0
  0
LINE
  5
989
330
991
100
AcDbEntity
  8
0
  6
ByBlock
 62
     0
370
    -2
100
AcDbLine
 10
173.3351834430854
 20
157.2500000000002
 30
0.0
 11
170.9918156161804
 21
157.2500000000002
 31
0.0
  0
LINE
  5
98A
330
991
100
AcDbEntity
  8
0
  6
ByBlock
 62
     0
370
    -2
100
AcDbLine
 10
173.3351834430854
 20
139.7499999999998
 30
0.0
 11
170.9918156161804
 21
139.7499999999998
 31
0.0
  0
LINE
  5
98B
330
991
100
AcDbEntity
  8
0
  6
ByBlock
 62
     0
370
    -2
100
AcDbLine
 10
171.9918156161804
 20
157.2500000000002
 30
0.0
 11
171.9918156161804
 21
139.7499999999998
 31
0.0
  0
SOLID
  5
98C
330
991
100
AcDbEntity
  8
0
  6
ByBlock
 62
     0
370
    15
100
AcDbTrace
 10
171.9918156161804
 20
157.2500000000002
 30
0.0
 11
171.4918156161803
 21
154.2500000000002
 31
0.0
 12
172.4918156161805
 22
154.2500000000002
 32
0.0
 13
172.4918156161805
 23
154.2500000000002
 33
0.0
  0
SOLID
  5
98D
330
991
100
AcDbEntity
  8
0
  6
ByBlock
 62
     0
370
    15
100
AcDbTrace
 10
171.9918156161804
 20
139.7499999999998
 30
0.0
 11
171.4918156161803
 21
142.7499999999998
 31
0.0
 12
172.4918156161805
 22
142.7499999999998
 32
0.0
 13
172.4918156161805
 23
142.7499999999998
 33
0.0
  0
LINE
  5
98E
330
991
100
AcDbEntity
  8
0
  6
ByBlock
 62
     0
370
    -2
100
AcDbLine
 10
174.3351834430854
 20
157.2500000000002
 30
0.0
 11
174.3351834430854
 21
157.2500000000002
 31
0.0
  0
MTEXT
  5
98F
330
991
100
AcDbEntity
  8
0
  6
ByBlock
 62
     0
100
AcDbMText
 10
169.8584826161804
 20
167.1685389603892
 30
0.0
 40
3.2
 41
0.0
 71
     5
 72
     1
  1
\A1;%%c17.5
  7
KCADDIMSTANDARD
 11
-1.271037311859069E-15
 21
1.0
 31
0.0
 73
     1
 44
1.0
  0
ENDBLK
  5
C5B
330
991
100
AcDbEntity
  8
0
100
AcDbBlockEnd
  0
BLOCK
  5
C5C
330
99D
100
AcDbEntity
  8
0
100
AcDbBlockBegin
  2
*D54
 70
     1
 71
     0
 10
0.0
 20
0.0
 30
0.0
  3
*D54
  1

  0
POINT
  5
993
330
99D
100
AcDbEntity
  8
DEFPOINTS
  6
ByBlock
 62
     0
370
    15
100
AcDbPoint
 10
215.3351834430854
 20
157.5000000000003
 30
0.0
  0
POINT
  5
994
330
99D
100
AcDbEntity
  8
DEFPOINTS
  6
ByBlock
 62
     0
370
    15
100
AcDbPoint
 10
215.3351834430854
 20
139.4999999999998
 30
0.0
  0
LINE
  5
995
330
99D
100
AcDbEntity
  8
0
  6
ByBlock
 62
     0
370
    -2
100
AcDbLine
 10
214.3351834430854
 20
157.5000000000003
 30
0.0
 11
207.9344308560675
 21
157.5000000000003
 31
0.0
  0
LINE
  5
996
330
99D
100
AcDbEntity
  8
0
  6
ByBlock
 62
     0
370
    -2
100
AcDbLine
 10
214.3351834430854
 20
139.4999999999998
 30
0.0
 11
207.9344308560675
 21
139.4999999999998
 31
0.0
  0
LINE
  5
997
330
99D
100
AcDbEntity
  8
0
  6
ByBlock
 62
     0
370
    -2
100
AcDbLine
 10
208.9344308560675
 20
157.5000000000003
 30
0.0
 11
208.9344308560675
 21
139.4999999999998
 31
0.0
  0
SOLID
  5
998
330
99D
100
AcDbEntity
  8
0
  6
ByBlock
 62
     0
370
    15
100
AcDbTrace
 10
208.9344308560675
 20
157.5000000000003
 30
0.0
 11
208.4344308560674
 21
154.5000000000003
 31
0.0
 12
209.4344308560676
 22
154.5000000000003
 32
0.0
 13
209.4344308560676
 23
154.5000000000003
 33
0.0
  0
SOLID
  5
999
330
99D
100
AcDbEntity
  8
0
  6
ByBlock
 62
     0
370
    15
100
AcDbTrace
 10
208.9344308560675
 20
139.4999999999998
 30
0.0
 11
208.4344308560674
 21
142.4999999999998
 31
0.0
 12
209.4344308560676
 22
142.4999999999998
 32
0.0
 13
209.4344308560676
 23
142.4999999999998
 33
0.0
  0
LINE
  5
99A
330
99D
100
AcDbEntity
  8
0
  6
ByBlock
 62
     0
370
    -2
100
AcDbLine
 10
215.3351834430854
 20
157.5000000000003
 30
0.0
 11
215.3351834430854
 21
157.5000000000003
 31
0.0
  0
MTEXT
  5
99B
330
99D
100
AcDbEntity
  8
0
  6
ByBlock
 62
     0
100
AcDbMText
 10
206.8010978560676
 20
167.3144452673087
 30
0.0
 40
3.2
 41
0.0
 71
     5
 72
     1
  1
\A1;%%c18
  7
KCADDIMSTANDARD
 11
-1.271037311859069E-15
 21
1.0
 31
0.0
 73
     1
 44
1.0
  0
ENDBLK
  5
C5D
330
99D
100
AcDbEntity
  8
0
100
AcDbBlockEnd
  0
BLOCK
  5
C5E
330
9A8
100
AcDbEntity
  8
0
100
AcDbBlockBegin
  2
*D55
 70
     1
 71
     0
 10
0.0
 20
0.0
 30
0.0
  3
*D55
  1

  0
POINT
  5
99F
330
9A8
100
AcDbEntity
  8
DEFPOINTS
  6
ByBlock
 62
     0
370
    15
100
AcDbPoint
 10
268.0107616440822
 20
161.924421799003
 30
0.0
  0
POINT
  5
9A0
330
9A8
100
AcDbEntity
  8
DEFPOINTS
  6
ByBlock
 62
     0
370
    15
100
AcDbPoint
 10
272.441706341185
 20
166.3553664961059
 30
0.0
  0
LINE
  5
9A1
330
9A8
100
AcDbEntity
  8
0
  6
ByBlock
 62
     0
370
    -2
100
AcDbLine
 10
265.8894413005226
 20
159.8031014554433
 30
0.0
 11
263.768120956963
 21
157.6817811118837
 31
0.0
  0
SOLID
  5
9A2
330
9A8
100
AcDbEntity
  8
0
  6
ByBlock
 62
     0
370
    15
100
AcDbTrace
 10
268.0107616440823
 20
161.924421799003
 30
0.0
 11
266.2429946911159
 21
159.4495480648499
 31
0.0
 12
265.5358879099293
 22
160.1566548460366
 32
0.0
 13
265.5358879099293
 23
160.1566548460366
 33
0.0
  0
LINE
  5
9A3
330
9A8
100
AcDbEntity
  8
0
  6
ByBlock
 62
     0
370
    -2
100
AcDbLine
 10
274.5630266847447
 20
168.4766868396655
 30
0.0
 11
276.6843470283043
 21
170.5980071832251
 31
0.0
  0
SOLID
  5
9A4
330
9A8
100
AcDbEntity
  8
0
  6
ByBlock
 62
     0
370
    15
100
AcDbTrace
 10
272.4417063411851
 20
166.3553664961059
 30
0.0
 11
274.916580075338
 21
168.1231334490722
 31
0.0
 12
274.2094732941513
 22
168.8302402302589
 32
0.0
 13
274.2094732941513
 23
168.8302402302589
 33
0.0
  0
LINE
  5
9A5
330
9A8
100
AcDbEntity
  8
0
  6
ByBlock
 62
     0
370
    -2
100
AcDbLine
 10
268.0107616440823
 20
161.924421799003
 30
0.0
 11
272.4417063411851
 21
166.3553664961059
 31
0.0
  0
MTEXT
  5
9A6
330
9A8
100
AcDbEntity
  8
0
  6
ByBlock
 62
     0
100
AcDbMText
 10
275.1389943572855
 20
168.4863158266048
 30
0.0
 40
3.2
 41
0.0
 71
     5
 72
     1
  1
\A1;C1{\H0.667000x;}
  7
KCADDIMSTANDARD
 73
     1
 44
1.0
  0
ENDBLK
  5
C5F
330
9A8
100
AcDbEntity
  8
0
100
AcDbBlockEnd
  0
BLOCK
  5
C60
330
9B3
100
AcDbEntity
  8
0
100
AcDbBlockBegin
  2
*D56
 70
     1
 71
     0
 10
0.0
 20
0.0
 30
0.0
  3
*D56
  1

  0
POINT
  5
9AA
330
9B3
100
AcDbEntity
  8
DEFPOINTS
  6
ByBlock
 62
     0
370
    15
100
AcDbPoint
 10
256.7483869918534
 20
162.3132035487682
 30
0.0
  0
POINT
  5
9AB
330
9B3
100
AcDbEntity
  8
DEFPOINTS
  6
ByBlock
 62
     0
370
    15
100
AcDbPoint
 10
251.7949224346306
 20
167.266668105991
 30
0.0
  0
LINE
  5
9AC
330
9B3
100
AcDbEntity
  8
0
  6
ByBlock
 62
     0
370
    -2
100
AcDbLine
 10
258.869707335413
 20
160.1918832052085
 30
0.0
 11
260.9910276789727
 21
158.0705628616489
 31
0.0
  0
SOLID
  5
9AD
330
9B3
100
AcDbEntity
  8
0
  6
ByBlock
 62
     0
370
    15
100
AcDbTrace
 10
256.7483869918534
 20
162.3132035487681
 30
0.0
 11
259.2232607260063
 21
160.5454365958018
 31
0.0
 12
258.5161539448197
 22
159.8383298146152
 32
0.0
 13
258.5161539448197
 23
159.8383298146152
 33
0.0
  0
LINE
  5
9AE
330
9B3
100
AcDbEntity
  8
0
  6
ByBlock
 62
     0
370
    -2
100
AcDbLine
 10
249.6736020910708
 20
169.3879884495505
 30
0.0
 11
247.5522817475112
 21
171.5093087931102
 31
0.0
  0
SOLID
  5
9AF
330
9B3
100
AcDbEntity
  8
0
  6
ByBlock
 62
     0
370
    15
100
AcDbTrace
 10
251.7949224346305
 20
167.2666681059909
 30
0.0
 11
250.0271554816642
 21
169.7415418401439
 31
0.0
 12
249.3200487004775
 22
169.0344350589572
 32
0.0
 13
249.3200487004775
 23
169.0344350589572
 33
0.0
  0
LINE
  5
9B0
330
9B3
100
AcDbEntity
  8
0
  6
ByBlock
 62
     0
370
    -2
100
AcDbLine
 10
256.7483869918534
 20
162.3132035487681
 30
0.0
 11
251.7949224346305
 21
167.2666681059909
 31
0.0
  0
MTEXT
  5
9B1
330
9B3
100
AcDbEntity
  8
0
  6
ByBlock
 62
     0
100
AcDbMText
 10
246.0829011067131
 20
169.4370448952783
 30
0.0
 40
3.2
 41
0.0
 71
     5
 72
     1
  1
\A1;C0.5{\H0.667000x;}
  7
KCADDIMSTANDARD
 73
     1
 44
1.0
  0
ENDBLK
  5
C61
330
9B3
100
AcDbEntity
  8
0
100
AcDbBlockEnd
  0
BLOCK
  5
C62
330
9BF
100
AcDbEntity
  8
0
100
AcDbBlockBegin
  2
*D57
 70
     1
 71
     0
 10
0.0
 20
0.0
 30
0.0
  3
*D57
  1

  0
POINT
  5
9B5
330
9BF
100
AcDbEntity
  8
DEFPOINTS
  6
ByBlock
 62
     0
370
    15
100
AcDbPoint
 10
267.4351834430853
 20
162.5
 30
0.0
  0
POINT
  5
9B6
330
9BF
100
AcDbEntity
  8
DEFPOINTS
  6
ByBlock
 62
     0
370
    15
100
AcDbPoint
 10
267.4351834430853
 20
134.5
 30
0.0
  0
LINE
  5
9B7
330
9BF
100
AcDbEntity
  8
0
  6
ByBlock
 62
     0
370
    -2
100
AcDbLine
 10
268.4351834430853
 20
162.5
 30
0.0
 11
311.2342427093132
 21
162.5
 31
0.0
  0
LINE
  5
9B8
330
9BF
100
AcDbEntity
  8
0
  6
ByBlock
 62
     0
370
    -2
100
AcDbLine
 10
268.4351834430853
 20
134.5
 30
0.0
 11
311.2342427093132
 21
134.5
 31
0.0
  0
LINE
  5
9B9
330
9BF
100
AcDbEntity
  8
0
  6
ByBlock
 62
     0
370
    -2
100
AcDbLine
 10
310.2342427093132
 20
162.5
 30
0.0
 11
310.2342427093132
 21
134.5
 31
0.0
  0
SOLID
  5
9BA
330
9BF
100
AcDbEntity
  8
0
  6
ByBlock
 62
     0
370
    15
100
AcDbTrace
 10
310.2342427093132
 20
162.5
 30
0.0
 11
309.7342427093131
 21
159.5
 31
0.0
 12
310.7342427093133
 22
159.5
 32
0.0
 13
310.7342427093133
 23
159.5
 33
0.0
  0
SOLID
  5
9BB
330
9BF
100
AcDbEntity
  8
0
  6
ByBlock
 62
     0
370
    15
100
AcDbTrace
 10
310.2342427093132
 20
134.5
 30
0.0
 11
309.7342427093131
 21
137.5
 31
0.0
 12
310.7342427093133
 22
137.5
 32
0.0
 13
310.7342427093133
 23
137.5
 33
0.0
  0
LINE
  5
9BC
330
9BF
100
AcDbEntity
  8
0
  6
ByBlock
 62
     0
370
    -2
100
AcDbLine
 10
267.4351834430853
 20
162.5
 30
0.0
 11
267.4351834430853
 21
162.5
 31
0.0
  0
MTEXT
  5
9BD
330
9BF
100
AcDbEntity
  8
0
  6
ByBlock
 62
     0
100
AcDbMText
 10
308.1009097093132
 20
148.5000000000002
 30
0.0
 40
3.2
 41
0.0
 71
     5
 72
     1
  1
\A1;%%c28
  7
KCADDIMSTANDARD
 11
-1.271037311859069E-15
 21
1.0
 31
0.0
 73
     1
 44
1.0
  0
ENDBLK
  5
C63
330
9BF
100
AcDbEntity
  8
0
100
AcDbBlockEnd
  0
BLOCK
  5
C64
330
9CC
100
AcDbEntity
  8
0
100
AcDbBlockBegin
  2
*D58
 70
     1
 71
     0
 10
0.0
 20
0.0
 30
0.0
  3
*D58
  1

  0
POINT
  5
9C1
330
9CC
100
AcDbEntity
  8
DEFPOINTS
  6
ByBlock
 62
     0
370
    15
100
AcDbPoint
 10
268.4351834430852
 20
148.5000000000001
 30
0.0
  0
POINT
  5
9C2
330
9CC
100
AcDbEntity
  8
DEFPOINTS
  6
ByBlock
 62
     0
370
    15
100
AcDbPoint
 10
272.4351834430852
 20
148.5000000000001
 30
0.0
  0
LINE
  5
9C3
330
9CC
100
AcDbEntity
  8
0
  6
ByBlock
 62
     0
370
    -2
100
AcDbLine
 10
268.4351834430852
 20
149.5000000000001
 30
0.0
 11
268.4351834430852
 21
181.156590890895
 31
0.0
  0
LINE
  5
9C4
330
9CC
100
AcDbEntity
  8
0
  6
ByBlock
 62
     0
370
    -2
100
AcDbLine
 10
272.4351834430852
 20
149.5000000000001
 30
0.0
 11
272.4351834430852
 21
181.156590890895
 31
0.0
  0
LINE
  5
9C5
330
9CC
100
AcDbEntity
  8
0
  6
ByBlock
 62
     0
370
    -2
100
AcDbLine
 10
265.4351834430852
 20
180.156590890895
 30
0.0
 11
262.4351834430852
 21
180.156590890895
 31
0.0
  0
SOLID
  5
9C6
330
9CC
100
AcDbEntity
  8
0
  6
ByBlock
 62
     0
370
    15
100
AcDbTrace
 10
268.4351834430852
 20
180.156590890895
 30
0.0
 11
265.4351834430852
 21
179.6565908908949
 31
0.0
 12
265.4351834430852
 22
180.6565908908951
 32
0.0
 13
265.4351834430852
 23
180.6565908908951
 33
0.0
  0
LINE
  5
9C7
330
9CC
100
AcDbEntity
  8
0
  6
ByBlock
 62
     0
370
    -2
100
AcDbLine
 10
275.4351834430852
 20
180.156590890895
 30
0.0
 11
278.4351834430852
 21
180.156590890895
 31
0.0
  0
SOLID
  5
9C8
330
9CC
100
AcDbEntity
  8
0
  6
ByBlock
 62
     0
370
    15
100
AcDbTrace
 10
272.4351834430852
 20
180.156590890895
 30
0.0
 11
275.4351834430852
 21
179.6565908908949
 31
0.0
 12
275.4351834430852
 22
180.6565908908951
 32
0.0
 13
275.4351834430852
 23
180.6565908908951
 33
0.0
  0
LINE
  5
9C9
330
9CC
100
AcDbEntity
  8
0
  6
ByBlock
 62
     0
370
    -2
100
AcDbLine
 10
268.4351834430852
 20
180.156590890895
 30
0.0
 11
272.4351834430852
 21
180.156590890895
 31
0.0
  0
MTEXT
  5
9CA
330
9CC
100
AcDbEntity
  8
0
  6
ByBlock
 62
     0
100
AcDbMText
 10
275.7754006969988
 20
182.311229259082
 30
0.0
 40
3.2
 41
0.0
 71
     5
 72
     1
  1
4
  7
KCADDIMSTANDARD
 73
     1
 44
1.0
  0
ENDBLK
  5
C65
330
9CC
100
AcDbEntity
  8
0
100
AcDbBlockEnd
  0
BLOCK
  5
C66
330
9D7
100
AcDbEntity
  8
0
100
AcDbBlockBegin
  2
*D59
 70
     1
 71
     0
 10
0.0
 20
0.0
 30
0.0
  3
*D59
  1

  0
POINT
  5
9CE
330
9D7
100
AcDbEntity
  8
DEFPOINTS
  6
ByBlock
 62
     0
370
    15
100
AcDbPoint
 10
268.4351834430852
 20
199.843085106383
 30
0.0
  0
POINT
  5
9CF
330
9D7
100
AcDbEntity
  8
DEFPOINTS
  6
ByBlock
 62
     0
370
    15
100
AcDbPoint
 10
152.3351834430854
 20
180.156590890895
 30
0.0
  0
LINE
  5
9D0
330
9D7
100
AcDbEntity
  8
0
  6
ByBlock
 62
     0
370
    -2
100
AcDbLine
 10
152.3351834430854
 20
181.156590890895
 30
0.0
 11
152.3351834430854
 21
200.843085106383
 31
0.0
  0
LINE
  5
9D1
330
9D7
100
AcDbEntity
  8
0
  6
ByBlock
 62
     0
370
    -2
100
AcDbLine
 10
268.4351834430852
 20
199.843085106383
 30
0.0
 11
152.3351834430854
 21
199.843085106383
 31
0.0
  0
SOLID
  5
9D2
330
9D7
100
AcDbEntity
  8
0
  6
ByBlock
 62
     0
370
    15
100
AcDbTrace
 10
268.4351834430852
 20
199.843085106383
 30
0.0
 11
265.4351834430852
 21
200.3430851063831
 31
0.0
 12
265.4351834430852
 22
199.3430851063829
 32
0.0
 13
265.4351834430852
 23
199.3430851063829
 33
0.0
  0
SOLID
  5
9D3
330
9D7
100
AcDbEntity
  8
0
  6
ByBlock
 62
     0
370
    15
100
AcDbTrace
 10
152.3351834430854
 20
199.843085106383
 30
0.0
 11
155.3351834430854
 21
200.3430851063831
 31
0.0
 12
155.3351834430854
 22
199.3430851063829
 32
0.0
 13
155.3351834430854
 23
199.3430851063829
 33
0.0
  0
LINE
  5
9D4
330
9D7
100
AcDbEntity
  8
0
  6
ByBlock
 62
     0
370
    -2
100
AcDbLine
 10
268.4351834430852
 20
199.843085106383
 30
0.0
 11
268.4351834430852
 21
199.843085106383
 31
0.0
  0
MTEXT
  5
9D5
330
9D7
100
AcDbEntity
  8
0
  6
ByBlock
 62
     0
100
AcDbMText
 10
210.3851834430853
 20
201.976418106383
 30
0.0
 40
3.2
 41
0.0
 71
     5
 72
     1
  1
116.1
  7
KCADDIMSTANDARD
 73
     1
 44
1.0
  0
ENDBLK
  5
C67
330
9D7
100
AcDbEntity
  8
0
100
AcDbBlockEnd
  0
BLOCK
  5
C68
330
9E3
100
AcDbEntity
  8
0
100
AcDbBlockBegin
  2
*D60
 70
     1
 71
     0
 10
0.0
 20
0.0
 30
0.0
  3
*D60
  1

  0
POINT
  5
9D9
330
9E3
100
AcDbEntity
  8
DEFPOINTS
  6
ByBlock
 62
     0
370
    15
100
AcDbPoint
 10
81.23518344308474
 20
148.4999999999996
 30
0.0
  0
POINT
  5
9DA
330
9E3
100
AcDbEntity
  8
DEFPOINTS
  6
ByBlock
 62
     0
370
    15
100
AcDbPoint
 10
285.9611834430852
 20
148.5000000000001
 30
0.0
  0
LINE
  5
9DB
330
9E3
100
AcDbEntity
  8
0
  6
ByBlock
 62
     0
370
    -2
100
AcDbLine
 10
81.23518344308474
 20
149.4999999999996
 30
0.0
 11
81.23518344308474
 21
220.5904255319149
 31
0.0
  0
LINE
  5
9DC
330
9E3
100
AcDbEntity
  8
0
  6
ByBlock
 62
     0
370
    -2
100
AcDbLine
 10
285.9611834430852
 20
149.5000000000001
 30
0.0
 11
285.9611834430852
 21
220.5904255319149
 31
0.0
  0
LINE
  5
9DD
330
9E3
100
AcDbEntity
  8
0
  6
ByBlock
 62
     0
370
    -2
100
AcDbLine
 10
81.23518344308474
 20
219.5904255319149
 30
0.0
 11
285.9611834430852
 21
219.5904255319149
 31
0.0
  0
SOLID
  5
9DE
330
9E3
100
AcDbEntity
  8
0
  6
ByBlock
 62
     0
370
    15
100
AcDbTrace
 10
81.23518344308474
 20
219.5904255319149
 30
0.0
 11
84.23518344308474
 21
219.0904255319148
 31
0.0
 12
84.23518344308474
 22
220.090425531915
 32
0.0
 13
84.23518344308474
 23
220.090425531915
 33
0.0
  0
SOLID
  5
9DF
330
9E3
100
AcDbEntity
  8
0
  6
ByBlock
 62
     0
370
    15
100
AcDbTrace
 10
285.9611834430852
 20
219.5904255319149
 30
0.0
 11
282.9611834430852
 21
219.0904255319148
 31
0.0
 12
282.9611834430852
 22
220.090425531915
 32
0.0
 13
282.9611834430852
 23
220.090425531915
 33
0.0
  0
LINE
  5
9E0
330
9E3
100
AcDbEntity
  8
0
  6
ByBlock
 62
     0
370
    -2
100
AcDbLine
 10
81.23518344308474
 20
148.4999999999996
 30
0.0
 11
81.23518344308474
 21
148.4999999999996
 31
0.0
  0
MTEXT
  5
9E1
330
9E3
100
AcDbEntity
  8
0
  6
ByBlock
 62
     0
100
AcDbMText
 10
183.598183443085
 20
221.7237585319149
 30
0.0
 40
3.2
 41
0.0
 71
     5
 72
     1
  1
204.73
  7
KCADDIMSTANDARD
 73
     1
 44
1.0
  0
ENDBLK
  5
C69
330
9E3
100
AcDbEntity
  8
0
100
AcDbBlockEnd
  0
BLOCK
  5
C6A
330
A7E
100
AcDbEntity
  8
0
100
AcDbBlockBegin
  2
*D61
 70
     1
 71
     0
 10
0.0
 20
0.0
 30
0.0
  3
*D61
  1

  0
POINT
  5
A74
330
A7E
100
AcDbEntity
  8
DEFPOINTS
  6
ByBlock
 62
     0
370
    15
100
AcDbPoint
 10
268.4351834430852
 20
148.5000000000001
 30
0.0
  0
POINT
  5
A75
330
A7E
100
AcDbEntity
  8
DEFPOINTS
  6
ByBlock
 62
     0
370
    15
100
AcDbPoint
 10
285.9611834430852
 20
148.5000000000001
 30
0.0
  0
LINE
  5
A76
330
A7E
100
AcDbEntity
  8
0
  6
ByBlock
 62
     0
370
    -2
100
AcDbLine
 10
268.4351834430852
 20
149.5000000000001
 30
0.0
 11
268.4351834430852
 21
200.843085106383
 31
0.0
  0
LINE
  5
A77
330
A7E
100
AcDbEntity
  8
0
  6
ByBlock
 62
     0
370
    -2
100
AcDbLine
 10
285.9611834430852
 20
149.5000000000001
 30
0.0
 11
285.9611834430852
 21
200.843085106383
 31
0.0
  0
LINE
  5
A78
330
A7E
100
AcDbEntity
  8
0
  6
ByBlock
 62
     0
370
    -2
100
AcDbLine
 10
268.4351834430852
 20
199.843085106383
 30
0.0
 11
285.9611834430852
 21
199.843085106383
 31
0.0
  0
SOLID
  5
A79
330
A7E
100
AcDbEntity
  8
0
  6
ByBlock
 62
     0
370
    15
100
AcDbTrace
 10
268.4351834430852
 20
199.843085106383
 30
0.0
 11
271.4351834430852
 21
199.3430851063829
 31
0.0
 12
271.4351834430852
 22
200.3430851063831
 32
0.0
 13
271.4351834430852
 23
200.3430851063831
 33
0.0
  0
SOLID
  5
A7A
330
A7E
100
AcDbEntity
  8
0
  6
ByBlock
 62
     0
370
    15
100
AcDbTrace
 10
285.9611834430852
 20
199.843085106383
 30
0.0
 11
282.9611834430852
 21
199.3430851063829
 31
0.0
 12
282.9611834430852
 22
200.3430851063831
 32
0.0
 13
282.9611834430852
 23
200.3430851063831
 33
0.0
  0
LINE
  5
A7B
330
A7E
100
AcDbEntity
  8
0
  6
ByBlock
 62
     0
370
    -2
100
AcDbLine
 10
268.4351834430852
 20
148.5000000000001
 30
0.0
 11
268.4351834430852
 21
148.5000000000001
 31
0.0
  0
MTEXT
  5
A7C
330
A7E
100
AcDbEntity
  8
0
  6
ByBlock
 62
     0
100
AcDbMText
 10
302.064754961074
 20
199.4062813984906
 30
0.0
 40
3.2
 41
0.0
 71
     5
 72
     1
  1
\A1;FB=17.526
  7
KCADDIMSTANDARD
 73
     1
 44
1.0
  0
ENDBLK
  5
C6B
330
A7E
100
AcDbEntity
  8
0
100
AcDbBlockEnd
  0
BLOCK
  5
C6C
330
A8A
100
AcDbEntity
  8
0
100
AcDbBlockBegin
  2
*D62
 70
     1
 71
     0
 10
0.0
 20
0.0
 30
0.0
  3
*D62
  1

  0
POINT
  5
A80
330
A8A
100
AcDbEntity
  8
DEFPOINTS
  6
ByBlock
 62
     0
370
    15
100
AcDbPoint
 10
174.3351834430854
 20
157.2500000000002
 30
0.0
  0
POINT
  5
A81
330
A8A
100
AcDbEntity
  8
DEFPOINTS
  6
ByBlock
 62
     0
370
    15
100
AcDbPoint
 10
174.3351834430854
 20
139.7499999999998
 30
0.0
  0
LINE
  5
A82
330
A8A
100
AcDbEntity
  8
0
  6
ByBlock
 62
     0
370
    -2
100
AcDbLine
 10
173.3351834430854
 20
157.2500000000002
 30
0.0
 11
170.9918156161804
 21
157.2500000000002
 31
0.0
  0
LINE
  5
A83
330
A8A
100
AcDbEntity
  8
0
  6
ByBlock
 62
     0
370
    -2
100
AcDbLine
 10
173.3351834430854
 20
139.7499999999998
 30
0.0
 11
170.9918156161804
 21
139.7499999999998
 31
0.0
  0
LINE
  5
A84
330
A8A
100
AcDbEntity
  8
0
  6
ByBlock
 62
     0
370
    -2
100
AcDbLine
 10
171.9918156161804
 20
157.2500000000002
 30
0.0
 11
171.9918156161804
 21
139.7499999999998
 31
0.0
  0
SOLID
  5
A85
330
A8A
100
AcDbEntity
  8
0
  6
ByBlock
 62
     0
370
    15
100
AcDbTrace
 10
171.9918156161804
 20
157.2500000000002
 30
0.0
 11
171.4918156161803
 21
154.2500000000002
 31
0.0
 12
172.4918156161805
 22
154.2500000000002
 32
0.0
 13
172.4918156161805
 23
154.2500000000002
 33
0.0
  0
SOLID
  5
A86
330
A8A
100
AcDbEntity
  8
0
  6
ByBlock
 62
     0
370
    15
100
AcDbTrace
 10
171.9918156161804
 20
139.7499999999998
 30
0.0
 11
171.4918156161803
 21
142.7499999999998
 31
0.0
 12
172.4918156161805
 22
142.7499999999998
 32
0.0
 13
172.4918156161805
 23
142.7499999999998
 33
0.0
  0
LINE
  5
A87
330
A8A
100
AcDbEntity
  8
0
  6
ByBlock
 62
     0
370
    -2
100
AcDbLine
 10
174.3351834430854
 20
157.2500000000002
 30
0.0
 11
174.3351834430854
 21
157.2500000000002
 31
0.0
  0
MTEXT
  5
A88
330
A8A
100
AcDbEntity
  8
0
  6
ByBlock
 62
     0
100
AcDbMText
 10
172.0341234940476
 20
165.4840194675245
 30
0.0
 40
3.2
 41
0.0
 71
     5
 72
     1
  1
\A1;%%c17.5
  7
KCADDIMSTANDARD
 11
-1.271037311859069E-15
 21
1.0
 31
0.0
 73
     1
 44
1.0
  0
ENDBLK
  5
C6D
330
A8A
100
AcDbEntity
  8
0
100
AcDbBlockEnd
  0
BLOCK
  5
C6E
330
A96
100
AcDbEntity
  8
0
100
AcDbBlockBegin
  2
*D63
 70
     1
 71
     0
 10
0.0
 20
0.0
 30
0.0
  3
*D63
  1

  0
POINT
  5
A8C
330
A96
100
AcDbEntity
  8
DEFPOINTS
  6
ByBlock
 62
     0
370
    15
100
AcDbPoint
 10
215.3351834430854
 20
157.5000000000003
 30
0.0
  0
POINT
  5
A8D
330
A96
100
AcDbEntity
  8
DEFPOINTS
  6
ByBlock
 62
     0
370
    15
100
AcDbPoint
 10
215.3351834430854
 20
139.4999999999998
 30
0.0
  0
LINE
  5
A8E
330
A96
100
AcDbEntity
  8
0
  6
ByBlock
 62
     0
370
    -2
100
AcDbLine
 10
214.3351834430854
 20
157.5000000000003
 30
0.0
 11
207.9344308560675
 21
157.5000000000003
 31
0.0
  0
LINE
  5
A8F
330
A96
100
AcDbEntity
  8
0
  6
ByBlock
 62
     0
370
    -2
100
AcDbLine
 10
214.3351834430854
 20
139.4999999999998
 30
0.0
 11
207.9344308560675
 21
139.4999999999998
 31
0.0
  0
LINE
  5
A90
330
A96
100
AcDbEntity
  8
0
  6
ByBlock
 62
     0
370
    -2
100
AcDbLine
 10
208.9344308560675
 20
157.5000000000003
 30
0.0
 11
208.9344308560675
 21
139.4999999999998
 31
0.0
  0
SOLID
  5
A91
330
A96
100
AcDbEntity
  8
0
  6
ByBlock
 62
     0
370
    15
100
AcDbTrace
 10
208.9344308560675
 20
157.5000000000003
 30
0.0
 11
208.4344308560674
 21
154.5000000000003
 31
0.0
 12
209.4344308560676
 22
154.5000000000003
 32
0.0
 13
209.4344308560676
 23
154.5000000000003
 33
0.0
  0
SOLID
  5
A92
330
A96
100
AcDbEntity
  8
0
  6
ByBlock
 62
     0
370
    15
100
AcDbTrace
 10
208.9344308560675
 20
139.4999999999998
 30
0.0
 11
208.4344308560674
 21
142.4999999999998
 31
0.0
 12
209.4344308560676
 22
142.4999999999998
 32
0.0
 13
209.4344308560676
 23
142.4999999999998
 33
0.0
  0
LINE
  5
A93
330
A96
100
AcDbEntity
  8
0
  6
ByBlock
 62
     0
370
    -2
100
AcDbLine
 10
215.3351834430854
 20
157.5000000000003
 30
0.0
 11
215.3351834430854
 21
157.5000000000003
 31
0.0
  0
MTEXT
  5
A94
330
A96
100
AcDbEntity
  8
0
  6
ByBlock
 62
     0
100
AcDbMText
 10
208.9747721408622
 20
163.9621200850714
 30
0.0
 40
3.2
 41
0.0
 71
     5
 72
     1
  1
\A1;%%c18
  7
KCADDIMSTANDARD
 11
-1.271037311859069E-15
 21
1.0
 31
0.0
 73
     1
 44
1.0
  0
ENDBLK
  5
C6F
330
A96
100
AcDbEntity
  8
0
100
AcDbBlockEnd
  0
BLOCK
  5
C70
330
AA2
100
AcDbEntity
  8
0
100
AcDbBlockBegin
  2
*D64
 70
     1
 71
     0
 10
0.0
 20
0.0
 30
0.0
  3
*D64
  1

  0
POINT
  5
A98
330
AA2
100
AcDbEntity
  8
DEFPOINTS
  6
ByBlock
 62
     0
370
    15
100
AcDbPoint
 10
215.3351834430854
 20
157.5000000000003
 30
0.0
  0
POINT
  5
A99
330
AA2
100
AcDbEntity
  8
DEFPOINTS
  6
ByBlock
 62
     0
370
    15
100
AcDbPoint
 10
215.3351834430854
 20
139.4999999999998
 30
0.0
  0
LINE
  5
A9A
330
AA2
100
AcDbEntity
  8
0
  6
ByBlock
 62
     0
370
    -2
100
AcDbLine
 10
214.3351834430854
 20
157.5000000000003
 30
0.0
 11
207.9344308560675
 21
157.5000000000003
 31
0.0
  0
LINE
  5
A9B
330
AA2
100
AcDbEntity
  8
0
  6
ByBlock
 62
     0
370
    -2
100
AcDbLine
 10
214.3351834430854
 20
139.4999999999998
 30
0.0
 11
207.9344308560675
 21
139.4999999999998
 31
0.0
  0
LINE
  5
A9C
330
AA2
100
AcDbEntity
  8
0
  6
ByBlock
 62
     0
370
    -2
100
AcDbLine
 10
208.9344308560675
 20
157.5000000000003
 30
0.0
 11
208.9344308560675
 21
139.4999999999998
 31
0.0
  0
SOLID
  5
A9D
330
AA2
100
AcDbEntity
  8
0
  6
ByBlock
 62
     0
370
    15
100
AcDbTrace
 10
208.9344308560675
 20
157.5000000000003
 30
0.0
 11
208.4344308560674
 21
154.5000000000003
 31
0.0
 12
209.4344308560676
 22
154.5000000000003
 32
0.0
 13
209.4344308560676
 23
154.5000000000003
 33
0.0
  0
SOLID
  5
A9E
330
AA2
100
AcDbEntity
  8
0
  6
ByBlock
 62
     0
370
    15
100
AcDbTrace
 10
208.9344308560675
 20
139.4999999999998
 30
0.0
 11
208.4344308560674
 21
142.4999999999998
 31
0.0
 12
209.4344308560676
 22
142.4999999999998
 32
0.0
 13
209.4344308560676
 23
142.4999999999998
 33
0.0
  0
LINE
  5
A9F
330
AA2
100
AcDbEntity
  8
0
  6
ByBlock
 62
     0
370
    -2
100
AcDbLine
 10
215.3351834430854
 20
157.5000000000003
 30
0.0
 11
215.3351834430854
 21
157.5000000000003
 31
0.0
  0
MTEXT
  5
AA0
330
AA2
100
AcDbEntity
  8
0
  6
ByBlock
 62
     0
100
AcDbMText
 10
208.8364176515483
 20
164.5155380423271
 30
0.0
 40
3.2
 41
0.0
 71
     5
 72
     1
  1
\A1;%%c18
  7
KCADDIMSTANDARD
 11
-1.271037311859069E-15
 21
1.0
 31
0.0
 73
     1
 44
1.0
  0
ENDBLK
  5
C71
330
AA2
100
AcDbEntity
  8
0
100
AcDbBlockEnd
  0
BLOCK
  5
C72
330
AAD
100
AcDbEntity
  8
0
100
AcDbBlockBegin
  2
*D65
 70
     1
 71
     0
 10
0.0
 20
0.0
 30
0.0
  3
*D65
  1

  0
POINT
  5
AA4
330
AAD
100
AcDbEntity
  8
DEFPOINTS
  6
ByBlock
 62
     0
370
    15
100
AcDbPoint
 10
256.7483869918534
 20
162.3132035487682
 30
0.0
  0
POINT
  5
AA5
330
AAD
100
AcDbEntity
  8
DEFPOINTS
  6
ByBlock
 62
     0
370
    15
100
AcDbPoint
 10
251.7949224346306
 20
167.266668105991
 30
0.0
  0
LINE
  5
AA6
330
AAD
100
AcDbEntity
  8
0
  6
ByBlock
 62
     0
370
    -2
100
AcDbLine
 10
258.869707335413
 20
160.1918832052085
 30
0.0
 11
260.9910276789727
 21
158.0705628616489
 31
0.0
  0
SOLID
  5
AA7
330
AAD
100
AcDbEntity
  8
0
  6
ByBlock
 62
     0
370
    15
100
AcDbTrace
 10
256.7483869918534
 20
162.3132035487681
 30
0.0
 11
259.2232607260063
 21
160.5454365958018
 31
0.0
 12
258.5161539448197
 22
159.8383298146152
 32
0.0
 13
258.5161539448197
 23
159.8383298146152
 33
0.0
  0
LINE
  5
AA8
330
AAD
100
AcDbEntity
  8
0
  6
ByBlock
 62
     0
370
    -2
100
AcDbLine
 10
249.6736020910708
 20
169.3879884495505
 30
0.0
 11
247.5522817475112
 21
171.5093087931102
 31
0.0
  0
SOLID
  5
AA9
330
AAD
100
AcDbEntity
  8
0
  6
ByBlock
 62
     0
370
    15
100
AcDbTrace
 10
251.7949224346305
 20
167.2666681059909
 30
0.0
 11
250.0271554816642
 21
169.7415418401439
 31
0.0
 12
249.3200487004775
 22
169.0344350589572
 32
0.0
 13
249.3200487004775
 23
169.0344350589572
 33
0.0
  0
LINE
  5
AAA
330
AAD
100
AcDbEntity
  8
0
  6
ByBlock
 62
     0
370
    -2
100
AcDbLine
 10
256.7483869918534
 20
162.3132035487681
 30
0.0
 11
251.7949224346305
 21
167.2666681059909
 31
0.0
  0
MTEXT
  5
AAB
330
AAD
100
AcDbEntity
  8
0
  6
ByBlock
 62
     0
100
AcDbMText
 10
243.6691785580418
 20
167.9824690419507
 30
0.0
 40
3.2
 41
0.0
 71
     5
 72
     1
  1
\A1;C0.5{\H0.667000x;}
  7
KCADDIMSTANDARD
 73
     1
 44
1.0
  0
ENDBLK
  5
C73
330
AAD
100
AcDbEntity
  8
0
100
AcDbBlockEnd
  0
BLOCK
  5
C74
330
AB8
100
AcDbEntity
  8
0
100
AcDbBlockBegin
  2
*D66
 70
     1
 71
     0
 10
0.0
 20
0.0
 30
0.0
  3
*D66
  1

  0
POINT
  5
AAF
330
AB8
100
AcDbEntity
  8
DEFPOINTS
  6
ByBlock
 62
     0
370
    15
100
AcDbPoint
 10
268.0107616440822
 20
161.924421799003
 30
0.0
  0
POINT
  5
AB0
330
AB8
100
AcDbEntity
  8
DEFPOINTS
  6
ByBlock
 62
     0
370
    15
100
AcDbPoint
 10
272.441706341185
 20
166.3553664961059
 30
0.0
  0
LINE
  5
AB1
330
AB8
100
AcDbEntity
  8
0
  6
ByBlock
 62
     0
370
    -2
100
AcDbLine
 10
265.8894413005226
 20
159.8031014554433
 30
0.0
 11
263.768120956963
 21
157.6817811118836
 31
0.0
  0
SOLID
  5
AB2
330
AB8
100
AcDbEntity
  8
0
  6
ByBlock
 62
     0
370
    15
100
AcDbTrace
 10
268.0107616440823
 20
161.9244217990029
 30
0.0
 11
266.242994691116
 21
159.4495480648499
 31
0.0
 12
265.5358879099293
 22
160.1566548460366
 32
0.0
 13
265.5358879099293
 23
160.1566548460366
 33
0.0
  0
LINE
  5
AB3
330
AB8
100
AcDbEntity
  8
0
  6
ByBlock
 62
     0
370
    -2
100
AcDbLine
 10
274.5630266847447
 20
168.4766868396655
 30
0.0
 11
276.6843470283043
 21
170.5980071832251
 31
0.0
  0
SOLID
  5
AB4
330
AB8
100
AcDbEntity
  8
0
  6
ByBlock
 62
     0
370
    15
100
AcDbTrace
 10
272.4417063411851
 20
166.3553664961058
 30
0.0
 11
274.9165800753381
 21
168.1231334490722
 31
0.0
 12
274.2094732941513
 22
168.8302402302588
 32
0.0
 13
274.2094732941513
 23
168.8302402302588
 33
0.0
  0
LINE
  5
AB5
330
AB8
100
AcDbEntity
  8
0
  6
ByBlock
 62
     0
370
    -2
100
AcDbLine
 10
268.0107616440823
 20
161.9244217990029
 30
0.0
 11
272.4417063411851
 21
166.3553664961058
 31
0.0
  0
MTEXT
  5
AB6
330
AB8
100
AcDbEntity
  8
0
  6
ByBlock
 62
     0
100
AcDbMText
 10
279.0377267403406
 20
168.3040012981535
 30
0.0
 40
3.2
 41
0.0
 71
     5
 72
     1
  1
\A1;C1{\H0.667000x;}
  7
KCADDIMSTANDARD
 73
     1
 44
1.0
  0
ENDBLK
  5
C75
330
AB8
100
AcDbEntity
  8
0
100
AcDbBlockEnd
  0
ENDSEC
  0
SECTION
  2
ENTITIES
  0
TEXT
  5
2EF
330
1F
100
AcDbEntity
  8
0
  6
Continuous
 62
     7
370
    30
100
AcDbText
 10
195.54356005135
 20
38.16647005444999
 30
0.0
 40
4.049999999999999
  1
質
 41
0.95
  7
KCADTEXTSTANDARD
100
AcDbText
1001
Sigma
1000

  0
TEXT
  5
2F1
330
1F
100
AcDbEntity
  8
0
  6
Continuous
 62
     7
370
    30
100
AcDbText
 10
195.54356005135
 20
43.16647005444999
 30
0.0
 40
4.049999999999999
  1
材
 41
0.95
  7
KCADTEXTSTANDARD
100
AcDbText
1001
Sigma
1000

  0
LINE
  5
2F4
330
1F
100
AcDbEntity
  8
90-ScaleR0.4
  6
Continuous
 62
     7
370
    30
100
AcDbLine
 10
410.8190067612301
 20
286.431941923775
 30
0.0
 11
27.8189987163
 21
286.431941923775
 31
0.0
1001
Sigma
1000

  0
LINE
  5
2F7
330
1F
100
AcDbEntity
  8
90-ScaleR0.4
  6
Continuous
 62
     7
370
    30
100
AcDbLine
 10
27.8189987163
 20
286.431941923775
 30
0.0
 11
27.8189987163
 21
17.43194192379999
 31
0.0
1001
Sigma
1000

  0
LINE
  5
2F9
330
1F
100
AcDbEntity
  8
90-ScaleR0.4
  6
Continuous
 62
     7
370
    30
100
AcDbLine
 10
27.8189987163
 20
17.43194192379999
 30
0.0
 11
410.8190067612301
 21
17.43194192379999
 31
0.0
1001
Sigma
1000

  0
LINE
  5
2FB
330
1F
100
AcDbEntity
  8
90-ScaleR0.4
  6
Continuous
 62
     7
370
    30
100
AcDbLine
 10
410.8190067612301
 20
286.431941923775
 30
0.0
 11
410.8190067612301
 21
17.43194192379999
 31
0.0
1001
Sigma
1000

  0
TEXT
  5
2FD
330
1F
100
AcDbEntity
  8
90-ScaleR0.4
  6
Continuous
 62
     7
370
    30
100
AcDbText
 10
293.9831854289853
 20
25.44748513884696
 30
0.0
 40
4.049999999999999
  1
型
 41
0.95
  7
KCADTEXTSTANDARD
100
AcDbText
1001
Sigma
1000

  0
TEXT
  5
2FF
330
1F
100
AcDbEntity
  8
90-ScaleR0.4
  6
Continuous
 62
     7
370
    30
100
AcDbText
 10
293.8182718101352
 20
19.12817618804639
 30
0.0
 40
4.049999999999999
  1
番
 41
0.95
  7
KCADTEXTSTANDARD
100
AcDbText
1001
Sigma
1000

  0
TEXT
  5
309
330
1F
100
AcDbEntity
  8
90-ScaleR0.4
  6
Continuous
 62
     7
370
    30
100
AcDbText
 10
353.6348071815975
 20
26.09241428618514
 30
0.0
 40
4.049999999999999
  1
図
 41
0.95
  7
KCADTEXTSTANDARD
100
AcDbText
1001
Sigma
1000

  0
TEXT
  5
30B
330
1F
100
AcDbEntity
  8
90-ScaleR0.4
  6
Continuous
 62
     7
370
    30
100
AcDbText
 10
353.6348071815975
 20
18.93633443138513
 30
0.0
 40
4.049999999999999
  1
番
 41
0.95
  7
KCADTEXTSTANDARD
100
AcDbText
1001
Sigma
1000

  0
LINE
  5
311
330
1F
100
AcDbEntity
  8
90-ScaleR0.4
  6
Continuous
 62
     7
370
    15
100
AcDbLine
 10
360.8190067612349
 20
47.43194192379998
 30
0.0
 11
360.8190067612349
 21
17.43194192379999
 31
0.0
1001
Sigma
1000

  0
LINE
  5
313
330
1F
100
AcDbEntity
  8
90-ScaleR0.4
  6
Continuous
 62
     7
370
    30
100
AcDbLine
 10
194.819006375325
 20
17.43194192379999
 30
0.0
 11
194.819006375325
 21
47.43194192379998
 31
0.0
1001
Sigma
1000

  0
LINE
  5
315
330
1F
100
AcDbEntity
  8
90-ScaleR0.4
  6
Continuous
 62
     7
370
    30
100
AcDbLine
 10
350.8190067612349
 20
17.43194192379999
 30
0.0
 11
350.8190067612349
 21
47.43194192379998
 31
0.0
1001
Sigma
1000

  0
LINE
  5
317
330
1F
100
AcDbEntity
  8
90-ScaleR0.4
  6
Continuous
 62
     7
370
    30
100
AcDbLine
 10
410.8190067612301
 20
32.43194192379999
 30
0.0
 11
290.819006761235
 21
32.43194192379999
 31
0.0
1001
Sigma
1000

  0
LINE
  5
319
330
1F
100
AcDbEntity
  8
90-ScaleR0.4
  6
Continuous
 62
     7
370
    30
100
AcDbLine
 10
194.819006375325
 20
27.43194192375
 30
0.0
 11
260.819006761233
 21
27.43194192375
 31
0.0
1001
Sigma
1000

  0
TEXT
  5
31B
330
1F
100
AcDbEntity
  8
90-ScaleR0.4
  6
Continuous
 62
     7
370
    30
100
AcDbText
 10
236.6691982128943
 20
19.17763136437326
 30
0.0
 40
6.750000429153442
  1
三角法
 41
0.9795555531731359
  7
KCADTEXTSTANDARD
100
AcDbText
1001
Sigma
1000

  0
TEXT
  5
31D
330
1F
100
AcDbEntity
  8
90-ScaleR0.4
  6
Continuous
 62
     7
370
    30
100
AcDbText
 10
284.101783110845
 20
19.67921960074998
 30
0.0
 40
4.5
  1
１
 41
0.855
  7
KCADTEXTSTANDARD
100
AcDbText
1001
Sigma
1000

  0
TEXT
  5
31F
330
1F
100
AcDbEntity
  8
0
  6
Continuous
 62
     7
370
    30
100
AcDbText
 10
278.18425066367
 20
26.72636116154999
 30
0.0
 40
4.049999999999999
  1
１
 41
0.95
  7
KCADTEXTSTANDARD
100
AcDbText
1001
Sigma
1000

  0
TEXT
  5
321
330
1F
100
AcDbEntity
  8
90-ScaleR0.4
  6
Continuous
 62
     7
370
    30
100
AcDbText
 10
266.55679596432
 20
22.91333938295
 30
0.0
 40
4.5
  1
１
 41
0.855
  7
KCADTEXTSTANDARD
100
AcDbText
1001
Sigma
1000

  0
TEXT
  5
323
330
1F
100
AcDbEntity
  8
90-ScaleR0.4
  6
Continuous
 62
     7
370
    30
100
AcDbText
 10
242.0270582668935
 20
30.19010889289998
 30
0.0
 40
4.5
  1
Ｃ０.１
 41
0.8023937520384787
  7
KCADTEXTSTANDARD
100
AcDbText
1001
Sigma
1000

  0
LINE
  5
325
330
1F
100
AcDbEntity
  8
90-ScaleR0.4
  6
Continuous
 62
     7
370
    30
100
AcDbLine
 10
134.8190063753
 20
17.43194192379999
 30
0.0
 11
134.8190063753
 21
47.43194192379998
 31
0.0
1001
Sigma
1000

  0
TEXT
  5
327
330
1F
100
AcDbEntity
  8
90-ScaleR0.4
  6
Continuous
 62
     7
370
    30
100
AcDbText
 10
235.6668214301805
 20
38.47586206894999
 30
0.0
 40
3.6
  1
処理
 41
1.02125000283122
  7
KCADTEXTSTANDARD
100
AcDbText
1001
Sigma
1000

  0
TEXT
  5
329
330
1F
100
AcDbEntity
  8
90-ScaleR0.4
  6
Continuous
 62
     7
370
    30
100
AcDbText
 10
31.71276480665001
 20
43.8507259528
 30
0.0
 40
2.033999999999999
  1
5
 41
0.577433628318584
  7
KCADTEXTSTANDARD
100
AcDbText
1001
Sigma
1000

  0
TEXT
  5
32B
330
1F
100
AcDbEntity
  8
90-ScaleR0.4
  6
Continuous
 62
     7
370
    30
100
AcDbText
 10
31.57780336705
 20
39.26905626134999
 30
0.0
 40
2.033999999999999
  1
4
 41
0.577433628318584
  7
KCADTEXTSTANDARD
100
AcDbText
1001
Sigma
1000

  0
TEXT
  5
32D
330
1F
100
AcDbEntity
  8
90-ScaleR0.4
  6
Continuous
 62
     7
370
    30
100
AcDbText
 10
31.84772624624998
 20
33.60934664244999
 30
0.0
 40
2.033999999999999
  1
3
 41
0.577433628318584
  7
KCADTEXTSTANDARD
100
AcDbText
1001
Sigma
1000

  0
TEXT
  5
32F
330
1F
100
AcDbEntity
  8
90-ScaleR0.4
  6
Continuous
 62
     7
370
    30
100
AcDbText
 10
31.84772624624998
 20
28.75816696914998
 30
0.0
 40
2.033999999999999
  1
2
 41
0.577433628318584
  7
KCADTEXTSTANDARD
100
AcDbText
1001
Sigma
1000

  0
TEXT
  5
331
330
1F
100
AcDbEntity
  8
90-ScaleR0.4
  6
Continuous
 62
     7
370
    30
100
AcDbText
 10
31.57780336705
 20
24.04174228674998
 30
0.0
 40
2.033999999999999
  1
1
 41
0.577433628318584
  7
KCADTEXTSTANDARD
100
AcDbText
1001
Sigma
1000

  0
LINE
  5
333
330
1F
100
AcDbEntity
  8
90-ScaleR0.4
  6
Continuous
 62
     7
370
    30
100
AcDbLine
 10
260.819006761233
 20
37.43194192379999
 30
0.0
 11
260.819006761233
 21
17.48820326680001
 31
0.0
1001
Sigma
1000

  0
LINE
  5
335
330
1F
100
AcDbEntity
  8
90-ScaleR0.4
  6
Continuous
 62
     7
370
    15
100
AcDbLine
 10
260.819006761233
 20
32.43194192379999
 30
0.0
 11
290.819006761235
 21
32.43194192379999
 31
0.0
1001
Sigma
1000

  0
TEXT
  5
337
330
1F
100
AcDbEntity
  8
90-ScaleR0.4
  6
Continuous
 62
     7
370
    30
100
AcDbText
 10
279.370224528175
 20
33.2063520871
 30
0.0
 40
3.6
  1
尺度
 41
1.02125000283122
  7
KCADTEXTSTANDARD
100
AcDbText
1001
Sigma
1000

  0
TEXT
  5
339
330
1F
100
AcDbEntity
  8
90-ScaleR0.4
  6
Continuous
 62
     7
370
    30
100
AcDbText
 10
264.2545432942399
 20
33.2063520871
 30
0.0
 40
3.6
  1
個数
 41
1.02125000283122
  7
KCADTEXTSTANDARD
100
AcDbText
1001
Sigma
1000

  0
TEXT
  5
33B
330
1F
100
AcDbEntity
  8
90-ScaleR0.4
  6
Continuous
 62
     7
370
    30
100
AcDbText
 10
38.4396252236
 20
18.19818511794998
 30
0.0
 40
3.6
  1
年月日
 41
1.04500000377496
  7
KCADTEXTSTANDARD
100
AcDbText
1001
Sigma
1000

  0
TEXT
  5
33D
330
1F
100
AcDbEntity
  8
90-ScaleR0.4
  6
Continuous
 62
     7
370
    30
100
AcDbText
 10
55.75421837015001
 20
18.46769509979999
 30
0.0
 40
3.6
  1
担当
 41
1.02125000283122
  7
KCADTEXTSTANDARD
100
AcDbText
1001
Sigma
1000

  0
TEXT
  5
33F
330
1F
100
AcDbEntity
  8
90-ScaleR0.4
  6
Continuous
 62
     7
370
    30
100
AcDbText
 10
29.16822753154999
 20
18.91769509979999
 30
0.0
 40
2.7
  1
符号
 41
1.013333334277073
  7
KCADTEXTSTANDARD
100
AcDbText
1001
Sigma
1000

  0
TEXT
  5
341
330
1F
100
AcDbEntity
  8
90-ScaleR0.4
  6
Continuous
 62
     7
370
    30
100
AcDbText
 10
84.75645015410002
 20
18.19818511794998
 30
0.0
 40
3.6
  1
訂  正  記  事
 41
0.7505000033974647
  7
KCADTEXTSTANDARD
100
AcDbText
1001
Sigma
1000

  0
LINE
  5
343
330
1F
100
AcDbEntity
  8
90-ScaleR0.4
  6
Continuous
 62
     7
370
    15
100
AcDbLine
 10
200.36302619882
 20
17.43194192379999
 30
0.0
 11
200.36302619882
 21
47.43194192379998
 31
0.0
1001
Sigma
1000

  0
TEXT
  5
345
330
1F
100
AcDbEntity
  8
90-ScaleR0.4
  6
Continuous
 62
     7
370
    30
100
AcDbText
 10
235.6372452482055
 20
33.2063520871
 30
0.0
 40
3.6
  1
面
 41
0.95
  7
KCADTEXTSTANDARD
100
AcDbText
1001
Sigma
1000

  0
LINE
  5
347
330
1F
100
AcDbEntity
  8
90-ScaleR0.4
  6
Continuous
 62
     7
370
    30
100
AcDbLine
 10
234.8190065201555
 20
17.43194192379999
 30
0.0
 11
234.8190065201555
 21
47.43194192379998
 31
0.0
1001
Sigma
1000

  0
LINE
  5
349
330
1F
100
AcDbEntity
  8
90-ScaleR0.4
  6
Continuous
 62
     7
370
    30
100
AcDbLine
 10
275.819006761235
 20
17.48820326680001
 30
0.0
 11
275.819006761235
 21
37.43194192379999
 31
0.0
1001
Sigma
1000

  0
LINE
  5
34B
330
1F
100
AcDbEntity
  8
90-ScaleR0.4
  6
Continuous
 62
     7
370
    30
100
AcDbLine
 10
279.41882254347
 20
21.12369774049999
 30
0.0
 11
286.970676149205
 21
28.67555134625
 31
0.0
1001
Sigma
1000

  0
LINE
  5
34D
330
1F
100
AcDbEntity
  8
90-ScaleR0.4
  6
Continuous
 62
     7
370
    15
100
AcDbLine
 10
240.044198427471
 20
27.43194192379998
 30
0.0
 11
240.044198427471
 21
37.43194192379999
 31
0.0
1001
Sigma
1000

  0
TEXT
  5
34F
330
1F
100
AcDbEntity
  8
90-ScaleR0.4
  6
Continuous
 62
     7
370
    30
100
AcDbText
 10
235.6372452482055
 20
28.20635208709998
 30
0.0
 40
3.6
  1
取
 41
0.95
  7
KCADTEXTSTANDARD
100
AcDbText
1001
Sigma
1000

  0
TEXT
  5
351
330
1F
100
AcDbEntity
  8
90-ScaleR0.4
  6
Continuous
 62
     7
370
    30
100
AcDbText
 10
141.80210074895
 20
40.29800362975
 30
0.0
 40
3.6
  1
１９９６年４月２６日
 41
1.078250005096197
  7
KCADTEXTSTANDARD
100
AcDbText
1001
Sigma
1000

  0
LINE
  5
353
330
1F
100
AcDbEntity
  8
90-ScaleR0.4
  6
Continuous
 62
     7
370
    30
100
AcDbLine
 10
410.8190067612301
 20
47.43194192379998
 30
0.0
 11
27.8189987163
 21
47.43194192379998
 31
0.0
1001
Sigma
1000

  0
TEXT
  5
355
330
1F
100
AcDbEntity
  8
90-ScaleR0.4
  6
Continuous
 62
     7
370
    30
100
AcDbText
 10
195.8573706718249
 20
23.2344827586
 30
0.0
 40
3.6
  1
公
 41
0.95
  7
KCADTEXTSTANDARD
100
AcDbText
1001
Sigma
1000

  0
TEXT
  5
357
330
1F
100
AcDbEntity
  8
90-ScaleR0.4
  6
Continuous
 62
     7
370
    30
100
AcDbText
 10
195.8573706718249
 20
18.2344827586
 30
0.0
 40
3.6
  1
差
 41
0.95
  7
KCADTEXTSTANDARD
100
AcDbText
1001
Sigma
1000

  0
LINE
  5
359
330
1F
100
AcDbEntity
  8
90-ScaleR0.4
  6
Continuous
 62
     7
370
    15
100
AcDbLine
 10
211.0000000000001
 20
15.43194192379999
 30
0.0
 11
211.0000000000001
 21
17.51814882035
 31
0.0
1001
Sigma
1000

  0
LINE
  5
35B
330
1F
100
AcDbEntity
  8
90-ScaleR0.4
  6
Continuous
 62
     7
370
    30
100
AcDbLine
 10
134.8190063753
 20
37.43194192379999
 30
0.0
 11
290.819006761235
 21
37.43194192379999
 31
0.0
1001
Sigma
1000

  0
TEXT
  5
35D
330
1F
100
AcDbEntity
  8
90-ScaleR0.4
  6
Continuous
 62
     7
370
    30
100
AcDbText
 10
138.09066116025
 20
33.35812159709999
 30
0.0
 40
3.6
  1
設計
 41
1.02125000283122
  7
KCADTEXTSTANDARD
100
AcDbText
1001
Sigma
1000

  0
TEXT
  5
35F
330
1F
100
AcDbEntity
  8
90-ScaleR0.4
  6
Continuous
 62
     7
370
    30
100
AcDbText
 10
153.4762652733499
 20
33.35812159709999
 30
0.0
 40
3.6
  1
製図
 41
1.02125000283122
  7
KCADTEXTSTANDARD
100
AcDbText
1001
Sigma
1000

  0
TEXT
  5
361
330
1F
100
AcDbEntity
  8
90-ScaleR0.4
  6
Continuous
 62
     7
370
    30
100
AcDbText
 10
167.91713930936
 20
33.35812159709999
 30
0.0
 40
3.6
  1
検図
 41
1.02125000283122
  7
KCADTEXTSTANDARD
100
AcDbText
1001
Sigma
1000

  0
TEXT
  5
363
330
1F
100
AcDbEntity
  8
90-ScaleR0.4
  6
Continuous
 62
     7
370
    30
100
AcDbText
 10
182.7628976641149
 20
33.35812159709999
 30
0.0
 40
3.6
  1
承認
 41
1.02125000283122
  7
KCADTEXTSTANDARD
100
AcDbText
1001
Sigma
1000

  0
LINE
  5
365
330
1F
100
AcDbEntity
  8
90-ScaleR0.4
  6
Continuous
 62
     7
370
    30
100
AcDbLine
 10
290.819006761235
 20
17.43194192379999
 30
0.0
 11
290.819006761235
 21
47.43194192379998
 31
0.0
1001
Sigma
1000

  0
LINE
  5
367
330
1F
100
AcDbEntity
  8
90-ScaleR0.4
  6
Continuous
 62
     7
370
    15
100
AcDbLine
 10
300.819006761235
 20
47.43194192379998
 30
0.0
 11
300.819006761235
 21
17.43194192379999
 31
0.0
1001
Sigma
1000

  0
LINE
  5
369
330
1F
100
AcDbEntity
  8
90-ScaleR0.4
  6
Continuous
 62
     7
370
    15
100
AcDbLine
 10
35.81899873980001
 20
17.43194192379999
 30
0.0
 11
35.81899873980001
 21
47.43194192379998
 31
0.0
1001
Sigma
1000

  0
LINE
  5
36B
330
1F
100
AcDbEntity
  8
90-ScaleR0.4
  6
Continuous
 62
     7
370
    15
100
AcDbLine
 10
134.8190063753
 20
32.43194192379999
 30
0.0
 11
194.819006375325
 21
32.43194192379999
 31
0.0
1001
Sigma
1000

  0
LINE
  5
36D
330
1F
100
AcDbEntity
  8
90-ScaleR0.4
  6
Continuous
 62
     7
370
    30
100
AcDbLine
 10
149.8190063753
 20
17.43194192379999
 30
0.0
 11
149.8190063753
 21
37.43194192379999
 31
0.0
1001
Sigma
1000

  0
LINE
  5
36F
330
1F
100
AcDbEntity
  8
90-ScaleR0.4
  6
Continuous
 62
     7
370
    30
100
AcDbLine
 10
164.8190063753249
 20
17.43194192379999
 30
0.0
 11
164.8190063753249
 21
37.43194192379999
 31
0.0
1001
Sigma
1000

  0
LINE
  5
371
330
1F
100
AcDbEntity
  8
90-ScaleR0.4
  6
Continuous
 62
     7
370
    30
100
AcDbLine
 10
179.819006375325
 20
37.43194192379999
 30
0.0
 11
179.819006375325
 21
17.43194192379999
 31
0.0
1001
Sigma
1000

  0
LINE
  5
373
330
1F
100
AcDbEntity
  8
90-ScaleR0.4
  6
Continuous
 62
     7
370
    15
100
AcDbLine
 10
53.81899953979999
 20
17.43194192379999
 30
0.0
 11
53.81899953979999
 21
47.43194192379998
 31
0.0
1001
Sigma
1000

  0
LINE
  5
375
330
1F
100
AcDbEntity
  8
90-ScaleR0.4
  6
Continuous
 62
     7
370
    15
100
AcDbLine
 10
27.8189987163
 20
22.43194192379998
 30
0.0
 11
134.8190063753
 21
22.43194192379998
 31
0.0
1001
Sigma
1000

  0
TEXT
  5
377
330
1F
100
AcDbEntity
  8
90-ScaleR0.4
  6
Continuous
 62
     7
370
    30
100
AcDbText
 10
195.84238913154
 20
33.36923774954999
 30
0.0
 40
3.6
  1
仕
 41
0.95
  7
KCADTEXTSTANDARD
100
AcDbText
1001
Sigma
1000

  0
LINE
  5
379
330
1F
100
AcDbEntity
  8
90-ScaleR0.4
  6
Continuous
 62
     7
370
    15
100
AcDbLine
 10
27.8189987163
 20
27.43194192379998
 30
0.0
 11
134.8190063753
 21
27.43194192379998
 31
0.0
1001
Sigma
1000

  0
TEXT
  5
37B
330
1F
100
AcDbEntity
  8
90-ScaleR0.4
  6
Continuous
 62
     7
370
    30
100
AcDbText
 10
195.84238913154
 20
28.36923774954999
 30
0.0
 40
3.6
  1
上
 41
0.95
  7
KCADTEXTSTANDARD
100
AcDbText
1001
Sigma
1000

  0
LINE
  5
37D
330
1F
100
AcDbEntity
  8
90-ScaleR0.4
  6
Continuous
 62
     7
370
    15
100
AcDbLine
 10
244.8190065201555
 20
37.43194192379999
 30
0.0
 11
244.8190065201555
 21
47.43194192379998
 31
0.0
1001
Sigma
1000

  0
TEXT
  5
37F
330
1F
100
AcDbEntity
  8
90-ScaleR0.4
  6
Continuous
 62
     7
370
    30
100
AcDbText
 10
235.9367443093575
 20
42.93684210524999
 30
0.0
 40
3.6
  1
表面
 41
1.02125000283122
  7
KCADTEXTSTANDARD
100
AcDbText
1001
Sigma
1000

  0
LINE
  5
381
330
1F
100
AcDbEntity
  8
90-ScaleR0.4
  6
Continuous
 62
     7
370
    15
100
AcDbLine
 10
27.8189987163
 20
32.43194192379999
 30
0.0
 11
134.8190063753
 21
32.43194192379999
 31
0.0
1001
Sigma
1000

  0
LINE
  5
383
330
1F
100
AcDbEntity
  8
90-ScaleR0.4
  6
Continuous
 62
     7
370
    15
100
AcDbLine
 10
27.8189987163
 20
37.43194192379999
 30
0.0
 11
134.8190063753
 21
37.43194192379999
 31
0.0
1001
Sigma
1000

  0
LINE
  5
385
330
1F
100
AcDbEntity
  8
90-ScaleR0.4
  6
Continuous
 62
     7
370
    15
100
AcDbLine
 10
65.81899986114999
 20
17.43194192379999
 30
0.0
 11
65.81899986114999
 21
47.43194192379998
 31
0.0
1001
Sigma
1000

  0
LINE
  5
387
330
1F
100
AcDbEntity
  8
90-ScaleR0.4
  6
Continuous
 62
     7
370
    15
100
AcDbLine
 10
27.8189987163
 20
42.43194192379998
 30
0.0
 11
134.8190063753
 21
42.43194192379998
 31
0.0
1001
Sigma
1000

  0
LINE
  5
38B
330
1F
100
AcDbEntity
  8
90-ScaleR0.4
  6
Continuous
 62
   134
370
    15
100
AcDbLine
 10
211.0
 20
285.931941923775
 30
0.0
 11
211.0
 21
288.431941923775
 31
0.0
1001
Sigma
1000

  0
LINE
  5
38D
330
1F
100
AcDbEntity
  8
90-ScaleR0.4
  6
Continuous
 62
     7
370
    15
100
AcDbLine
 10
28.3189987163
 20
148.5
 30
0.0
 11
25.8189987163
 21
148.5
 31
0.0
1001
Sigma
1000

  0
LINE
  5
38F
330
1F
100
AcDbEntity
  8
90-ScaleR0.4
  6
Continuous
 62
     7
370
    15
100
AcDbLine
 10
409.81900676123
 20
148.5
 30
0.0
 11
412.31900676123
 21
148.5
 31
0.0
1001
Sigma
1000

  0
LINE
  5
391
330
1F
100
AcDbEntity
  8
0
  6
CENTER
 62
     7
370
    15
100
AcDbLine
 10
70.66539196940722
 20
148.4999999999996
 30
0.0
 11
254.5239887111947
 21
148.4999999999996
 31
0.0
1001
Sigma
1000

  0
LINE
  5
393
330
1F
100
AcDbEntity
  8
0
  6
CENTER
 62
     7
370
    15
100
AcDbLine
 10
252.0999999999998
 20
148.5000000000001
 30
0.0
 11
293.388805268109
 21
148.5000000000001
 31
0.0
1001
Sigma
1000

  0
LINE
  5
396
330
1F
100
AcDbEntity
  8
2
  6
Continuous
 62
     7
370
    30
100
AcDbLine
 10
152.3351834430854
 20
157.2000000000003
 30
0.0
 11
152.3351834430854
 21
148.5000000000003
 31
0.0
1001
Sigma
1000

  0
LINE
  5
398
330
1F
100
AcDbEntity
  8
2
  6
Continuous
 62
     7
370
    30
100
AcDbLine
 10
152.6351834430854
 20
157.5000000000003
 30
0.0
 11
168.3351834430854
 21
157.5000000000003
 31
0.0
1001
Sigma
1000

  0
LINE
  5
39A
330
1F
100
AcDbEntity
  8
2
  6
Continuous
 62
     7
370
    30
100
AcDbLine
 10
168.3351834430854
 20
148.5000000000003
 30
0.0
 11
168.3351834430854
 21
157.5000000000003
 31
0.0
1001
Sigma
1000

  0
LINE
  5
39C
330
1F
100
AcDbEntity
  8
2
  6
Continuous
 62
     7
370
    30
100
AcDbLine
 10
152.3351834430854
 20
139.7999999999998
 30
0.0
 11
152.3351834430854
 21
148.4999999999998
 31
0.0
1001
Sigma
1000

  0
LINE
  5
39E
330
1F
100
AcDbEntity
  8
2
  6
Continuous
 62
     7
370
    30
100
AcDbLine
 10
152.6351834430854
 20
139.4999999999998
 30
0.0
 11
168.3351834430854
 21
139.4999999999998
 31
0.0
1001
Sigma
1000

  0
LINE
  5
3A0
330
1F
100
AcDbEntity
  8
2
  6
Continuous
 62
     7
370
    30
100
AcDbLine
 10
168.3351834430854
 20
148.4999999999998
 30
0.0
 11
168.3351834430854
 21
139.4999999999998
 31
0.0
1001
Sigma
1000

  0
LINE
  5
3A2
330
1F
100
AcDbEntity
  8
2
  6
Continuous
 62
     7
370
    30
100
AcDbLine
 10
168.3351834430855
 20
157.2500000000002
 30
0.0
 11
174.3351834430854
 21
157.2500000000002
 31
0.0
1001
Sigma
1000

  0
LINE
  5
3A4
330
1F
100
AcDbEntity
  8
2
  6
Continuous
 62
     7
370
    30
100
AcDbLine
 10
174.3351834430854
 20
148.5000000000002
 30
0.0
 11
174.3351834430854
 21
157.5000000000003
 31
0.0
1001
Sigma
1000

  0
LINE
  5
3A6
330
1F
100
AcDbEntity
  8
2
  6
Continuous
 62
     7
370
    30
100
AcDbLine
 10
174.3351834430854
 20
148.4999999999999
 30
0.0
 11
174.3351834430854
 21
139.4999999999998
 31
0.0
1001
Sigma
1000

  0
LINE
  5
3A8
330
1F
100
AcDbEntity
  8
2
  6
Continuous
 62
     7
370
    30
100
AcDbLine
 10
168.3351834430855
 20
139.7499999999998
 30
0.0
 11
174.3351834430854
 21
139.7499999999998
 31
0.0
1001
Sigma
1000

  0
LINE
  5
3AA
330
1F
100
AcDbEntity
  8
2
  6
Continuous
 62
     7
370
    30
100
AcDbLine
 10
174.3351834430854
 20
157.5000000000003
 30
0.0
 11
185.3351834430855
 21
157.5000000000003
 31
0.0
1001
Sigma
1000

  0
LINE
  5
3AC
330
1F
100
AcDbEntity
  8
2
  6
Continuous
 62
     7
370
    30
100
AcDbLine
 10
185.3351834430855
 20
157.5000000000003
 30
0.0
 11
185.3351834430854
 21
139.4999999999998
 31
0.0
1001
Sigma
1000

  0
LINE
  5
3AE
330
1F
100
AcDbEntity
  8
2
  6
Continuous
 62
     7
370
    30
100
AcDbLine
 10
185.3351834430854
 20
139.4999999999998
 30
0.0
 11
174.3351834430854
 21
139.4999999999998
 31
0.0
1001
Sigma
1000

  0
LINE
  5
3B1
330
1F
100
AcDbEntity
  8
3
  6
Continuous
 62
     7
370
    30
100
AcDbLine
 10
82.16871134484875
 20
149.4335279017636
 30
0.0
 11
80.19317042292963
 21
147.4579869798445
 31
0.0
1001
Sigma
1000

  0
LINE
  5
3B3
330
1F
100
AcDbEntity
  8
3
  6
Continuous
 62
     7
370
    30
100
AcDbLine
 10
80.3016555413221
 20
149.4335279017636
 30
0.0
 11
82.27719646324121
 21
147.4579869798445
 31
0.0
1001
Sigma
1000

  0
LINE
  5
3B5
330
1F
100
AcDbEntity
  8
2
  6
Continuous
 62
     7
370
    30
100
AcDbLine
 10
185.3351834430854
 20
157.5000000000003
 30
0.0
 11
256.4351834430853
 21
157.5000000000003
 31
0.0
1001
Sigma
1000

  0
LINE
  5
3B7
330
1F
100
AcDbEntity
  8
2
  6
Continuous
 62
     7
370
    30
100
AcDbLine
 10
185.3351834430854
 20
139.4999999999998
 30
0.0
 11
256.4351834430853
 21
139.4999999999998
 31
0.0
1001
Sigma
1000

  0
LINE
  5
3B9
330
1F
100
AcDbEntity
  8
2
  6
Continuous
 62
     7
370
    30
100
AcDbLine
 10
256.4351834430853
 20
162.0
 30
0.0
 11
256.4351834430853
 21
148.5000000000001
 31
0.0
1001
Sigma
1000

  0
LINE
  5
3BB
330
1F
100
AcDbEntity
  8
2
  6
Continuous
 62
     7
370
    30
100
AcDbLine
 10
256.4351834430853
 20
135.0
 30
0.0
 11
256.4351834430853
 21
148.5000000000001
 31
0.0
1001
Sigma
1000

  0
LINE
  5
3BD
330
1F
100
AcDbEntity
  8
2
  6
Continuous
 62
     7
370
    30
100
AcDbLine
 10
256.9351834430853
 20
162.5
 30
0.0
 11
267.4351834430853
 21
162.5
 31
0.0
1001
Sigma
1000

  0
LINE
  5
3BF
330
1F
100
AcDbEntity
  8
2
  6
Continuous
 62
     7
370
    30
100
AcDbLine
 10
256.9351834430853
 20
134.5
 30
0.0
 11
267.4351834430853
 21
134.5
 31
0.0
1001
Sigma
1000

  0
LINE
  5
3C1
330
1F
100
AcDbEntity
  8
2
  6
Continuous
 62
     7
370
    30
100
AcDbLine
 10
268.4351834430852
 20
135.5
 30
0.0
 11
268.4351834430852
 21
161.5
 31
0.0
1001
Sigma
1000

  0
LINE
  5
3C3
330
1F
100
AcDbEntity
  8
3
  6
Continuous
 62
     7
370
    30
100
AcDbLine
 10
286.8947113448486
 20
149.4335279017634
 30
0.0
 11
284.9191704229294
 21
147.4579869798442
 31
0.0
1001
Sigma
1000

  0
LINE
  5
3C5
330
1F
100
AcDbEntity
  8
3
  6
Continuous
 62
     7
370
    30
100
AcDbLine
 10
285.0276555413219
 20
149.4335279017634
 30
0.0
 11
287.003196463241
 21
147.4579869798443
 31
0.0
1001
Sigma
1000

  0
LINE
  5
3C7
330
1F
100
AcDbEntity
  8
2
  6
Continuous
 62
     7
370
    30
100
AcDbLine
 10
215.3351834430854
 20
157.5000000000003
 30
0.0
 11
215.3351834430854
 21
139.4999999999998
 31
0.0
1001
Sigma
1000

  0
LINE
  5
3C9
330
1F
100
AcDbEntity
  8
2
  6
Continuous
 62
     7
370
    30
100
AcDbLine
 10
269.2351834430852
 20
161.1500000000001
 30
0.0
 11
271.916442074818
 21
161.1500000000001
 31
0.0
1001
Sigma
1000

  0
LINE
  5
3CB
330
1F
100
AcDbEntity
  8
2
  6
Continuous
 62
     7
370
    30
100
AcDbLine
 10
272.4351834430852
 20
148.5000000000001
 30
0.0
 11
272.4351834430852
 21
160.6312586317328
 31
0.0
1001
Sigma
1000

  0
LINE
  5
3CD
330
1F
100
AcDbEntity
  8
2
  6
Continuous
 62
     7
370
    30
100
AcDbLine
 10
271.1518579492002
 20
160.6312586317328
 30
0.0
 11
272.4351834430852
 21
160.6312586317328
 31
0.0
1001
Sigma
1000

  0
LINE
  5
3CF
330
1F
100
AcDbEntity
  8
2
  6
Continuous
 62
     7
370
    30
100
AcDbLine
 10
269.2351834430853
 20
148.5000000000001
 30
0.0
 11
269.2351834430852
 21
161.1500000000001
 31
0.0
1001
Sigma
1000

  0
LINE
  5
3D1
330
1F
100
AcDbEntity
  8
2
  6
Continuous
 62
     7
370
    30
100
AcDbLine
 10
271.1518579492002
 20
160.6312586317328
 30
0.0
 11
268.4351834430852
 21
160.6312586317328
 31
0.0
1001
Sigma
1000

  0
LINE
  5
3D3
330
1F
100
AcDbEntity
  8
2
  6
Continuous
 62
     7
370
    30
100
AcDbLine
 10
267.4351834430853
 20
162.5
 30
0.0
 11
268.4351834430852
 21
161.5
 31
0.0
1001
Sigma
1000

  0
LINE
  5
3D5
330
1F
100
AcDbEntity
  8
2
  6
Continuous
 62
     7
370
    30
100
AcDbLine
 10
267.4351834430853
 20
162.5
 30
0.0
 11
267.4351834430853
 21
134.5
 31
0.0
1001
Sigma
1000

  0
LINE
  5
3D7
330
1F
100
AcDbEntity
  8
2
  6
Continuous
 62
     7
370
    30
100
AcDbLine
 10
268.4351834430852
 20
135.5
 30
0.0
 11
267.4351834430853
 21
134.5
 31
0.0
1001
Sigma
1000

  0
LINE
  5
3D9
330
1F
100
AcDbEntity
  8
2
  6
Continuous
 62
     7
370
    30
100
AcDbLine
 10
256.4351834430853
 20
162.0
 30
0.0
 11
256.9351834430853
 21
162.5
 31
0.0
1001
Sigma
1000

  0
LINE
  5
3DB
330
1F
100
AcDbEntity
  8
2
  6
Continuous
 62
     7
370
    30
100
AcDbLine
 10
256.9351834430853
 20
162.5
 30
0.0
 11
256.9351834430853
 21
134.5
 31
0.0
1001
Sigma
1000

  0
LINE
  5
3DD
330
1F
100
AcDbEntity
  8
2
  6
Continuous
 62
     7
370
    30
100
AcDbLine
 10
256.4351834430853
 20
135.0
 30
0.0
 11
256.9351834430853
 21
134.5
 31
0.0
1001
Sigma
1000

  0
LINE
  5
3DF
330
1F
100
AcDbEntity
  8
2
  6
Continuous
 62
     7
370
    30
100
AcDbLine
 10
272.4351834430852
 20
160.6312586317328
 30
0.0
 11
271.916442074818
 21
161.1500000000001
 31
0.0
1001
Sigma
1000

  0
LINE
  5
3E1
330
1F
100
AcDbEntity
  8
2
  6
Continuous
 62
     7
370
    30
100
AcDbLine
 10
271.916442074818
 20
161.1500000000001
 30
0.0
 11
271.916442074818
 21
148.5000000000001
 31
0.0
1001
Sigma
1000

  0
LINE
  5
3E3
330
1F
100
AcDbEntity
  8
2
  6
Continuous
 62
     7
370
    30
100
AcDbLine
 10
269.2351834430852
 20
135.85
 30
0.0
 11
271.916442074818
 21
135.85
 31
0.0
1001
Sigma
1000

  0
LINE
  5
3E5
330
1F
100
AcDbEntity
  8
2
  6
Continuous
 62
     7
370
    30
100
AcDbLine
 10
272.4351834430852
 20
148.5000000000001
 30
0.0
 11
272.4351834430852
 21
136.3687413682673
 31
0.0
1001
Sigma
1000

  0
LINE
  5
3E7
330
1F
100
AcDbEntity
  8
2
  6
Continuous
 62
     7
370
    30
100
AcDbLine
 10
272.4351834430852
 20
136.3687413682673
 30
0.0
 11
268.4351834430852
 21
136.3687413682673
 31
0.0
1001
Sigma
1000

  0
LINE
  5
3E9
330
1F
100
AcDbEntity
  8
2
  6
Continuous
 62
     7
370
    30
100
AcDbLine
 10
269.2351834430853
 20
148.5000000000001
 30
0.0
 11
269.2351834430852
 21
135.85
 31
0.0
1001
Sigma
1000

  0
LINE
  5
3EB
330
1F
100
AcDbEntity
  8
2
  6
Continuous
 62
     7
370
    30
100
AcDbLine
 10
272.4351834430852
 20
136.3687413682673
 30
0.0
 11
271.916442074818
 21
135.85
 31
0.0
1001
Sigma
1000

  0
LINE
  5
3ED
330
1F
100
AcDbEntity
  8
2
  6
Continuous
 62
     7
370
    30
100
AcDbLine
 10
271.916442074818
 20
135.85
 30
0.0
 11
271.916442074818
 21
148.5000000000001
 31
0.0
1001
Sigma
1000

  0
LINE
  5
3EF
330
1F
100
AcDbEntity
  8
2
  6
Continuous
 62
     7
370
    30
100
AcDbLine
 10
152.3351834430854
 20
157.2000000000003
 30
0.0
 11
152.6351834430854
 21
157.5000000000003
 31
0.0
1001
Sigma
1000

  0
LINE
  5
3F1
330
1F
100
AcDbEntity
  8
2
  6
Continuous
 62
     7
370
    30
100
AcDbLine
 10
152.3351834430854
 20
139.7999999999998
 30
0.0
 11
152.6351834430854
 21
139.4999999999998
 31
0.0
1001
Sigma
1000

  0
LINE
  5
3F5
102
{ACAD_REACTORS
330
3F3
102
}
330
1F
100
AcDbEntity
  8
4
  6
Continuous
 62
     7
370
    15
100
AcDbLine
 10
270.5219190968954
 20
135.413816526891
 30
0.0
 11
260.1598048703867
 21
115.6106648940074
 31
0.0
1001
Sigma
1000

  0
INSERT
  5
3F7
102
{ACAD_REACTORS
330
3F3
102
}
330
1F
100
AcDbEntity
  8
4
  6
Continuous
 62
     7
370
    15
100
AcDbBlockReference
  2
_OPEN30
 10
270.5219190968954
 20
135.413816526891
 30
0.0
 41
3.0
 42
3.0
 43
3.0
 50
62.37892501692484
1001
Sigma
1000
_BRRS
  0
LINE
  5
3F9
330
1F
100
AcDbEntity
  8
4
  6
Continuous
 62
     7
370
    15
100
AcDbLine
 10
260.1598048703866
 20
115.6106648940074
 30
0.0
 11
315.2926152398869
 21
115.6106648940074
 31
0.0
1001
Sigma
1000

  0
TEXT
  5
3FB
330
1F
100
AcDbEntity
  8
4
  6
Continuous
 62
     7
370
    30
100
AcDbText
 10
266.3951552210722
 20
116.6680498288666
 30
0.0
 40
4.5
  1
Ｍ２５．４　３２山
 41
1.027206374804178
  7
KCADTEXTSTANDARD
100
AcDbText
1001
Sigma
1000

  0
TEXT
  5
3FD
330
1F
100
AcDbEntity
  8
0
  6
Continuous
 62
     7
370
    30
100
AcDbText
 10
311.7280589276285
 20
22.34336585655412
 30
0.0
 40
4.5
  1
ＫＣＭ－１
 41
1.01948573732376
  7
KCADTEXTSTANDARD
100
AcDbText
1001
Sigma
1000

  0
TEXT
  5
3FF
330
1F
100
AcDbEntity
  8
0
  6
Continuous
 62
     7
370
    30
100
AcDbText
 10
366.7729599656002
 20
22.06342693857094
 30
0.0
 40
4.5
  1
TSTM-061
 41
1.026000025197863
  7
KCADTEXTSTANDARD
100
AcDbText
1001
Sigma
1000

  0
TEXT
  5
401
330
1F
100
AcDbEntity
  8
0
  6
Continuous
 62
     7
370
    30
100
AcDbText
 10
318.1180572144984
 20
37.08331503289081
 30
0.0
 40
4.5
  1
外観図
 41
1.007904781103134
  7
KCADTEXTSTANDARD
100
AcDbText
1001
Sigma
1000

  0
CIRCLE
  5
403
330
1F
100
AcDbEntity
  8
2
  6
Continuous
 62
     7
370
    15
100
AcDbCircle
 10
260.4351834430853
 20
148.5000000000001
 30
0.0
 40
1.5
1001
Sigma
1000

  0
CIRCLE
  5
405
330
1F
100
AcDbEntity
  8
2
  6
Continuous
 62
     7
370
    15
100
AcDbCircle
 10
260.4351834430853
 20
148.5000000000001
 30
0.0
 40
1.0
1001
Sigma
1000

  0
LINE
  5
408
102
{ACAD_REACTORS
330
407
102
}
330
1F
100
AcDbEntity
  8
90-ScaleR0.4
  6
Continuous
 62
     7
370
    15
100
AcDbLine
 10
32.1352874227
 20
46.8197959774
 30
0.0
 11
34.1352874227
 21
43.35569436225
 31
0.0
1001
Sigma
1000

  0
LINE
  5
40A
102
{ACAD_REACTORS
330
407
102
}
330
1F
100
AcDbEntity
  8
90-ScaleR0.4
  6
Continuous
 62
     7
370
    15
100
AcDbLine
 10
34.1352874227
 20
43.35569436225
 30
0.0
 11
30.1352874227
 21
43.35569436225
 31
0.0
1001
Sigma
1000

  0
LINE
  5
40C
102
{ACAD_REACTORS
330
407
102
}
330
1F
100
AcDbEntity
  8
90-ScaleR0.4
  6
Continuous
 62
     7
370
    15
100
AcDbLine
 10
30.1352874227
 20
43.35569436225
 30
0.0
 11
32.1352874227
 21
46.8197959774
 31
0.0
1001
Sigma
1000

  0
LINE
  5
40F
102
{ACAD_REACTORS
330
40E
102
}
330
1F
100
AcDbEntity
  8
90-ScaleR0.4
  6
Continuous
 62
     7
370
    15
100
AcDbLine
 10
32.1352874227
 20
41.96861630409998
 30
0.0
 11
34.1352874227
 21
38.50451468894999
 31
0.0
1001
Sigma
1000

  0
LINE
  5
411
102
{ACAD_REACTORS
330
40E
102
}
330
1F
100
AcDbEntity
  8
90-ScaleR0.4
  6
Continuous
 62
     7
370
    15
100
AcDbLine
 10
34.1352874227
 20
38.50451468894999
 30
0.0
 11
30.1352874227
 21
38.50451468894999
 31
0.0
1001
Sigma
1000

  0
LINE
  5
413
102
{ACAD_REACTORS
330
40E
102
}
330
1F
100
AcDbEntity
  8
90-ScaleR0.4
  6
Continuous
 62
     7
370
    15
100
AcDbLine
 10
30.1352874227
 20
38.50451468894999
 30
0.0
 11
32.1352874227
 21
41.96861630409998
 31
0.0
1001
Sigma
1000

  0
LINE
  5
416
102
{ACAD_REACTORS
330
415
102
}
330
1F
100
AcDbEntity
  8
90-ScaleR0.4
  6
Continuous
 62
     7
370
    15
100
AcDbLine
 10
29.86536454349999
 20
23.41195570529998
 30
0.0
 11
31.86536454349999
 21
26.87605732039997
 31
0.0
1001
Sigma
1000

  0
LINE
  5
418
102
{ACAD_REACTORS
330
415
102
}
330
1F
100
AcDbEntity
  8
90-ScaleR0.4
  6
Continuous
 62
     7
370
    15
100
AcDbLine
 10
33.86536454349999
 20
23.41195570529998
 30
0.0
 11
29.86536454349999
 21
23.41195570529998
 31
0.0
1001
Sigma
1000

  0
LINE
  5
41A
102
{ACAD_REACTORS
330
415
102
}
330
1F
100
AcDbEntity
  8
90-ScaleR0.4
  6
Continuous
 62
     7
370
    15
100
AcDbLine
 10
31.86536454349999
 20
26.87605732039997
 30
0.0
 11
33.86536454349999
 21
23.41195570529998
 31
0.0
1001
Sigma
1000

  0
LINE
  5
41D
102
{ACAD_REACTORS
330
41C
102
}
330
1F
100
AcDbEntity
  8
90-ScaleR0.4
  6
Continuous
 62
     7
370
    15
100
AcDbLine
 10
32.1352874227
 20
31.72723699375
 30
0.0
 11
34.1352874227
 21
28.26313537859998
 31
0.0
1001
Sigma
1000

  0
LINE
  5
41F
102
{ACAD_REACTORS
330
41C
102
}
330
1F
100
AcDbEntity
  8
90-ScaleR0.4
  6
Continuous
 62
     7
370
    15
100
AcDbLine
 10
34.1352874227
 20
28.26313537859998
 30
0.0
 11
30.1352874227
 21
28.26313537859998
 31
0.0
1001
Sigma
1000

  0
LINE
  5
421
102
{ACAD_REACTORS
330
41C
102
}
330
1F
100
AcDbEntity
  8
90-ScaleR0.4
  6
Continuous
 62
     7
370
    15
100
AcDbLine
 10
30.1352874227
 20
28.26313537859998
 30
0.0
 11
32.1352874227
 21
31.72723699375
 31
0.0
1001
Sigma
1000

  0
LINE
  5
424
102
{ACAD_REACTORS
330
423
102
}
330
1F
100
AcDbEntity
  8
90-ScaleR0.4
  6
Continuous
 62
     7
370
    15
100
AcDbLine
 10
32.1352874227
 20
36.57841666704999
 30
0.0
 11
34.1352874227
 21
33.11431505189999
 31
0.0
1001
Sigma
1000

  0
LINE
  5
426
102
{ACAD_REACTORS
330
423
102
}
330
1F
100
AcDbEntity
  8
90-ScaleR0.4
  6
Continuous
 62
     7
370
    15
100
AcDbLine
 10
34.1352874227
 20
33.11431505189999
 30
0.0
 11
30.1352874227
 21
33.11431505189999
 31
0.0
1001
Sigma
1000

  0
LINE
  5
428
102
{ACAD_REACTORS
330
423
102
}
330
1F
100
AcDbEntity
  8
90-ScaleR0.4
  6
Continuous
 62
     7
370
    15
100
AcDbLine
 10
30.1352874227
 20
33.11431505189999
 30
0.0
 11
32.1352874227
 21
36.57841666704999
 31
0.0
1001
Sigma
1000

  0
DIMENSION
  5
42A
330
1F
100
AcDbEntity
  8
KCAD_DIMS
 62
     7
100
AcDbDimension
  2
*D44
 10
152.3351834430854
 20
180.156590890895
 30
0.0
 11
116.7851834430857
 21
182.289923890895
 31
0.0
 70
    32
 71
     5
 42
-1.0
  3
Standard
100
AcDbAlignedDimension
 13
81.2351834430861
 23
148.4999999999996
 33
0.0
 14
152.3351834430854
 24
148.4999999999998
 34
0.0
100
AcDbRotatedDimension
1001
Sigma
1000
DIM_TPHO
1001
KCAD_DIM_EXT
1002
{
1071
 20001212
1070
     0
1070
     2
1070
     2
1040
3.0
1040
0.0
1040
0.0
1040
0.0
1040
0.0
1040
0.0
1040
0.0
1040
0.0
1070
     0
1040
50.0
1040
-1.0
1013
1.0
1023
0.0
1033
0.0
1040
0.0
1013
1.0
1023
0.0
1033
0.0
1000
_None
1040
1.0
1040
71.0999999999993
1070
     0
1070
     0
1070
     0
1012
1.0
1022
0.0
1032
0.0
1013
1.0
1023
0.0
1033
0.0
1002
}
1001
ACAD
1000
DSTYLE
1002
{
1070
     3
1000
WD=<>
1070
    41
1040
3.0
1070
    42
1040
1.0
1070
    43
1040
8.0
1070
    44
1040
1.0
1070
    45
1040
0.0
1070
    73
1070
     0
1070
    74
1070
     0
1070
    77
1070
     1
1070
    78
1070
     8
1070
    79
1070
     2
1070
   140
1040
3.2
1070
   141
1040
2.5
1070
   145
1040
0.0001
1070
   146
1040
0.667
1070
   147
1040
0.5333000000000001
1070
   172
1070
     1
1070
   173
1070
     1
1070
   179
1070
     3
1070
   271
1070
     3
1070
   272
1070
     3
1070
   279
1070
     2
1070
   284
1070
     8
1070
   289
1070
     2
1070
   340
1005
189
1070
   341
1005
21
1070
   343
1005
12D
1070
   344
1005
12D
1002
}
  0
DIMENSION
  5
466
330
1F
100
AcDbEntity
  8
KCAD_DIMS
 62
     7
100
AcDbDimension
  2
*D45
 10
132.5303857008465
 20
139.4999999999998
 30
0.0
 11
130.3970527008465
 21
148.5
 31
0.0
 70
    32
 71
     5
 42
-1.0
 53
90.00000000000007
  3
Standard
100
AcDbAlignedDimension
 13
168.3351834430854
 23
157.5000000000003
 33
0.0
 14
152.6351834430854
 24
139.4999999999998
 34
0.0
 50
90.00000000000007
100
AcDbRotatedDimension
1001
Sigma
1000
DIM_TPVO
1001
KCAD_DIM_EXT
1002
{
1071
 20001212
1070
     0
1070
     2
1070
     2
1040
3.0
1040
0.0
1040
0.0
1040
0.0
1040
0.0
1040
0.0
1040
0.0
1040
0.0
1070
     0
1040
50.0
1040
-1.0
1013
1.0
1023
0.0
1033
0.0
1040
0.0
1013
1.0
1023
0.0
1033
0.0
1000
_None
1040
1.0
1040
18.00000000000049
1070
     0
1070
     0
1070
     0
1012
1.0
1022
0.0
1032
0.0
1013
1.0
1023
0.0
1033
0.0
1002
}
1001
ACAD
1000
DSTYLE
1002
{
1070
     3
1000
%%c<>
1070
    41
1040
3.0
1070
    42
1040
1.0
1070
    43
1040
8.0
1070
    44
1040
1.0
1070
    45
1040
0.0
1070
    73
1070
     0
1070
    74
1070
     0
1070
    77
1070
     1
1070
    78
1070
     8
1070
    79
1070
     2
1070
   140
1040
3.2
1070
   141
1040
2.5
1070
   145
1040
0.0001
1070
   146
1040
0.667
1070
   147
1040
0.5333000000000001
1070
   172
1070
     1
1070
   173
1070
     1
1070
   179
1070
     3
1070
   271
1070
     1
1070
   272
1070
     3
1070
   279
1070
     2
1070
   284
1070
     8
1070
   289
1070
     2
1070
   340
1005
189
1070
   341
1005
21
1070
   343
1005
12D
1070
   344
1005
12D
1002
}
  0
DIMENSION
  5
4A2
330
1F
100
AcDbEntity
  8
KCAD_DIMS
 62
     7
100
AcDbDimension
  2
*D46
 10
168.3351834430854
 20
124.8943838694182
 30
0.0
 11
160.3351834430853
 21
127.0277168694182
 31
0.0
 70
    32
 71
     5
 42
-1.0
  3
Standard
100
AcDbAlignedDimension
 13
152.3351834430854
 23
139.7999999999998
 33
0.0
 14
168.3351834430854
 24
139.4999999999998
 34
0.0
100
AcDbRotatedDimension
1001
Sigma
1000
DIM_TPHO
1001
KCAD_DIM_EXT
1002
{
1071
 20001212
1070
     0
1070
     2
1070
     2
1040
3.0
1040
0.0
1040
0.0
1040
0.0
1040
0.0
1040
0.0
1040
0.0
1040
0.0
1070
     0
1040
50.0
1040
-1.0
1013
1.0
1023
0.0
1033
0.0
1040
0.0
1013
1.0
1023
0.0
1033
0.0
1000
_None
1040
1.0
1040
16.00000000000005
1070
     0
1070
     0
1070
     0
1012
1.0
1022
0.0
1032
0.0
1013
1.0
1023
0.0
1033
0.0
1002
}
1001
ACAD
1000
DSTYLE
1002
{
1070
    41
1040
3.0
1070
    42
1040
1.0
1070
    43
1040
8.0
1070
    44
1040
1.0
1070
    45
1040
0.0
1070
    73
1070
     0
1070
    74
1070
     0
1070
    77
1070
     1
1070
    78
1070
     8
1070
    79
1070
     2
1070
   140
1040
3.2
1070
   141
1040
2.5
1070
   145
1040
0.0001
1070
   146
1040
0.667
1070
   147
1040
0.5333000000000001
1070
   172
1070
     1
1070
   173
1070
     1
1070
   179
1070
     3
1070
   271
1070
     3
1070
   272
1070
     3
1070
   279
1070
     2
1070
   284
1070
     8
1070
   289
1070
     2
1070
   340
1005
189
1070
   341
1005
21
1070
   343
1005
12D
1070
   344
1005
12D
1002
}
  0
DIMENSION
  5
4DE
330
1F
100
AcDbEntity
  8
KCAD_DIMS
 62
     7
100
AcDbDimension
  2
*D47
 10
174.3351834430854
 20
124.8943838694182
 30
0.0
 11
171.3351834430854
 21
127.0277168694182
 31
0.0
 70
    32
 71
     5
 42
-1.0
  3
Standard
100
AcDbAlignedDimension
 13
168.3351834430854
 23
139.4999999999998
 33
0.0
 14
174.3351834430854
 24
139.4999999999998
 34
0.0
100
AcDbRotatedDimension
1001
Sigma
1000
DIM_TPHO
1001
KCAD_DIM_EXT
1002
{
1071
 20001212
1070
     0
1070
     2
1070
     2
1040
3.0
1040
0.0
1040
0.0
1040
0.0
1040
0.0
1040
0.0
1040
0.0
1040
0.0
1070
     0
1040
50.0
1040
-1.0
1013
1.0
1023
0.0
1033
0.0
1040
0.0
1013
1.0
1023
0.0
1033
0.0
1000
_None
1040
1.0
1040
6.000000000000036
1070
     0
1070
     0
1070
     0
1012
1.0
1022
0.0
1032
0.0
1013
1.0
1023
0.0
1033
0.0
1002
}
1001
ACAD
1000
DSTYLE
1002
{
1070
    41
1040
3.0
1070
    42
1040
1.0
1070
    43
1040
8.0
1070
    44
1040
1.0
1070
    45
1040
0.0
1070
    73
1070
     0
1070
    74
1070
     0
1070
    77
1070
     1
1070
    78
1070
     8
1070
    79
1070
     2
1070
   140
1040
3.2
1070
   141
1040
2.5
1070
   145
1040
0.0001
1070
   146
1040
0.667
1070
   147
1040
0.5333000000000001
1070
   172
1070
     1
1070
   173
1070
     1
1070
   179
1070
     3
1070
   271
1070
     3
1070
   272
1070
     3
1070
   279
1070
     2
1070
   284
1070
     8
1070
   289
1070
     2
1070
   340
1005
189
1070
   341
1005
21
1070
   343
1005
12D
1070
   344
1005
12D
1002
}
  0
DIMENSION
  5
523
330
1F
100
AcDbEntity
  8
KCAD_DIMS
 62
     7
100
AcDbDimension
  2
*D48
 10
185.3351834430854
 20
125.0919379616101
 30
0.0
 11
179.8351834430854
 21
127.2252709616101
 31
0.0
 70
    32
 71
     5
 42
-1.0
  3
Standard
100
AcDbAlignedDimension
 13
174.3351834430854
 23
148.4999999999999
 33
0.0
 14
185.3351834430854
 24
139.4999999999998
 34
0.0
100
AcDbRotatedDimension
1001
Sigma
1000
DIM_TPHO
1001
KCAD_DIM_EXT
1002
{
1071
 20001212
1070
     0
1070
     2
1070
     2
1040
3.0
1040
0.0
1040
0.0
1040
0.0
1040
0.0
1040
0.0
1040
0.0
1040
0.0
1070
     0
1040
50.0
1040
-1.0
1013
1.0
1023
0.0
1033
0.0
1040
0.0
1013
1.0
1023
0.0
1033
0.0
1000
_None
1040
1.0
1040
10.99999999999993
1070
     0
1070
     0
1070
     0
1012
1.0
1022
0.0
1032
0.0
1013
1.0
1023
0.0
1033
0.0
1002
}
1001
ACAD
1000
DSTYLE
1002
{
1070
    41
1040
3.0
1070
    42
1040
1.0
1070
    43
1040
8.0
1070
    44
1040
1.0
1070
    45
1040
0.0
1070
    73
1070
     0
1070
    74
1070
     0
1070
    77
1070
     1
1070
    78
1070
     8
1070
    79
1070
     2
1070
   140
1040
3.2
1070
   141
1040
2.5
1070
   145
1040
0.0001
1070
   146
1040
0.667
1070
   147
1040
0.5333000000000001
1070
   172
1070
     1
1070
   173
1070
     1
1070
   179
1070
     3
1070
   271
1070
     3
1070
   272
1070
     3
1070
   279
1070
     2
1070
   284
1070
     8
1070
   289
1070
     2
1070
   340
1005
189
1070
   341
1005
21
1070
   343
1005
12D
1070
   344
1005
12D
1002
}
  0
DIMENSION
  5
55F
330
1F
100
AcDbEntity
  8
KCAD_DIMS
 62
     7
100
AcDbDimension
  2
*D49
 10
215.3351834430854
 20
125.1981382978724
 30
0.0
 11
200.3351834430854
 21
127.3314712978724
 31
0.0
 70
    32
 71
     5
 42
-1.0
  3
Standard
100
AcDbAlignedDimension
 13
185.3351834430854
 23
139.4999999999998
 33
0.0
 14
215.3351834430854
 24
139.4999999999998
 34
0.0
100
AcDbRotatedDimension
1001
Sigma
1000
DIM_TPHO
1001
KCAD_DIM_EXT
1002
{
1071
 20001212
1070
     0
1070
     2
1070
     2
1040
3.0
1040
0.0
1040
0.0
1040
0.0
1040
0.0
1040
0.0
1040
0.0
1040
0.0
1070
     0
1040
50.0
1040
-1.0
1013
1.0
1023
0.0
1033
0.0
1040
0.0
1013
1.0
1023
0.0
1033
0.0
1000
_None
1040
1.0
1040
30.00000000000003
1070
     0
1070
     0
1070
     0
1012
1.0
1022
0.0
1032
0.0
1013
1.0
1023
0.0
1033
0.0
1002
}
1001
ACAD
1000
DSTYLE
1002
{
1070
    41
1040
3.0
1070
    42
1040
1.0
1070
    43
1040
8.0
1070
    44
1040
1.0
1070
    45
1040
0.0
1070
    73
1070
     0
1070
    74
1070
     0
1070
    77
1070
     1
1070
    78
1070
     8
1070
    79
1070
     2
1070
   140
1040
3.2
1070
   141
1040
2.5
1070
   145
1040
0.0001
1070
   146
1040
0.667
1070
   147
1040
0.5333000000000001
1070
   172
1070
     1
1070
   173
1070
     1
1070
   179
1070
     3
1070
   271
1070
     3
1070
   272
1070
     3
1070
   279
1070
     2
1070
   284
1070
     8
1070
   289
1070
     2
1070
   340
1005
189
1070
   341
1005
21
1070
   343
1005
12D
1070
   344
1005
12D
1002
}
  0
DIMENSION
  5
59B
330
1F
100
AcDbEntity
  8
KCAD_DIMS
 62
     7
100
AcDbDimension
  2
*D50
 10
256.4351834430853
 20
180.156590890895
 30
0.0
 11
204.3851834430852
 21
182.289923890895
 31
0.0
 70
    32
 71
     5
 42
-1.0
  3
Standard
100
AcDbAlignedDimension
 13
152.3351834430854
 23
148.5000000000003
 33
0.0
 14
256.4351834430853
 24
148.5000000000001
 34
0.0
100
AcDbRotatedDimension
1001
Sigma
1000
DIM_TPHO
1001
KCAD_DIM_EXT
1002
{
1071
 20001212
1070
     0
1070
     2
1070
     2
1040
3.0
1040
0.0
1040
0.0
1040
0.0
1040
0.0
1040
0.0
1040
0.0
1040
0.0
1070
     0
1040
50.0
1040
-1.0
1013
1.0
1023
0.0
1033
0.0
1040
0.0
1013
1.0
1023
0.0
1033
0.0
1000
_None
1040
1.0
1040
104.0999999999998
1070
     0
1070
     0
1070
     0
1012
1.0
1022
0.0
1032
0.0
1013
1.0
1023
0.0
1033
0.0
1002
}
1001
ACAD
1000
DSTYLE
1002
{
1070
    41
1040
3.0
1070
    42
1040
1.0
1070
    43
1040
8.0
1070
    44
1040
1.0
1070
    45
1040
0.0
1070
    73
1070
     0
1070
    74
1070
     0
1070
    77
1070
     1
1070
    78
1070
     8
1070
    79
1070
     2
1070
   140
1040
3.2
1070
   141
1040
2.5
1070
   145
1040
0.0001
1070
   146
1040
0.667
1070
   147
1040
0.5333000000000001
1070
   172
1070
     1
1070
   173
1070
     1
1070
   179
1070
     3
1070
   271
1070
     3
1070
   272
1070
     3
1070
   279
1070
     2
1070
   284
1070
     8
1070
   289
1070
     2
1070
   340
1005
189
1070
   341
1005
21
1070
   343
1005
12D
1070
   344
1005
12D
1002
}
  0
DIMENSION
  5
5D7
330
1F
100
AcDbEntity
  8
KCAD_DIMS
 62
     7
100
AcDbDimension
  2
*D51
 10
268.4351834430852
 20
180.156590890895
 30
0.0
 11
262.4351834430852
 21
182.289923890895
 31
0.0
 70
    32
 71
     5
 42
-1.0
  3
Standard
100
AcDbAlignedDimension
 13
256.4351834430853
 23
148.5000000000001
 33
0.0
 14
268.4351834430852
 24
148.5000000000001
 34
0.0
100
AcDbRotatedDimension
1001
Sigma
1000
DIM_TPHO
1001
KCAD_DIM_EXT
1002
{
1071
 20001212
1070
     0
1070
     2
1070
     2
1040
3.0
1040
0.0
1040
0.0
1040
0.0
1040
0.0
1040
0.0
1040
0.0
1040
0.0
1070
     0
1040
50.0
1040
-1.0
1013
1.0
1023
0.0
1033
0.0
1040
0.0
1013
1.0
1023
0.0
1033
0.0
1000
_None
1040
1.0
1040
12.0
1070
     0
1070
     0
1070
     0
1012
1.0
1022
0.0
1032
0.0
1013
1.0
1023
0.0
1033
0.0
1002
}
1001
ACAD
1000
DSTYLE
1002
{
1070
    41
1040
3.0
1070
    42
1040
1.0
1070
    43
1040
8.0
1070
    44
1040
1.0
1070
    45
1040
0.0
1070
    73
1070
     0
1070
    74
1070
     0
1070
    77
1070
     1
1070
    78
1070
     8
1070
    79
1070
     2
1070
   140
1040
3.2
1070
   141
1040
2.5
1070
   145
1040
0.0001
1070
   146
1040
0.667
1070
   147
1040
0.5333000000000001
1070
   172
1070
     1
1070
   173
1070
     1
1070
   179
1070
     3
1070
   271
1070
     1
1070
   272
1070
     3
1070
   279
1070
     2
1070
   284
1070
     8
1070
   289
1070
     2
1070
   340
1005
189
1070
   341
1005
21
1070
   343
1005
12D
1070
   344
1005
12D
1002
}
  0
DIMENSION
  5
613
330
1F
100
AcDbEntity
  8
KCAD_DIMS
 62
     7
100
AcDbDimension
  2
*D61
 10
285.9611834430852
 20
199.843085106383
 30
0.0
 11
302.064754961074
 21
199.4062813984906
 31
0.0
 70
    32
 71
     5
 42
-1.0
  3
Standard
100
AcDbAlignedDimension
 13
268.4351834430852
 23
148.5000000000001
 33
0.0
 14
285.9611834430852
 24
148.5000000000001
 34
0.0
100
AcDbRotatedDimension
1001
Sigma
1000
DIM_TPHO
1001
KCAD_DIM_EXT
1002
{
1071
 20001212
1070
     0
1070
     2
1070
     2
1040
3.0
1040
0.0
1040
0.0
1040
0.0
1040
0.0
1040
0.0
1040
0.0
1040
0.0
1070
     1
1040
49.99999999999984
1040
24.19596661360399
1013
0.5548389427347326
1023
0.8319577799534085
1033
0.0
1040
39.52493347503598
1013
1.0
1023
0.0
1033
0.0
1000
_NONE
1040
0.0
1040
17.52599999999999
1070
     0
1070
     0
1070
     0
1012
1.0
1022
0.0
1032
0.0
1013
1.0
1023
0.0
1033
0.0
1002
}
1001
ACAD
1000
DSTYLE
1002
{
1070
     3
1000
FB=<>
1070
    41
1040
3.0
1070
    42
1040
1.0
1070
    43
1040
8.0
1070
    44
1040
1.0
1070
    45
1040
0.0
1070
    73
1070
     0
1070
    74
1070
     0
1070
    77
1070
     1
1070
    78
1070
     8
1070
    79
1070
     2
1070
   140
1040
3.2
1070
   141
1040
2.5
1070
   145
1040
0.0001
1070
   146
1040
0.667
1070
   147
1040
0.5333000000000001
1070
   172
1070
     1
1070
   173
1070
     1
1070
   179
1070
     3
1070
   271
1070
     3
1070
   272
1070
     3
1070
   279
1070
     2
1070
   284
1070
     8
1070
   289
1070
     2
1070
   340
1005
189
1070
   341
1005
21
1070
   343
1005
12D
1070
   344
1005
12D
1002
}
  0
DIMENSION
  5
651
330
1F
100
AcDbEntity
  8
KCAD_DIMS
 62
     7
100
AcDbDimension
  2
*D62
 10
171.9918156161804
 20
139.7499999999998
 30
0.0
 11
172.0341234940476
 21
165.4840194675245
 31
0.0
 70
    32
 71
     5
 42
-1.0
 53
90.00000000000007
  3
Standard
100
AcDbAlignedDimension
 13
174.3351834430854
 23
157.2500000000002
 33
0.0
 14
174.3351834430854
 24
139.7499999999998
 34
0.0
 50
90.00000000000007
100
AcDbRotatedDimension
1001
Sigma
1000
DIM_TPVO
1001
KCAD_DIM_EXT
1002
{
1071
 20001212
1070
     0
1070
     1
1070
     1
1040
3.0
1040
15.59351649901924
1040
5.0
1040
0.0
1040
0.0
1040
0.0
1040
0.0
1040
0.0
1070
     0
1040
50.0
1040
-1.0
1013
1.0
1023
0.0
1033
0.0
1040
0.0
1013
1.0
1023
0.0
1033
0.0
1000
_None
1040
1.0
1040
17.5000000000004
1070
     0
1070
     0
1070
     0
1012
1.0
1022
0.0
1032
0.0
1013
1.0
1023
0.0
1033
0.0
1002
}
1001
ACAD
1000
DSTYLE
1002
{
1070
     3
1000
%%c<>
1070
    41
1040
3.0
1070
    42
1040
1.0
1070
    43
1040
8.0
1070
    44
1040
1.0
1070
    45
1040
0.0
1070
    73
1070
     0
1070
    74
1070
     0
1070
    77
1070
     1
1070
    78
1070
     8
1070
    79
1070
     2
1070
   140
1040
3.2
1070
   141
1040
2.5
1070
   145
1040
0.0001
1070
   146
1040
0.667
1070
   147
1040
0.5333000000000001
1070
   172
1070
     1
1070
   173
1070
     1
1070
   179
1070
     3
1070
   271
1070
     3
1070
   272
1070
     3
1070
   279
1070
     2
1070
   284
1070
     8
1070
   289
1070
     2
1070
   340
1005
189
1070
   341
1005
21
1070
   343
1005
12D
1070
   344
1005
12D
1002
}
  0
DIMENSION
  5
68F
330
1F
100
AcDbEntity
  8
KCAD_DIMS
 62
     7
100
AcDbDimension
  2
*D64
 10
208.9344308560675
 20
139.4999999999998
 30
0.0
 11
208.8364176515483
 21
164.5155380423271
 31
0.0
 70
    32
 71
     5
 42
-1.0
 53
90.00000000000007
  3
Standard
100
AcDbAlignedDimension
 13
215.3351834430854
 23
157.5000000000003
 33
0.0
 14
215.3351834430854
 24
139.4999999999998
 34
0.0
 50
90.00000000000007
100
AcDbRotatedDimension
1001
Sigma
1000
DIM_TPVO
1001
KCAD_DIM_EXT
1002
{
1071
 20001212
1070
     0
1070
     1
1070
     1
1040
3.0
1040
15.48942280593871
1040
5.0
1040
0.0
1040
0.0
1040
0.0
1040
0.0
1040
0.0
1070
     0
1040
50.0
1040
-1.0
1013
1.0
1023
0.0
1033
0.0
1040
0.0
1013
1.0
1023
0.0
1033
0.0
1000
_None
1040
1.0
1040
18.00000000000046
1070
     0
1070
     0
1070
     0
1012
1.0
1022
0.0
1032
0.0
1013
1.0
1023
0.0
1033
0.0
1002
}
1001
ACAD
1000
DSTYLE
1002
{
1070
     3
1000
%%c<>
1070
    41
1040
3.0
1070
    42
1040
1.0
1070
    43
1040
8.0
1070
    44
1040
1.0
1070
    45
1040
0.0
1070
    73
1070
     0
1070
    74
1070
     0
1070
    77
1070
     1
1070
    78
1070
     8
1070
    79
1070
     2
1070
   140
1040
3.2
1070
   141
1040
2.5
1070
   145
1040
0.0001
1070
   146
1040
0.667
1070
   147
1040
0.5333000000000001
1070
   172
1070
     1
1070
   173
1070
     1
1070
   179
1070
     3
1070
   271
1070
     1
1070
   272
1070
     3
1070
   279
1070
     2
1070
   284
1070
     8
1070
   289
1070
     2
1070
   340
1005
189
1070
   341
1005
21
1070
   343
1005
12D
1070
   344
1005
12D
1002
}
  0
DIMENSION
  5
6CD
330
1F
100
AcDbEntity
  8
KCAD_DIMS
 62
     7
100
AcDbDimension
  2
*D66
 10
272.4417063411851
 20
166.3553664961058
 30
0.0
 11
279.0377267403406
 21
168.3040012981535
 31
0.0
 70
    32
  1
\A1;C1{\H0.667000x;}
 71
     5
 42
-1.0
  3
Standard
100
AcDbAlignedDimension
 13
268.0107616440822
 23
161.924421799003
 33
0.0
 14
272.441706341185
 24
166.3553664961059
 34
0.0
 50
45.00000000000045
100
AcDbRotatedDimension
1001
Sigma
1000
DIM_TPCHO
1001
KCAD_DIM_EXT
1002
{
1071
 20001212
1070
     7
1070
     2
1070
     2
1040
3.0
1040
0.0
1040
0.0
1040
0.0
1040
0.0
1040
0.0
1040
0.0
1040
0.0
1070
     1
1040
57.31170652337424
1040
2.689124578639562
1013
0.7116833795321345
1023
0.7025003681833342
1033
0.0
1040
5.349954848155276
1013
1.0
1023
0.0
1033
0.0
1000
_NONE
1040
0.0
1040
1.000000000000001
1070
     0
1070
     0
1070
     0
1012
1.0
1022
0.0
1032
0.0
1013
1.0
1023
0.0
1033
0.0
1002
}
1001
ACAD
1000
DSTYLE
1002
{
1070
     3
1000
C<>
1070
    41
1040
3.0
1070
    42
1040
1.0
1070
    43
1040
8.0
1070
    44
1040
1.0
1070
    45
1040
0.0
1070
    75
1070
     1
1070
    76
1070
     1
1070
    77
1070
     1
1070
    78
1070
     8
1070
    79
1070
     2
1070
   140
1040
3.2
1070
   141
1040
2.5
1070
   145
1040
0.0001
1070
   146
1040
0.667
1070
   147
1040
0.5333000000000001
1070
   172
1070
     1
1070
   173
1070
     1
1070
   179
1070
     3
1070
   271
1070
     3
1070
   272
1070
     3
1070
   279
1070
     2
1070
   284
1070
     8
1070
   289
1070
     2
1070
   340
1005
189
1070
   341
1005
21
1070
   343
1005
12D
1070
   344
1005
12D
1002
}
  0
DIMENSION
  5
706
330
1F
100
AcDbEntity
  8
KCAD_DIMS
 62
     7
100
AcDbDimension
  2
*D65
 10
251.7949224346305
 20
167.2666681059909
 30
0.0
 11
243.6691785580418
 21
167.9824690419507
 31
0.0
 70
    32
  1
\A1;C0.5{\H0.667000x;}
 71
     5
 42
-1.0
  3
Standard
100
AcDbAlignedDimension
 13
256.7483869918534
 23
162.3132035487682
 33
0.0
 14
251.7949224346306
 24
167.266668105991
 34
0.0
 50
315.0000000000004
100
AcDbRotatedDimension
1001
Sigma
1000
DIM_TPCHO
1001
KCAD_DIM_EXT
1002
{
1071
 20001212
1070
     7
1070
     2
1070
     2
1040
3.0
1040
0.0
1040
0.0
1040
0.0
1040
0.0
1040
0.0
1040
0.0
1040
0.0
1070
     1
1040
18.98972821364705
1040
5.727365367842112
1013
-0.7071067811865464
1023
0.7071067811865488
1033
0.0
1040
11.34995507726063
1013
-1.0
1023
0.0
1033
0.0
1000
_NONE
1040
0.0
1040
0.4999999999999993
1070
     0
1070
     0
1070
     0
1012
1.0
1022
0.0
1032
0.0
1013
1.0
1023
0.0
1033
0.0
1002
}
1001
ACAD
1000
DSTYLE
1002
{
1070
     3
1000
C<>
1070
    41
1040
3.0
1070
    42
1040
1.0
1070
    43
1040
8.0
1070
    44
1040
1.0
1070
    45
1040
0.0
1070
    75
1070
     1
1070
    76
1070
     1
1070
    77
1070
     1
1070
    78
1070
     8
1070
    79
1070
     2
1070
   140
1040
3.2
1070
   141
1040
2.5
1070
   145
1040
0.0001
1070
   146
1040
0.667
1070
   147
1040
0.5333000000000001
1070
   172
1070
     1
1070
   173
1070
     1
1070
   179
1070
     3
1070
   271
1070
     3
1070
   272
1070
     3
1070
   279
1070
     2
1070
   284
1070
     8
1070
   289
1070
     2
1070
   340
1005
189
1070
   341
1005
21
1070
   343
1005
12D
1070
   344
1005
12D
1002
}
  0
DIMENSION
  5
741
330
1F
100
AcDbEntity
  8
KCAD_DIMS
 62
     7
100
AcDbDimension
  2
*D57
 10
310.2342427093132
 20
134.5
 30
0.0
 11
308.1009097093132
 21
148.5000000000002
 31
0.0
 70
    32
 71
     5
 42
-1.0
 53
90.00000000000007
  3
Standard
100
AcDbAlignedDimension
 13
267.4351834430853
 23
162.5
 33
0.0
 14
267.4351834430853
 24
134.5
 34
0.0
 50
90.00000000000007
100
AcDbRotatedDimension
1001
Sigma
1000
DIM_TPVO
1001
KCAD_DIM_EXT
1002
{
1071
 20001212
1070
     0
1070
     2
1070
     2
1040
3.0
1040
0.0
1040
0.0
1040
0.0
1040
0.0
1040
0.0
1040
0.0
1040
0.0
1070
     0
1040
50.0
1040
-1.0
1013
1.0
1023
0.0
1033
0.0
1040
0.0
1013
1.0
1023
0.0
1033
0.0
1000
_None
1040
1.0
1040
28.0
1070
     0
1070
     0
1070
     0
1012
1.0
1022
0.0
1032
0.0
1013
1.0
1023
0.0
1033
0.0
1002
}
1001
ACAD
1000
DSTYLE
1002
{
1070
     3
1000
%%c<>
1070
    41
1040
3.0
1070
    42
1040
1.0
1070
    43
1040
8.0
1070
    44
1040
1.0
1070
    45
1040
0.0
1070
    73
1070
     0
1070
    74
1070
     0
1070
    77
1070
     1
1070
    78
1070
     8
1070
    79
1070
     2
1070
   140
1040
3.2
1070
   141
1040
2.5
1070
   145
1040
0.0001
1070
   146
1040
0.667
1070
   147
1040
0.5333000000000001
1070
   172
1070
     1
1070
   173
1070
     1
1070
   179
1070
     3
1070
   271
1070
     3
1070
   272
1070
     3
1070
   279
1070
     2
1070
   284
1070
     8
1070
   289
1070
     2
1070
   340
1005
189
1070
   341
1005
21
1070
   343
1005
12D
1070
   344
1005
12D
1002
}
  0
DIMENSION
  5
77D
330
1F
100
AcDbEntity
  8
KCAD_DIMS
 62
     7
100
AcDbDimension
  2
*D58
 10
272.4351834430852
 20
180.156590890895
 30
0.0
 11
275.7754006969988
 21
182.311229259082
 31
0.0
 70
    32
 71
     5
 42
-1.0
  3
Standard
100
AcDbAlignedDimension
 13
268.4351834430852
 23
148.5000000000001
 33
0.0
 14
272.4351834430852
 24
148.5000000000001
 34
0.0
100
AcDbRotatedDimension
1001
Sigma
1000
DIM_TPHO
1001
KCAD_DIM_EXT
1002
{
1071
 20001212
1070
     0
1070
     1
1070
     1
1040
3.0
1040
5.0
1040
5.0
1040
0.0
1040
0.0
1040
0.0
1040
0.0
1040
0.0
1070
     1
1040
50.0
1040
4.165294375659976
1013
0.9999869184401411
1023
0.0051149729804386
1033
0.0
1040
2.3499547336026
1013
1.0
1023
0.0
1033
0.0
1000
_NONE
1040
0.0
1040
3.999999999999996
1070
     0
1070
     0
1070
     0
1012
1.0
1022
0.0
1032
0.0
1013
1.0
1023
0.0
1033
0.0
1002
}
1001
ACAD
1000
DSTYLE
1002
{
1070
    41
1040
3.0
1070
    42
1040
1.0
1070
    43
1040
8.0
1070
    44
1040
1.0
1070
    45
1040
0.0
1070
    73
1070
     0
1070
    74
1070
     0
1070
    77
1070
     1
1070
    78
1070
     8
1070
    79
1070
     2
1070
   140
1040
3.2
1070
   141
1040
2.5
1070
   145
1040
0.0001
1070
   146
1040
0.667
1070
   147
1040
0.5333000000000001
1070
   172
1070
     1
1070
   173
1070
     1
1070
   179
1070
     3
1070
   271
1070
     3
1070
   272
1070
     3
1070
   279
1070
     2
1070
   284
1070
     8
1070
   289
1070
     2
1070
   340
1005
189
1070
   341
1005
21
1070
   343
1005
12D
1070
   344
1005
12D
1002
}
  0
DIMENSION
  5
7C7
330
1F
100
AcDbEntity
  8
KCAD_DIMS
 62
     7
100
AcDbDimension
  2
*D59
 10
152.3351834430854
 20
199.843085106383
 30
0.0
 11
210.3851834430853
 21
201.976418106383
 31
0.0
 70
    32
 71
     5
 42
-1.0
  3
Standard
100
AcDbAlignedDimension
 13
268.4351834430852
 23
199.843085106383
 33
0.0
 14
152.3351834430854
 24
180.156590890895
 34
0.0
100
AcDbRotatedDimension
1001
Sigma
1000
DIM_TPHO
1001
KCAD_DIM_EXT
1002
{
1071
 20001212
1070
     0
1070
     2
1070
     2
1040
3.0
1040
0.0
1040
0.0
1040
0.0
1040
0.0
1040
0.0
1040
0.0
1040
0.0
1070
     0
1040
50.0
1040
-1.0
1013
1.0
1023
0.0
1033
0.0
1040
0.0
1013
1.0
1023
0.0
1033
0.0
1000
_None
1040
1.0
1040
116.0999999999998
1070
     0
1070
     0
1070
     0
1012
1.0
1022
0.0
1032
0.0
1013
1.0
1023
0.0
1033
0.0
1002
}
1001
ACAD
1000
DSTYLE
1002
{
1070
    41
1040
3.0
1070
    42
1040
1.0
1070
    43
1040
8.0
1070
    44
1040
1.0
1070
    45
1040
0.0
1070
    73
1070
     0
1070
    74
1070
     0
1070
    75
1070
     1
1070
    77
1070
     1
1070
    78
1070
     8
1070
    79
1070
     2
1070
   140
1040
3.2
1070
   141
1040
2.5
1070
   145
1040
0.0001
1070
   146
1040
0.667
1070
   147
1040
0.5333000000000001
1070
   172
1070
     1
1070
   173
1070
     1
1070
   179
1070
     3
1070
   271
1070
     3
1070
   272
1070
     3
1070
   279
1070
     2
1070
   284
1070
     8
1070
   289
1070
     2
1070
   340
1005
189
1070
   341
1005
21
1070
   343
1005
12D
1070
   344
1005
12D
1002
}
  0
DIMENSION
  5
7FD
330
1F
100
AcDbEntity
  8
KCAD_DIMS
 62
     7
100
AcDbDimension
  2
*D60
 10
285.9611834430852
 20
219.5904255319149
 30
0.0
 11
183.598183443085
 21
221.7237585319149
 31
0.0
 70
    32
 71
     5
 42
-1.0
  3
Standard
100
AcDbAlignedDimension
 13
81.23518344308474
 23
148.4999999999996
 33
0.0
 14
285.9611834430852
 24
148.5000000000001
 34
0.0
100
AcDbRotatedDimension
1001
Sigma
1000
DIM_TPHO
1001
KCAD_DIM_EXT
1002
{
1071
 20001212
1070
     0
1070
     2
1070
     2
1040
3.0
1040
0.0
1040
0.0
1040
0.0
1040
0.0
1040
0.0
1040
0.0
1040
0.0
1070
     0
1040
50.0
1040
-1.0
1013
1.0
1023
0.0
1033
0.0
1040
0.0
1013
1.0
1023
0.0
1033
0.0
1000
_None
1040
1.0
1040
204.7260000000005
1070
     0
1070
     0
1070
     0
1012
1.0
1022
0.0
1032
0.0
1013
1.0
1023
0.0
1033
0.0
1002
}
1001
ACAD
1000
DSTYLE
1002
{
1070
    41
1040
3.0
1070
    42
1040
1.0
1070
    43
1040
8.0
1070
    44
1040
1.0
1070
    45
1040
0.0
1070
    73
1070
     0
1070
    74
1070
     0
1070
    77
1070
     1
1070
    78
1070
     8
1070
    79
1070
     2
1070
   140
1040
3.2
1070
   141
1040
2.5
1070
   145
1040
0.0001
1070
   146
1040
0.667
1070
   147
1040
0.5333000000000001
1070
   172
1070
     1
1070
   173
1070
     1
1070
   179
1070
     3
1070
   271
1070
     2
1070
   272
1070
     3
1070
   279
1070
     2
1070
   284
1070
     8
1070
   289
1070
     2
1070
   340
1005
189
1070
   341
1005
21
1070
   343
1005
12D
1070
   344
1005
12D
1002
}
  0
OLE2FRAME
  5
9E5
330
1F
100
AcDbEntity
  8
0
  6
Continuous
 62
   134
370
    15
100
AcDbOle2Frame
 70
     2
 10
192.1219548200051
 20
15.19367279660566
 30
0.0
 11
231.5416363468768
 21
9.342313819960644
 31
0.0
 72
     0
 73
   205
 90
    10368
310
00555D70CB0DE7036840A617AF1429632E4000000000000000002585BF1555F1
310
6C40A617AF1429632E4000000000000000002585BF1555F16C404C66CBC143AF
310
224000000000000000005D70CB0DE70368404C66CBC143AF2240000000000000
310
0000000000000100000000010000010000000100000000000100000000280000
310
D0CF11E0A1B11AE1000000000000000000000000000000003E000300FEFF0900
310
0600000000000000000000000100000001000000000000000010000002000000
310
01000000FEFFFFFF0000000000000000FFFFFFFFFFFFFFFFFFFFFFFFFFFFFFFF
310
FFFFFFFFFFFFFFFFFFFFFFFFFFFFFFFFFFFFFFFFFFFFFFFFFFFFFFFFFFFFFFFF
310
FFFFFFFFFFFFFFFFFFFFFFFFFFFFFFFFFFFFFFFFFFFFFFFFFFFFFFFFFFFFFFFF
310
FFFFFFFFFFFFFFFFFFFFFFFFFFFFFFFFFFFFFFFFFFFFFFFFFFFFFFFFFFFFFFFF
310
FFFFFFFFFFFFFFFFFFFFFFFFFFFFFFFFFFFFFFFFFFFFFFFFFFFFFFFFFFFFFFFF
310
FFFFFFFFFFFFFFFFFFFFFFFFFFFFFFFFFFFFFFFFFFFFFFFFFFFFFFFFFFFFFFFF
310
FFFFFFFFFFFFFFFFFFFFFFFFFFFFFFFFFFFFFFFFFFFFFFFFFFFFFFFFFFFFFFFF
310
FFFFFFFFFFFFFFFFFFFFFFFFFFFFFFFFFFFFFFFFFFFFFFFFFFFFFFFFFFFFFFFF
310
FFFFFFFFFFFFFFFFFFFFFFFFFFFFFFFFFFFFFFFFFFFFFFFFFFFFFFFFFFFFFFFF
310
FFFFFFFFFFFFFFFFFFFFFFFFFFFFFFFFFFFFFFFFFFFFFFFFFFFFFFFFFFFFFFFF
310
FFFFFFFFFFFFFFFFFFFFFFFFFFFFFFFFFFFFFFFFFFFFFFFFFFFFFFFFFFFFFFFF
310
FFFFFFFFFFFFFFFFFFFFFFFFFFFFFFFFFFFFFFFFFFFFFFFFFFFFFFFFFFFFFFFF
310
FFFFFFFFFFFFFFFFFFFFFFFFFFFFFFFFFFFFFFFFFFFFFFFFFFFFFFFFFFFFFFFF
310
FFFFFFFFFFFFFFFFFFFFFFFFFFFFFFFFFFFFFFFFFFFFFFFFFFFFFFFFFFFFFFFF
310
FDFFFFFFFEFFFFFFFEFFFFFFFEFFFFFF05000000060000000700000008000000
310
090000000A0000000B0000000C0000000D0000000E0000000F00000010000000
310
1100000012000000FEFFFFFFFFFFFFFFFFFFFFFFFFFFFFFFFFFFFFFFFFFFFFFF
310
FFFFFFFFFFFFFFFFFFFFFFFFFFFFFFFFFFFFFFFFFFFFFFFFFFFFFFFFFFFFFFFF
310
FFFFFFFFFFFFFFFFFFFFFFFFFFFFFFFFFFFFFFFFFFFFFFFFFFFFFFFFFFFFFFFF
310
FFFFFFFFFFFFFFFFFFFFFFFFFFFFFFFFFFFFFFFFFFFFFFFFFFFFFFFFFFFFFFFF
310
FFFFFFFFFFFFFFFFFFFFFFFFFFFFFFFFFFFFFFFFFFFFFFFFFFFFFFFFFFFFFFFF
310
FFFFFFFFFFFFFFFFFFFFFFFFFFFFFFFFFFFFFFFFFFFFFFFFFFFFFFFFFFFFFFFF
310
FFFFFFFFFFFFFFFFFFFFFFFFFFFFFFFFFFFFFFFFFFFFFFFFFFFFFFFFFFFFFFFF
310
FFFFFFFFFFFFFFFFFFFFFFFFFFFFFFFFFFFFFFFFFFFFFFFFFFFFFFFFFFFFFFFF
310
FFFFFFFFFFFFFFFFFFFFFFFFFFFFFFFFFFFFFFFFFFFFFFFFFFFFFFFFFFFFFFFF
310
FFFFFFFFFFFFFFFFFFFFFFFFFFFFFFFFFFFFFFFFFFFFFFFFFFFFFFFFFFFFFFFF
310
FFFFFFFFFFFFFFFFFFFFFFFFFFFFFFFFFFFFFFFFFFFFFFFFFFFFFFFFFFFFFFFF
310
FFFFFFFFFFFFFFFFFFFFFFFFFFFFFFFFFFFFFFFFFFFFFFFFFFFFFFFFFFFFFFFF
310
FFFFFFFFFFFFFFFFFFFFFFFFFFFFFFFFFFFFFFFFFFFFFFFFFFFFFFFFFFFFFFFF
310
FFFFFFFFFFFFFFFFFFFFFFFFFFFFFFFFFFFFFFFFFFFFFFFFFFFFFFFFFFFFFFFF
310
52006F006F007400200045006E00740072007900000000000000000000000000
310
0000000000000000000000000000000000000000000000000000000000000000
310
16000500FFFFFFFFFFFFFFFF020000000A00030000000000C000000000000046
310
00000000000000000000000020C3F2C652A0C80103000000C000000000000000
310
01004F006C006500000000000000000000000000000000000000000000000000
310
0000000000000000000000000000000000000000000000000000000000000000
310
0A000200FFFFFFFFFFFFFFFFFFFFFFFF00000000000000000000000000000000
310
0000000000000000000000000000000000000000000000001400000000000000
310
010043006F006D0070004F0062006A0000000000000000000000000000000000
310
0000000000000000000000000000000000000000000000000000000000000000
310
120002010100000003000000FFFFFFFF00000000000000000000000000000000
310
0000000000000000000000000000000000000000010000004D00000000000000
310
01004F006C006500310030004E00610074006900760065000000000000000000
310
0000000000000000000000000000000000000000000000000000000000000000
310
1A000200FFFFFFFFFFFFFFFFFFFFFFFF00000000000000000000000000000000
310
000000000000000000000000000000000000000004000000C41C000000000000
310
FEFFFFFF02000000FEFFFFFFFFFFFFFFFFFFFFFFFFFFFFFFFFFFFFFFFFFFFFFF
310
FFFFFFFFFFFFFFFFFFFFFFFFFFFFFFFFFFFFFFFFFFFFFFFFFFFFFFFFFFFFFFFF
310
FFFFFFFFFFFFFFFFFFFFFFFFFFFFFFFFFFFFFFFFFFFFFFFFFFFFFFFFFFFFFFFF
310
FFFFFFFFFFFFFFFFFFFFFFFFFFFFFFFFFFFFFFFFFFFFFFFFFFFFFFFFFFFFFFFF
310
FFFFFFFFFFFFFFFFFFFFFFFFFFFFFFFFFFFFFFFFFFFFFFFFFFFFFFFFFFFFFFFF
310
FFFFFFFFFFFFFFFFFFFFFFFFFFFFFFFFFFFFFFFFFFFFFFFFFFFFFFFFFFFFFFFF
310
FFFFFFFFFFFFFFFFFFFFFFFFFFFFFFFFFFFFFFFFFFFFFFFFFFFFFFFFFFFFFFFF
310
FFFFFFFFFFFFFFFFFFFFFFFFFFFFFFFFFFFFFFFFFFFFFFFFFFFFFFFFFFFFFFFF
310
FFFFFFFFFFFFFFFFFFFFFFFFFFFFFFFFFFFFFFFFFFFFFFFFFFFFFFFFFFFFFFFF
310
FFFFFFFFFFFFFFFFFFFFFFFFFFFFFFFFFFFFFFFFFFFFFFFFFFFFFFFFFFFFFFFF
310
FFFFFFFFFFFFFFFFFFFFFFFFFFFFFFFFFFFFFFFFFFFFFFFFFFFFFFFFFFFFFFFF
310
FFFFFFFFFFFFFFFFFFFFFFFFFFFFFFFFFFFFFFFFFFFFFFFFFFFFFFFFFFFFFFFF
310
FFFFFFFFFFFFFFFFFFFFFFFFFFFFFFFFFFFFFFFFFFFFFFFFFFFFFFFFFFFFFFFF
310
FFFFFFFFFFFFFFFFFFFFFFFFFFFFFFFFFFFFFFFFFFFFFFFFFFFFFFFFFFFFFFFF
310
FFFFFFFFFFFFFFFFFFFFFFFFFFFFFFFFFFFFFFFFFFFFFFFFFFFFFFFFFFFFFFFF
310
FFFFFFFFFFFFFFFFFFFFFFFFFFFFFFFFFFFFFFFFFFFFFFFFFFFFFFFFFFFFFFFF
310
0100000200000000000000000000000000000000FFFFFFFFFFFFFFFFFFFFFFFF
310
FFFFFFFFFFFFFFFFFFFFFFFFFFFFFFFFFFFFFFFFFFFFFFFFFFFFFFFFFFFFFFFF
310
0100FEFF030A0000FFFFFFFF0A00030000000000C00000000000004607000000
310
5042727573680007000000504272757368000700000050427275736800F439B2
310
71000000000000000000000000FFFFFFFFFFFFFFFFFFFFFFFFFFFFFFFFFFFFFF
310
FFFFFFFFFFFFFFFFFFFFFFFFFFFFFFFFFFFFFFFFFFFFFFFFFFFFFFFFFFFFFFFF
310
FFFFFFFFFFFFFFFFFFFFFFFFFFFFFFFFFFFFFFFFFFFFFFFFFFFFFFFFFFFFFFFF
310
FFFFFFFFFFFFFFFFFFFFFFFFFFFFFFFFFFFFFFFFFFFFFFFFFFFFFFFFFFFFFFFF
310
FFFFFFFFFFFFFFFFFFFFFFFFFFFFFFFFFFFFFFFFFFFFFFFFFFFFFFFFFFFFFFFF
310
FFFFFFFFFFFFFFFFFFFFFFFFFFFFFFFFFFFFFFFFFFFFFFFFFFFFFFFFFFFFFFFF
310
FFFFFFFFFFFFFFFFFFFFFFFFFFFFFFFFFFFFFFFFFFFFFFFFFFFFFFFFFFFFFFFF
310
FFFFFFFFFFFFFFFFFFFFFFFFFFFFFFFFFFFFFFFFFFFFFFFFFFFFFFFFFFFFFFFF
310
FFFFFFFFFFFFFFFFFFFFFFFFFFFFFFFFFFFFFFFFFFFFFFFFFFFFFFFFFFFFFFFF
310
FFFFFFFFFFFFFFFFFFFFFFFFFFFFFFFFFFFFFFFFFFFFFFFFFFFFFFFFFFFFFFFF
310
FFFFFFFFFFFFFFFFFFFFFFFFFFFFFFFFFFFFFFFFFFFFFFFFFFFFFFFFFFFFFFFF
310
FFFFFFFFFFFFFFFFFFFFFFFFFFFFFFFFFFFFFFFFFFFFFFFFFFFFFFFFFFFFFFFF
310
C01C0000424DB61C000000000000360000002800000080000000130000000100
310
180000000000801C000000000000000000000000000000000000FFFFFFFFFFFF
310
FFFFFFFFFFFFFFFFFFFFFFFFFFFFFFFFFFFFFFFFFF6666660808081212120C0C
310
0C353535FFFFFFFFFFFFFFFFFFFFFFFFFFFFFFFFFFFFFFFFFFFFFFFFFFFFFFFF
310
FFFFC0C0C0454545151515121212121212121212121212131313141414151515
310
1515151616161818181818181919191919191E1E1E1E1E1E484848B0B0B0FFFF
310
FFFFFFFFFFFFFFD4D4D42424242424242424242E2E2E2E2E2EF1F1F1FFFFFFFF
310
FFFFFFFFFFFFFFFFFFFFFFFFFFFFFFFFFFDEDEDE4B4B4B333333333333383838
310
3A3A3A3838382C2C2C5E5E5EEBEBEBFFFFFFF1F1F14949494242424444444444
310
444D4D4DF5F5F5FFFFFFA5A5A5434343505050484848999999FFFFFFFFFFFFFF
310
FFFFFFFFFFFFFFFFFFFFFFFFFFFFFFFFFFFFFFFFFFFFFFFFFFFFFFFFFFBCBCBC
310
6666666666667171716C6C6C9A9A9AFFFFFFFFFFFFFFFFFFE9E9E99393938181
310
818080808282828282828484848484848585858888888888888989898B8B8B8C
310
8C8C8D8D8D8F8F8F8F8F8F909090909090929292919191999999FFFFFFFFFFFF
310
FFFFFFFFFFFFFFFFFFFFFFFFFFFFFFFFFFFFFFFFFF5D5D5D0000000202020000
310
00272727FFFFFFFFFFFFFFFFFFFFFFFFFFFFFFFFFFFFFFFFFFFFFFFFFFFFFFA6
310
A6A6000000000000020202030303020202020202030303020202020202020202
310
0202020202020202020202020202020101010000000000000000000000006B6B
310
6BFFFFFFFFFFFFCECECE000000000000000000080808080808EDEDEDFFFFFFFF
310
FFFFFFFFFFFFFFFFFFFFFFFFFFFF9B9B9B000000000000000000000000000000
310
000000000000838383FFFFFFFFFFFFFFFFFFECECEC0606060000000000000000
310
00050505EEEEEEFFFFFF7B7B7B000000000000000000656565FFFFFFFFFFFFFF
310
FFFFFFFFFFFFFFFFFFFFFFFFFFFFFFFFFFFFFFFFFFFFFFFFFFFFFFFFFF888888
310
0000000000000000000000003F3F3FFFFFFFFFFFFFC1C1C10000000000000000
310
0000000000000000000000000000000000000000000000000000000000000000
310
0000000000000000000000000000000000000000000000030303FFFFFFFFFFFF
310
FFFFFFFFFFFFFFFFFFFFFFFFFFFFFFFFFFFFFFFFFF5E5E5E0000000404040000
310
00252525FFFFFFFFFFFFFFFFFFFFFFFFFFFFFFFFFFFFFFFFFFFFFFFFFEFEFE13
310
1313000000050505030303000000000000000000000000000000000000000000
310
0000000000000000000000000000000000000000000000000505050101010000
310
00CDCDCDFFFFFFCECECE0303030202020101010B0B0B0B0B0BEDEDEDFFFFFFFF
310
FFFFFFFFFFFFFFFFF7F7F7595959000000000000050505000000000000000000
310
383838D8D8D8FFFFFFFFFFFFFFFFFFFFFFFFEDEDED0B0B0B0101010101010101
310
010B0B0BEFEFEFFFFFFF7F7F7F000000050505000000686868FFFFFFFFFFFFFF
310
FFFFFFFFFFFFFFFFFFFFFFFFFFFFFFFFFFFFFFFFFFFFFFFFFFFFFFFFFF8D8D8D
310
000000000000040404000000464646FFFFFFFFFFFF2E2E2E0000000404040404
310
0400000000000000000000000000000000000000000000000000000000000000
310
0000000000000000000000000000030303050505030303121212FFFFFFFFFFFF
310
FFFFFFFFFFFFFFFFFFFFFFFFFFFFFFFFFFFFFFFFFF5F5F5F0000000505050000
310
00242424FFFFFFFFFFFFFFFFFFFFFFFFFFFFFFFFFFFFFFFFFFFFFFFFD9D9D900
310
00000303030404040000007070709D9D9D9D9D9D979797979797969696939393
310
9292928F8F8F8C8C8C8A8A8A8B8B8B7E7E7E1313131313130101010404040000
310
00858585FFFFFFCECECE0404040202020101010C0C0C0C0C0CEDEDEDFFFFFFFF
310
FFFFFFFFFFCBCBCB2323230000000505050404040000000606060606068D8D8D
310
FFFFFFFFFFFFFFFFFFFFFFFFFFFFFFFFFFFFEDEDED0C0C0C0101010101010101
310
010B0B0BEFEFEFFFFFFF7F7F7F000000050505000000686868FFFFFFFFFFFFFF
310
FFFFFFFFFFFFFFFFFFFFFFFFFFFFFFFFFFFFFFFFFFFFFFFFFFFFFFFFFF8D8D8D
310
000000000000050505000000444444FFFFFFFEFEFE0505050101010404040101
310
015A5A5A66666666666664646464646464646464646463636362626262626260
310
60606060606060606060605E5E5E000000040404030303121212FFFFFFFFFFFF
310
FFFFFFFFFFFFFFFFFFFFFFFFFFFFFFFFFFFFFFFFFF5F5F5F0000000404040000
310
00232323FFFFFFFFFFFFFFFFFFFFFFFFFFFFFFFFFFFFFFFFFFFFFFFFD2D2D200
310
0000030303020202060606FFFFFFFFFFFFFFFFFFFFFFFFFFFFFFFFFFFFFFFFFF
310
FFFFFFFFFFFFFFFFFFFFFFFFFFFFFFFFFFFF6666666666660000000404040000
310
00808080FFFFFFCECECE0404040202020101010B0B0B0B0B0BEDEDEDFFFFFFFF
310
FFFF8C8C8C0303030000000C0C0C0000000000003E3E3ED9D9D9D9D9D9FFFFFF
310
FFFFFFFFFFFFFFFFFFFFFFFFFFFFFFFFFFFFEDEDED0C0C0C0101010101010101
310
010B0B0BEFEFEFFFFFFF7F7F7F000000050505000000676767FFFFFFFFFFFFFF
310
FFFFFFFFFFFFFFFFFFFFFFFFFFFFFFFFFFFFFFFFFFFFFFFFFFFFFFFFFF8D8D8D
310
000000000000040404000000444444FFFFFFFFFFFF0707070101010303030000
310
00F7F7F7FFFFFFFFFFFFFFFFFFFFFFFFFFFFFFFFFFFFFFFFFFFFFFFFFFFFFFFF
310
FFFFFFFFFFFFFFFFFFFFFFFFFFFF000000030303030303111111FFFFFFFFFFFF
310
FFFFFFFFFFFFFFFFFFFFFFFFFFFFFFFFFFFFFFFFFF6161610000000404040000
310
00222222FFFFFFFFFFFFFFFFFFFFFFFFFFFFFFFFFFFFFFFFFFFFFFFFD3D3D300
310
0000020202020202070707FCFCFCFFFFFFFFFFFFFFFFFFFFFFFFFFFFFFFFFFFF
310
FFFFFFFFFFFFFFFFFFFFFFFFFFFFFFFFFFFF6969696969690000000404040000
310
00818181FFFFFFCECECE0404040202020101010D0D0D0D0D0DFAFAFAEEEEEE4D
310
4D4D0000000000000606060000000D0D0D949494FFFFFFFFFFFFFFFFFFFFFFFF
310
FFFFFFFFFFFFFFFFFFFFFFFFFFFFFFFFFFFFEDEDED0C0C0C0101010101010101
310
010B0B0BEFEFEFFFFFFF7F7F7F000000050505000000676767FFFFFFFFFFFFFF
310
FFFFFFFFFFFFFFFFFFFFFFFFFFFFFFFFFFFFFFFFFFFFFFFFFFFFFFFFFF8D8D8D
310
000000000000040404000000434343FFFFFFFEFEFE0505050101010303030101
310
01A9A9A9C1C1C1C1C1C1BEBEBEC1C1C1C1C1C1C2C2C2C3C3C3C4C4C4C5C5C5C5
310
C5C5C8C8C8CACACACACACACCCCCC000000030303030303111111FFFFFFFFFFFF
310
FFFFFFFFFFFFFFFFFFFFFFFFFFFFFFFFFFFFFFFFFF6161610000000404040000
310
00212121FFFFFFFFFFFFFFFFFFFFFFFFFFFFFFFFFFFFFFFFFFFFFFFFD5D5D500
310
0000020202020202060606FCFCFCFFFFFFFFFFFFFFFFFFFFFFFFFFFFFFFFFFFF
310
FFFFFFFFFFFFFFFFFFFFFFFFFFFFFFFFFFFF6868686868680000000505050000
310
00818181FFFFFFCCCCCC0303030202020202020D0D0D0D0D0D9898981D1D1D00
310
0000030303040404010101545454E1E1E1FFFFFFFFFFFFFFFFFFFFFFFFFFFFFF
310
FFFFFFFFFFFFFFFFFFFFFFFFFFFFFFFFFFFFEDEDED0C0C0C0101010101010101
310
010B0B0BEFEFEFFFFFFF7F7F7F000000050505000000666666FFFFFFFFFFFFFF
310
FFFFFFFFFFFFFFFFFFFFFFFFFFFFFFFFFFFFFFFFFFFFFFFFFFFFFFFFFF8D8D8D
310
000000000000040404000000424242FFFFFFFFFFFF1E1E1E0000000505050303
310
0300000000000000000000000000000000000001010101010101010102020202
310
0202030303040404040404050505020202040404030303111111FFFFFFFFFFFF
310
FFFFFFFFFFFFFFFFFFFFFFFFFFFFFFFFFFFFFFFFFF6363630000000505050000
310
001F1F1FFFFFFFFFFFFFFFFFFFFFFFFFFFFFFFFFFFFFFEFEFEFFFFFFD5D5D500
310
0000030303020202050505FCFCFCFFFFFFFFFFFFFFFFFFFFFFFFFFFFFFFFFFFF
310
FFFFFFFFFFFFFFFFFFFFFFFFFFFFFFFFFFFF6868686868680000000404040000
310
00818181FFFFFFCDCDCD03030302020203030307070707070745454500000000
310
00000404040303030303039E9E9EFFFFFFFFFFFFFFFFFFFFFFFFFFFFFFFFFFFF
310
FFFFFFFFFFFFFFFFFFFFFFFFFFFFFFFFFFFFEDEDED0C0C0C0101010101010101
310
010B0B0BEEEEEEFFFFFF7F7F7F000000050505000000666666FFFFFFFFFFFFFF
310
FFFFFFFFFFFFFFFFFFFFFFFFFFFFFFFFFFFFFFFFFFFFFFFFFFFFFFFFFF8D8D8D
310
000000000000040404000000434343FFFFFFFFFFFF9C9C9C0000000000000000
310
0000000000000000000000000000000000000000000000000000000000000000
310
0000000000000000000000000000040404050505030303111111FFFFFFFFFFFF
310
FFFFFFFFFFFFFFFFFFFFFFFFFFFFFFFFFFFFFFFFFF6262620000000505050000
310
00212121FFFFFFFFFFFFFFFFFFFFFFFFFFFFFFFFFFFFFEFEFEFFFFFFD5D5D500
310
0000020202010101070707FDFDFDFFFFFFFFFFFFFFFFFFFFFFFFFFFFFFFFFFFF
310
FFFFFFFFFFFFFFFFFFFFFFFFFFFFFFFFFFFF6969696969690000000505050000
310
00818181FFFFFFCCCCCC0303030202020101010D0D0D0D0D0DF6F6F6B3B3B319
310
1919000000030303020202000000575757E8E8E8FFFFFFFFFFFFFFFFFFFFFFFF
310
FFFFFFFFFFFFFFFFFFFFFFFFFFFFFFFFFFFFEDEDED0C0C0C0101010101010101
310
010C0C0CEDEDEDFFFFFF7F7F7F000000050505000000666666FFFFFFFFFFFFFF
310
FFFFFFFFFFFFFFFFFFFFFFFFFFFFFFFFFFFFFFFFFFFFFFFFFFFFFFFFFF8D8D8D
310
000000000000040404000000434343FFFFFFFFFFFFFFFFFFA8A8A83C3C3C2E2E
310
2E2C2C2C2B2B2B2B2B2B2A2A2A2A2A2A29292928282827272727272726262626
310
2626252525252525252525242424000000040404030303111111FFFFFFFFFFFF
310
FFFFFFFFFFFFFFFFFFFFFFFFFFFFFFFFFFFFFFFFFF6161610000000505050000
310
00212121FFFFFFFFFFFFFFFFFFFFFFFFFFFFFFFFFFFFFFFFFFFFFFFFD2D2D200
310
0000030303020202060606FFFFFFFFFFFFFFFFFFFFFFFFFFFFFFFFFFFFFFFFFF
310
FFFFFFFFFFFFFFFFFFFFFFFFFFFFFFFFFFFF6666666666660000000505050000
310
00808080FFFFFFCCCCCC0202020202020101010B0B0B0B0B0BECECECFFFFFFE5
310
E5E54D4D4D0000000000000707070000001B1B1BABABABFFFFFFFFFFFFFFFFFF
310
FFFFFFFFFFFFFFFFFFFFFFFFFFFFFFFFFFFFEDEDED0C0C0C0101010101010101
310
010B0B0BEEEEEEFFFFFF7F7F7F000000050505000000696969FFFFFFFFFFFFFF
310
FFFFFFFFFFFFFFFFFFFFFFFFFFFFFFFFFFFFFFFFFFFFFFFFFFFFFFFFFF909090
310
000000000000040404000000414141FFFFFFFFFFFFFFFFFFFFFFFFFFFFFFFDFD
310
FDFAFAFAF9F9F9F9F9F9F9F9F9F7F7F7F7F7F7F7F7F7F5F5F5F5F5F5F4F4F4F4
310
F4F4F2F2F2F4F4F4F4F4F4F7F7F7000000040404030303111111FFFFFFFFFFFF
310
FFFFFFFFFFFFFFFFFFFFFFFFFFFFFFFFFFFFFFFFFF6161610000000505050000
310
00212121FFFFFFFFFFFFFFFFFFFFFFFFFFFFFFFFFFFFFFFFFFFFFFFFD2D2D200
310
0000030303020202060606FFFFFFFFFFFFFFFFFFFFFFFFFFFFFFFFFFFFFFFFFF
310
FFFFFFFFFFFFFFFFFFFFFFFFFFFFFFFFFFFF6666666666660000000505050000
310
00808080FFFFFFCCCCCC0202020202020101010B0B0B0B0B0BECECECFFFFFFE5
310
E5E54D4D4D0000000000000707070000001B1B1BABABABFFFFFFFFFFFFFFFFFF
310
FFFFFFFFFFFFFFFFFFFFFFFFFFFFFFFFFFFFEDEDED0C0C0C0101010101010101
310
010B0B0BEEEEEEFFFFFF7F7F7F000000050505000000696969FFFFFFFFFFFFFF
310
FFFFFFFFFFFFFFFFFFFFFFFFFFFFFFFFFFFFFFFFFFFFFFFFFFFFFFFFFF909090
310
000000000000040404000000414141FFFFFFFFFFFFFFFFFFFFFFFFFFFFFFFDFD
310
FDFAFAFAF9F9F9F9F9F9F9F9F9F7F7F7F7F7F7F7F7F7F5F5F5F5F5F5F4F4F4F4
310
F4F4F2F2F2F4F4F4F4F4F4F7F7F7000000040404030303111111FFFFFFFFFFFF
310
FFFFFFFFFFFFFFFFFFFFFFFFFFFFFFFFFFFFFFFFFF5F5F5F0000000505050000
310
00222222FFFFFFFFFFFFFFFFFFFFFFFFFFFFFFFFFFFFFFFFFFFFFFFFDBDBDB00
310
0000030303040404000000585858858585858585838383858585868686898989
310
8989898D8D8D8E8E8E9191919494948989891616161616160101010404040000
310
00828282FFFFFFCCCCCC0303030202020101010B0B0B0B0B0BECECECFFFFFFFF
310
FFFFFFFFFF8F8F8F0A0A0A000000080808000000000000636363636363EDEDED
310
FFFFFFFFFFFFFFFFFFFFFFFFFFFFFFFFFFFFECECEC0C0C0C0101010101010101
310
010B0B0BEFEFEFFFFFFF7F7F7F000000050505000000555555D8D8D8D1D1D1D1
310
D1D1D1D1D1D2D2D2D2D2D2D2D2D2D4D4D4D4D4D4D4D4D4D5D5D5DCDCDC565656
310
000000000000050505000000424242FFFFFFFFFFFFFFFFFFFFFFFFFFFFFFFFFF
310
FFFFFFFFFFFFFFFFFFFFFFFFFFFFFFFFFFFFFFFFFFFFFFFFFFFFFFFFFFFFFFFF
310
FFFFFFFFFFFFFFFFFFFFFFFDFDFD000000030303030303101010FFFFFFFFFFFF
310
FFFFFFFFFFFFFFFFFFFFFFFFFFFFFFFFFFFFFFFFFF5F5F5F0000000505050000
310
00212121FFFFFFFFFFFFFFFFFFFFFFFFFFFFFFFFFFFFFFFFFFFFFFFFFFFFFF1D
310
1D1D000000040404040404000000000000000000000000000000000000000000
310
0000000000000000000000000000000000000000000000000505050202020000
310
00BFBFBFFFFFFFCBCBCB0202020202020101010C0C0C0C0C0CECECECFFFFFFFF
310
FFFFFFFFFFFFFFFFD2D2D23535350000000101010202020000000000001F1F1F
310
B5B5B5FFFFFFFFFFFFFFFFFFFFFFFFFFFFFFECECEC0C0C0C0101010101010101
310
010B0B0BEFEFEFFFFFFF7F7F7F00000005050504040400000000000000000000
310
0000000000000000000000000000000000000000000000000000000000000000
310
0404040404040C0C0C0000006E6E6EFFFFFFFFFFFF7C7C7C4646464D4D4D4D4D
310
4D4D4D4D4D4D4D4D4D4D4D4D4D4D4D4D4D4D4D4D4D4D4C4C4C4D4D4D4E4E4E4F
310
4F4F505050555555555555303030000000040404010101151515FFFFFFFFFFFF
310
FFFFFFFFFFFFFFFFFFFFFFFFFFFFFFFFFFFFFFFFFF6060600000000505050000
310
001F1F1FFFFFFFFFFFFFFFFFFFFFFFFFFFFFFFFFFFFFFFFFFFFFFFFFFFFFFFB3
310
B3B3000000000000000000000000000000000000000000000000000000000000
310
0000000000000000000000000000000000000000000000000000000000005858
310
58FFFFFFFFFFFFCCCCCC0303030202020101010B0B0B0B0B0BEAEAEAFFFFFFFF
310
FFFFFFFFFFFFFFFFFFFFFFFEFEFE777777010101000000010101010101000000
310
000000656565F0F0F0FFFFFFFFFFFFFFFFFFEDEDED0A0A0A0000000000000000
310
000A0A0AEDEDEDFFFFFF7E7E7E00000003030303030303030302020202020202
310
0202020202020202020202020202020202020202020202020202020202030303
310
020202020202000000030303DADADAFFFFFFFFFFFF3F3F3F0000000000000000
310
0000000000000000000000000000000000000000000000000000000000000000
310
0000000000000000000000000000040404020202000000828282F1F1F1F1F1F1
310
F1F1F1F1F1F1F2F2F2F2F2F2F2F2F2F3F3F3FFFFFF5F5F5F0000000505050000
310
001E1E1EFFFFFFFCFCFCFCFCFCFCFCFCFBFBFBFDFDFDFDFDFDFEFEFEFEFEFEFF
310
FFFFC6C6C6464646131313131313131313131313131313121212121212121212
310
1111111111111111111010101010101010100F0F0F0F0F0F1C1C1C848484FEFE
310
FEFFFFFFFFFFFFCDCDCD0404040202020101010B0B0B0B0B0BEBEBEBFFFFFFFF
310
FFFFFFFFFFFFFFFFFFFFFFFFFFFFFFFFFFC0C0C0222222030303030303060606
310
030303000000222222BCBCBCFFFFFFFFFFFFECECEC0D0D0D0000000000000000
310
000B0B0BECECECFFFFFF7E7E7E00000000000000000000000000000000000000
310
0000000000000000000000000000000000000000000000000000000000000000
310
0000000000001C1C1CBBBBBBFFFFFFFFFFFFFFFFFF3F3F3F0000000000000000
310
0000000000000000000000000000000000000000000000000000000000000000
310
00000000000000000000000000000000000000004F4F4FFFFFFF111111101010
310
1010101111111313131313131313131515151919190909090303030505050404
310
040404043030302E2E2E2F2F2F2F2F2F3131313333333333333636362F2F2F7F
310
7F7FFFFFFFFFFFFFFFFFFFFDFDFDFCFCFCFCFCFCFBFBFBFAFAFAF8F8F8F7F7F7
310
F7F7F7F6F6F6F5F5F5F3F3F3F3F3F3F0F0F0F4F4F4F4F4F4FFFFFFFFFFFFFFFF
310
FFFFFFFFFFFFFFCECECE0404040303030000000B0B0B0B0B0BEBEBEBFFFFFFFF
310
FFFFFFFFFFFFFFFFFFFFFFFFFFFFFFFFFFFFFFFFF5F5F5D3D3D3D3D3D3D5D5D5
310
D3D3D3D1D1D1C6C6C6C9C9C9FCFCFCFFFFFFFFFFFFD5D5D5D4D4D4D4D4D4D4D4
310
D4D1D1D1FDFDFDFFFFFFDFDFDFBBBBBBBDBDBDBDBDBDBBBBBBB9B9B9B8B8B8B8
310
B8B8B5B5B5B4B4B4B3B3B3B1B1B1AFAFAFAEAEAEADADADABABABA9A9A9A9A9A9
310
C4C4C4C4C4C4FDFDFDFFFFFFFFFFFFFFFFFFFFFFFFB8B8B89B9B9B9D9D9D9B9B
310
9B9B9B9B9999999999999999999999999999999999999999999999999999999A
310
9A9A989898979797979797979797989898CCCCCCFFFFFFFFFFFF010101000000
310
0000000000000000000000000000000000000000000303030505050505050404
310
0404040400000000000000000000000000000000000000000000000000000055
310
5555FFFFFFFFFFFFFFFFFFFFFFFFFFFFFFFFFFFFFFFFFFFFFFFFFFFFFFFFFFFF
310
FFFFFFFFFFFFFFFFFFFFFFFFFFFFFFFFFFFFFFFFFFFFFFFFFFFFFFFFFFFFFFFF
310
FFFFFFFFFFFFFFCECECE0404040101010101010B0B0B0B0B0BEBEBEBFFFFFFFF
310
FFFFFFFFFFFFFFFFFFFFFFFFFFFFFFFFFFFFFFFFFFFFFFFFFFFFFFFFFFFFFFFF
310
FFFFFFFFFFFFFFFFFFFFFFFFFFFFFFFFFFFFF5F5F57979797272727373737373
310
737A7A7AF6F6F6FFFFFFFFFFFFFFFFFFFFFFFFFFFFFFFFFFFFFFFFFFFFFFFFFF
310
FFFFFFFFFFFFFFFFFFFFFFFFFFFFFFFFFFFFFFFFFFFFFFFFFFFFFFFFFFFFFFFF
310
FFFFFFFFFFFFFFFFFFFFFFFFFFFFFFFFFFFFFFFFFFFFFFFFFFFFFFFFFFFFFFFF
310
FFFFFFFFFFFFFFFFFFFFFFFFFFFFFFFFFFFFFFFFFFFFFFFFFFFFFFFFFFFFFFFF
310
FFFFFFFFFFFFFFFFFFFFFFFFFFFFFFFFFFFFFFFFFFFFFFFFFFFF030303020202
310
0303030202020303030303030303030303030303030303030303030303030303
310
030303030303030303030303030303030303030303030303030303030000005A
310
5A5AFFFFFFFFFFFFFFFFFFFFFFFFFFFFFFFFFFFFFFFFFFFFFFFFFFFFFFFFFFFF
310
FFFFFFFFFFFFFFFFFFFFFFFFFFFFFFFFFFFFFFFFFFFFFFFFFFFFFFFFFFFFFFFF
310
FFFFFFFFFFFFFFCECECE0303030202020101010A0A0A0A0A0AEBEBEBFFFFFFFF
310
FFFFFFFFFFFFFFFFFFFFFFFFFFFFFFFFFFFFFFFFFFFFFFFFFFFFFFFFFFFFFFFF
310
FFFFFFFFFFFFFFFFFFFFFFFFFFFFFFFFFFFFEDEDED0000000000000000000000
310
00000000EDEDEDFFFFFFFFFFFFFFFFFFFFFFFFFFFFFFFFFFFFFFFFFFFFFFFFFF
310
FFFFFFFFFFFFFFFFFFFFFFFFFFFFFFFFFFFFFFFFFFFFFFFFFFFFFFFFFFFFFFFF
310
FFFFFFFFFFFFFFFFFFFFFFFFFFFFFFFFFFFFFFFFFFFFFFFFFFFFFFFFFFFFFFFF
310
FFFFFFFFFFFFFFFFFFFFFFFFFFFFFFFFFFFFFFFFFFFFFFFFFFFFFFFFFFFFFFFF
310
FFFFFFFFFFFFFFFFFFFFFFFFFFFFFFFFFFFFFFFFFFFFFFFFFFFF141414121212
310
1212121212121111111212121212121111111111111111111111111111111010
310
101010101010100F0F0F1010101010101010100F0F0F0F0F0F0F0F0F03030364
310
6464FFFFFFFFFFFFFFFFFFFFFFFFFFFFFFFFFFFFFFFFFFFFFFFFFFFFFFFFFFFF
310
FFFFFFFFFFFFFFFFFFFFFFFFFFFFFFFFFFFFFFFFFFFFFFFFFFFFFFFFFFFFFFFF
310
FFFFFFFFFFFFFFD0D0D00A0A0A070707060606111111111111ECECECFFFFFFFF
310
FFFFFFFFFFFFFFFFFFFFFFFFFFFFFFFFFFFFFFFFFFFFFFFFFFFFFFFFFFFFFFFF
310
FFFFFFFFFFFFFFFFFFFFFFFFFFFFFFFFFFFFF0F0F00E0E0E0000000101010101
310
010C0C0CEFEFEFFFFFFFFFFFFFFFFFFFFFFFFFFFFFFFFFFFFFFFFFFFFFFFFFFF
310
FFFFFFFFFFFFFFFFFFFFFFFFFFFFFFFFFFFFFFFFFFFFFFFFFFFFFFFFFFFFFFFF
310
FFFFFFFFFFFFFFFFFFFFFFFFFFFFFFFFFFFFFFFFFFFFFFFFFFFFFFFFFFFFFFFF
310
FFFFFFFFFFFFFFFFFFFFFFFFFFFFFFFFFFFFFFFFFFFFFFFFFFFFFFFFFFFFFFFF
310
FFFFFFFFFFFFFFFFFFFFFFFFFFFFFFFFFFFFFFFFFFFFFFFFFFFF000000000000
310
0000000000000000000000000000000000000000000000000000000000000000
310
0000000000000000000000000000000000000000000000000000000000000000
310
0000000000000000000000000000000000000000000000000000000000000000
310
0000000000000000000000000000000000000000000000000000000000000000
310
0000000000000000000000000000000000000000000000000000000000000000
310
0000000000000000000000000000000000000000000000000000000000000000
310
0000000000000000000000000000000000000000000000000000000000000000
310
0000000000000000000000000000000000000000000000000000000000000000
310
0000000000000000000000000000000000000000000000000000000000000000
310
0000000000000000000000000000000000000000000000000000000000000000
  1
OLE
  0
TEXT
  5
9E9
330
1F
100
AcDbEntity
  8
99
  6
Continuous
 62
     7
370
    30
100
AcDbText
 10
331.3227052117708
 20
11.1939637925691
 30
0.0
 40
4.0
  1
株式会社トキナー
  7
KCADTEXTSTANDARD
100
AcDbText
1001
Sigma
1000

  0
TEXT
  5
9EA
330
1F
100
AcDbEntity
  8
99
  6
Continuous
 62
     7
370
    30
100
AcDbText
 10
376.1219571686692
 20
11.87011139153276
 30
0.0
 40
4.0
  1
Tokina Co.,Ltd.
 41
0.7000000000000001
  7
KCADTEXTSTANDARD
100
AcDbText
1001
Sigma
1000

  0
TEXT
  5
B4F
330
1F
100
AcDbEntity
  8
99
  6
Continuous
 62
     7
370
    30
100
AcDbText
 10
153.832049036487
 20
24.36041356360829
 30
0.0
 40
2.5
  1
図番登録
 41
0.7000000000000001
  7
KCADTEXTSTANDARD
100
AcDbText
1001
Sigma
1000

  0
TEXT
  5
B50
330
1F
100
AcDbEntity
  8
99
  6
Continuous
 62
     7
370
    30
100
AcDbText
 10
153.3755979697133
 20
19.1847646098939
 30
0.0
 40
2.0
  1
2008.5.15
 41
0.7000000000000001
  7
KCADTEXTSTANDARD
100
AcDbText
1001
Sigma
1000

  0
ENDSEC
  0
SECTION
  2
OBJECTS
  0
DICTIONARY
  5
C
330
0
100
AcDbDictionary
281
     1
  3
ACAD_COLOR
350
6C
  3
ACAD_GROUP
350
D
  3
ACAD_LAYOUT
350
1A
  3
ACAD_MATERIAL
350
6B
  3
ACAD_MLINESTYLE
350
17
  3
ACAD_PLOTSETTINGS
350
19
  3
ACAD_PLOTSTYLENAME
350
E
  3
ACAD_TABLESTYLE
350
92
  3
ACDBHEADERROUNDTRIPXREC
350
C77
  3
AcDbVariableDictionary
350
59
  3
DWGPROPS
350
C7A
  3
KCADFRAMEINFO
350
2A7
  0
DICTIONARY
  5
6C
102
{ACAD_REACTORS
330
C
102
}
330
C
100
AcDbDictionary
281
     1
  0
DICTIONARY
  5
D
102
{ACAD_REACTORS
330
C
102
}
330
C
100
AcDbDictionary
281
     1
  3
*A1
350
3F3
  3
*A2
350
407
  3
*A3
350
40E
  3
*A4
350
415
  3
*A5
350
41C
  3
*A6
350
423
  0
DICTIONARY
  5
1A
102
{ACAD_REACTORS
330
C
102
}
330
C
100
AcDbDictionary
281
     1
  3
Model
350
22
  3
ﾚｲｱｳﾄ1
350
22F
  0
DICTIONARY
  5
6B
102
{ACAD_REACTORS
330
C
102
}
330
C
100
AcDbDictionary
281
     1
  0
DICTIONARY
  5
17
102
{ACAD_REACTORS
330
C
102
}
330
C
100
AcDbDictionary
281
     1
  3
Standard
350
18
  0
DICTIONARY
  5
19
102
{ACAD_REACTORS
330
C
102
}
330
C
100
AcDbDictionary
281
     1
  0
ACDBDICTIONARYWDFLT
  5
E
102
{ACAD_REACTORS
330
C
102
}
330
C
100
AcDbDictionary
281
     1
  3
Normal
350
F
100
AcDbDictionaryWithDefault
340
F
  0
DICTIONARY
  5
92
102
{ACAD_REACTORS
330
C
102
}
330
C
100
AcDbDictionary
281
     1
  0
DICTIONARY
  5
C77
102
{ACAD_REACTORS
330
C
102
}
330
C
100
AcDbDictionary
281
     1
  3
COLORDICT
350
C78
  3
MATERIALDICT
350
C79
  0
DICTIONARY
  5
59
102
{ACAD_REACTORS
330
C
102
}
330
C
100
AcDbDictionary
281
     1
  3
DIMASSOC
350
C76
  0
XRECORD
  5
C7A
102
{ACAD_REACTORS
330
C
102
}
330
C
100
AcDbXrecord
280
     1
  1
DWGPROPS COOKIE
  2

  3

  4

  6

  7

  8
fottrem
  9

300
=
301
=
302
=
303
=
304
=
305
=
306
=
307
=
308
=
309
=
 40
0.0
 41
2453353.717125822
 42
2453294.115895544
  1

 90
        0
  0
XRECORD
  5
2A7
102
{ACAD_REACTORS
330
C
102
}
330
C
100
AcDbXrecord
280
     1
  1
A3
 40
420.0
 40
297.0
 90
        1
 90
        1
  0
GROUP
  5
3F3
102
{ACAD_REACTORS
330
D
102
}
330
D
100
AcDbGroup
300
line with arrowBlockRef from kcad family
 70
     1
 71
     1
340
3F5
340
3F7
  0
GROUP
  5
407
102
{ACAD_REACTORS
330
D
102
}
330
D
100
AcDbGroup
300
group from kcad family
 70
     1
 71
     1
340
408
340
40A
340
40C
  0
GROUP
  5
40E
102
{ACAD_REACTORS
330
D
102
}
330
D
100
AcDbGroup
300
group from kcad family
 70
     1
 71
     1
340
40F
340
411
340
413
  0
GROUP
  5
415
102
{ACAD_REACTORS
330
D
102
}
330
D
100
AcDbGroup
300
group from kcad family
 70
     1
 71
     1
340
416
340
418
340
41A
  0
GROUP
  5
41C
102
{ACAD_REACTORS
330
D
102
}
330
D
100
AcDbGroup
300
group from kcad family
 70
     1
 71
     1
340
41D
340
41F
340
421
  0
GROUP
  5
423
102
{ACAD_REACTORS
330
D
102
}
330
D
100
AcDbGroup
300
group from kcad family
 70
     1
 71
     1
340
424
340
426
340
428
  0
LAYOUT
  5
22
102
{ACAD_REACTORS
330
1A
102
}
330
1A
100
AcDbPlotSettings
  1

  2
DWF ePlot.pc3
  4
ISO_A3_(297.00_x_420.00_MM)
  6

 40
5.793749809265136
 41
17.79375076293945
 42
5.79376220703125
 43
17.79376220703125
 44
297.0
 45
420.0
 46
0.0
 47
0.0
 48
0.0
 49
0.0
140
0.0
141
0.0
142
1.0
143
1.0
 70
 11952
 72
     1
 73
     1
 74
     2
  7

 75
    16
147
1.0
148
0.0
149
0.0
100
AcDbLayout
  1
Model
 70
     1
 71
     0
 10
0.0
 20
0.0
 11
420.0
 21
297.0
 12
0.0
 22
0.0
 32
0.0
 14
25.8189987163
 24
9.342313819960644
 34
0.0
 15
412.31900676123
 25
288.431941923775
 35
0.0
146
0.0
 13
0.0
 23
0.0
 33
0.0
 16
1.0
 26
0.0
 36
0.0
 17
0.0
 27
1.0
 37
0.0
 76
     0
330
1F
  0
LAYOUT
  5
22F
102
{ACAD_REACTORS
330
1A
102
}
330
1A
100
AcDbPlotSettings
  1

  2
D:\ACAD2000\plotters\HP DesignJet 700(System).pc3
  4

  6

 40
0.0
 41
0.0
 42
0.0
 43
0.0
 44
0.0
 45
0.0
 46
0.0
 47
0.0
 48
0.0
 49
0.0
140
0.0
141
0.0
142
1.0
143
1.0
 70
   688
 72
     0
 73
     0
 74
     5
  7
monochrome.ctb
 75
    16
147
1.0
148
0.0
149
0.0
100
AcDbLayout
  1
ﾚｲｱｳﾄ1
 70
     1
 71
     1
 10
0.0
 20
0.0
 11
12.0
 21
9.0
 12
0.0
 22
0.0
 32
0.0
 14
0.0
 24
0.0
 34
0.0
 15
0.0
 25
0.0
 35
0.0
146
0.0
 13
0.0
 23
0.0
 33
0.0
 16
1.0
 26
0.0
 36
0.0
 17
0.0
 27
1.0
 37
0.0
 76
     0
330
73
  0
MLINESTYLE
  5
18
102
{ACAD_REACTORS
330
17
102
}
330
17
100
AcDbMlineStyle
  2
Standard
 70
     0
  3

 62
   256
 51
90.0
 52
90.0
 71
     2
 49
0.5
 62
   256
  6
BYLAYER
 49
-0.5
 62
   256
  6
BYLAYER
  0
ACDBPLACEHOLDER
  5
F
102
{ACAD_REACTORS
330
E
102
}
330
E
  0
XRECORD
  5
C78
102
{ACAD_REACTORS
330
C77
102
}
330
C77
100
AcDbXrecord
280
     1
340
6C
  0
XRECORD
  5
C79
102
{ACAD_REACTORS
330
C77
102
}
330
C77
100
AcDbXrecord
280
     1
340
6B
  0
DICTIONARYVAR
  5
C76
102
{ACAD_REACTORS
330
59
102
}
330
59
100
DictionaryVariables
280
     0
  1
1
  0
ENDSEC
  0
EOF
