  0
SECTION
  2
HEADER
  9
$ACADVER
  1
AC1015
  9
$ACADMAINTVER
 70
     6
  9
$DWGCODEPAGE
  3
ANSI_932
  9
$INSBASE
 10
0.0
 20
0.0
 30
0.0
  9
$EXTMIN
 10
26.8189987163
 20
8.744179361722363
 30
0.0
  9
$EXTMAX
 10
413.31900676123
 20
288.431941923775
 30
0.0
  9
$LIMMIN
 10
0.0
 20
0.0
  9
$LIMMAX
 10
420.0
 20
297.0
  9
$ORTHOMODE
 70
     0
  9
$REGENMODE
 70
     1
  9
$FILLMODE
 70
     1
  9
$QTEXTMODE
 70
     0
  9
$MIRRTEXT
 70
     1
  9
$LTSCALE
 40
0.2
  9
$ATTMODE
 70
     1
  9
$TEXTSIZE
 40
3.2
  9
$TRACEWID
 40
1.0
  9
$TEXTSTYLE
  7
KCADTEXTSTANDARD
  9
$CLAYER
  8
0
  9
$CELTYPE
  6
Continuous
  9
$CECOLOR
 62
   134
  9
$CELTSCALE
 40
1.0
  9
$DISPSILH
 70
     0
  9
$DIMSCALE
 40
1.0
  9
$DIMASZ
 40
3.0
  9
$DIMEXO
 40
1.0
  9
$DIMDLI
 40
8.0
  9
$DIMRND
 40
0.0
  9
$DIMDLE
 40
0.0
  9
$DIMEXE
 40
1.0
  9
$DIMTP
 40
0.0
  9
$DIMTM
 40
0.0
  9
$DIMTXT
 40
3.2
  9
$DIMCEN
 40
2.5
  9
$DIMTSZ
 40
0.0
  9
$DIMTOL
 70
     0
  9
$DIMLIM
 70
     0
  9
$DIMTIH
 70
     0
  9
$DIMTOH
 70
     0
  9
$DIMSE1
 70
     0
  9
$DIMSE2
 70
     0
  9
$DIMTAD
 70
     1
  9
$DIMZIN
 70
     8
  9
$DIMBLK
  1

  9
$DIMASO
 70
     1
  9
$DIMSHO
 70
     1
  9
$DIMPOST
  1

  9
$DIMAPOST
  1

  9
$DIMALT
 70
     0
  9
$DIMALTD
 70
     2
  9
$DIMALTF
 40
25.4
  9
$DIMLFAC
 40
1.0
  9
$DIMTOFL
 70
     1
  9
$DIMTVP
 40
0.0
  9
$DIMTIX
 70
     0
  9
$DIMSOXD
 70
     0
  9
$DIMSAH
 70
     1
  9
$DIMBLK1
  1
KCAD_OPEN30
  9
$DIMBLK2
  1
KCAD_OPEN30
  9
$DIMSTYLE
  2
Standard
  9
$DIMCLRD
 70
     0
  9
$DIMCLRE
 70
     0
  9
$DIMCLRT
 70
     0
  9
$DIMTFAC
 40
0.667
  9
$DIMGAP
 40
0.5333000000000001
  9
$DIMJUST
 70
     0
  9
$DIMSD1
 70
     0
  9
$DIMSD2
 70
     0
  9
$DIMTOLJ
 70
     1
  9
$DIMTZIN
 70
     8
  9
$DIMALTZ
 70
     0
  9
$DIMALTTZ
 70
     0
  9
$DIMUPT
 70
     0
  9
$DIMDEC
 70
     3
  9
$DIMTDEC
 70
     3
  9
$DIMALTU
 70
     2
  9
$DIMALTTD
 70
     2
  9
$DIMTXSTY
  7
KCADDIMSTANDARD
  9
$DIMAUNIT
 70
     0
  9
$DIMADEC
 70
     3
  9
$DIMALTRND
 40
0.0
  9
$DIMAZIN
 70
     2
  9
$DIMDSEP
 70
    46
  9
$DIMATFIT
 70
     3
  9
$DIMFRAC
 70
     0
  9
$DIMLDRBLK
  1
KCAD_OPEN
  9
$DIMLUNIT
 70
     2
  9
$DIMLWD
 70
    -2
  9
$DIMLWE
 70
    -2
  9
$DIMTMOVE
 70
     0
  9
$LUNITS
 70
     2
  9
$LUPREC
 70
     4
  9
$SKETCHINC
 40
1.0
  9
$FILLETRAD
 40
5.0
  9
$AUNITS
 70
     0
  9
$AUPREC
 70
     0
  9
$MENU
  1
.
  9
$ELEVATION
 40
0.0
  9
$PELEVATION
 40
0.0
  9
$THICKNESS
 40
0.0
  9
$LIMCHECK
 70
     0
  9
$CHAMFERA
 40
5.0
  9
$CHAMFERB
 40
5.0
  9
$CHAMFERC
 40
5.0
  9
$CHAMFERD
 40
0.7853981633974483
  9
$SKPOLY
 70
     0
  9
$TDCREATE
 40
2453354.092125822
  9
$TDUCREATE
 40
2453353.717125822
  9
$TDUPDATE
 40
2453294.504627813
  9
$TDUUPDATE
 40
2453294.129627813
  9
$TDINDWG
 40
0.0490819444
  9
$TDUSRTIMER
 40
0.0490587963
  9
$USRTIMER
 70
     1
  9
$ANGBASE
 50
0.0
  9
$ANGDIR
 70
     0
  9
$PDMODE
 70
     0
  9
$PDSIZE
 40
0.0
  9
$PLINEWID
 40
0.0
  9
$SPLFRAME
 70
     0
  9
$SPLINETYPE
 70
     6
  9
$SPLINESEGS
 70
     8
  9
$HANDSEED
  5
B04
  9
$SURFTAB1
 70
     6
  9
$SURFTAB2
 70
     6
  9
$SURFTYPE
 70
     6
  9
$SURFU
 70
     6
  9
$SURFV
 70
     6
  9
$UCSBASE
  2

  9
$UCSNAME
  2

  9
$UCSORG
 10
0.0
 20
0.0
 30
0.0
  9
$UCSXDIR
 10
1.0
 20
0.0
 30
0.0
  9
$UCSYDIR
 10
0.0
 20
1.0
 30
0.0
  9
$UCSORTHOREF
  2

  9
$UCSORTHOVIEW
 70
     0
  9
$UCSORGTOP
 10
0.0
 20
0.0
 30
0.0
  9
$UCSORGBOTTOM
 10
0.0
 20
0.0
 30
0.0
  9
$UCSORGLEFT
 10
0.0
 20
0.0
 30
0.0
  9
$UCSORGRIGHT
 10
0.0
 20
0.0
 30
0.0
  9
$UCSORGFRONT
 10
0.0
 20
0.0
 30
0.0
  9
$UCSORGBACK
 10
0.0
 20
0.0
 30
0.0
  9
$PUCSBASE
  2

  9
$PUCSNAME
  2

  9
$PUCSORG
 10
0.0
 20
0.0
 30
0.0
  9
$PUCSXDIR
 10
1.0
 20
0.0
 30
0.0
  9
$PUCSYDIR
 10
0.0
 20
1.0
 30
0.0
  9
$PUCSORTHOREF
  2

  9
$PUCSORTHOVIEW
 70
     0
  9
$PUCSORGTOP
 10
0.0
 20
0.0
 30
0.0
  9
$PUCSORGBOTTOM
 10
0.0
 20
0.0
 30
0.0
  9
$PUCSORGLEFT
 10
0.0
 20
0.0
 30
0.0
  9
$PUCSORGRIGHT
 10
0.0
 20
0.0
 30
0.0
  9
$PUCSORGFRONT
 10
0.0
 20
0.0
 30
0.0
  9
$PUCSORGBACK
 10
0.0
 20
0.0
 30
0.0
  9
$USERI1
 70
     0
  9
$USERI2
 70
     0
  9
$USERI3
 70
     0
  9
$USERI4
 70
   257
  9
$USERI5
 70
     0
  9
$USERR1
 40
0.0
  9
$USERR2
 40
0.0
  9
$USERR3
 40
0.0
  9
$USERR4
 40
0.0
  9
$USERR5
 40
0.0
  9
$WORLDVIEW
 70
     1
  9
$SHADEDGE
 70
     3
  9
$SHADEDIF
 70
    70
  9
$TILEMODE
 70
     1
  9
$MAXACTVP
 70
    48
  9
$PINSBASE
 10
0.0
 20
0.0
 30
0.0
  9
$PLIMCHECK
 70
     0
  9
$PEXTMIN
 10
0.0
 20
0.0
 30
0.0
  9
$PEXTMAX
 10
0.0
 20
0.0
 30
0.0
  9
$PLIMMIN
 10
0.0
 20
0.0
  9
$PLIMMAX
 10
12.0
 20
9.0
  9
$UNITMODE
 70
     0
  9
$VISRETAIN
 70
     1
  9
$PLINEGEN
 70
     0
  9
$PSLTSCALE
 70
     1
  9
$TREEDEPTH
 70
  3020
  9
$CMLSTYLE
  2
Standard
  9
$CMLJUST
 70
     0
  9
$CMLSCALE
 40
20.0
  9
$PROXYGRAPHICS
 70
     1
  9
$MEASUREMENT
 70
     1
  9
$CELWEIGHT
370
    15
  9
$ENDCAPS
280
     0
  9
$JOINSTYLE
280
     0
  9
$LWDISPLAY
290
     0
  9
$INSUNITS
 70
     0
  9
$HYPERLINKBASE
  1

  9
$STYLESHEET
  1

  9
$XEDIT
290
     0
  9
$CEPSNTYPE
380
     0
  9
$PSTYLEMODE
290
     1
  9
$FINGERPRINTGUID
  2
{1989D620-E742-11D2-9219-00105A146177}
  9
$VERSIONGUID
  2
{1591DA3A-FAC2-48A5-9A06-5ED1EFE2504B}
  9
$EXTNAMES
290
     1
  9
$PSVPSCALE
 40
0.0
  9
$OLESTARTUP
290
     0
  0
ENDSEC
  0
SECTION
  2
CLASSES
  0
CLASS
  1
ACDBDICTIONARYWDFLT
  2
AcDbDictionaryWithDefault
  3
ObjectDBX Classes
 90
        0
280
     0
281
     0
  0
CLASS
  1
ACDBPLACEHOLDER
  2
AcDbPlaceHolder
  3
ObjectDBX Classes
 90
        0
280
     0
281
     0
  0
CLASS
  1
LAYOUT
  2
AcDbLayout
  3
ObjectDBX Classes
 90
        0
280
     0
281
     0
  0
CLASS
  1
DICTIONARYVAR
  2
AcDbDictionaryVar
  3
ObjectDBX Classes
 90
        0
280
     0
281
     0
  0
CLASS
  1
TABLESTYLE
  2
AcDbTableStyle
  3
ObjectDBX Classes
 90
     2047
280
     0
281
     0
  0
ENDSEC
  0
SECTION
  2
TABLES
  0
TABLE
  2
VPORT
  5
8
330
0
100
AcDbSymbolTable
 70
     2
  0
VPORT
  5
97
330
8
100
AcDbSymbolTableRecord
100
AcDbViewportTableRecord
  2
*Active
 70
     0
 10
0.0
 20
0.0
 11
1.0
 21
1.0
 12
220.069002738765
 22
148.5880606427487
 13
0.0
 23
0.0
 14
10.0
 24
10.0
 15
10.0
 25
10.0
 16
0.0
 26
0.0
 36
1.0
 17
0.0
 27
0.0
 37
0.0
 40
308.2888657325681
 41
2.20035778175313
 42
50.0
 43
0.0
 44
0.0
 50
0.0
 51
0.0
 71
    16
 72
 20000
 73
     1
 74
     1
 75
     0
 76
     0
 77
     0
 78
     0
281
     0
 65
     0
110
0.0
120
0.0
130
0.0
111
1.0
121
0.0
131
0.0
112
0.0
122
1.0
132
0.0
 79
     0
146
0.0
  0
ENDTAB
  0
TABLE
  2
LTYPE
  5
5
330
0
100
AcDbSymbolTable
 70
     6
  0
LTYPE
  5
14
330
5
100
AcDbSymbolTableRecord
100
AcDbLinetypeTableRecord
  2
ByBlock
 70
     0
  3

 72
    65
 73
     0
 40
0.0
  0
LTYPE
  5
15
330
5
100
AcDbSymbolTableRecord
100
AcDbLinetypeTableRecord
  2
ByLayer
 70
     0
  3

 72
    65
 73
     0
 40
0.0
  0
LTYPE
  5
16
330
5
100
AcDbSymbolTableRecord
100
AcDbLinetypeTableRecord
  2
Continuous
 70
     0
  3
Solid line
 72
    65
 73
     0
 40
0.0
  0
LTYPE
  5
A80
330
5
100
AcDbSymbolTableRecord
100
AcDbLinetypeTableRecord
  2
CENTER
 70
     0
  3
Center ____ _ ____ _ ____ _ ____ _ ____ _ ____
 72
    65
 73
     4
 40
50.8
 49
31.75
 74
     4
 75
     0
340
0
 46
1.0
 50
0.0
 44
0.0
 45
0.0
 49
-6.349999999999999
 74
     4
 75
     0
340
0
 46
1.0
 50
0.0
 44
0.0
 45
0.0
 49
6.349999999999999
 74
     4
 75
     0
340
0
 46
1.0
 50
0.0
 44
0.0
 45
0.0
 49
-6.349999999999999
 74
     4
 75
     0
340
0
 46
1.0
 50
0.0
 44
0.0
 45
0.0
  0
LTYPE
  5
A81
330
5
100
AcDbSymbolTableRecord
100
AcDbLinetypeTableRecord
  2
DASHED
 70
     0
  3
Dashed __ __ __ __ __ __ __ __ __ __ __ __ __ _
 72
    65
 73
     2
 40
19.05
 49
12.7
 74
     4
 75
     0
340
0
 46
1.0
 50
0.0
 44
0.0
 45
0.0
 49
-6.349999999999999
 74
     4
 75
     0
340
0
 46
1.0
 50
0.0
 44
0.0
 45
0.0
  0
LTYPE
  5
A82
330
5
100
AcDbSymbolTableRecord
100
AcDbLinetypeTableRecord
  2
HIDDEN
 70
     0
  3
Hidden __ __ __ __ __ __ __ __ __ __ __ __ __ _
 72
    65
 73
     2
 40
9.524999999999999
 49
6.349999999999999
 74
     4
 75
     0
340
0
 46
1.0
 50
0.0
 44
0.0
 45
0.0
 49
-3.174999999999999
 74
     4
 75
     0
340
0
 46
1.0
 50
0.0
 44
0.0
 45
0.0
  0
LTYPE
  5
A83
330
5
100
AcDbSymbolTableRecord
100
AcDbLinetypeTableRecord
  2
PHANTOM
 70
     0
  3
Phantom ______  __  __  ______  __  __  ______
 72
    65
 73
     6
 40
63.50000000000001
 49
31.75
 74
     4
 75
     0
340
0
 46
1.0
 50
0.0
 44
0.0
 45
0.0
 49
-6.349999999999999
 74
     4
 75
     0
340
0
 46
1.0
 50
0.0
 44
0.0
 45
0.0
 49
6.349999999999999
 74
     4
 75
     0
340
0
 46
1.0
 50
0.0
 44
0.0
 45
0.0
 49
-6.349999999999999
 74
     4
 75
     0
340
0
 46
1.0
 50
0.0
 44
0.0
 45
0.0
 49
6.349999999999999
 74
     4
 75
     0
340
0
 46
1.0
 50
0.0
 44
0.0
 45
0.0
 49
-6.349999999999999
 74
     4
 75
     0
340
0
 46
1.0
 50
0.0
 44
0.0
 45
0.0
  0
LTYPE
  5
A84
330
5
100
AcDbSymbolTableRecord
100
AcDbLinetypeTableRecord
  2
RUPTURE
 70
     0
  3
Rupture line
 72
    65
 73
     4
 40
45.72
 49
25.4
 74
     4
 75
     0
340
0
 46
1.0
 50
0.0
 44
0.0
 45
0.0
 49
-5.08
 74
     4
 75
   131
340
11
 46
5.08
 50
0.0
 44
-5.08
 45
0.0
 49
-10.16
 74
     4
 75
   131
340
11
 46
5.08
 50
180.0
 44
5.08
 45
0.0
 49
-5.08
 74
     4
 75
     0
340
0
 46
1.0
 50
0.0
 44
0.0
 45
0.0
  0
ENDTAB
  0
TABLE
  2
LAYER
  5
2
330
0
100
AcDbSymbolTable
 70
    17
  0
LAYER
  5
10
330
2
100
AcDbSymbolTableRecord
100
AcDbLayerTableRecord
  2
0
 70
     0
 62
     7
  6
Continuous
370
    -3
390
F
  0
LAYER
  5
8E2
330
2
100
AcDbSymbolTableRecord
100
AcDbLayerTableRecord
  2
KCAD_DIMS
 70
     0
 62
   134
  6
Continuous
370
    15
390
F
  0
LAYER
  5
4F
330
2
100
AcDbSymbolTableRecord
100
AcDbLayerTableRecord
  2
DEFPOINTS
 70
     0
 62
     7
  6
Continuous
290
     0
370
    -3
390
F
  0
LAYER
  5
20B
330
2
100
AcDbSymbolTableRecord
100
AcDbLayerTableRecord
  2
KCAD_ASST
 70
     0
 62
   134
  6
Continuous
370
    15
390
F
  0
LAYER
  5
20C
330
2
100
AcDbSymbolTableRecord
100
AcDbLayerTableRecord
  2
KCAD_RASTER
 70
     0
 62
     7
  6
Continuous
370
    30
390
F
  0
LAYER
  5
20D
330
2
100
AcDbSymbolTableRecord
100
AcDbLayerTableRecord
  2
SYBCENTER
 70
     0
 62
   134
  6
CENTER
370
    15
390
F
  0
LAYER
  5
20E
330
2
100
AcDbSymbolTableRecord
100
AcDbLayerTableRecord
  2
SYBHIDE
 70
     0
 62
   134
  6
HIDDEN
370
    15
390
F
  0
LAYER
  5
20F
330
2
100
AcDbSymbolTableRecord
100
AcDbLayerTableRecord
  2
SYBOUTLINE
 70
     0
 62
     7
  6
Continuous
370
    30
390
F
  0
LAYER
  5
210
330
2
100
AcDbSymbolTableRecord
100
AcDbLayerTableRecord
  2
SYBTHREAD
 70
     0
 62
   134
  6
Continuous
370
    15
390
F
  0
LAYER
  5
211
330
2
100
AcDbSymbolTableRecord
100
AcDbLayerTableRecord
  2
SYBTHRHID
 70
     0
 62
   134
  6
HIDDEN
370
    15
390
F
  0
LAYER
  5
282
330
2
100
AcDbSymbolTableRecord
100
AcDbLayerTableRecord
  2
KCAD_UIR_TMP_LAYER_
 70
     0
 62
     7
  6
Continuous
370
    -3
390
F
  0
LAYER
  5
2A8
330
2
100
AcDbSymbolTableRecord
100
AcDbLayerTableRecord
  2
KCAD_CPM_MAX_LAYER
 70
     3
 62
     7
  6
Continuous
370
    -3
390
F
  0
LAYER
  5
2F3
330
2
100
AcDbSymbolTableRecord
100
AcDbLayerTableRecord
  2
90-ScaleR0.4
 70
     0
 62
     7
  6
Continuous
370
    -3
390
F
1001
Layer_Scale
1002
{
1071
   200007
1070
     0
1040
0.4
1040
1.0
1002
}
  0
LAYER
  5
395
330
2
100
AcDbSymbolTableRecord
100
AcDbLayerTableRecord
  2
2
 70
     0
 62
     7
  6
Continuous
370
    -3
390
F
  0
LAYER
  5
3A2
330
2
100
AcDbSymbolTableRecord
100
AcDbLayerTableRecord
  2
3
 70
     0
 62
     7
  6
Continuous
370
    -3
390
F
  0
LAYER
  5
3E6
330
2
100
AcDbSymbolTableRecord
100
AcDbLayerTableRecord
  2
4
 70
     0
 62
     7
  6
Continuous
370
    -3
390
F
  0
LAYER
  5
815
330
2
100
AcDbSymbolTableRecord
100
AcDbLayerTableRecord
  2
99
 70
     0
 62
     7
  6
Continuous
370
    -3
390
F
  0
ENDTAB
  0
TABLE
  2
STYLE
  5
3
330
0
100
AcDbSymbolTable
 70
     5
  0
STYLE
  5
11
330
3
100
AcDbSymbolTableRecord
100
AcDbTextStyleTableRecord
  2
Standard
 70
     0
 40
0.0
 41
1.0
 50
0.0
 71
     0
 42
3.2
  3
txt.shx
  4
bigfont.shx
  0
STYLE
  5
17F
330
3
100
AcDbSymbolTableRecord
100
AcDbTextStyleTableRecord
  2

 70
     1
 40
0.0
 41
1.0
 50
0.0
 71
     0
 42
3.2
  3
ltypeshp.shx
  4

  0
STYLE
  5
189
330
3
100
AcDbSymbolTableRecord
100
AcDbTextStyleTableRecord
  2
KCADDIMSTANDARD
 70
     0
 40
0.0
 41
1.0
 50
0.0
 71
     0
 42
3.2
  3
txt.shx
  4
bigfont.shx
  0
STYLE
  5
18A
330
3
100
AcDbSymbolTableRecord
100
AcDbTextStyleTableRecord
  2
KCADTEXTSTANDARD
 70
     0
 40
0.0
 41
1.0
 50
0.0
 71
     0
 42
3.2
  3
txt.shx
  4
bigfont.shx
  0
STYLE
  5
1AD
330
3
100
AcDbSymbolTableRecord
100
AcDbTextStyleTableRecord
  2
KCADTEXT2
 70
     0
 40
0.0
 41
1.0
 50
0.0
 71
     0
 42
3.2
  3
txt.shx
  4
extfont.shx
  0
ENDTAB
  0
TABLE
  2
VIEW
  5
6
330
0
100
AcDbSymbolTable
 70
     0
  0
ENDTAB
  0
TABLE
  2
UCS
  5
7
330
0
100
AcDbSymbolTable
 70
     0
  0
ENDTAB
  0
TABLE
  2
APPID
  5
9
330
0
100
AcDbSymbolTable
 70
     4
  0
APPID
  5
12
330
9
100
AcDbSymbolTableRecord
100
AcDbRegAppTableRecord
  2
ACAD
 70
     0
  0
APPID
  5
A7D
330
9
100
AcDbSymbolTableRecord
100
AcDbRegAppTableRecord
  2
Sigma
 70
     0
  0
APPID
  5
A7E
330
9
100
AcDbSymbolTableRecord
100
AcDbRegAppTableRecord
  2
Layer_Scale
 70
     0
  0
APPID
  5
A7F
330
9
100
AcDbSymbolTableRecord
100
AcDbRegAppTableRecord
  2
KCAD_DIM_EXT
 70
     0
  0
ENDTAB
  0
TABLE
  2
DIMSTYLE
  5
A
330
0
100
AcDbSymbolTable
 70
     1
100
AcDbDimStyleTable
  0
DIMSTYLE
105
27
102
{ACAD_REACTORS
330
444
330
48E
330
4C4
330
500
330
53C
330
578
330
5B4
330
5F0
330
62E
330
669
330
6A4
330
6E0
330
71E
330
75A
330
796
330
7D4
102
}
330
A
100
AcDbSymbolTableRecord
100
AcDbDimStyleTableRecord
  2
Standard
 70
     0
340
11
  0
ENDTAB
  0
TABLE
  2
BLOCK_RECORD
  5
1
330
0
100
AcDbSymbolTable
 70
    60
  0
BLOCK_RECORD
  5
1F
330
1
100
AcDbSymbolTableRecord
100
AcDbBlockTableRecord
  2
*Model_Space
340
22
  0
BLOCK_RECORD
  5
73
330
1
100
AcDbSymbolTableRecord
100
AcDbBlockTableRecord
  2
*Paper_Space
340
22F
  0
BLOCK_RECORD
  5
8E3
330
1
100
AcDbSymbolTableRecord
100
AcDbBlockTableRecord
  2
KCAD_OPEN
340
0
  0
BLOCK_RECORD
  5
3C
330
1
100
AcDbSymbolTableRecord
100
AcDbBlockTableRecord
  2
KCAD_DOTSMALL
340
0
  0
BLOCK_RECORD
  5
44
330
1
100
AcDbSymbolTableRecord
100
AcDbBlockTableRecord
  2
KCAD_NONE
340
0
  0
BLOCK_RECORD
  5
FC
330
1
100
AcDbSymbolTableRecord
100
AcDbBlockTableRecord
  2
_CLOSED
340
0
  0
BLOCK_RECORD
  5
103
330
1
100
AcDbSymbolTableRecord
100
AcDbBlockTableRecord
  2
_DOT
340
0
  0
BLOCK_RECORD
  5
10B
330
1
100
AcDbSymbolTableRecord
100
AcDbBlockTableRecord
  2
_CLOSEDBLANK
340
0
  0
BLOCK_RECORD
  5
111
330
1
100
AcDbSymbolTableRecord
100
AcDbBlockTableRecord
  2
_OBLIQUE
340
0
  0
BLOCK_RECORD
  5
115
330
1
100
AcDbSymbolTableRecord
100
AcDbBlockTableRecord
  2
_ARCHTICK
340
0
  0
BLOCK_RECORD
  5
11C
330
1
100
AcDbSymbolTableRecord
100
AcDbBlockTableRecord
  2
_OPEN
340
0
  0
BLOCK_RECORD
  5
122
330
1
100
AcDbSymbolTableRecord
100
AcDbBlockTableRecord
  2
_ORIGIN
340
0
  0
BLOCK_RECORD
  5
127
330
1
100
AcDbSymbolTableRecord
100
AcDbBlockTableRecord
  2
_OPEN90
340
0
  0
BLOCK_RECORD
  5
12D
330
1
100
AcDbSymbolTableRecord
100
AcDbBlockTableRecord
  2
_OPEN30
340
0
102
{BLKREFS
331
485
331
486
331
4BD
331
4BE
331
4F9
331
4FA
331
535
331
536
331
571
331
572
331
5AD
331
5AE
331
5E9
331
5EA
331
627
331
628
331
666
331
6A1
331
6D9
331
6DA
331
715
331
716
331
753
331
754
331
78F
331
790
331
7CB
331
7CC
331
809
331
80A
331
3E9
102
}
  0
BLOCK_RECORD
  5
133
330
1
100
AcDbSymbolTableRecord
100
AcDbBlockTableRecord
  2
_DOTBLANK
340
0
  0
BLOCK_RECORD
  5
138
330
1
100
AcDbSymbolTableRecord
100
AcDbBlockTableRecord
  2
_DOTSMALL
340
0
  0
BLOCK_RECORD
  5
13F
330
1
100
AcDbSymbolTableRecord
100
AcDbBlockTableRecord
  2
_BOXFILLED
340
0
  0
BLOCK_RECORD
  5
144
330
1
100
AcDbSymbolTableRecord
100
AcDbBlockTableRecord
  2
_BOXBLANK
340
0
  0
BLOCK_RECORD
  5
14C
330
1
100
AcDbSymbolTableRecord
100
AcDbBlockTableRecord
  2
_DATUMFILLED
340
0
  0
BLOCK_RECORD
  5
150
330
1
100
AcDbSymbolTableRecord
100
AcDbBlockTableRecord
  2
_DATUMBLANK
340
0
  0
BLOCK_RECORD
  5
156
330
1
100
AcDbSymbolTableRecord
100
AcDbBlockTableRecord
  2
_INTEGRAL
340
0
  0
BLOCK_RECORD
  5
1F1
330
1
100
AcDbSymbolTableRecord
100
AcDbBlockTableRecord
  2
_Origin2
340
0
  0
BLOCK_RECORD
  5
1F7
330
1
100
AcDbSymbolTableRecord
100
AcDbBlockTableRecord
  2
KCAD_OPEN30
340
0
  0
BLOCK_RECORD
  5
222
330
1
100
AcDbSymbolTableRecord
100
AcDbBlockTableRecord
  2
_None
340
0
  0
BLOCK_RECORD
  5
283
330
1
100
AcDbSymbolTableRecord
100
AcDbBlockTableRecord
  2
_Small
340
0
  0
BLOCK_RECORD
  5
287
330
1
100
AcDbSymbolTableRecord
100
AcDbBlockTableRecord
  2
KCAD_OPEN_2
340
0
  0
BLOCK_RECORD
  5
28E
330
1
100
AcDbSymbolTableRecord
100
AcDbBlockTableRecord
  2
KCAD_OPEN30_2
340
0
  0
BLOCK_RECORD
  5
2AD
330
1
100
AcDbSymbolTableRecord
100
AcDbBlockTableRecord
  2
KCAD_OPEN30ANG
340
0
  0
BLOCK_RECORD
  5
2B6
330
1
100
AcDbSymbolTableRecord
100
AcDbBlockTableRecord
  2
KCAD_DOTANG
340
0
  0
BLOCK_RECORD
  5
445
330
1
100
AcDbSymbolTableRecord
100
AcDbBlockTableRecord
  2
*D27
340
0
  0
BLOCK_RECORD
  5
48F
330
1
100
AcDbSymbolTableRecord
100
AcDbBlockTableRecord
  2
*D28
340
0
  0
BLOCK_RECORD
  5
4C5
330
1
100
AcDbSymbolTableRecord
100
AcDbBlockTableRecord
  2
*D29
340
0
  0
BLOCK_RECORD
  5
501
330
1
100
AcDbSymbolTableRecord
100
AcDbBlockTableRecord
  2
*D30
340
0
  0
BLOCK_RECORD
  5
53D
330
1
100
AcDbSymbolTableRecord
100
AcDbBlockTableRecord
  2
*D31
340
0
  0
BLOCK_RECORD
  5
579
330
1
100
AcDbSymbolTableRecord
100
AcDbBlockTableRecord
  2
*D32
340
0
  0
BLOCK_RECORD
  5
5B5
330
1
100
AcDbSymbolTableRecord
100
AcDbBlockTableRecord
  2
*D33
340
0
  0
BLOCK_RECORD
  5
5F1
330
1
100
AcDbSymbolTableRecord
100
AcDbBlockTableRecord
  2
*D34
340
0
  0
BLOCK_RECORD
  5
62F
330
1
100
AcDbSymbolTableRecord
100
AcDbBlockTableRecord
  2
*D35
340
0
  0
BLOCK_RECORD
  5
66A
330
1
100
AcDbSymbolTableRecord
100
AcDbBlockTableRecord
  2
*D36
340
0
  0
BLOCK_RECORD
  5
6A5
330
1
100
AcDbSymbolTableRecord
100
AcDbBlockTableRecord
  2
*D37
340
0
  0
BLOCK_RECORD
  5
6E1
330
1
100
AcDbSymbolTableRecord
100
AcDbBlockTableRecord
  2
*D38
340
0
  0
BLOCK_RECORD
  5
71F
330
1
100
AcDbSymbolTableRecord
100
AcDbBlockTableRecord
  2
*D39
340
0
  0
BLOCK_RECORD
  5
75B
330
1
100
AcDbSymbolTableRecord
100
AcDbBlockTableRecord
  2
*D40
340
0
  0
BLOCK_RECORD
  5
797
330
1
100
AcDbSymbolTableRecord
100
AcDbBlockTableRecord
  2
*D41
340
0
  0
BLOCK_RECORD
  5
7D5
330
1
100
AcDbSymbolTableRecord
100
AcDbBlockTableRecord
  2
*D42
340
0
  0
BLOCK_RECORD
  5
827
330
1
100
AcDbSymbolTableRecord
100
AcDbBlockTableRecord
  2
*D43
340
0
  0
BLOCK_RECORD
  5
832
330
1
100
AcDbSymbolTableRecord
100
AcDbBlockTableRecord
  2
*D44
340
0
  0
BLOCK_RECORD
  5
83E
330
1
100
AcDbSymbolTableRecord
100
AcDbBlockTableRecord
  2
*D45
340
0
  0
BLOCK_RECORD
  5
84A
330
1
100
AcDbSymbolTableRecord
100
AcDbBlockTableRecord
  2
*D46
340
0
  0
BLOCK_RECORD
  5
856
330
1
100
AcDbSymbolTableRecord
100
AcDbBlockTableRecord
  2
*D47
340
0
  0
BLOCK_RECORD
  5
862
330
1
100
AcDbSymbolTableRecord
100
AcDbBlockTableRecord
  2
*D48
340
0
  0
BLOCK_RECORD
  5
86E
330
1
100
AcDbSymbolTableRecord
100
AcDbBlockTableRecord
  2
*D49
340
0
  0
BLOCK_RECORD
  5
87A
330
1
100
AcDbSymbolTableRecord
100
AcDbBlockTableRecord
  2
*D50
340
0
  0
BLOCK_RECORD
  5
885
330
1
100
AcDbSymbolTableRecord
100
AcDbBlockTableRecord
  2
*D51
340
0
  0
BLOCK_RECORD
  5
890
330
1
100
AcDbSymbolTableRecord
100
AcDbBlockTableRecord
  2
*D52
340
0
  0
BLOCK_RECORD
  5
89C
330
1
100
AcDbSymbolTableRecord
100
AcDbBlockTableRecord
  2
*D53
340
0
  0
BLOCK_RECORD
  5
8A8
330
1
100
AcDbSymbolTableRecord
100
AcDbBlockTableRecord
  2
*D54
340
0
  0
BLOCK_RECORD
  5
8B4
330
1
100
AcDbSymbolTableRecord
100
AcDbBlockTableRecord
  2
*D55
340
0
  0
BLOCK_RECORD
  5
8C0
330
1
100
AcDbSymbolTableRecord
100
AcDbBlockTableRecord
  2
*D56
340
0
  0
BLOCK_RECORD
  5
8CC
330
1
100
AcDbSymbolTableRecord
100
AcDbBlockTableRecord
  2
*D57
340
0
  0
BLOCK_RECORD
  5
8D8
330
1
100
AcDbSymbolTableRecord
100
AcDbBlockTableRecord
  2
*D58
340
0
  0
BLOCK_RECORD
  5
96B
330
1
100
AcDbSymbolTableRecord
100
AcDbBlockTableRecord
  2
*D59
340
0
  0
ENDTAB
  0
ENDSEC
  0
SECTION
  2
BLOCKS
  0
BLOCK
  5
20
330
1F
100
AcDbEntity
  8
0
100
AcDbBlockBegin
  2
*Model_Space
 70
     0
 71
     0
 10
0.0
 20
0.0
 30
0.0
  3
*Model_Space
  1

  0
ENDBLK
  5
21
330
1F
100
AcDbEntity
  8
0
100
AcDbBlockEnd
  0
BLOCK
  5
75
330
73
100
AcDbEntity
 67
     1
  8
0
100
AcDbBlockBegin
  2
*Paper_Space
 70
     0
 71
     0
 10
0.0
 20
0.0
 30
0.0
  3
*Paper_Space
  1

  0
ENDBLK
  5
76
330
73
100
AcDbEntity
 67
     1
  8
0
100
AcDbBlockEnd
  0
BLOCK
  5
A87
330
8E3
100
AcDbEntity
  8
KCAD_DIMS
100
AcDbBlockBegin
  2
KCAD_OPEN
 70
     0
 71
     0
 10
0.0
 20
0.0
 30
0.0
  3
KCAD_OPEN
  1

  0
LINE
  5
95A
330
8E3
100
AcDbEntity
  8
0
  6
Continuous
 62
     0
370
    -2
100
AcDbLine
 10
0.0
 20
0.0
 30
0.0
 11
-1.0
 21
0.0
 31
0.0
  0
LINE
  5
23
330
8E3
100
AcDbEntity
  8
0
  6
Continuous
 62
     0
370
    -2
100
AcDbLine
 10
0.0
 20
0.0
 30
0.0
 11
-1.0
 21
0.158384
 31
0.0
  0
LINE
  5
24
330
8E3
100
AcDbEntity
  8
0
  6
Continuous
 62
     0
370
    -2
100
AcDbLine
 10
0.0
 20
0.0
 30
0.0
 11
-1.0
 21
-0.158384
 31
0.0
  0
ENDBLK
  5
A88
330
8E3
100
AcDbEntity
  8
KCAD_DIMS
100
AcDbBlockEnd
  0
BLOCK
  5
A89
330
3C
100
AcDbEntity
  8
KCAD_DIMS
100
AcDbBlockBegin
  2
KCAD_DOTSMALL
 70
     0
 71
     0
 10
0.0
 20
0.0
 30
0.0
  3
KCAD_DOTSMALL
  1

  0
LWPOLYLINE
  5
3D
330
3C
100
AcDbEntity
  8
KCAD_DIMS
 62
     0
100
AcDbPolyline
 90
        2
 70
     1
 43
0.5
 10
0.06252
 20
0.0
 42
1.0
 10
-0.06262
 20
0.0
 42
1.0
  0
LINE
  5
41
330
3C
100
AcDbEntity
  8
0
  6
Continuous
 62
     0
370
    -2
100
AcDbLine
 10
0.0
 20
0.0
 30
0.0
 11
-1.0
 21
0.0
 31
0.0
  0
ENDBLK
  5
A8A
330
3C
100
AcDbEntity
  8
0
100
AcDbBlockEnd
  0
BLOCK
  5
A8B
330
44
100
AcDbEntity
  8
KCAD_DIMS
100
AcDbBlockBegin
  2
KCAD_NONE
 70
     0
 71
     0
 10
0.0
 20
0.0
 30
0.0
  3
KCAD_NONE
  1

  0
LINE
  5
45
330
44
100
AcDbEntity
  8
0
  6
Continuous
 62
     0
370
    -2
100
AcDbLine
 10
0.0
 20
0.0
 30
0.0
 11
-1.0
 21
0.0
 31
0.0
  0
ENDBLK
  5
A8C
330
44
100
AcDbEntity
  8
0
100
AcDbBlockEnd
  0
BLOCK
  5
A8D
330
FC
100
AcDbEntity
  8
0
100
AcDbBlockBegin
  2
_CLOSED
 70
     0
 71
     0
 10
0.0
 20
0.0
 30
0.0
  3
_CLOSED
  1

  0
LINE
  5
FE
330
FC
100
AcDbEntity
  8
0
  6
Continuous
 62
     0
370
    -2
100
AcDbLine
 10
-1.0
 20
0.166667
 30
0.0
 11
0.0
 21
0.0
 31
0.0
  0
LINE
  5
FF
330
FC
100
AcDbEntity
  8
0
  6
Continuous
 62
     0
370
    -2
100
AcDbLine
 10
0.0
 20
0.0
 30
0.0
 11
-1.0
 21
-0.166667
 31
0.0
  0
LINE
  5
100
330
FC
100
AcDbEntity
  8
0
  6
Continuous
 62
     0
370
    -2
100
AcDbLine
 10
-1.0
 20
0.166667
 30
0.0
 11
-1.0
 21
-0.166667
 31
0.0
  0
LINE
  5
101
330
FC
100
AcDbEntity
  8
0
  6
Continuous
 62
     0
370
    -2
100
AcDbLine
 10
0.0
 20
0.0
 30
0.0
 11
-1.0
 21
0.0
 31
0.0
  0
ENDBLK
  5
A8E
330
FC
100
AcDbEntity
  8
0
100
AcDbBlockEnd
  0
BLOCK
  5
A8F
330
103
100
AcDbEntity
  8
0
100
AcDbBlockBegin
  2
_DOT
 70
     0
 71
     0
 10
0.0
 20
0.0
 30
0.0
  3
_DOT
  1

  0
LWPOLYLINE
  5
105
330
103
100
AcDbEntity
  8
0
  6
ByBlock
 62
     0
100
AcDbPolyline
 90
        2
 70
     1
 43
0.5
 10
-0.25
 20
0.0
 42
1.0
 10
0.25
 20
0.0
 42
1.0
  0
LINE
  5
109
330
103
100
AcDbEntity
  8
0
  6
Continuous
 62
     0
370
    -2
100
AcDbLine
 10
-0.5
 20
0.0
 30
0.0
 11
-1.0
 21
0.0
 31
0.0
  0
ENDBLK
  5
A90
330
103
100
AcDbEntity
  8
0
100
AcDbBlockEnd
  0
BLOCK
  5
A91
330
10B
100
AcDbEntity
  8
0
100
AcDbBlockBegin
  2
_CLOSEDBLANK
 70
     0
 71
     0
 10
0.0
 20
0.0
 30
0.0
  3
_CLOSEDBLANK
  1

  0
LINE
  5
10D
330
10B
100
AcDbEntity
  8
0
  6
Continuous
 62
     0
370
    -2
100
AcDbLine
 10
-1.0
 20
0.166667
 30
0.0
 11
0.0
 21
0.0
 31
0.0
  0
LINE
  5
10E
330
10B
100
AcDbEntity
  8
0
  6
Continuous
 62
     0
370
    -2
100
AcDbLine
 10
0.0
 20
0.0
 30
0.0
 11
-1.0
 21
-0.166667
 31
0.0
  0
LINE
  5
10F
330
10B
100
AcDbEntity
  8
0
  6
Continuous
 62
     0
370
    -2
100
AcDbLine
 10
-1.0
 20
0.166667
 30
0.0
 11
-1.0
 21
-0.166667
 31
0.0
  0
ENDBLK
  5
A92
330
10B
100
AcDbEntity
  8
0
100
AcDbBlockEnd
  0
BLOCK
  5
A93
330
111
100
AcDbEntity
  8
0
100
AcDbBlockBegin
  2
_OBLIQUE
 70
     0
 71
     0
 10
0.0
 20
0.0
 30
0.0
  3
_OBLIQUE
  1

  0
LINE
  5
113
330
111
100
AcDbEntity
  8
0
  6
Continuous
 62
     0
370
    -2
100
AcDbLine
 10
-0.5
 20
-0.5
 30
0.0
 11
0.5
 21
0.5
 31
0.0
  0
ENDBLK
  5
A94
330
111
100
AcDbEntity
  8
0
100
AcDbBlockEnd
  0
BLOCK
  5
A95
330
115
100
AcDbEntity
  8
0
100
AcDbBlockBegin
  2
_ARCHTICK
 70
     0
 71
     0
 10
0.0
 20
0.0
 30
0.0
  3
_ARCHTICK
  1

  0
LWPOLYLINE
  5
117
330
115
100
AcDbEntity
  8
0
  6
ByBlock
 62
     0
100
AcDbPolyline
 90
        2
 70
     0
 43
0.15
 10
-0.5
 20
-0.5
 10
0.5
 20
0.5
  0
ENDBLK
  5
A96
330
115
100
AcDbEntity
  8
0
100
AcDbBlockEnd
  0
BLOCK
  5
A97
330
11C
100
AcDbEntity
  8
0
100
AcDbBlockBegin
  2
_OPEN
 70
     0
 71
     0
 10
0.0
 20
0.0
 30
0.0
  3
_OPEN
  1

  0
LINE
  5
11E
330
11C
100
AcDbEntity
  8
0
  6
Continuous
 62
     0
370
    -2
100
AcDbLine
 10
-1.0
 20
0.166667
 30
0.0
 11
0.0
 21
0.0
 31
0.0
  0
LINE
  5
11F
330
11C
100
AcDbEntity
  8
0
  6
Continuous
 62
     0
370
    -2
100
AcDbLine
 10
0.0
 20
0.0
 30
0.0
 11
-1.0
 21
-0.166667
 31
0.0
  0
LINE
  5
120
330
11C
100
AcDbEntity
  8
0
  6
Continuous
 62
     0
370
    -2
100
AcDbLine
 10
0.0
 20
0.0
 30
0.0
 11
-1.0
 21
0.0
 31
0.0
  0
ENDBLK
  5
A98
330
11C
100
AcDbEntity
  8
0
100
AcDbBlockEnd
  0
BLOCK
  5
A99
330
122
100
AcDbEntity
  8
0
100
AcDbBlockBegin
  2
_ORIGIN
 70
     0
 71
     0
 10
0.0
 20
0.0
 30
0.0
  3
_ORIGIN
  1

  0
CIRCLE
  5
124
330
122
100
AcDbEntity
  8
0
  6
ByBlock
 62
     0
100
AcDbCircle
 10
0.0
 20
0.0
 30
0.0
 40
0.5
  0
LINE
  5
125
330
122
100
AcDbEntity
  8
0
  6
Continuous
 62
     0
370
    -2
100
AcDbLine
 10
0.0
 20
0.0
 30
0.0
 11
-1.0
 21
0.0
 31
0.0
  0
ENDBLK
  5
A9A
330
122
100
AcDbEntity
  8
0
100
AcDbBlockEnd
  0
BLOCK
  5
A9B
330
127
100
AcDbEntity
  8
0
100
AcDbBlockBegin
  2
_OPEN90
 70
     0
 71
     0
 10
0.0
 20
0.0
 30
0.0
  3
_OPEN90
  1

  0
LINE
  5
129
330
127
100
AcDbEntity
  8
0
  6
Continuous
 62
     0
370
    -2
100
AcDbLine
 10
-0.5
 20
0.5
 30
0.0
 11
0.0
 21
0.0
 31
0.0
  0
LINE
  5
12A
330
127
100
AcDbEntity
  8
0
  6
Continuous
 62
     0
370
    -2
100
AcDbLine
 10
0.0
 20
0.0
 30
0.0
 11
-0.5
 21
-0.5
 31
0.0
  0
LINE
  5
12B
330
127
100
AcDbEntity
  8
0
  6
Continuous
 62
     0
370
    -2
100
AcDbLine
 10
0.0
 20
0.0
 30
0.0
 11
-1.0
 21
0.0
 31
0.0
  0
ENDBLK
  5
A9C
330
127
100
AcDbEntity
  8
0
100
AcDbBlockEnd
  0
BLOCK
  5
A9D
330
12D
100
AcDbEntity
  8
0
100
AcDbBlockBegin
  2
_OPEN30
 70
     0
 71
     0
 10
0.0
 20
0.0
 30
0.0
  3
_OPEN30
  1

  0
LINE
  5
12F
330
12D
100
AcDbEntity
  8
0
  6
Continuous
 62
     0
370
    -2
100
AcDbLine
 10
-1.0
 20
0.267949
 30
0.0
 11
0.0
 21
0.0
 31
0.0
  0
LINE
  5
130
330
12D
100
AcDbEntity
  8
0
  6
Continuous
 62
     0
370
    -2
100
AcDbLine
 10
0.0
 20
0.0
 30
0.0
 11
-1.0
 21
-0.267949
 31
0.0
  0
LINE
  5
131
330
12D
100
AcDbEntity
  8
0
  6
Continuous
 62
     0
370
    -2
100
AcDbLine
 10
0.0
 20
0.0
 30
0.0
 11
-1.0
 21
0.0
 31
0.0
  0
ENDBLK
  5
A9E
330
12D
100
AcDbEntity
  8
0
100
AcDbBlockEnd
  0
BLOCK
  5
A9F
330
133
100
AcDbEntity
  8
0
100
AcDbBlockBegin
  2
_DOTBLANK
 70
     0
 71
     0
 10
0.0
 20
0.0
 30
0.0
  3
_DOTBLANK
  1

  0
CIRCLE
  5
135
330
133
100
AcDbEntity
  8
0
  6
ByBlock
 62
     0
100
AcDbCircle
 10
0.0
 20
0.0
 30
0.0
 40
0.5
  0
LINE
  5
136
330
133
100
AcDbEntity
  8
0
  6
Continuous
 62
     0
370
    -2
100
AcDbLine
 10
-0.5
 20
0.0
 30
0.0
 11
-1.0
 21
0.0
 31
0.0
  0
ENDBLK
  5
AA0
330
133
100
AcDbEntity
  8
0
100
AcDbBlockEnd
  0
BLOCK
  5
AA1
330
138
100
AcDbEntity
  8
0
100
AcDbBlockBegin
  2
_DOTSMALL
 70
     0
 71
     0
 10
0.0
 20
0.0
 30
0.0
  3
_DOTSMALL
  1

  0
LWPOLYLINE
  5
13A
330
138
100
AcDbEntity
  8
0
  6
ByBlock
 62
     0
100
AcDbPolyline
 90
        2
 70
     1
 43
0.5
 10
-0.0625
 20
0.0
 42
1.0
 10
0.0625
 20
0.0
 42
1.0
  0
ENDBLK
  5
AA2
330
138
100
AcDbEntity
  8
0
100
AcDbBlockEnd
  0
BLOCK
  5
AA3
330
13F
100
AcDbEntity
  8
0
100
AcDbBlockBegin
  2
_BOXFILLED
 70
     0
 71
     0
 10
0.0
 20
0.0
 30
0.0
  3
_BOXFILLED
  1

  0
SOLID
  5
141
330
13F
100
AcDbEntity
  8
0
  6
ByBlock
 62
     0
100
AcDbTrace
 10
-0.5
 20
0.5
 30
0.0
 11
0.5
 21
0.5
 31
0.0
 12
-0.5
 22
-0.5
 32
0.0
 13
0.5
 23
-0.5
 33
0.0
  0
LINE
  5
142
330
13F
100
AcDbEntity
  8
0
  6
Continuous
 62
     0
370
    -2
100
AcDbLine
 10
-0.5
 20
0.0
 30
0.0
 11
-1.0
 21
0.0
 31
0.0
  0
ENDBLK
  5
AA4
330
13F
100
AcDbEntity
  8
0
100
AcDbBlockEnd
  0
BLOCK
  5
AA5
330
144
100
AcDbEntity
  8
0
100
AcDbBlockBegin
  2
_BOXBLANK
 70
     0
 71
     0
 10
0.0
 20
0.0
 30
0.0
  3
_BOXBLANK
  1

  0
LINE
  5
146
330
144
100
AcDbEntity
  8
0
  6
Continuous
 62
     0
370
    -2
100
AcDbLine
 10
-0.5
 20
-0.5
 30
0.0
 11
0.5
 21
-0.5
 31
0.0
  0
LINE
  5
147
330
144
100
AcDbEntity
  8
0
  6
Continuous
 62
     0
370
    -2
100
AcDbLine
 10
0.5
 20
-0.5
 30
0.0
 11
0.5
 21
0.5
 31
0.0
  0
LINE
  5
148
330
144
100
AcDbEntity
  8
0
  6
Continuous
 62
     0
370
    -2
100
AcDbLine
 10
0.5
 20
0.5
 30
0.0
 11
-0.5
 21
0.5
 31
0.0
  0
LINE
  5
149
330
144
100
AcDbEntity
  8
0
  6
Continuous
 62
     0
370
    -2
100
AcDbLine
 10
-0.5
 20
0.5
 30
0.0
 11
-0.5
 21
-0.5
 31
0.0
  0
LINE
  5
14A
330
144
100
AcDbEntity
  8
0
  6
Continuous
 62
     0
370
    -2
100
AcDbLine
 10
-0.5
 20
0.0
 30
0.0
 11
-1.0
 21
0.0
 31
0.0
  0
ENDBLK
  5
AA6
330
144
100
AcDbEntity
  8
0
100
AcDbBlockEnd
  0
BLOCK
  5
AA7
330
14C
100
AcDbEntity
  8
0
100
AcDbBlockBegin
  2
_DATUMFILLED
 70
     0
 71
     0
 10
0.0
 20
0.0
 30
0.0
  3
_DATUMFILLED
  1

  0
SOLID
  5
14E
330
14C
100
AcDbEntity
  8
0
  6
ByBlock
 62
     0
100
AcDbTrace
 10
0.0
 20
0.5773500000000001
 30
0.0
 11
-1.0
 21
0.0
 31
0.0
 12
0.0
 22
-0.5773500000000001
 32
0.0
 13
0.0
 23
-0.5773500000000001
 33
0.0
  0
ENDBLK
  5
AA8
330
14C
100
AcDbEntity
  8
0
100
AcDbBlockEnd
  0
BLOCK
  5
AA9
330
150
100
AcDbEntity
  8
0
100
AcDbBlockBegin
  2
_DATUMBLANK
 70
     0
 71
     0
 10
0.0
 20
0.0
 30
0.0
  3
_DATUMBLANK
  1

  0
LINE
  5
152
330
150
100
AcDbEntity
  8
0
  6
Continuous
 62
     0
370
    -2
100
AcDbLine
 10
0.0
 20
0.5773500000000001
 30
0.0
 11
-1.0
 21
0.0
 31
0.0
  0
LINE
  5
153
330
150
100
AcDbEntity
  8
0
  6
Continuous
 62
     0
370
    -2
100
AcDbLine
 10
-1.0
 20
0.0
 30
0.0
 11
0.0
 21
-0.5773500000000001
 31
0.0
  0
LINE
  5
154
330
150
100
AcDbEntity
  8
0
  6
Continuous
 62
     0
370
    -2
100
AcDbLine
 10
0.0
 20
-0.5773500000000001
 30
0.0
 11
0.0
 21
0.5773500000000001
 31
0.0
  0
ENDBLK
  5
AAA
330
150
100
AcDbEntity
  8
0
100
AcDbBlockEnd
  0
BLOCK
  5
AAB
330
156
100
AcDbEntity
  8
0
100
AcDbBlockBegin
  2
_INTEGRAL
 70
     0
 71
     0
 10
0.0
 20
0.0
 30
0.0
  3
_INTEGRAL
  1

  0
ARC
  5
158
330
156
100
AcDbEntity
  8
0
  6
ByBlock
 62
     0
100
AcDbCircle
 10
0.444888
 20
-0.091335
 30
0.0
 40
0.454167
100
AcDbArc
 50
102.0
 51
168.0
  0
ARC
  5
159
330
156
100
AcDbEntity
  8
0
  6
ByBlock
 62
     0
100
AcDbCircle
 10
-0.444888
 20
0.091335
 30
0.0
 40
0.454167
100
AcDbArc
 50
282.0
 51
348.0
  0
ENDBLK
  5
AAC
330
156
100
AcDbEntity
  8
0
100
AcDbBlockEnd
  0
BLOCK
  5
AAD
330
1F1
100
AcDbEntity
  8
0
100
AcDbBlockBegin
  2
_Origin2
 70
     0
 71
     0
 10
0.0
 20
0.0
 30
0.0
  3
_Origin2
  1

  0
CIRCLE
  5
1F2
330
1F1
100
AcDbEntity
  8
0
  6
Continuous
 62
     0
370
    -2
100
AcDbCircle
 10
0.0
 20
0.0
 30
0.0
 40
0.5
  0
CIRCLE
  5
1F3
330
1F1
100
AcDbEntity
  8
0
  6
Continuous
 62
     0
370
    -2
100
AcDbCircle
 10
0.0
 20
0.0
 30
0.0
 40
0.25
  0
LINE
  5
1F4
330
1F1
100
AcDbEntity
  8
0
  6
Continuous
 62
     0
370
    -2
100
AcDbLine
 10
-0.5
 20
0.0
 30
0.0
 11
-1.0
 21
0.0
 31
0.0
  0
ENDBLK
  5
AAE
330
1F1
100
AcDbEntity
  8
0
100
AcDbBlockEnd
  0
BLOCK
  5
AAF
330
1F7
100
AcDbEntity
  8
0
100
AcDbBlockBegin
  2
KCAD_OPEN30
 70
     0
 71
     0
 10
0.0
 20
0.0
 30
0.0
  3
KCAD_OPEN30
  1

  0
LINE
  5
1F8
330
1F7
100
AcDbEntity
  8
0
  6
Continuous
 62
     0
370
    -2
100
AcDbLine
 10
0.0
 20
0.0
 30
0.0
 11
-1.0
 21
0.0
 31
0.0
  0
LINE
  5
1F9
330
1F7
100
AcDbEntity
  8
0
  6
Continuous
 62
     0
370
    -2
100
AcDbLine
 10
0.0
 20
0.0
 30
0.0
 11
-1.0
 21
0.2679491924311227
 31
0.0
  0
LINE
  5
1FA
330
1F7
100
AcDbEntity
  8
0
  6
Continuous
 62
     0
370
    -2
100
AcDbLine
 10
0.0
 20
0.0
 30
0.0
 11
-1.0
 21
-0.2679491924311227
 31
0.0
  0
ENDBLK
  5
AB0
330
1F7
100
AcDbEntity
  8
0
100
AcDbBlockEnd
  0
BLOCK
  5
AB1
330
222
100
AcDbEntity
  8
0
100
AcDbBlockBegin
  2
_None
 70
     0
 71
     0
 10
0.0
 20
0.0
 30
0.0
  3
_None
  1

  0
ENDBLK
  5
AB2
330
222
100
AcDbEntity
  8
0
100
AcDbBlockEnd
  0
BLOCK
  5
AB3
330
283
100
AcDbEntity
  8
0
100
AcDbBlockBegin
  2
_Small
 70
     0
 71
     0
 10
0.0
 20
0.0
 30
0.0
  3
_Small
  1

  0
CIRCLE
  5
284
330
283
100
AcDbEntity
  8
0
  6
ByBlock
 62
     0
370
    -2
100
AcDbCircle
 10
0.0
 20
0.0
 30
0.0
 40
0.25
  0
ENDBLK
  5
AB4
330
283
100
AcDbEntity
  8
0
100
AcDbBlockEnd
  0
BLOCK
  5
AB5
330
287
100
AcDbEntity
  8
0
100
AcDbBlockBegin
  2
KCAD_OPEN_2
 70
     0
 71
     0
 10
0.0
 20
0.0
 30
0.0
  3
KCAD_OPEN_2
  1

  0
LINE
  5
288
330
287
100
AcDbEntity
  8
0
  6
Continuous
 62
     0
370
    -2
100
AcDbLine
 10
0.0
 20
0.0
 30
0.0
 11
-2.0
 21
0.0
 31
0.0
  0
LINE
  5
289
330
287
100
AcDbEntity
  8
0
  6
Continuous
 62
     0
370
    -2
100
AcDbLine
 10
0.0
 20
0.0
 30
0.0
 11
-2.0
 21
0.3167688806490725
 31
0.0
  0
LINE
  5
28A
330
287
100
AcDbEntity
  8
0
  6
Continuous
 62
     0
370
    -2
100
AcDbLine
 10
0.0
 20
0.0
 30
0.0
 11
-2.0
 21
-0.3167688806490725
 31
0.0
  0
LINE
  5
28B
330
287
100
AcDbEntity
  8
0
  6
Continuous
 62
     0
370
    -2
100
AcDbLine
 10
-2.0
 20
0.0
 30
0.0
 11
-4.0
 21
0.0
 31
0.0
  0
ENDBLK
  5
AB6
330
287
100
AcDbEntity
  8
0
100
AcDbBlockEnd
  0
BLOCK
  5
AB7
330
28E
100
AcDbEntity
  8
0
100
AcDbBlockBegin
  2
KCAD_OPEN30_2
 70
     0
 71
     0
 10
0.0
 20
0.0
 30
0.0
  3
KCAD_OPEN30_2
  1

  0
LINE
  5
28F
330
28E
100
AcDbEntity
  8
0
  6
Continuous
 62
     0
370
    -2
100
AcDbLine
 10
0.0
 20
0.0
 30
0.0
 11
-2.0
 21
0.0
 31
0.0
  0
LINE
  5
290
330
28E
100
AcDbEntity
  8
0
  6
Continuous
 62
     0
370
    -2
100
AcDbLine
 10
0.0
 20
0.0
 30
0.0
 11
-2.0
 21
0.5358983848622455
 31
0.0
  0
LINE
  5
291
330
28E
100
AcDbEntity
  8
0
  6
Continuous
 62
     0
370
    -2
100
AcDbLine
 10
0.0
 20
0.0
 30
0.0
 11
-2.0
 21
-0.5358983848622455
 31
0.0
  0
LINE
  5
292
330
28E
100
AcDbEntity
  8
0
  6
Continuous
 62
     0
370
    -2
100
AcDbLine
 10
-2.0
 20
0.0
 30
0.0
 11
-4.0
 21
0.0
 31
0.0
  0
ENDBLK
  5
AB8
330
28E
100
AcDbEntity
  8
0
100
AcDbBlockEnd
  0
BLOCK
  5
AB9
330
2AD
100
AcDbEntity
  8
0
100
AcDbBlockBegin
  2
KCAD_OPEN30ANG
 70
     0
 71
     0
 10
0.0
 20
0.0
 30
0.0
  3
KCAD_OPEN30ANG
  1

  0
LINE
  5
2D7
330
2AD
100
AcDbEntity
  8
0
  6
Continuous
 62
     0
370
    -2
100
AcDbLine
 10
0.0
 20
0.0
 30
0.0
 11
-1.0
 21
-0.267949
 31
0.0
  0
LINE
  5
2D8
330
2AD
100
AcDbEntity
  8
0
  6
Continuous
 62
     0
370
    -2
100
AcDbLine
 10
-1.0
 20
0.267949
 30
0.0
 11
0.0
 21
0.0
 31
0.0
  0
ENDBLK
  5
ABA
330
2AD
100
AcDbEntity
  8
0
100
AcDbBlockEnd
  0
BLOCK
  5
ABB
330
2B6
100
AcDbEntity
  8
0
100
AcDbBlockBegin
  2
KCAD_DOTANG
 70
     0
 71
     0
 10
0.0
 20
0.0
 30
0.0
  3
KCAD_DOTANG
  1

  0
LWPOLYLINE
  5
2DD
330
2B6
100
AcDbEntity
  8
0
  6
ByBlock
 62
     0
100
AcDbPolyline
 90
        2
 70
     1
 43
0.5
 10
-0.25
 20
0.0
 42
1.0
 10
0.25
 20
0.0
 42
1.0
  0
ENDBLK
  5
ABC
330
2B6
100
AcDbEntity
  8
0
100
AcDbBlockEnd
  0
BLOCK
  5
ABD
330
445
100
AcDbEntity
  8
0
100
AcDbBlockBegin
  2
*D27
 70
     1
 71
     0
 10
0.0
 20
0.0
 30
0.0
  3
*D27
  1

  0
LINE
  5
481
330
445
100
AcDbEntity
  8
KCAD_DIMS
 62
     0
370
    -2
100
AcDbLine
 10
269.4351834430853
 20
181.156590890895
 30
0.0
 11
269.4351834430853
 21
136.5
 31
0.0
  0
LINE
  5
482
330
445
100
AcDbEntity
  8
KCAD_DIMS
 62
     0
370
    -2
100
AcDbLine
 10
273.4351834430853
 20
181.156590890895
 30
0.0
 11
273.4351834430853
 21
149.5
 31
0.0
  0
LINE
  5
483
330
445
100
AcDbEntity
  8
KCAD_DIMS
 62
     0
370
    -2
100
AcDbLine
 10
271.4351834430853
 20
180.156590890895
 30
0.0
 11
276.798095014111
 21
180.168938021657
 31
0.0
  0
LINE
  5
484
330
445
100
AcDbEntity
  8
KCAD_DIMS
 62
     0
370
    -2
100
AcDbLine
 10
276.798095014111
 20
180.168938021657
 30
0.0
 11
279.1480497477136
 21
180.168938021657
 31
0.0
  0
INSERT
  5
485
330
445
100
AcDbEntity
  8
KCAD_DIMS
 62
     0
370
    -2
100
AcDbBlockReference
  2
_OPEN30
 10
269.4351834430853
 20
180.156590890895
 30
0.0
 41
3.0
 42
3.0
 43
3.0
  0
INSERT
  5
486
330
445
100
AcDbEntity
  8
KCAD_DIMS
 62
     0
370
    -2
100
AcDbBlockReference
  2
_OPEN30
 10
273.4351834430853
 20
180.156590890895
 30
0.0
 41
3.0
 42
3.0
 43
3.0
 50
180.0
  0
LINE
  5
487
330
445
100
AcDbEntity
  8
KCAD_DIMS
 62
     0
370
    -2
100
AcDbLine
 10
269.4351834430853
 20
180.156590890895
 30
0.0
 11
273.4351834430853
 21
180.156590890895
 31
0.0
  0
LINE
  5
488
330
445
100
AcDbEntity
  8
KCAD_DIMS
 62
     0
370
    -2
100
AcDbLine
 10
266.4351834430852
 20
180.156590890895
 30
0.0
 11
264.4351834430853
 21
180.156590890895
 31
0.0
  0
LINE
  5
489
330
445
100
AcDbEntity
  8
KCAD_DIMS
 62
     0
370
    -2
100
AcDbLine
 10
276.4351834430852
 20
180.156590890895
 30
0.0
 11
278.4351834430852
 21
180.156590890895
 31
0.0
  0
POINT
  5
48A
330
445
100
AcDbEntity
  8
DEFPOINTS
 62
     0
370
    15
100
AcDbPoint
 10
269.4351834430853
 20
135.5
 30
0.0
  0
POINT
  5
48B
330
445
100
AcDbEntity
  8
DEFPOINTS
 62
     0
370
    15
100
AcDbPoint
 10
273.4351834430853
 20
148.5000000000001
 30
0.0
  0
POINT
  5
48C
330
445
100
AcDbEntity
  8
DEFPOINTS
 62
     0
370
    15
100
AcDbPoint
 10
273.4351834430853
 20
180.156590890895
 30
0.0
  0
MTEXT
  5
48D
330
445
100
AcDbEntity
  8
KCAD_DIMS
 62
     0
100
AcDbMText
 10
277.9730723809123
 20
182.302271021657
 30
0.0
 40
3.2
 41
0.0
 71
     5
 72
     1
  1
\A1;4
  7
KCADDIMSTANDARD
 73
     1
 44
1.0
  0
ENDBLK
  5
ABE
330
445
100
AcDbEntity
  8
0
100
AcDbBlockEnd
  0
BLOCK
  5
ABF
330
48F
100
AcDbEntity
  8
0
100
AcDbBlockBegin
  2
*D28
 70
     1
 71
     0
 10
0.0
 20
0.0
 30
0.0
  3
*D28
  1

  0
LINE
  5
4BC
330
48F
100
AcDbEntity
  8
KCAD_DIMS
 62
     0
370
    -2
100
AcDbLine
 10
153.9351834430854
 20
195.2208622725726
 30
0.0
 11
153.9351834430854
 21
181.156590890895
 31
0.0
  0
INSERT
  5
4BD
330
48F
100
AcDbEntity
  8
KCAD_DIMS
 62
     0
370
    -2
100
AcDbBlockReference
  2
_OPEN30
 10
269.4351834430853
 20
194.2208622725726
 30
0.0
 41
3.0
 42
3.0
 43
3.0
  0
INSERT
  5
4BE
330
48F
100
AcDbEntity
  8
KCAD_DIMS
 62
     0
370
    -2
100
AcDbBlockReference
  2
_OPEN30
 10
153.9351834430854
 20
194.2208622725726
 30
0.0
 41
3.0
 42
3.0
 43
3.0
 50
180.0
  0
LINE
  5
4BF
330
48F
100
AcDbEntity
  8
KCAD_DIMS
 62
     0
370
    -2
100
AcDbLine
 10
266.4351834430852
 20
194.2208622725726
 30
0.0
 11
156.9351834430854
 21
194.2208622725726
 31
0.0
  0
POINT
  5
4C0
330
48F
100
AcDbEntity
  8
DEFPOINTS
 62
     0
370
    15
100
AcDbPoint
 10
269.4351834430853
 20
194.2208622725726
 30
0.0
  0
POINT
  5
4C1
330
48F
100
AcDbEntity
  8
DEFPOINTS
 62
     0
370
    15
100
AcDbPoint
 10
153.9351834430854
 20
180.156590890895
 30
0.0
  0
POINT
  5
4C2
330
48F
100
AcDbEntity
  8
DEFPOINTS
 62
     0
370
    15
100
AcDbPoint
 10
153.9351834430854
 20
194.2208622725726
 30
0.0
  0
MTEXT
  5
4C3
330
48F
100
AcDbEntity
  8
KCAD_DIMS
 62
     0
100
AcDbMText
 10
211.6851834430853
 20
196.3541952725726
 30
0.0
 40
3.2
 41
0.0
 71
     5
 72
     1
  1
\A1;115.5
  7
KCADDIMSTANDARD
 73
     1
 44
1.0
  0
ENDBLK
  5
AC0
330
48F
100
AcDbEntity
  8
0
100
AcDbBlockEnd
  0
BLOCK
  5
AC1
330
4C5
100
AcDbEntity
  8
0
100
AcDbBlockBegin
  2
*D29
 70
     1
 71
     0
 10
0.0
 20
0.0
 30
0.0
  3
*D29
  1

  0
LINE
  5
4F7
330
4C5
100
AcDbEntity
  8
KCAD_DIMS
 62
     0
370
    -2
100
AcDbLine
 10
286.9611834430853
 20
214.6662234042553
 30
0.0
 11
286.9611834430853
 21
149.5
 31
0.0
  0
LINE
  5
4F8
330
4C5
100
AcDbEntity
  8
KCAD_DIMS
 62
     0
370
    -2
100
AcDbLine
 10
81.63518344308474
 20
214.6662234042553
 30
0.0
 11
81.63518344308474
 21
149.4999999999996
 31
0.0
  0
INSERT
  5
4F9
330
4C5
100
AcDbEntity
  8
KCAD_DIMS
 62
     0
370
    -2
100
AcDbBlockReference
  2
_OPEN30
 10
286.9611834430853
 20
213.6662234042553
 30
0.0
 41
3.0
 42
3.0
 43
3.0
  0
INSERT
  5
4FA
330
4C5
100
AcDbEntity
  8
KCAD_DIMS
 62
     0
370
    -2
100
AcDbBlockReference
  2
_OPEN30
 10
81.63518344308474
 20
213.6662234042553
 30
0.0
 41
3.0
 42
3.0
 43
3.0
 50
180.0
  0
LINE
  5
4FB
330
4C5
100
AcDbEntity
  8
KCAD_DIMS
 62
     0
370
    -2
100
AcDbLine
 10
283.9611834430852
 20
213.6662234042553
 30
0.0
 11
84.63518344308473
 21
213.6662234042553
 31
0.0
  0
POINT
  5
4FC
330
4C5
100
AcDbEntity
  8
DEFPOINTS
 62
     0
370
    15
100
AcDbPoint
 10
286.9611834430853
 20
148.5000000000001
 30
0.0
  0
POINT
  5
4FD
330
4C5
100
AcDbEntity
  8
DEFPOINTS
 62
     0
370
    15
100
AcDbPoint
 10
81.63518344308474
 20
148.4999999999996
 30
0.0
  0
POINT
  5
4FE
330
4C5
100
AcDbEntity
  8
DEFPOINTS
 62
     0
370
    15
100
AcDbPoint
 10
81.63518344308474
 20
213.6662234042553
 30
0.0
  0
MTEXT
  5
4FF
330
4C5
100
AcDbEntity
  8
KCAD_DIMS
 62
     0
100
AcDbMText
 10
184.298183443085
 20
215.7995564042553
 30
0.0
 40
3.2
 41
0.0
 71
     5
 72
     1
  1
\A1;205.33
  7
KCADDIMSTANDARD
 73
     1
 44
1.0
  0
ENDBLK
  5
AC2
330
4C5
100
AcDbEntity
  8
0
100
AcDbBlockEnd
  0
BLOCK
  5
AC3
330
501
100
AcDbEntity
  8
0
100
AcDbBlockBegin
  2
*D30
 70
     1
 71
     0
 10
0.0
 20
0.0
 30
0.0
  3
*D30
  1

  0
LINE
  5
533
330
501
100
AcDbEntity
  8
KCAD_DIMS
 62
     0
370
    -2
100
AcDbLine
 10
81.6351834430861
 20
181.156590890895
 30
0.0
 11
81.6351834430861
 21
149.4999999999996
 31
0.0
  0
LINE
  5
534
330
501
100
AcDbEntity
  8
KCAD_DIMS
 62
     0
370
    -2
100
AcDbLine
 10
153.9351834430854
 20
181.156590890895
 30
0.0
 11
153.9351834430854
 21
149.4999999999998
 31
0.0
  0
INSERT
  5
535
330
501
100
AcDbEntity
  8
KCAD_DIMS
 62
     0
370
    -2
100
AcDbBlockReference
  2
_OPEN30
 10
81.6351834430861
 20
180.156590890895
 30
0.0
 41
3.0
 42
3.0
 43
3.0
 50
180.0
  0
INSERT
  5
536
330
501
100
AcDbEntity
  8
KCAD_DIMS
 62
     0
370
    -2
100
AcDbBlockReference
  2
_OPEN30
 10
153.9351834430854
 20
180.156590890895
 30
0.0
 41
3.0
 42
3.0
 43
3.0
  0
LINE
  5
537
330
501
100
AcDbEntity
  8
KCAD_DIMS
 62
     0
370
    -2
100
AcDbLine
 10
84.6351834430861
 20
180.156590890895
 30
0.0
 11
150.9351834430854
 21
180.156590890895
 31
0.0
  0
POINT
  5
538
330
501
100
AcDbEntity
  8
DEFPOINTS
 62
     0
370
    15
100
AcDbPoint
 10
81.6351834430861
 20
148.4999999999996
 30
0.0
  0
POINT
  5
539
330
501
100
AcDbEntity
  8
DEFPOINTS
 62
     0
370
    15
100
AcDbPoint
 10
153.9351834430854
 20
148.4999999999998
 30
0.0
  0
POINT
  5
53A
330
501
100
AcDbEntity
  8
DEFPOINTS
 62
     0
370
    15
100
AcDbPoint
 10
153.9351834430854
 20
180.156590890895
 30
0.0
  0
MTEXT
  5
53B
330
501
100
AcDbEntity
  8
KCAD_DIMS
 62
     0
100
AcDbMText
 10
117.7851834430857
 20
182.289923890895
 30
0.0
 40
3.2
 41
0.0
 71
     5
 72
     1
  1
\A1;WD=72.3
  7
KCADDIMSTANDARD
 73
     1
 44
1.0
  0
ENDBLK
  5
AC4
330
501
100
AcDbEntity
  8
0
100
AcDbBlockEnd
  0
BLOCK
  5
AC5
330
53D
100
AcDbEntity
  8
0
100
AcDbBlockBegin
  2
*D31
 70
     1
 71
     0
 10
0.0
 20
0.0
 30
0.0
  3
*D31
  1

  0
LINE
  5
56F
330
53D
100
AcDbEntity
  8
KCAD_DIMS
 62
     0
370
    -2
100
AcDbLine
 10
133.1303857008464
 20
158.5000000000003
 30
0.0
 11
168.9351834430854
 21
158.5000000000003
 31
0.0
  0
LINE
  5
570
330
53D
100
AcDbEntity
  8
KCAD_DIMS
 62
     0
370
    -2
100
AcDbLine
 10
133.1303857008465
 20
138.4999999999998
 30
0.0
 11
153.2351834430854
 21
138.4999999999998
 31
0.0
  0
INSERT
  5
571
330
53D
100
AcDbEntity
  8
KCAD_DIMS
 62
     0
370
    -2
100
AcDbBlockReference
  2
_OPEN30
 10
134.1303857008464
 20
158.5000000000003
 30
0.0
 41
3.0
 42
3.0
 43
3.0
 50
90.00000000000007
  0
INSERT
  5
572
330
53D
100
AcDbEntity
  8
KCAD_DIMS
 62
     0
370
    -2
100
AcDbBlockReference
  2
_OPEN30
 10
134.1303857008465
 20
138.4999999999998
 30
0.0
 41
3.0
 42
3.0
 43
3.0
 50
270.0000000000001
  0
LINE
  5
573
330
53D
100
AcDbEntity
  8
KCAD_DIMS
 62
     0
370
    -2
100
AcDbLine
 10
134.1303857008464
 20
155.5000000000003
 30
0.0
 11
134.1303857008465
 21
141.4999999999998
 31
0.0
  0
POINT
  5
574
330
53D
100
AcDbEntity
  8
DEFPOINTS
 62
     0
370
    15
100
AcDbPoint
 10
169.9351834430854
 20
158.5000000000003
 30
0.0
  0
POINT
  5
575
330
53D
100
AcDbEntity
  8
DEFPOINTS
 62
     0
370
    15
100
AcDbPoint
 10
154.2351834430854
 20
138.4999999999998
 30
0.0
  0
POINT
  5
576
330
53D
100
AcDbEntity
  8
DEFPOINTS
 62
     0
370
    15
100
AcDbPoint
 10
134.1303857008465
 20
138.4999999999998
 30
0.0
  0
MTEXT
  5
577
330
53D
100
AcDbEntity
  8
KCAD_DIMS
 62
     0
100
AcDbMText
 10
131.9970527008465
 20
148.5
 30
0.0
 40
3.2
 41
0.0
 71
     5
 72
     1
  1
\A1;%%c20
  7
KCADDIMSTANDARD
 11
1.000000000000000E-16
 21
1.0
 31
0.0
 73
     1
 44
1.0
  0
ENDBLK
  5
AC6
330
53D
100
AcDbEntity
  8
0
100
AcDbBlockEnd
  0
BLOCK
  5
AC7
330
579
100
AcDbEntity
  8
0
100
AcDbBlockBegin
  2
*D32
 70
     1
 71
     0
 10
0.0
 20
0.0
 30
0.0
  3
*D32
  1

  0
LINE
  5
5AB
330
579
100
AcDbEntity
  8
KCAD_DIMS
 62
     0
370
    -2
100
AcDbLine
 10
153.9351834430854
 20
181.156590890895
 30
0.0
 11
153.9351834430854
 21
149.5000000000003
 31
0.0
  0
LINE
  5
5AC
330
579
100
AcDbEntity
  8
KCAD_DIMS
 62
     0
370
    -2
100
AcDbLine
 10
257.4351834430852
 20
181.156590890895
 30
0.0
 11
257.4351834430852
 21
149.5
 31
0.0
  0
INSERT
  5
5AD
330
579
100
AcDbEntity
  8
KCAD_DIMS
 62
     0
370
    -2
100
AcDbBlockReference
  2
_OPEN30
 10
153.9351834430854
 20
180.156590890895
 30
0.0
 41
3.0
 42
3.0
 43
3.0
 50
180.0
  0
INSERT
  5
5AE
330
579
100
AcDbEntity
  8
KCAD_DIMS
 62
     0
370
    -2
100
AcDbBlockReference
  2
_OPEN30
 10
257.4351834430852
 20
180.156590890895
 30
0.0
 41
3.0
 42
3.0
 43
3.0
  0
LINE
  5
5AF
330
579
100
AcDbEntity
  8
KCAD_DIMS
 62
     0
370
    -2
100
AcDbLine
 10
156.9351834430854
 20
180.156590890895
 30
0.0
 11
254.4351834430853
 21
180.156590890895
 31
0.0
  0
POINT
  5
5B0
330
579
100
AcDbEntity
  8
DEFPOINTS
 62
     0
370
    15
100
AcDbPoint
 10
153.9351834430854
 20
148.5000000000003
 30
0.0
  0
POINT
  5
5B1
330
579
100
AcDbEntity
  8
DEFPOINTS
 62
     0
370
    15
100
AcDbPoint
 10
257.4351834430852
 20
148.5000000000001
 30
0.0
  0
POINT
  5
5B2
330
579
100
AcDbEntity
  8
DEFPOINTS
 62
     0
370
    15
100
AcDbPoint
 10
257.4351834430852
 20
180.156590890895
 30
0.0
  0
MTEXT
  5
5B3
330
579
100
AcDbEntity
  8
KCAD_DIMS
 62
     0
100
AcDbMText
 10
205.6851834430853
 20
182.289923890895
 30
0.0
 40
3.2
 41
0.0
 71
     5
 72
     1
  1
\A1;103.5
  7
KCADDIMSTANDARD
 73
     1
 44
1.0
  0
ENDBLK
  5
AC8
330
579
100
AcDbEntity
  8
0
100
AcDbBlockEnd
  0
BLOCK
  5
AC9
330
5B5
100
AcDbEntity
  8
0
100
AcDbBlockBegin
  2
*D33
 70
     1
 71
     0
 10
0.0
 20
0.0
 30
0.0
  3
*D33
  1

  0
LINE
  5
5E7
330
5B5
100
AcDbEntity
  8
KCAD_DIMS
 62
     0
370
    -2
100
AcDbLine
 10
257.4351834430852
 20
181.156590890895
 30
0.0
 11
257.4351834430852
 21
149.5
 31
0.0
  0
LINE
  5
5E8
330
5B5
100
AcDbEntity
  8
KCAD_DIMS
 62
     0
370
    -2
100
AcDbLine
 10
269.4351834430853
 20
181.156590890895
 30
0.0
 11
269.4351834430853
 21
149.5
 31
0.0
  0
INSERT
  5
5E9
330
5B5
100
AcDbEntity
  8
KCAD_DIMS
 62
     0
370
    -2
100
AcDbBlockReference
  2
_OPEN30
 10
257.4351834430852
 20
180.156590890895
 30
0.0
 41
3.0
 42
3.0
 43
3.0
 50
180.0
  0
INSERT
  5
5EA
330
5B5
100
AcDbEntity
  8
KCAD_DIMS
 62
     0
370
    -2
100
AcDbBlockReference
  2
_OPEN30
 10
269.4351834430853
 20
180.156590890895
 30
0.0
 41
3.0
 42
3.0
 43
3.0
  0
LINE
  5
5EB
330
5B5
100
AcDbEntity
  8
KCAD_DIMS
 62
     0
370
    -2
100
AcDbLine
 10
260.4351834430853
 20
180.156590890895
 30
0.0
 11
266.4351834430852
 21
180.156590890895
 31
0.0
  0
POINT
  5
5EC
330
5B5
100
AcDbEntity
  8
DEFPOINTS
 62
     0
370
    15
100
AcDbPoint
 10
257.4351834430852
 20
148.5000000000001
 30
0.0
  0
POINT
  5
5ED
330
5B5
100
AcDbEntity
  8
DEFPOINTS
 62
     0
370
    15
100
AcDbPoint
 10
269.4351834430853
 20
148.5000000000001
 30
0.0
  0
POINT
  5
5EE
330
5B5
100
AcDbEntity
  8
DEFPOINTS
 62
     0
370
    15
100
AcDbPoint
 10
269.4351834430853
 20
180.156590890895
 30
0.0
  0
MTEXT
  5
5EF
330
5B5
100
AcDbEntity
  8
KCAD_DIMS
 62
     0
100
AcDbMText
 10
263.4351834430852
 20
182.289923890895
 30
0.0
 40
3.2
 41
0.0
 71
     5
 72
     1
  1
\A1;12
  7
KCADDIMSTANDARD
 73
     1
 44
1.0
  0
ENDBLK
  5
ACA
330
5B5
100
AcDbEntity
  8
0
100
AcDbBlockEnd
  0
BLOCK
  5
ACB
330
5F1
100
AcDbEntity
  8
0
100
AcDbBlockBegin
  2
*D34
 70
     1
 71
     0
 10
0.0
 20
0.0
 30
0.0
  3
*D34
  1

  0
LINE
  5
623
330
5F1
100
AcDbEntity
  8
KCAD_DIMS
 62
     0
370
    -2
100
AcDbLine
 10
269.4351834430853
 20
195.2208622725726
 30
0.0
 11
269.4351834430853
 21
149.5
 31
0.0
  0
LINE
  5
624
330
5F1
100
AcDbEntity
  8
KCAD_DIMS
 62
     0
370
    -2
100
AcDbLine
 10
286.9611834430853
 20
195.2208622725726
 30
0.0
 11
286.9611834430853
 21
149.5
 31
0.0
  0
LINE
  5
625
330
5F1
100
AcDbEntity
  8
KCAD_DIMS
 62
     0
370
    -2
100
AcDbLine
 10
278.1981834430852
 20
194.2208622725726
 30
0.0
 11
291.6230479774222
 21
214.3508849402533
 31
0.0
  0
LINE
  5
626
330
5F1
100
AcDbEntity
  8
KCAD_DIMS
 62
     0
370
    -2
100
AcDbLine
 10
291.6230479774222
 20
214.3508849402533
 30
0.0
 11
331.1479814524582
 21
214.3508849402533
 31
0.0
  0
INSERT
  5
627
330
5F1
100
AcDbEntity
  8
KCAD_DIMS
 62
     0
370
    -2
100
AcDbBlockReference
  2
_OPEN30
 10
269.4351834430853
 20
194.2208622725726
 30
0.0
 41
3.0
 42
3.0
 43
3.0
 50
180.0
  0
INSERT
  5
628
330
5F1
100
AcDbEntity
  8
KCAD_DIMS
 62
     0
370
    -2
100
AcDbBlockReference
  2
_OPEN30
 10
286.9611834430853
 20
194.2208622725726
 30
0.0
 41
3.0
 42
3.0
 43
3.0
  0
LINE
  5
629
330
5F1
100
AcDbEntity
  8
KCAD_DIMS
 62
     0
370
    -2
100
AcDbLine
 10
272.4351834430852
 20
194.2208622725726
 30
0.0
 11
283.9611834430852
 21
194.2208622725726
 31
0.0
  0
POINT
  5
62A
330
5F1
100
AcDbEntity
  8
DEFPOINTS
 62
     0
370
    15
100
AcDbPoint
 10
269.4351834430853
 20
148.5000000000001
 30
0.0
  0
POINT
  5
62B
330
5F1
100
AcDbEntity
  8
DEFPOINTS
 62
     0
370
    15
100
AcDbPoint
 10
286.9611834430853
 20
148.5000000000001
 30
0.0
  0
POINT
  5
62C
330
5F1
100
AcDbEntity
  8
DEFPOINTS
 62
     0
370
    15
100
AcDbPoint
 10
286.9611834430853
 20
194.2208622725726
 30
0.0
  0
MTEXT
  5
62D
330
5F1
100
AcDbEntity
  8
KCAD_DIMS
 62
     0
100
AcDbMText
 10
317.9730036274461
 20
216.4842179402533
 30
0.0
 40
3.2
 41
0.0
 71
     5
 72
     1
  1
\A1;FB=17.526
  7
KCADDIMSTANDARD
 73
     1
 44
1.0
  0
ENDBLK
  5
ACC
330
5F1
100
AcDbEntity
  8
0
100
AcDbBlockEnd
  0
BLOCK
  5
ACD
330
62F
100
AcDbEntity
  8
0
100
AcDbBlockBegin
  2
*D35
 70
     1
 71
     0
 10
0.0
 20
0.0
 30
0.0
  3
*D35
  1

  0
MTEXT
  5
664
330
62F
100
AcDbEntity
  8
KCAD_DIMS
 62
     0
100
AcDbMText
 10
277.9957666980244
 20
168.4863158266048
 30
0.0
 40
3.2
 41
0.0
 71
     5
 72
     1
  1
\A1;C1{\H0.667000x;}
  7
KCADDIMSTANDARD
 73
     1
 44
1.0
  0
LINE
  5
665
330
62F
100
AcDbEntity
  8
KCAD_DIMS
 62
     0
370
    -2
100
AcDbLine
 10
271.1320819876418
 20
164.0457421425627
 30
0.0
 11
273.441706341185
 21
166.3553664961059
 31
0.0
  0
INSERT
  5
666
330
62F
100
AcDbEntity
  8
KCAD_DIMS
 62
     0
370
    -2
100
AcDbBlockReference
  2
_OPEN30
 10
269.0107616440822
 20
161.924421799003
 30
0.0
 41
3.0
 42
3.0
 43
3.0
 50
225.0000000000005
  0
LINE
  5
667
330
62F
100
AcDbEntity
  8
KCAD_DIMS
 62
     0
370
    -2
100
AcDbLine
 10
271.5502116650987
 20
164.4638718200196
 30
0.0
 11
273.4640169332079
 21
166.3529828266048
 31
0.0
  0
LINE
  5
668
330
62F
100
AcDbEntity
  8
KCAD_DIMS
 62
     0
370
    -2
100
AcDbLine
 10
273.4640169332079
 20
166.3529828266048
 30
0.0
 11
280.670744122102
 21
166.3529828266048
 31
0.0
  0
ENDBLK
  5
ACE
330
62F
100
AcDbEntity
  8
0
100
AcDbBlockEnd
  0
BLOCK
  5
ACF
330
66A
100
AcDbEntity
  8
0
100
AcDbBlockBegin
  2
*D36
 70
     1
 71
     0
 10
0.0
 20
0.0
 30
0.0
  3
*D36
  1

  0
MTEXT
  5
69F
330
66A
100
AcDbEntity
  8
KCAD_DIMS
 62
     0
100
AcDbMText
 10
247.082901106713
 20
169.4370448952783
 30
0.0
 40
3.2
 41
0.0
 71
     5
 72
     1
  1
\A1;C0.5{\H0.667000x;}
  7
KCADDIMSTANDARD
 73
     1
 44
1.0
  0
LINE
  5
6A0
330
66A
100
AcDbEntity
  8
KCAD_DIMS
 62
     0
370
    -2
100
AcDbLine
 10
255.6270666482938
 20
164.4345238923279
 30
0.0
 11
252.7949224346306
 21
167.266668105991
 31
0.0
  0
INSERT
  5
6A1
330
66A
100
AcDbEntity
  8
KCAD_DIMS
 62
     0
370
    -2
100
AcDbBlockReference
  2
_OPEN30
 10
257.7483869918534
 20
162.3132035487682
 30
0.0
 41
3.0
 42
3.0
 43
3.0
 50
315.0000000000005
  0
LINE
  5
6A2
330
66A
100
AcDbEntity
  8
KCAD_DIMS
 62
     0
370
    -2
100
AcDbLine
 10
256.8077375352775
 20
163.2538530053442
 30
0.0
 11
252.7578786453433
 21
167.3037118952783
 31
0.0
  0
LINE
  5
6A3
330
66A
100
AcDbEntity
  8
KCAD_DIMS
 62
     0
370
    -2
100
AcDbLine
 10
252.7578786453433
 20
167.3037118952783
 30
0.0
 11
241.4079235680826
 21
167.3037118952783
 31
0.0
  0
ENDBLK
  5
AD0
330
66A
100
AcDbEntity
  8
0
100
AcDbBlockEnd
  0
BLOCK
  5
AD1
330
6A5
100
AcDbEntity
  8
0
100
AcDbBlockBegin
  2
*D37
 70
     1
 71
     0
 10
0.0
 20
0.0
 30
0.0
  3
*D37
  1

  0
LINE
  5
6D7
330
6A5
100
AcDbEntity
  8
KCAD_DIMS
 62
     0
370
    -2
100
AcDbLine
 10
312.2342427093132
 20
162.5000000000001
 30
0.0
 11
269.4351834430853
 21
162.5
 31
0.0
  0
LINE
  5
6D8
330
6A5
100
AcDbEntity
  8
KCAD_DIMS
 62
     0
370
    -2
100
AcDbLine
 10
312.2342427093132
 20
134.5000000000001
 30
0.0
 11
269.4351834430853
 21
134.5
 31
0.0
  0
INSERT
  5
6D9
330
6A5
100
AcDbEntity
  8
KCAD_DIMS
 62
     0
370
    -2
100
AcDbBlockReference
  2
_OPEN30
 10
311.2342427093132
 20
162.5000000000001
 30
0.0
 41
3.0
 42
3.0
 43
3.0
 50
90.00000000000011
  0
INSERT
  5
6DA
330
6A5
100
AcDbEntity
  8
KCAD_DIMS
 62
     0
370
    -2
100
AcDbBlockReference
  2
_OPEN30
 10
311.2342427093132
 20
134.5000000000001
 30
0.0
 41
3.0
 42
3.0
 43
3.0
 50
270.0000000000001
  0
LINE
  5
6DB
330
6A5
100
AcDbEntity
  8
KCAD_DIMS
 62
     0
370
    -2
100
AcDbLine
 10
311.2342427093132
 20
159.5000000000001
 30
0.0
 11
311.2342427093132
 21
137.5000000000001
 31
0.0
  0
POINT
  5
6DC
330
6A5
100
AcDbEntity
  8
DEFPOINTS
 62
     0
370
    15
100
AcDbPoint
 10
268.4351834430852
 20
162.5
 30
0.0
  0
POINT
  5
6DD
330
6A5
100
AcDbEntity
  8
DEFPOINTS
 62
     0
370
    15
100
AcDbPoint
 10
268.4351834430852
 20
134.5
 30
0.0
  0
POINT
  5
6DE
330
6A5
100
AcDbEntity
  8
DEFPOINTS
 62
     0
370
    15
100
AcDbPoint
 10
311.2342427093132
 20
134.5
 30
0.0
  0
MTEXT
  5
6DF
330
6A5
100
AcDbEntity
  8
KCAD_DIMS
 62
     0
100
AcDbMText
 10
309.1009097093132
 20
148.5000000000002
 30
0.0
 40
3.2
 41
0.0
 71
     5
 72
     1
  1
\A1;%%c28
  7
KCADDIMSTANDARD
 11
1.000000000000000E-16
 21
1.0
 31
0.0
 73
     1
 44
1.0
  0
ENDBLK
  5
AD2
330
6A5
100
AcDbEntity
  8
0
100
AcDbBlockEnd
  0
BLOCK
  5
AD3
330
6E1
100
AcDbEntity
  8
0
100
AcDbBlockBegin
  2
*D38
 70
     1
 71
     0
 10
0.0
 20
0.0
 30
0.0
  3
*D38
  1

  0
LINE
  5
713
330
6E1
100
AcDbEntity
  8
KCAD_DIMS
 62
     0
370
    -2
100
AcDbLine
 10
215.4244741873804
 20
158.5000000000002
 30
0.0
 11
256.4351834430853
 21
158.5000000000003
 31
0.0
  0
LINE
  5
714
330
6E1
100
AcDbEntity
  8
KCAD_DIMS
 62
     0
370
    -2
100
AcDbLine
 10
215.4244741873804
 20
138.4999999999998
 30
0.0
 11
256.4351834430853
 21
138.4999999999998
 31
0.0
  0
INSERT
  5
715
330
6E1
100
AcDbEntity
  8
KCAD_DIMS
 62
     0
370
    -2
100
AcDbBlockReference
  2
_OPEN30
 10
216.4244741873804
 20
158.5000000000002
 30
0.0
 41
3.0
 42
3.0
 43
3.0
 50
270.0000000000001
  0
INSERT
  5
716
330
6E1
100
AcDbEntity
  8
KCAD_DIMS
 62
     0
370
    -2
100
AcDbBlockReference
  2
_OPEN30
 10
216.4244741873805
 20
138.4999999999998
 30
0.0
 41
3.0
 42
3.0
 43
3.0
 50
90.0000000000001
  0
LINE
  5
717
330
6E1
100
AcDbEntity
  8
KCAD_DIMS
 62
     0
370
    -2
100
AcDbLine
 10
216.4244741873804
 20
158.5000000000002
 30
0.0
 11
216.4244741873805
 21
138.4999999999998
 31
0.0
  0
LINE
  5
718
330
6E1
100
AcDbEntity
  8
KCAD_DIMS
 62
     0
370
    -2
100
AcDbLine
 10
216.4244741873804
 20
161.5000000000002
 30
0.0
 11
216.4244741873804
 21
169.8365453589831
 31
0.0
  0
LINE
  5
719
330
6E1
100
AcDbEntity
  8
KCAD_DIMS
 62
     0
370
    -2
100
AcDbLine
 10
216.4244741873805
 20
135.4999999999997
 30
0.0
 11
216.4244741873805
 21
133.4999999999997
 31
0.0
  0
POINT
  5
71A
330
6E1
100
AcDbEntity
  8
DEFPOINTS
 62
     0
370
    15
100
AcDbPoint
 10
257.4351834430853
 20
158.5000000000003
 30
0.0
  0
POINT
  5
71B
330
6E1
100
AcDbEntity
  8
DEFPOINTS
 62
     0
370
    15
100
AcDbPoint
 10
257.4351834430852
 20
138.4999999999998
 30
0.0
  0
POINT
  5
71C
330
6E1
100
AcDbEntity
  8
DEFPOINTS
 62
     0
370
    15
100
AcDbPoint
 10
216.4244741873805
 20
138.4999999999998
 30
0.0
  0
MTEXT
  5
71D
330
6E1
100
AcDbEntity
  8
KCAD_DIMS
 62
     0
100
AcDbMText
 10
214.2911411873805
 20
165.661567877629
 30
0.0
 40
3.2
 41
0.0
 71
     5
 72
     1
  1
\A1;%%c20
  7
KCADDIMSTANDARD
 11
1.000000000000000E-16
 21
1.0
 31
0.0
 73
     1
 44
1.0
  0
ENDBLK
  5
AD4
330
6E1
100
AcDbEntity
  8
0
100
AcDbBlockEnd
  0
BLOCK
  5
AD5
330
71F
100
AcDbEntity
  8
0
100
AcDbBlockBegin
  2
*D39
 70
     1
 71
     0
 10
0.0
 20
0.0
 30
0.0
  3
*D39
  1

  0
LINE
  5
751
330
71F
100
AcDbEntity
  8
KCAD_DIMS
 62
     0
370
    -2
100
AcDbLine
 10
153.9351834430854
 20
107.6652989509585
 30
0.0
 11
153.9351834430854
 21
137.7999999999998
 31
0.0
  0
LINE
  5
752
330
71F
100
AcDbEntity
  8
KCAD_DIMS
 62
     0
370
    -2
100
AcDbLine
 10
174.9351834430855
 20
107.6652989509585
 30
0.0
 11
174.9351834430855
 21
119.5
 31
0.0
  0
INSERT
  5
753
330
71F
100
AcDbEntity
  8
KCAD_DIMS
 62
     0
370
    -2
100
AcDbBlockReference
  2
_OPEN30
 10
153.9351834430854
 20
108.6652989509586
 30
0.0
 41
3.0
 42
3.0
 43
3.0
 50
180.0
  0
INSERT
  5
754
330
71F
100
AcDbEntity
  8
KCAD_DIMS
 62
     0
370
    -2
100
AcDbBlockReference
  2
_OPEN30
 10
174.9351834430855
 20
108.6652989509586
 30
0.0
 41
3.0
 42
3.0
 43
3.0
  0
LINE
  5
755
330
71F
100
AcDbEntity
  8
KCAD_DIMS
 62
     0
370
    -2
100
AcDbLine
 10
156.9351834430854
 20
108.6652989509586
 30
0.0
 11
171.9351834430855
 21
108.6652989509586
 31
0.0
  0
POINT
  5
756
330
71F
100
AcDbEntity
  8
DEFPOINTS
 62
     0
370
    15
100
AcDbPoint
 10
153.9351834430854
 20
138.7999999999998
 30
0.0
  0
POINT
  5
757
330
71F
100
AcDbEntity
  8
DEFPOINTS
 62
     0
370
    15
100
AcDbPoint
 10
174.9351834430855
 20
120.5
 30
0.0
  0
POINT
  5
758
330
71F
100
AcDbEntity
  8
DEFPOINTS
 62
     0
370
    15
100
AcDbPoint
 10
174.9351834430855
 20
108.6652989509586
 30
0.0
  0
MTEXT
  5
759
330
71F
100
AcDbEntity
  8
KCAD_DIMS
 62
     0
100
AcDbMText
 10
164.4351834430854
 20
110.7986319509586
 30
0.0
 40
3.2
 41
0.0
 71
     5
 72
     1
  1
\A1;21
  7
KCADDIMSTANDARD
 73
     1
 44
1.0
  0
ENDBLK
  5
AD6
330
71F
100
AcDbEntity
  8
0
100
AcDbBlockEnd
  0
BLOCK
  5
AD7
330
75B
100
AcDbEntity
  8
0
100
AcDbBlockBegin
  2
*D40
 70
     1
 71
     0
 10
0.0
 20
0.0
 30
0.0
  3
*D40
  1

  0
LINE
  5
78D
330
75B
100
AcDbEntity
  8
KCAD_DIMS
 62
     0
370
    -2
100
AcDbLine
 10
168.9351834430852
 20
94.01329130277504
 30
0.0
 11
168.9351834430852
 21
119.5
 31
0.0
  0
LINE
  5
78E
330
75B
100
AcDbEntity
  8
KCAD_DIMS
 62
     0
370
    -2
100
AcDbLine
 10
180.9351834430854
 20
94.01329130277504
 30
0.0
 11
180.9351834430854
 21
119.5
 31
0.0
  0
INSERT
  5
78F
330
75B
100
AcDbEntity
  8
KCAD_DIMS
 62
     0
370
    -2
100
AcDbBlockReference
  2
_OPEN30
 10
168.9351834430852
 20
95.01329130277504
 30
0.0
 41
3.0
 42
3.0
 43
3.0
 50
180.0
  0
INSERT
  5
790
330
75B
100
AcDbEntity
  8
KCAD_DIMS
 62
     0
370
    -2
100
AcDbBlockReference
  2
_OPEN30
 10
180.9351834430854
 20
95.01329130277504
 30
0.0
 41
3.0
 42
3.0
 43
3.0
  0
LINE
  5
791
330
75B
100
AcDbEntity
  8
KCAD_DIMS
 62
     0
370
    -2
100
AcDbLine
 10
171.9351834430852
 20
95.01329130277504
 30
0.0
 11
177.9351834430854
 21
95.01329130277504
 31
0.0
  0
POINT
  5
792
330
75B
100
AcDbEntity
  8
DEFPOINTS
 62
     0
370
    15
100
AcDbPoint
 10
168.9351834430852
 20
120.5
 30
0.0
  0
POINT
  5
793
330
75B
100
AcDbEntity
  8
DEFPOINTS
 62
     0
370
    15
100
AcDbPoint
 10
180.9351834430854
 20
120.5
 30
0.0
  0
POINT
  5
794
330
75B
100
AcDbEntity
  8
DEFPOINTS
 62
     0
370
    15
100
AcDbPoint
 10
180.9351834430854
 20
95.01329130277504
 30
0.0
  0
MTEXT
  5
795
330
75B
100
AcDbEntity
  8
KCAD_DIMS
 62
     0
100
AcDbMText
 10
174.9351834430853
 20
97.14662430277507
 30
0.0
 40
3.2
 41
0.0
 71
     5
 72
     1
  1
\A1;%%c12
  7
KCADDIMSTANDARD
 73
     1
 44
1.0
  0
ENDBLK
  5
AD8
330
75B
100
AcDbEntity
  8
0
100
AcDbBlockEnd
  0
BLOCK
  5
AD9
330
797
100
AcDbEntity
  8
0
100
AcDbBlockBegin
  2
*D41
 70
     1
 71
     0
 10
0.0
 20
0.0
 30
0.0
  3
*D41
  1

  0
LINE
  5
7C9
330
797
100
AcDbEntity
  8
KCAD_DIMS
 62
     0
370
    -2
100
AcDbLine
 10
165.9351834430854
 20
124.730308511188
 30
0.0
 11
165.9351834430854
 21
130.4999999999998
 31
0.0
  0
LINE
  5
7CA
330
797
100
AcDbEntity
  8
KCAD_DIMS
 62
     0
370
    -2
100
AcDbLine
 10
183.9351834430853
 20
124.730308511188
 30
0.0
 11
183.9351834430853
 21
130.4999999999998
 31
0.0
  0
INSERT
  5
7CB
330
797
100
AcDbEntity
  8
KCAD_DIMS
 62
     0
370
    -2
100
AcDbBlockReference
  2
_OPEN30
 10
165.9351834430854
 20
125.730308511188
 30
0.0
 41
3.0
 42
3.0
 43
3.0
  0
INSERT
  5
7CC
330
797
100
AcDbEntity
  8
KCAD_DIMS
 62
     0
370
    -2
100
AcDbBlockReference
  2
_OPEN30
 10
183.9351834430853
 20
125.730308511188
 30
0.0
 41
3.0
 42
3.0
 43
3.0
 50
180.0
  0
LINE
  5
7CD
330
797
100
AcDbEntity
  8
KCAD_DIMS
 62
     0
370
    -2
100
AcDbLine
 10
165.9351834430854
 20
125.730308511188
 30
0.0
 11
183.9351834430853
 21
125.730308511188
 31
0.0
  0
LINE
  5
7CE
330
797
100
AcDbEntity
  8
KCAD_DIMS
 62
     0
370
    -2
100
AcDbLine
 10
162.9351834430854
 20
125.730308511188
 30
0.0
 11
160.9351834430855
 21
125.730308511188
 31
0.0
  0
LINE
  5
7CF
330
797
100
AcDbEntity
  8
KCAD_DIMS
 62
     0
370
    -2
100
AcDbLine
 10
186.9351834430853
 20
125.730308511188
 30
0.0
 11
194.5057613628921
 21
125.730308511188
 31
0.0
  0
POINT
  5
7D0
330
797
100
AcDbEntity
  8
DEFPOINTS
 62
     0
370
    15
100
AcDbPoint
 10
165.9351834430854
 20
131.4999999999998
 30
0.0
  0
POINT
  5
7D1
330
797
100
AcDbEntity
  8
DEFPOINTS
 62
     0
370
    15
100
AcDbPoint
 10
183.9351834430853
 20
131.4999999999998
 30
0.0
  0
POINT
  5
7D2
330
797
100
AcDbEntity
  8
DEFPOINTS
 62
     0
370
    15
100
AcDbPoint
 10
183.9351834430853
 20
125.730308511188
 30
0.0
  0
MTEXT
  5
7D3
330
797
100
AcDbEntity
  8
KCAD_DIMS
 62
     0
100
AcDbMText
 10
191.8307839388145
 20
127.863641511188
 30
0.0
 40
3.2
 41
0.0
 71
     5
 72
     1
  1
\A1;%%c18
  7
KCADDIMSTANDARD
 73
     1
 44
1.0
  0
ENDBLK
  5
ADA
330
797
100
AcDbEntity
  8
0
100
AcDbBlockEnd
  0
BLOCK
  5
ADB
330
7D5
100
AcDbEntity
  8
0
100
AcDbBlockBegin
  2
*D42
 70
     1
 71
     0
 10
0.0
 20
0.0
 30
0.0
  3
*D42
  1

  0
LINE
  5
807
330
7D5
100
AcDbEntity
  8
KCAD_DIMS
 62
     0
370
    -2
100
AcDbLine
 10
203.2705544933078
 20
120.5
 30
0.0
 11
175.9351834430853
 21
120.5
 31
0.0
  0
LINE
  5
808
330
7D5
100
AcDbEntity
  8
KCAD_DIMS
 62
     0
370
    -2
100
AcDbLine
 10
201.2705544933078
 20
148.5
 30
0.0
 11
209.0
 21
148.5
 31
0.0
  0
INSERT
  5
809
330
7D5
100
AcDbEntity
  8
KCAD_DIMS
 62
     0
370
    -2
100
AcDbBlockReference
  2
_OPEN30
 10
202.2705544933078
 20
120.5
 30
0.0
 41
3.0
 42
3.0
 43
3.0
 50
270.0
  0
INSERT
  5
80A
330
7D5
100
AcDbEntity
  8
KCAD_DIMS
 62
     0
370
    -2
100
AcDbBlockReference
  2
_OPEN30
 10
202.2705544933078
 20
148.5
 30
0.0
 41
3.0
 42
3.0
 43
3.0
 50
90.00000000000006
  0
LINE
  5
80B
330
7D5
100
AcDbEntity
  8
KCAD_DIMS
 62
     0
370
    -2
100
AcDbLine
 10
202.2705544933078
 20
123.5
 30
0.0
 11
202.2705544933078
 21
145.5
 31
0.0
  0
POINT
  5
80C
330
7D5
100
AcDbEntity
  8
DEFPOINTS
 62
     0
370
    15
100
AcDbPoint
 10
174.9351834430853
 20
120.5
 30
0.0
  0
POINT
  5
80D
330
7D5
100
AcDbEntity
  8
DEFPOINTS
 62
     0
370
    15
100
AcDbPoint
 10
210.0
 20
148.5
 30
0.0
  0
POINT
  5
80E
330
7D5
100
AcDbEntity
  8
DEFPOINTS
 62
     0
370
    15
100
AcDbPoint
 10
202.2705544933078
 20
148.5
 30
0.0
  0
MTEXT
  5
80F
330
7D5
100
AcDbEntity
  8
KCAD_DIMS
 62
     0
100
AcDbMText
 10
200.1372214933078
 20
134.5
 30
0.0
 40
3.2
 41
0.0
 71
     5
 72
     1
  1
\A1;28
  7
KCADDIMSTANDARD
 11
1.000000000000000E-16
 21
1.0
 31
0.0
 73
     1
 44
1.0
  0
ENDBLK
  5
ADC
330
7D5
100
AcDbEntity
  8
0
100
AcDbBlockEnd
  0
BLOCK
  5
ADD
330
827
100
AcDbEntity
  8
0
100
AcDbBlockBegin
  2
*D43
 70
     1
 71
     0
 10
0.0
 20
0.0
 30
0.0
  3
*D43
  1

  0
POINT
  5
81C
330
827
100
AcDbEntity
  8
DEFPOINTS
  6
ByBlock
 62
     0
370
    15
100
AcDbPoint
 10
269.4351834430853
 20
135.5
 30
0.0
  0
POINT
  5
81D
330
827
100
AcDbEntity
  8
DEFPOINTS
  6
ByBlock
 62
     0
370
    15
100
AcDbPoint
 10
273.4351834430853
 20
148.5000000000001
 30
0.0
  0
LINE
  5
81E
330
827
100
AcDbEntity
  8
0
  6
ByBlock
 62
     0
370
    -2
100
AcDbLine
 10
269.4351834430853
 20
136.5
 30
0.0
 11
269.4351834430853
 21
181.156590890895
 31
0.0
  0
LINE
  5
81F
330
827
100
AcDbEntity
  8
0
  6
ByBlock
 62
     0
370
    -2
100
AcDbLine
 10
273.4351834430853
 20
149.5000000000001
 30
0.0
 11
273.4351834430853
 21
181.156590890895
 31
0.0
  0
LINE
  5
820
330
827
100
AcDbEntity
  8
0
  6
ByBlock
 62
     0
370
    -2
100
AcDbLine
 10
266.4351834430853
 20
180.156590890895
 30
0.0
 11
263.4351834430853
 21
180.156590890895
 31
0.0
  0
SOLID
  5
821
330
827
100
AcDbEntity
  8
0
  6
ByBlock
 62
     0
370
    15
100
AcDbTrace
 10
269.4351834430853
 20
180.156590890895
 30
0.0
 11
266.4351834430853
 21
179.6565908908949
 31
0.0
 12
266.4351834430853
 22
180.6565908908951
 32
0.0
 13
266.4351834430853
 23
180.6565908908951
 33
0.0
  0
LINE
  5
822
330
827
100
AcDbEntity
  8
0
  6
ByBlock
 62
     0
370
    -2
100
AcDbLine
 10
276.4351834430853
 20
180.156590890895
 30
0.0
 11
279.4351834430853
 21
180.156590890895
 31
0.0
  0
SOLID
  5
823
330
827
100
AcDbEntity
  8
0
  6
ByBlock
 62
     0
370
    15
100
AcDbTrace
 10
273.4351834430853
 20
180.156590890895
 30
0.0
 11
276.4351834430853
 21
179.6565908908949
 31
0.0
 12
276.4351834430853
 22
180.6565908908951
 32
0.0
 13
276.4351834430853
 23
180.6565908908951
 33
0.0
  0
LINE
  5
824
330
827
100
AcDbEntity
  8
0
  6
ByBlock
 62
     0
370
    -2
100
AcDbLine
 10
269.4351834430853
 20
180.156590890895
 30
0.0
 11
273.4351834430853
 21
180.156590890895
 31
0.0
  0
MTEXT
  5
825
330
827
100
AcDbEntity
  8
0
  6
ByBlock
 62
     0
100
AcDbMText
 10
277.9730723809123
 20
182.302271021657
 30
0.0
 40
3.2
 41
0.0
 71
     5
 72
     1
  1
4
  7
KCADDIMSTANDARD
 73
     1
 44
1.0
  0
ENDBLK
  5
ADE
330
827
100
AcDbEntity
  8
0
100
AcDbBlockEnd
  0
BLOCK
  5
ADF
330
832
100
AcDbEntity
  8
0
100
AcDbBlockBegin
  2
*D44
 70
     1
 71
     0
 10
0.0
 20
0.0
 30
0.0
  3
*D44
  1

  0
POINT
  5
829
330
832
100
AcDbEntity
  8
DEFPOINTS
  6
ByBlock
 62
     0
370
    15
100
AcDbPoint
 10
269.4351834430853
 20
194.2208622725726
 30
0.0
  0
POINT
  5
82A
330
832
100
AcDbEntity
  8
DEFPOINTS
  6
ByBlock
 62
     0
370
    15
100
AcDbPoint
 10
153.9351834430854
 20
180.156590890895
 30
0.0
  0
LINE
  5
82B
330
832
100
AcDbEntity
  8
0
  6
ByBlock
 62
     0
370
    -2
100
AcDbLine
 10
153.9351834430854
 20
181.156590890895
 30
0.0
 11
153.9351834430854
 21
195.2208622725726
 31
0.0
  0
LINE
  5
82C
330
832
100
AcDbEntity
  8
0
  6
ByBlock
 62
     0
370
    -2
100
AcDbLine
 10
269.4351834430853
 20
194.2208622725726
 30
0.0
 11
153.9351834430854
 21
194.2208622725726
 31
0.0
  0
SOLID
  5
82D
330
832
100
AcDbEntity
  8
0
  6
ByBlock
 62
     0
370
    15
100
AcDbTrace
 10
269.4351834430853
 20
194.2208622725726
 30
0.0
 11
266.4351834430853
 21
194.7208622725727
 31
0.0
 12
266.4351834430853
 22
193.7208622725725
 32
0.0
 13
266.4351834430853
 23
193.7208622725725
 33
0.0
  0
SOLID
  5
82E
330
832
100
AcDbEntity
  8
0
  6
ByBlock
 62
     0
370
    15
100
AcDbTrace
 10
153.9351834430854
 20
194.2208622725726
 30
0.0
 11
156.9351834430854
 21
194.7208622725727
 31
0.0
 12
156.9351834430854
 22
193.7208622725725
 32
0.0
 13
156.9351834430854
 23
193.7208622725725
 33
0.0
  0
LINE
  5
82F
330
832
100
AcDbEntity
  8
0
  6
ByBlock
 62
     0
370
    -2
100
AcDbLine
 10
269.4351834430853
 20
194.2208622725726
 30
0.0
 11
269.4351834430853
 21
194.2208622725726
 31
0.0
  0
MTEXT
  5
830
330
832
100
AcDbEntity
  8
0
  6
ByBlock
 62
     0
100
AcDbMText
 10
211.6851834430853
 20
196.3541952725726
 30
0.0
 40
3.2
 41
0.0
 71
     5
 72
     1
  1
115.5
  7
KCADDIMSTANDARD
 73
     1
 44
1.0
  0
ENDBLK
  5
AE0
330
832
100
AcDbEntity
  8
0
100
AcDbBlockEnd
  0
BLOCK
  5
AE1
330
83E
100
AcDbEntity
  8
0
100
AcDbBlockBegin
  2
*D45
 70
     1
 71
     0
 10
0.0
 20
0.0
 30
0.0
  3
*D45
  1

  0
POINT
  5
834
330
83E
100
AcDbEntity
  8
DEFPOINTS
  6
ByBlock
 62
     0
370
    15
100
AcDbPoint
 10
286.9611834430853
 20
148.5000000000001
 30
0.0
  0
POINT
  5
835
330
83E
100
AcDbEntity
  8
DEFPOINTS
  6
ByBlock
 62
     0
370
    15
100
AcDbPoint
 10
81.63518344308474
 20
148.4999999999996
 30
0.0
  0
LINE
  5
836
330
83E
100
AcDbEntity
  8
0
  6
ByBlock
 62
     0
370
    -2
100
AcDbLine
 10
286.9611834430853
 20
149.5000000000001
 30
0.0
 11
286.9611834430853
 21
214.6662234042553
 31
0.0
  0
LINE
  5
837
330
83E
100
AcDbEntity
  8
0
  6
ByBlock
 62
     0
370
    -2
100
AcDbLine
 10
81.63518344308474
 20
149.4999999999996
 30
0.0
 11
81.63518344308474
 21
214.6662234042553
 31
0.0
  0
LINE
  5
838
330
83E
100
AcDbEntity
  8
0
  6
ByBlock
 62
     0
370
    -2
100
AcDbLine
 10
286.9611834430853
 20
213.6662234042553
 30
0.0
 11
81.63518344308474
 21
213.6662234042553
 31
0.0
  0
SOLID
  5
839
330
83E
100
AcDbEntity
  8
0
  6
ByBlock
 62
     0
370
    15
100
AcDbTrace
 10
286.9611834430853
 20
213.6662234042553
 30
0.0
 11
283.9611834430853
 21
214.1662234042554
 31
0.0
 12
283.9611834430853
 22
213.1662234042552
 32
0.0
 13
283.9611834430853
 23
213.1662234042552
 33
0.0
  0
SOLID
  5
83A
330
83E
100
AcDbEntity
  8
0
  6
ByBlock
 62
     0
370
    15
100
AcDbTrace
 10
81.63518344308474
 20
213.6662234042553
 30
0.0
 11
84.63518344308474
 21
214.1662234042554
 31
0.0
 12
84.63518344308474
 22
213.1662234042552
 32
0.0
 13
84.63518344308474
 23
213.1662234042552
 33
0.0
  0
LINE
  5
83B
330
83E
100
AcDbEntity
  8
0
  6
ByBlock
 62
     0
370
    -2
100
AcDbLine
 10
286.9611834430853
 20
148.5000000000001
 30
0.0
 11
286.9611834430853
 21
148.5000000000001
 31
0.0
  0
MTEXT
  5
83C
330
83E
100
AcDbEntity
  8
0
  6
ByBlock
 62
     0
100
AcDbMText
 10
184.298183443085
 20
215.7995564042553
 30
0.0
 40
3.2
 41
0.0
 71
     5
 72
     1
  1
205.33
  7
KCADDIMSTANDARD
 73
     1
 44
1.0
  0
ENDBLK
  5
AE2
330
83E
100
AcDbEntity
  8
0
100
AcDbBlockEnd
  0
BLOCK
  5
AE3
330
84A
100
AcDbEntity
  8
0
100
AcDbBlockBegin
  2
*D46
 70
     1
 71
     0
 10
0.0
 20
0.0
 30
0.0
  3
*D46
  1

  0
POINT
  5
840
330
84A
100
AcDbEntity
  8
DEFPOINTS
  6
ByBlock
 62
     0
370
    15
100
AcDbPoint
 10
81.6351834430861
 20
148.4999999999996
 30
0.0
  0
POINT
  5
841
330
84A
100
AcDbEntity
  8
DEFPOINTS
  6
ByBlock
 62
     0
370
    15
100
AcDbPoint
 10
153.9351834430854
 20
148.4999999999998
 30
0.0
  0
LINE
  5
842
330
84A
100
AcDbEntity
  8
0
  6
ByBlock
 62
     0
370
    -2
100
AcDbLine
 10
81.6351834430861
 20
149.4999999999996
 30
0.0
 11
81.6351834430861
 21
181.156590890895
 31
0.0
  0
LINE
  5
843
330
84A
100
AcDbEntity
  8
0
  6
ByBlock
 62
     0
370
    -2
100
AcDbLine
 10
153.9351834430854
 20
149.4999999999998
 30
0.0
 11
153.9351834430854
 21
181.156590890895
 31
0.0
  0
LINE
  5
844
330
84A
100
AcDbEntity
  8
0
  6
ByBlock
 62
     0
370
    -2
100
AcDbLine
 10
81.6351834430861
 20
180.156590890895
 30
0.0
 11
153.9351834430854
 21
180.156590890895
 31
0.0
  0
SOLID
  5
845
330
84A
100
AcDbEntity
  8
0
  6
ByBlock
 62
     0
370
    15
100
AcDbTrace
 10
81.6351834430861
 20
180.156590890895
 30
0.0
 11
84.6351834430861
 21
179.6565908908949
 31
0.0
 12
84.6351834430861
 22
180.6565908908951
 32
0.0
 13
84.6351834430861
 23
180.6565908908951
 33
0.0
  0
SOLID
  5
846
330
84A
100
AcDbEntity
  8
0
  6
ByBlock
 62
     0
370
    15
100
AcDbTrace
 10
153.9351834430854
 20
180.156590890895
 30
0.0
 11
150.9351834430854
 21
179.6565908908949
 31
0.0
 12
150.9351834430854
 22
180.6565908908951
 32
0.0
 13
150.9351834430854
 23
180.6565908908951
 33
0.0
  0
LINE
  5
847
330
84A
100
AcDbEntity
  8
0
  6
ByBlock
 62
     0
370
    -2
100
AcDbLine
 10
81.6351834430861
 20
148.4999999999996
 30
0.0
 11
81.6351834430861
 21
148.4999999999996
 31
0.0
  0
MTEXT
  5
848
330
84A
100
AcDbEntity
  8
0
  6
ByBlock
 62
     0
100
AcDbMText
 10
117.7851834430857
 20
182.289923890895
 30
0.0
 40
3.2
 41
0.0
 71
     5
 72
     1
  1
\A1;WD=72.3
  7
KCADDIMSTANDARD
 73
     1
 44
1.0
  0
ENDBLK
  5
AE4
330
84A
100
AcDbEntity
  8
0
100
AcDbBlockEnd
  0
BLOCK
  5
AE5
330
856
100
AcDbEntity
  8
0
100
AcDbBlockBegin
  2
*D47
 70
     1
 71
     0
 10
0.0
 20
0.0
 30
0.0
  3
*D47
  1

  0
POINT
  5
84C
330
856
100
AcDbEntity
  8
DEFPOINTS
  6
ByBlock
 62
     0
370
    15
100
AcDbPoint
 10
169.9351834430854
 20
158.5000000000003
 30
0.0
  0
POINT
  5
84D
330
856
100
AcDbEntity
  8
DEFPOINTS
  6
ByBlock
 62
     0
370
    15
100
AcDbPoint
 10
154.2351834430854
 20
138.4999999999998
 30
0.0
  0
LINE
  5
84E
330
856
100
AcDbEntity
  8
0
  6
ByBlock
 62
     0
370
    -2
100
AcDbLine
 10
168.9351834430854
 20
158.5000000000003
 30
0.0
 11
133.1303857008465
 21
158.5000000000003
 31
0.0
  0
LINE
  5
84F
330
856
100
AcDbEntity
  8
0
  6
ByBlock
 62
     0
370
    -2
100
AcDbLine
 10
153.2351834430854
 20
138.4999999999998
 30
0.0
 11
133.1303857008465
 21
138.4999999999998
 31
0.0
  0
LINE
  5
850
330
856
100
AcDbEntity
  8
0
  6
ByBlock
 62
     0
370
    -2
100
AcDbLine
 10
134.1303857008465
 20
158.5000000000003
 30
0.0
 11
134.1303857008465
 21
138.4999999999998
 31
0.0
  0
SOLID
  5
851
330
856
100
AcDbEntity
  8
0
  6
ByBlock
 62
     0
370
    15
100
AcDbTrace
 10
134.1303857008465
 20
158.5000000000003
 30
0.0
 11
133.6303857008464
 21
155.5000000000003
 31
0.0
 12
134.6303857008466
 22
155.5000000000003
 32
0.0
 13
134.6303857008466
 23
155.5000000000003
 33
0.0
  0
SOLID
  5
852
330
856
100
AcDbEntity
  8
0
  6
ByBlock
 62
     0
370
    15
100
AcDbTrace
 10
134.1303857008465
 20
138.4999999999998
 30
0.0
 11
133.6303857008464
 21
141.4999999999998
 31
0.0
 12
134.6303857008466
 22
141.4999999999998
 32
0.0
 13
134.6303857008466
 23
141.4999999999998
 33
0.0
  0
LINE
  5
853
330
856
100
AcDbEntity
  8
0
  6
ByBlock
 62
     0
370
    -2
100
AcDbLine
 10
169.9351834430854
 20
158.5000000000003
 30
0.0
 11
169.9351834430854
 21
158.5000000000003
 31
0.0
  0
MTEXT
  5
854
330
856
100
AcDbEntity
  8
0
  6
ByBlock
 62
     0
100
AcDbMText
 10
131.9970527008465
 20
148.5
 30
0.0
 40
3.2
 41
0.0
 71
     5
 72
     1
  1
\A1;%%c20
  7
KCADDIMSTANDARD
 11
-1.271037311859069E-15
 21
1.0
 31
0.0
 73
     1
 44
1.0
  0
ENDBLK
  5
AE6
330
856
100
AcDbEntity
  8
0
100
AcDbBlockEnd
  0
BLOCK
  5
AE7
330
862
100
AcDbEntity
  8
0
100
AcDbBlockBegin
  2
*D48
 70
     1
 71
     0
 10
0.0
 20
0.0
 30
0.0
  3
*D48
  1

  0
POINT
  5
858
330
862
100
AcDbEntity
  8
DEFPOINTS
  6
ByBlock
 62
     0
370
    15
100
AcDbPoint
 10
153.9351834430854
 20
148.5000000000003
 30
0.0
  0
POINT
  5
859
330
862
100
AcDbEntity
  8
DEFPOINTS
  6
ByBlock
 62
     0
370
    15
100
AcDbPoint
 10
257.4351834430852
 20
148.5000000000001
 30
0.0
  0
LINE
  5
85A
330
862
100
AcDbEntity
  8
0
  6
ByBlock
 62
     0
370
    -2
100
AcDbLine
 10
153.9351834430854
 20
149.5000000000003
 30
0.0
 11
153.9351834430854
 21
181.156590890895
 31
0.0
  0
LINE
  5
85B
330
862
100
AcDbEntity
  8
0
  6
ByBlock
 62
     0
370
    -2
100
AcDbLine
 10
257.4351834430852
 20
149.5000000000001
 30
0.0
 11
257.4351834430852
 21
181.156590890895
 31
0.0
  0
LINE
  5
85C
330
862
100
AcDbEntity
  8
0
  6
ByBlock
 62
     0
370
    -2
100
AcDbLine
 10
153.9351834430854
 20
180.156590890895
 30
0.0
 11
257.4351834430852
 21
180.156590890895
 31
0.0
  0
SOLID
  5
85D
330
862
100
AcDbEntity
  8
0
  6
ByBlock
 62
     0
370
    15
100
AcDbTrace
 10
153.9351834430854
 20
180.156590890895
 30
0.0
 11
156.9351834430854
 21
179.6565908908949
 31
0.0
 12
156.9351834430854
 22
180.6565908908951
 32
0.0
 13
156.9351834430854
 23
180.6565908908951
 33
0.0
  0
SOLID
  5
85E
330
862
100
AcDbEntity
  8
0
  6
ByBlock
 62
     0
370
    15
100
AcDbTrace
 10
257.4351834430852
 20
180.156590890895
 30
0.0
 11
254.4351834430852
 21
179.6565908908949
 31
0.0
 12
254.4351834430852
 22
180.6565908908951
 32
0.0
 13
254.4351834430852
 23
180.6565908908951
 33
0.0
  0
LINE
  5
85F
330
862
100
AcDbEntity
  8
0
  6
ByBlock
 62
     0
370
    -2
100
AcDbLine
 10
153.9351834430854
 20
148.5000000000003
 30
0.0
 11
153.9351834430854
 21
148.5000000000003
 31
0.0
  0
MTEXT
  5
860
330
862
100
AcDbEntity
  8
0
  6
ByBlock
 62
     0
100
AcDbMText
 10
205.6851834430853
 20
182.289923890895
 30
0.0
 40
3.2
 41
0.0
 71
     5
 72
     1
  1
103.5
  7
KCADDIMSTANDARD
 73
     1
 44
1.0
  0
ENDBLK
  5
AE8
330
862
100
AcDbEntity
  8
0
100
AcDbBlockEnd
  0
BLOCK
  5
AE9
330
86E
100
AcDbEntity
  8
0
100
AcDbBlockBegin
  2
*D49
 70
     1
 71
     0
 10
0.0
 20
0.0
 30
0.0
  3
*D49
  1

  0
POINT
  5
864
330
86E
100
AcDbEntity
  8
DEFPOINTS
  6
ByBlock
 62
     0
370
    15
100
AcDbPoint
 10
257.4351834430852
 20
148.5000000000001
 30
0.0
  0
POINT
  5
865
330
86E
100
AcDbEntity
  8
DEFPOINTS
  6
ByBlock
 62
     0
370
    15
100
AcDbPoint
 10
269.4351834430853
 20
148.5000000000001
 30
0.0
  0
LINE
  5
866
330
86E
100
AcDbEntity
  8
0
  6
ByBlock
 62
     0
370
    -2
100
AcDbLine
 10
257.4351834430852
 20
149.5000000000001
 30
0.0
 11
257.4351834430852
 21
181.156590890895
 31
0.0
  0
LINE
  5
867
330
86E
100
AcDbEntity
  8
0
  6
ByBlock
 62
     0
370
    -2
100
AcDbLine
 10
269.4351834430853
 20
149.5000000000001
 30
0.0
 11
269.4351834430853
 21
181.156590890895
 31
0.0
  0
LINE
  5
868
330
86E
100
AcDbEntity
  8
0
  6
ByBlock
 62
     0
370
    -2
100
AcDbLine
 10
257.4351834430852
 20
180.156590890895
 30
0.0
 11
269.4351834430853
 21
180.156590890895
 31
0.0
  0
SOLID
  5
869
330
86E
100
AcDbEntity
  8
0
  6
ByBlock
 62
     0
370
    15
100
AcDbTrace
 10
257.4351834430852
 20
180.156590890895
 30
0.0
 11
260.4351834430852
 21
179.6565908908949
 31
0.0
 12
260.4351834430852
 22
180.6565908908951
 32
0.0
 13
260.4351834430852
 23
180.6565908908951
 33
0.0
  0
SOLID
  5
86A
330
86E
100
AcDbEntity
  8
0
  6
ByBlock
 62
     0
370
    15
100
AcDbTrace
 10
269.4351834430853
 20
180.156590890895
 30
0.0
 11
266.4351834430853
 21
179.6565908908949
 31
0.0
 12
266.4351834430853
 22
180.6565908908951
 32
0.0
 13
266.4351834430853
 23
180.6565908908951
 33
0.0
  0
LINE
  5
86B
330
86E
100
AcDbEntity
  8
0
  6
ByBlock
 62
     0
370
    -2
100
AcDbLine
 10
257.4351834430852
 20
148.5000000000001
 30
0.0
 11
257.4351834430852
 21
148.5000000000001
 31
0.0
  0
MTEXT
  5
86C
330
86E
100
AcDbEntity
  8
0
  6
ByBlock
 62
     0
100
AcDbMText
 10
263.4351834430852
 20
182.289923890895
 30
0.0
 40
3.2
 41
0.0
 71
     5
 72
     1
  1
12
  7
KCADDIMSTANDARD
 73
     1
 44
1.0
  0
ENDBLK
  5
AEA
330
86E
100
AcDbEntity
  8
0
100
AcDbBlockEnd
  0
BLOCK
  5
AEB
330
87A
100
AcDbEntity
  8
0
100
AcDbBlockBegin
  2
*D50
 70
     1
 71
     0
 10
0.0
 20
0.0
 30
0.0
  3
*D50
  1

  0
POINT
  5
870
330
87A
100
AcDbEntity
  8
DEFPOINTS
  6
ByBlock
 62
     0
370
    15
100
AcDbPoint
 10
269.4351834430853
 20
148.5000000000001
 30
0.0
  0
POINT
  5
871
330
87A
100
AcDbEntity
  8
DEFPOINTS
  6
ByBlock
 62
     0
370
    15
100
AcDbPoint
 10
286.9611834430853
 20
148.5000000000001
 30
0.0
  0
LINE
  5
872
330
87A
100
AcDbEntity
  8
0
  6
ByBlock
 62
     0
370
    -2
100
AcDbLine
 10
269.4351834430853
 20
149.5000000000001
 30
0.0
 11
269.4351834430853
 21
195.2208622725726
 31
0.0
  0
LINE
  5
873
330
87A
100
AcDbEntity
  8
0
  6
ByBlock
 62
     0
370
    -2
100
AcDbLine
 10
286.9611834430853
 20
149.5000000000001
 30
0.0
 11
286.9611834430853
 21
195.2208622725726
 31
0.0
  0
LINE
  5
874
330
87A
100
AcDbEntity
  8
0
  6
ByBlock
 62
     0
370
    -2
100
AcDbLine
 10
269.4351834430853
 20
194.2208622725726
 30
0.0
 11
286.9611834430853
 21
194.2208622725726
 31
0.0
  0
SOLID
  5
875
330
87A
100
AcDbEntity
  8
0
  6
ByBlock
 62
     0
370
    15
100
AcDbTrace
 10
269.4351834430853
 20
194.2208622725726
 30
0.0
 11
272.4351834430853
 21
193.7208622725725
 31
0.0
 12
272.4351834430853
 22
194.7208622725727
 32
0.0
 13
272.4351834430853
 23
194.7208622725727
 33
0.0
  0
SOLID
  5
876
330
87A
100
AcDbEntity
  8
0
  6
ByBlock
 62
     0
370
    15
100
AcDbTrace
 10
286.9611834430853
 20
194.2208622725726
 30
0.0
 11
283.9611834430853
 21
193.7208622725725
 31
0.0
 12
283.9611834430853
 22
194.7208622725727
 32
0.0
 13
283.9611834430853
 23
194.7208622725727
 33
0.0
  0
LINE
  5
877
330
87A
100
AcDbEntity
  8
0
  6
ByBlock
 62
     0
370
    -2
100
AcDbLine
 10
269.4351834430853
 20
148.5000000000001
 30
0.0
 11
269.4351834430853
 21
148.5000000000001
 31
0.0
  0
MTEXT
  5
878
330
87A
100
AcDbEntity
  8
0
  6
ByBlock
 62
     0
100
AcDbMText
 10
317.9730036274461
 20
216.4842179402533
 30
0.0
 40
3.2
 41
0.0
 71
     5
 72
     1
  1
\A1;FB=17.526
  7
KCADDIMSTANDARD
 73
     1
 44
1.0
  0
ENDBLK
  5
AEC
330
87A
100
AcDbEntity
  8
0
100
AcDbBlockEnd
  0
BLOCK
  5
AED
330
885
100
AcDbEntity
  8
0
100
AcDbBlockBegin
  2
*D51
 70
     1
 71
     0
 10
0.0
 20
0.0
 30
0.0
  3
*D51
  1

  0
POINT
  5
87C
330
885
100
AcDbEntity
  8
DEFPOINTS
  6
ByBlock
 62
     0
370
    15
100
AcDbPoint
 10
269.0107616440822
 20
161.924421799003
 30
0.0
  0
POINT
  5
87D
330
885
100
AcDbEntity
  8
DEFPOINTS
  6
ByBlock
 62
     0
370
    15
100
AcDbPoint
 10
273.441706341185
 20
166.3553664961059
 30
0.0
  0
LINE
  5
87E
330
885
100
AcDbEntity
  8
0
  6
ByBlock
 62
     0
370
    -2
100
AcDbLine
 10
266.8894413005226
 20
159.8031014554433
 30
0.0
 11
264.768120956963
 21
157.6817811118837
 31
0.0
  0
SOLID
  5
87F
330
885
100
AcDbEntity
  8
0
  6
ByBlock
 62
     0
370
    15
100
AcDbTrace
 10
269.0107616440823
 20
161.924421799003
 30
0.0
 11
267.2429946911159
 21
159.4495480648499
 31
0.0
 12
266.5358879099293
 22
160.1566548460366
 32
0.0
 13
266.5358879099293
 23
160.1566548460366
 33
0.0
  0
LINE
  5
880
330
885
100
AcDbEntity
  8
0
  6
ByBlock
 62
     0
370
    -2
100
AcDbLine
 10
275.5630266847447
 20
168.4766868396655
 30
0.0
 11
277.6843470283043
 21
170.5980071832251
 31
0.0
  0
SOLID
  5
881
330
885
100
AcDbEntity
  8
0
  6
ByBlock
 62
     0
370
    15
100
AcDbTrace
 10
273.4417063411851
 20
166.3553664961059
 30
0.0
 11
275.916580075338
 21
168.1231334490722
 31
0.0
 12
275.2094732941513
 22
168.8302402302589
 32
0.0
 13
275.2094732941513
 23
168.8302402302589
 33
0.0
  0
LINE
  5
882
330
885
100
AcDbEntity
  8
0
  6
ByBlock
 62
     0
370
    -2
100
AcDbLine
 10
269.0107616440823
 20
161.924421799003
 30
0.0
 11
273.4417063411851
 21
166.3553664961059
 31
0.0
  0
MTEXT
  5
883
330
885
100
AcDbEntity
  8
0
  6
ByBlock
 62
     0
100
AcDbMText
 10
277.9957666980244
 20
168.4863158266048
 30
0.0
 40
3.2
 41
0.0
 71
     5
 72
     1
  1
\A1;C1{\H0.667000x;}
  7
KCADDIMSTANDARD
 73
     1
 44
1.0
  0
ENDBLK
  5
AEE
330
885
100
AcDbEntity
  8
0
100
AcDbBlockEnd
  0
BLOCK
  5
AEF
330
890
100
AcDbEntity
  8
0
100
AcDbBlockBegin
  2
*D52
 70
     1
 71
     0
 10
0.0
 20
0.0
 30
0.0
  3
*D52
  1

  0
POINT
  5
887
330
890
100
AcDbEntity
  8
DEFPOINTS
  6
ByBlock
 62
     0
370
    15
100
AcDbPoint
 10
257.7483869918534
 20
162.3132035487682
 30
0.0
  0
POINT
  5
888
330
890
100
AcDbEntity
  8
DEFPOINTS
  6
ByBlock
 62
     0
370
    15
100
AcDbPoint
 10
252.7949224346306
 20
167.266668105991
 30
0.0
  0
LINE
  5
889
330
890
100
AcDbEntity
  8
0
  6
ByBlock
 62
     0
370
    -2
100
AcDbLine
 10
259.869707335413
 20
160.1918832052085
 30
0.0
 11
261.9910276789727
 21
158.0705628616489
 31
0.0
  0
SOLID
  5
88A
330
890
100
AcDbEntity
  8
0
  6
ByBlock
 62
     0
370
    15
100
AcDbTrace
 10
257.7483869918534
 20
162.3132035487681
 30
0.0
 11
260.2232607260063
 21
160.5454365958018
 31
0.0
 12
259.5161539448197
 22
159.8383298146152
 32
0.0
 13
259.5161539448197
 23
159.8383298146152
 33
0.0
  0
LINE
  5
88B
330
890
100
AcDbEntity
  8
0
  6
ByBlock
 62
     0
370
    -2
100
AcDbLine
 10
250.6736020910708
 20
169.3879884495505
 30
0.0
 11
248.5522817475112
 21
171.5093087931102
 31
0.0
  0
SOLID
  5
88C
330
890
100
AcDbEntity
  8
0
  6
ByBlock
 62
     0
370
    15
100
AcDbTrace
 10
252.7949224346305
 20
167.2666681059909
 30
0.0
 11
251.0271554816642
 21
169.7415418401439
 31
0.0
 12
250.3200487004775
 22
169.0344350589572
 32
0.0
 13
250.3200487004775
 23
169.0344350589572
 33
0.0
  0
LINE
  5
88D
330
890
100
AcDbEntity
  8
0
  6
ByBlock
 62
     0
370
    -2
100
AcDbLine
 10
257.7483869918534
 20
162.3132035487681
 30
0.0
 11
252.7949224346305
 21
167.2666681059909
 31
0.0
  0
MTEXT
  5
88E
330
890
100
AcDbEntity
  8
0
  6
ByBlock
 62
     0
100
AcDbMText
 10
247.082901106713
 20
169.4370448952783
 30
0.0
 40
3.2
 41
0.0
 71
     5
 72
     1
  1
\A1;C0.5{\H0.667000x;}
  7
KCADDIMSTANDARD
 73
     1
 44
1.0
  0
ENDBLK
  5
AF0
330
890
100
AcDbEntity
  8
0
100
AcDbBlockEnd
  0
BLOCK
  5
AF1
330
89C
100
AcDbEntity
  8
0
100
AcDbBlockBegin
  2
*D53
 70
     1
 71
     0
 10
0.0
 20
0.0
 30
0.0
  3
*D53
  1

  0
POINT
  5
892
330
89C
100
AcDbEntity
  8
DEFPOINTS
  6
ByBlock
 62
     0
370
    15
100
AcDbPoint
 10
268.4351834430852
 20
162.5
 30
0.0
  0
POINT
  5
893
330
89C
100
AcDbEntity
  8
DEFPOINTS
  6
ByBlock
 62
     0
370
    15
100
AcDbPoint
 10
268.4351834430852
 20
134.5
 30
0.0
  0
LINE
  5
894
330
89C
100
AcDbEntity
  8
0
  6
ByBlock
 62
     0
370
    -2
100
AcDbLine
 10
269.4351834430852
 20
162.5
 30
0.0
 11
312.2342427093132
 21
162.5
 31
0.0
  0
LINE
  5
895
330
89C
100
AcDbEntity
  8
0
  6
ByBlock
 62
     0
370
    -2
100
AcDbLine
 10
269.4351834430852
 20
134.5
 30
0.0
 11
312.2342427093132
 21
134.5
 31
0.0
  0
LINE
  5
896
330
89C
100
AcDbEntity
  8
0
  6
ByBlock
 62
     0
370
    -2
100
AcDbLine
 10
311.2342427093132
 20
162.5
 30
0.0
 11
311.2342427093132
 21
134.5
 31
0.0
  0
SOLID
  5
897
330
89C
100
AcDbEntity
  8
0
  6
ByBlock
 62
     0
370
    15
100
AcDbTrace
 10
311.2342427093132
 20
162.5
 30
0.0
 11
310.7342427093131
 21
159.5
 31
0.0
 12
311.7342427093133
 22
159.5
 32
0.0
 13
311.7342427093133
 23
159.5
 33
0.0
  0
SOLID
  5
898
330
89C
100
AcDbEntity
  8
0
  6
ByBlock
 62
     0
370
    15
100
AcDbTrace
 10
311.2342427093132
 20
134.5
 30
0.0
 11
310.7342427093131
 21
137.5
 31
0.0
 12
311.7342427093133
 22
137.5
 32
0.0
 13
311.7342427093133
 23
137.5
 33
0.0
  0
LINE
  5
899
330
89C
100
AcDbEntity
  8
0
  6
ByBlock
 62
     0
370
    -2
100
AcDbLine
 10
268.4351834430852
 20
162.5
 30
0.0
 11
268.4351834430852
 21
162.5
 31
0.0
  0
MTEXT
  5
89A
330
89C
100
AcDbEntity
  8
0
  6
ByBlock
 62
     0
100
AcDbMText
 10
309.1009097093132
 20
148.5000000000002
 30
0.0
 40
3.2
 41
0.0
 71
     5
 72
     1
  1
\A1;%%c28
  7
KCADDIMSTANDARD
 11
-1.271037311859069E-15
 21
1.0
 31
0.0
 73
     1
 44
1.0
  0
ENDBLK
  5
AF2
330
89C
100
AcDbEntity
  8
0
100
AcDbBlockEnd
  0
BLOCK
  5
AF3
330
8A8
100
AcDbEntity
  8
0
100
AcDbBlockBegin
  2
*D54
 70
     1
 71
     0
 10
0.0
 20
0.0
 30
0.0
  3
*D54
  1

  0
POINT
  5
89E
330
8A8
100
AcDbEntity
  8
DEFPOINTS
  6
ByBlock
 62
     0
370
    15
100
AcDbPoint
 10
257.4351834430853
 20
158.5000000000003
 30
0.0
  0
POINT
  5
89F
330
8A8
100
AcDbEntity
  8
DEFPOINTS
  6
ByBlock
 62
     0
370
    15
100
AcDbPoint
 10
257.4351834430852
 20
138.4999999999998
 30
0.0
  0
LINE
  5
8A0
330
8A8
100
AcDbEntity
  8
0
  6
ByBlock
 62
     0
370
    -2
100
AcDbLine
 10
256.4351834430853
 20
158.5000000000003
 30
0.0
 11
215.4244741873805
 21
158.5000000000003
 31
0.0
  0
LINE
  5
8A1
330
8A8
100
AcDbEntity
  8
0
  6
ByBlock
 62
     0
370
    -2
100
AcDbLine
 10
256.4351834430852
 20
138.4999999999998
 30
0.0
 11
215.4244741873805
 21
138.4999999999998
 31
0.0
  0
LINE
  5
8A2
330
8A8
100
AcDbEntity
  8
0
  6
ByBlock
 62
     0
370
    -2
100
AcDbLine
 10
216.4244741873805
 20
158.5000000000003
 30
0.0
 11
216.4244741873805
 21
138.4999999999998
 31
0.0
  0
SOLID
  5
8A3
330
8A8
100
AcDbEntity
  8
0
  6
ByBlock
 62
     0
370
    15
100
AcDbTrace
 10
216.4244741873805
 20
158.5000000000003
 30
0.0
 11
215.9244741873804
 21
155.5000000000003
 31
0.0
 12
216.9244741873806
 22
155.5000000000003
 32
0.0
 13
216.9244741873806
 23
155.5000000000003
 33
0.0
  0
SOLID
  5
8A4
330
8A8
100
AcDbEntity
  8
0
  6
ByBlock
 62
     0
370
    15
100
AcDbTrace
 10
216.4244741873805
 20
138.4999999999998
 30
0.0
 11
215.9244741873804
 21
141.4999999999998
 31
0.0
 12
216.9244741873806
 22
141.4999999999998
 32
0.0
 13
216.9244741873806
 23
141.4999999999998
 33
0.0
  0
LINE
  5
8A5
330
8A8
100
AcDbEntity
  8
0
  6
ByBlock
 62
     0
370
    -2
100
AcDbLine
 10
257.4351834430853
 20
158.5000000000003
 30
0.0
 11
257.4351834430853
 21
158.5000000000003
 31
0.0
  0
MTEXT
  5
8A6
330
8A8
100
AcDbEntity
  8
0
  6
ByBlock
 62
     0
100
AcDbMText
 10
214.2911411873805
 20
165.661567877629
 30
0.0
 40
3.2
 41
0.0
 71
     5
 72
     1
  1
\A1;%%c20
  7
KCADDIMSTANDARD
 11
-1.271037311859069E-15
 21
1.0
 31
0.0
 73
     1
 44
1.0
  0
ENDBLK
  5
AF4
330
8A8
100
AcDbEntity
  8
0
100
AcDbBlockEnd
  0
BLOCK
  5
AF5
330
8B4
100
AcDbEntity
  8
0
100
AcDbBlockBegin
  2
*D55
 70
     1
 71
     0
 10
0.0
 20
0.0
 30
0.0
  3
*D55
  1

  0
POINT
  5
8AA
330
8B4
100
AcDbEntity
  8
DEFPOINTS
  6
ByBlock
 62
     0
370
    15
100
AcDbPoint
 10
153.9351834430854
 20
138.7999999999998
 30
0.0
  0
POINT
  5
8AB
330
8B4
100
AcDbEntity
  8
DEFPOINTS
  6
ByBlock
 62
     0
370
    15
100
AcDbPoint
 10
174.9351834430855
 20
120.5
 30
0.0
  0
LINE
  5
8AC
330
8B4
100
AcDbEntity
  8
0
  6
ByBlock
 62
     0
370
    -2
100
AcDbLine
 10
153.9351834430854
 20
137.7999999999998
 30
0.0
 11
153.9351834430854
 21
107.6652989509586
 31
0.0
  0
LINE
  5
8AD
330
8B4
100
AcDbEntity
  8
0
  6
ByBlock
 62
     0
370
    -2
100
AcDbLine
 10
174.9351834430855
 20
119.5
 30
0.0
 11
174.9351834430855
 21
107.6652989509586
 31
0.0
  0
LINE
  5
8AE
330
8B4
100
AcDbEntity
  8
0
  6
ByBlock
 62
     0
370
    -2
100
AcDbLine
 10
153.9351834430854
 20
108.6652989509586
 30
0.0
 11
174.9351834430855
 21
108.6652989509586
 31
0.0
  0
SOLID
  5
8AF
330
8B4
100
AcDbEntity
  8
0
  6
ByBlock
 62
     0
370
    15
100
AcDbTrace
 10
153.9351834430854
 20
108.6652989509586
 30
0.0
 11
156.9351834430854
 21
108.1652989509585
 31
0.0
 12
156.9351834430854
 22
109.1652989509587
 32
0.0
 13
156.9351834430854
 23
109.1652989509587
 33
0.0
  0
SOLID
  5
8B0
330
8B4
100
AcDbEntity
  8
0
  6
ByBlock
 62
     0
370
    15
100
AcDbTrace
 10
174.9351834430855
 20
108.6652989509586
 30
0.0
 11
171.9351834430855
 21
108.1652989509585
 31
0.0
 12
171.9351834430855
 22
109.1652989509587
 32
0.0
 13
171.9351834430855
 23
109.1652989509587
 33
0.0
  0
LINE
  5
8B1
330
8B4
100
AcDbEntity
  8
0
  6
ByBlock
 62
     0
370
    -2
100
AcDbLine
 10
153.9351834430854
 20
138.7999999999998
 30
0.0
 11
153.9351834430854
 21
138.7999999999998
 31
0.0
  0
MTEXT
  5
8B2
330
8B4
100
AcDbEntity
  8
0
  6
ByBlock
 62
     0
100
AcDbMText
 10
164.4351834430854
 20
110.7986319509586
 30
0.0
 40
3.2
 41
0.0
 71
     5
 72
     1
  1
21
  7
KCADDIMSTANDARD
 73
     1
 44
1.0
  0
ENDBLK
  5
AF6
330
8B4
100
AcDbEntity
  8
0
100
AcDbBlockEnd
  0
BLOCK
  5
AF7
330
8C0
100
AcDbEntity
  8
0
100
AcDbBlockBegin
  2
*D56
 70
     1
 71
     0
 10
0.0
 20
0.0
 30
0.0
  3
*D56
  1

  0
POINT
  5
8B6
330
8C0
100
AcDbEntity
  8
DEFPOINTS
  6
ByBlock
 62
     0
370
    15
100
AcDbPoint
 10
168.9351834430852
 20
120.5
 30
0.0
  0
POINT
  5
8B7
330
8C0
100
AcDbEntity
  8
DEFPOINTS
  6
ByBlock
 62
     0
370
    15
100
AcDbPoint
 10
180.9351834430854
 20
120.5
 30
0.0
  0
LINE
  5
8B8
330
8C0
100
AcDbEntity
  8
0
  6
ByBlock
 62
     0
370
    -2
100
AcDbLine
 10
168.9351834430852
 20
119.5
 30
0.0
 11
168.9351834430852
 21
94.01329130277504
 31
0.0
  0
LINE
  5
8B9
330
8C0
100
AcDbEntity
  8
0
  6
ByBlock
 62
     0
370
    -2
100
AcDbLine
 10
180.9351834430854
 20
119.5
 30
0.0
 11
180.9351834430854
 21
94.01329130277504
 31
0.0
  0
LINE
  5
8BA
330
8C0
100
AcDbEntity
  8
0
  6
ByBlock
 62
     0
370
    -2
100
AcDbLine
 10
168.9351834430852
 20
95.01329130277504
 30
0.0
 11
180.9351834430854
 21
95.01329130277504
 31
0.0
  0
SOLID
  5
8BB
330
8C0
100
AcDbEntity
  8
0
  6
ByBlock
 62
     0
370
    15
100
AcDbTrace
 10
168.9351834430852
 20
95.01329130277504
 30
0.0
 11
171.9351834430852
 21
94.51329130277495
 31
0.0
 12
171.9351834430852
 22
95.51329130277514
 32
0.0
 13
171.9351834430852
 23
95.51329130277514
 33
0.0
  0
SOLID
  5
8BC
330
8C0
100
AcDbEntity
  8
0
  6
ByBlock
 62
     0
370
    15
100
AcDbTrace
 10
180.9351834430854
 20
95.01329130277504
 30
0.0
 11
177.9351834430854
 21
94.51329130277495
 31
0.0
 12
177.9351834430854
 22
95.51329130277514
 32
0.0
 13
177.9351834430854
 23
95.51329130277514
 33
0.0
  0
LINE
  5
8BD
330
8C0
100
AcDbEntity
  8
0
  6
ByBlock
 62
     0
370
    -2
100
AcDbLine
 10
168.9351834430852
 20
120.5
 30
0.0
 11
168.9351834430852
 21
120.5
 31
0.0
  0
MTEXT
  5
8BE
330
8C0
100
AcDbEntity
  8
0
  6
ByBlock
 62
     0
100
AcDbMText
 10
174.9351834430853
 20
97.14662430277507
 30
0.0
 40
3.2
 41
0.0
 71
     5
 72
     1
  1
\A1;%%c12
  7
KCADDIMSTANDARD
 73
     1
 44
1.0
  0
ENDBLK
  5
AF8
330
8C0
100
AcDbEntity
  8
0
100
AcDbBlockEnd
  0
BLOCK
  5
AF9
330
8CC
100
AcDbEntity
  8
0
100
AcDbBlockBegin
  2
*D57
 70
     1
 71
     0
 10
0.0
 20
0.0
 30
0.0
  3
*D57
  1

  0
POINT
  5
8C2
330
8CC
100
AcDbEntity
  8
DEFPOINTS
  6
ByBlock
 62
     0
370
    15
100
AcDbPoint
 10
165.9351834430854
 20
131.4999999999998
 30
0.0
  0
POINT
  5
8C3
330
8CC
100
AcDbEntity
  8
DEFPOINTS
  6
ByBlock
 62
     0
370
    15
100
AcDbPoint
 10
183.9351834430853
 20
131.4999999999998
 30
0.0
  0
LINE
  5
8C4
330
8CC
100
AcDbEntity
  8
0
  6
ByBlock
 62
     0
370
    -2
100
AcDbLine
 10
165.9351834430854
 20
130.4999999999998
 30
0.0
 11
165.9351834430854
 21
124.730308511188
 31
0.0
  0
LINE
  5
8C5
330
8CC
100
AcDbEntity
  8
0
  6
ByBlock
 62
     0
370
    -2
100
AcDbLine
 10
183.9351834430853
 20
130.4999999999998
 30
0.0
 11
183.9351834430853
 21
124.730308511188
 31
0.0
  0
LINE
  5
8C6
330
8CC
100
AcDbEntity
  8
0
  6
ByBlock
 62
     0
370
    -2
100
AcDbLine
 10
165.9351834430854
 20
125.730308511188
 30
0.0
 11
183.9351834430853
 21
125.730308511188
 31
0.0
  0
SOLID
  5
8C7
330
8CC
100
AcDbEntity
  8
0
  6
ByBlock
 62
     0
370
    15
100
AcDbTrace
 10
165.9351834430854
 20
125.730308511188
 30
0.0
 11
168.9351834430854
 21
125.2303085111879
 31
0.0
 12
168.9351834430854
 22
126.2303085111881
 32
0.0
 13
168.9351834430854
 23
126.2303085111881
 33
0.0
  0
SOLID
  5
8C8
330
8CC
100
AcDbEntity
  8
0
  6
ByBlock
 62
     0
370
    15
100
AcDbTrace
 10
183.9351834430853
 20
125.730308511188
 30
0.0
 11
180.9351834430853
 21
125.2303085111879
 31
0.0
 12
180.9351834430853
 22
126.2303085111881
 32
0.0
 13
180.9351834430853
 23
126.2303085111881
 33
0.0
  0
LINE
  5
8C9
330
8CC
100
AcDbEntity
  8
0
  6
ByBlock
 62
     0
370
    -2
100
AcDbLine
 10
165.9351834430854
 20
131.4999999999998
 30
0.0
 11
165.9351834430854
 21
131.4999999999998
 31
0.0
  0
MTEXT
  5
8CA
330
8CC
100
AcDbEntity
  8
0
  6
ByBlock
 62
     0
100
AcDbMText
 10
191.8307839388145
 20
127.863641511188
 30
0.0
 40
3.2
 41
0.0
 71
     5
 72
     1
  1
\A1;%%c18
  7
KCADDIMSTANDARD
 73
     1
 44
1.0
  0
ENDBLK
  5
AFA
330
8CC
100
AcDbEntity
  8
0
100
AcDbBlockEnd
  0
BLOCK
  5
AFB
330
8D8
100
AcDbEntity
  8
0
100
AcDbBlockBegin
  2
*D58
 70
     1
 71
     0
 10
0.0
 20
0.0
 30
0.0
  3
*D58
  1

  0
POINT
  5
8CE
330
8D8
100
AcDbEntity
  8
DEFPOINTS
  6
ByBlock
 62
     0
370
    15
100
AcDbPoint
 10
174.9351834430853
 20
120.5
 30
0.0
  0
POINT
  5
8CF
330
8D8
100
AcDbEntity
  8
DEFPOINTS
  6
ByBlock
 62
     0
370
    15
100
AcDbPoint
 10
210.0
 20
148.5
 30
0.0
  0
LINE
  5
8D0
330
8D8
100
AcDbEntity
  8
0
  6
ByBlock
 62
     0
370
    -2
100
AcDbLine
 10
175.9351834430853
 20
120.5
 30
0.0
 11
203.2705544933078
 21
120.5
 31
0.0
  0
LINE
  5
8D1
330
8D8
100
AcDbEntity
  8
0
  6
ByBlock
 62
     0
370
    -2
100
AcDbLine
 10
209.0
 20
148.5
 30
0.0
 11
201.2705544933078
 21
148.5
 31
0.0
  0
LINE
  5
8D2
330
8D8
100
AcDbEntity
  8
0
  6
ByBlock
 62
     0
370
    -2
100
AcDbLine
 10
202.2705544933078
 20
120.5
 30
0.0
 11
202.2705544933078
 21
148.5
 31
0.0
  0
SOLID
  5
8D3
330
8D8
100
AcDbEntity
  8
0
  6
ByBlock
 62
     0
370
    15
100
AcDbTrace
 10
202.2705544933078
 20
120.5
 30
0.0
 11
202.7705544933079
 21
123.5
 31
0.0
 12
201.7705544933077
 22
123.5
 32
0.0
 13
201.7705544933077
 23
123.5
 33
0.0
  0
SOLID
  5
8D4
330
8D8
100
AcDbEntity
  8
0
  6
ByBlock
 62
     0
370
    15
100
AcDbTrace
 10
202.2705544933078
 20
148.5
 30
0.0
 11
202.7705544933079
 21
145.5
 31
0.0
 12
201.7705544933077
 22
145.5
 32
0.0
 13
201.7705544933077
 23
145.5
 33
0.0
  0
LINE
  5
8D5
330
8D8
100
AcDbEntity
  8
0
  6
ByBlock
 62
     0
370
    -2
100
AcDbLine
 10
174.9351834430853
 20
120.5
 30
0.0
 11
174.9351834430853
 21
120.5
 31
0.0
  0
MTEXT
  5
8D6
330
8D8
100
AcDbEntity
  8
0
  6
ByBlock
 62
     0
100
AcDbMText
 10
200.1372214933078
 20
134.5
 30
0.0
 40
3.2
 41
0.0
 71
     5
 72
     1
  1
28
  7
KCADDIMSTANDARD
 11
-1.271037311859069E-15
 21
1.0
 31
0.0
 73
     1
 44
1.0
  0
ENDBLK
  5
AFC
330
8D8
100
AcDbEntity
  8
0
100
AcDbBlockEnd
  0
BLOCK
  5
AFD
330
96B
100
AcDbEntity
  8
0
100
AcDbBlockBegin
  2
*D59
 70
     1
 71
     0
 10
0.0
 20
0.0
 30
0.0
  3
*D59
  1

  0
POINT
  5
961
330
96B
100
AcDbEntity
  8
DEFPOINTS
  6
ByBlock
 62
     0
370
    15
100
AcDbPoint
 10
269.4351834430853
 20
148.5000000000001
 30
0.0
  0
POINT
  5
962
330
96B
100
AcDbEntity
  8
DEFPOINTS
  6
ByBlock
 62
     0
370
    15
100
AcDbPoint
 10
286.9611834430853
 20
148.5000000000001
 30
0.0
  0
LINE
  5
963
330
96B
100
AcDbEntity
  8
0
  6
ByBlock
 62
     0
370
    -2
100
AcDbLine
 10
269.4351834430853
 20
149.5000000000001
 30
0.0
 11
269.4351834430853
 21
195.2208622725726
 31
0.0
  0
LINE
  5
964
330
96B
100
AcDbEntity
  8
0
  6
ByBlock
 62
     0
370
    -2
100
AcDbLine
 10
286.9611834430853
 20
149.5000000000001
 30
0.0
 11
286.9611834430853
 21
195.2208622725726
 31
0.0
  0
LINE
  5
965
330
96B
100
AcDbEntity
  8
0
  6
ByBlock
 62
     0
370
    -2
100
AcDbLine
 10
269.4351834430853
 20
194.2208622725726
 30
0.0
 11
286.9611834430853
 21
194.2208622725726
 31
0.0
  0
SOLID
  5
966
330
96B
100
AcDbEntity
  8
0
  6
ByBlock
 62
     0
370
    15
100
AcDbTrace
 10
269.4351834430853
 20
194.2208622725726
 30
0.0
 11
272.4351834430853
 21
193.7208622725725
 31
0.0
 12
272.4351834430853
 22
194.7208622725727
 32
0.0
 13
272.4351834430853
 23
194.7208622725727
 33
0.0
  0
SOLID
  5
967
330
96B
100
AcDbEntity
  8
0
  6
ByBlock
 62
     0
370
    15
100
AcDbTrace
 10
286.9611834430853
 20
194.2208622725726
 30
0.0
 11
283.9611834430853
 21
193.7208622725725
 31
0.0
 12
283.9611834430853
 22
194.7208622725727
 32
0.0
 13
283.9611834430853
 23
194.7208622725727
 33
0.0
  0
LINE
  5
968
330
96B
100
AcDbEntity
  8
0
  6
ByBlock
 62
     0
370
    -2
100
AcDbLine
 10
269.4351834430853
 20
148.5000000000001
 30
0.0
 11
269.4351834430853
 21
148.5000000000001
 31
0.0
  0
MTEXT
  5
969
330
96B
100
AcDbEntity
  8
0
  6
ByBlock
 62
     0
100
AcDbMText
 10
306.4570679920863
 20
193.9920205200757
 30
0.0
 40
3.2
 41
0.0
 71
     5
 72
     1
  1
\A1;FB=17.526
  7
KCADDIMSTANDARD
 73
     1
 44
1.0
  0
ENDBLK
  5
AFE
330
96B
100
AcDbEntity
  8
0
100
AcDbBlockEnd
  0
ENDSEC
  0
SECTION
  2
ENTITIES
  0
TEXT
  5
2EF
330
1F
100
AcDbEntity
  8
0
  6
Continuous
 62
     7
370
    30
100
AcDbText
 10
196.54356005135
 20
38.16647005444999
 30
0.0
 40
4.049999999999999
  1
質
 41
0.95
  7
KCADTEXTSTANDARD
100
AcDbText
1001
Sigma
1000

  0
TEXT
  5
2F1
330
1F
100
AcDbEntity
  8
0
  6
Continuous
 62
     7
370
    30
100
AcDbText
 10
196.54356005135
 20
43.16647005444999
 30
0.0
 40
4.049999999999999
  1
材
 41
0.95
  7
KCADTEXTSTANDARD
100
AcDbText
1001
Sigma
1000

  0
LINE
  5
2F4
330
1F
100
AcDbEntity
  8
90-ScaleR0.4
  6
Continuous
 62
     7
370
    30
100
AcDbLine
 10
411.81900676123
 20
286.431941923775
 30
0.0
 11
28.8189987163
 21
286.431941923775
 31
0.0
1001
Sigma
1000

  0
LINE
  5
2F7
330
1F
100
AcDbEntity
  8
90-ScaleR0.4
  6
Continuous
 62
     7
370
    30
100
AcDbLine
 10
28.8189987163
 20
286.431941923775
 30
0.0
 11
28.8189987163
 21
17.43194192379999
 31
0.0
1001
Sigma
1000

  0
LINE
  5
2F9
330
1F
100
AcDbEntity
  8
90-ScaleR0.4
  6
Continuous
 62
     7
370
    30
100
AcDbLine
 10
28.8189987163
 20
17.43194192379999
 30
0.0
 11
411.81900676123
 21
17.43194192379999
 31
0.0
1001
Sigma
1000

  0
LINE
  5
2FB
330
1F
100
AcDbEntity
  8
90-ScaleR0.4
  6
Continuous
 62
     7
370
    30
100
AcDbLine
 10
411.81900676123
 20
286.431941923775
 30
0.0
 11
411.81900676123
 21
17.43194192379999
 31
0.0
1001
Sigma
1000

  0
TEXT
  5
305
330
1F
100
AcDbEntity
  8
90-ScaleR0.4
  6
Continuous
 62
     7
370
    30
100
AcDbText
 10
294.5776433100774
 20
24.99426501813112
 30
0.0
 40
4.049999999999999
  1
型
 41
0.95
  7
KCADTEXTSTANDARD
100
AcDbText
1001
Sigma
1000

  0
TEXT
  5
307
330
1F
100
AcDbEntity
  8
90-ScaleR0.4
  6
Continuous
 62
     7
370
    30
100
AcDbText
 10
294.7399704879348
 20
19.18262912884425
 30
0.0
 40
4.049999999999999
  1
番
 41
0.95
  7
KCADTEXTSTANDARD
100
AcDbText
1001
Sigma
1000

  0
TEXT
  5
309
330
1F
100
AcDbEntity
  8
90-ScaleR0.4
  6
Continuous
 62
     7
370
    30
100
AcDbText
 10
354.7207150322247
 20
26.18036669702723
 30
0.0
 40
4.049999999999999
  1
図
 41
0.95
  7
KCADTEXTSTANDARD
100
AcDbText
1001
Sigma
1000

  0
TEXT
  5
30B
330
1F
100
AcDbEntity
  8
90-ScaleR0.4
  6
Continuous
 62
     7
370
    30
100
AcDbText
 10
354.7207150322247
 20
19.02428684222722
 30
0.0
 40
4.049999999999999
  1
番
 41
0.95
  7
KCADTEXTSTANDARD
100
AcDbText
1001
Sigma
1000

  0
LINE
  5
311
330
1F
100
AcDbEntity
  8
90-ScaleR0.4
  6
Continuous
 62
     7
370
    15
100
AcDbLine
 10
361.8190067612349
 20
47.43194192379998
 30
0.0
 11
361.8190067612349
 21
17.43194192379999
 31
0.0
1001
Sigma
1000

  0
LINE
  5
313
330
1F
100
AcDbEntity
  8
90-ScaleR0.4
  6
Continuous
 62
     7
370
    30
100
AcDbLine
 10
195.819006375325
 20
17.43194192379999
 30
0.0
 11
195.819006375325
 21
47.43194192379998
 31
0.0
1001
Sigma
1000

  0
LINE
  5
315
330
1F
100
AcDbEntity
  8
90-ScaleR0.4
  6
Continuous
 62
     7
370
    30
100
AcDbLine
 10
351.8190067612349
 20
17.43194192379999
 30
0.0
 11
351.8190067612349
 21
47.43194192379998
 31
0.0
1001
Sigma
1000

  0
LINE
  5
317
330
1F
100
AcDbEntity
  8
90-ScaleR0.4
  6
Continuous
 62
     7
370
    30
100
AcDbLine
 10
411.81900676123
 20
32.43194192379999
 30
0.0
 11
291.819006761235
 21
32.43194192379999
 31
0.0
1001
Sigma
1000

  0
LINE
  5
319
330
1F
100
AcDbEntity
  8
90-ScaleR0.4
  6
Continuous
 62
     7
370
    30
100
AcDbLine
 10
195.819006375325
 20
27.43194192375
 30
0.0
 11
261.819006761233
 21
27.43194192375
 31
0.0
1001
Sigma
1000

  0
TEXT
  5
31B
330
1F
100
AcDbEntity
  8
90-ScaleR0.4
  6
Continuous
 62
     7
370
    30
100
AcDbText
 10
237.6691982128943
 20
19.17763136437326
 30
0.0
 40
6.750000429153442
  1
三角法
 41
0.9795555531731359
  7
KCADTEXTSTANDARD
100
AcDbText
1001
Sigma
1000

  0
TEXT
  5
31D
330
1F
100
AcDbEntity
  8
90-ScaleR0.4
  6
Continuous
 62
     7
370
    30
100
AcDbText
 10
285.101783110845
 20
19.67921960074998
 30
0.0
 40
4.5
  1
１
 41
0.855
  7
KCADTEXTSTANDARD
100
AcDbText
1001
Sigma
1000

  0
TEXT
  5
31F
330
1F
100
AcDbEntity
  8
0
  6
Continuous
 62
     7
370
    30
100
AcDbText
 10
279.18425066367
 20
26.72636116154999
 30
0.0
 40
4.049999999999999
  1
１
 41
0.95
  7
KCADTEXTSTANDARD
100
AcDbText
1001
Sigma
1000

  0
TEXT
  5
321
330
1F
100
AcDbEntity
  8
90-ScaleR0.4
  6
Continuous
 62
     7
370
    30
100
AcDbText
 10
267.55679596432
 20
22.91333938295
 30
0.0
 40
4.5
  1
１
 41
0.855
  7
KCADTEXTSTANDARD
100
AcDbText
1001
Sigma
1000

  0
TEXT
  5
323
330
1F
100
AcDbEntity
  8
90-ScaleR0.4
  6
Continuous
 62
     7
370
    30
100
AcDbText
 10
243.0270582668935
 20
30.19010889289998
 30
0.0
 40
4.5
  1
Ｃ０.１
 41
0.8023937520384787
  7
KCADTEXTSTANDARD
100
AcDbText
1001
Sigma
1000

  0
LINE
  5
325
330
1F
100
AcDbEntity
  8
90-ScaleR0.4
  6
Continuous
 62
     7
370
    30
100
AcDbLine
 10
135.8190063753
 20
17.43194192379999
 30
0.0
 11
135.8190063753
 21
47.43194192379998
 31
0.0
1001
Sigma
1000

  0
TEXT
  5
327
330
1F
100
AcDbEntity
  8
90-ScaleR0.4
  6
Continuous
 62
     7
370
    30
100
AcDbText
 10
236.6668214301804
 20
38.47586206894999
 30
0.0
 40
3.6
  1
処理
 41
1.02125000283122
  7
KCADTEXTSTANDARD
100
AcDbText
1001
Sigma
1000

  0
TEXT
  5
329
330
1F
100
AcDbEntity
  8
90-ScaleR0.4
  6
Continuous
 62
     7
370
    30
100
AcDbText
 10
32.71276480665001
 20
43.8507259528
 30
0.0
 40
2.033999999999999
  1
5
 41
0.577433628318584
  7
KCADTEXTSTANDARD
100
AcDbText
1001
Sigma
1000

  0
TEXT
  5
32B
330
1F
100
AcDbEntity
  8
90-ScaleR0.4
  6
Continuous
 62
     7
370
    30
100
AcDbText
 10
32.57780336705001
 20
39.26905626134999
 30
0.0
 40
2.033999999999999
  1
4
 41
0.577433628318584
  7
KCADTEXTSTANDARD
100
AcDbText
1001
Sigma
1000

  0
TEXT
  5
32D
330
1F
100
AcDbEntity
  8
90-ScaleR0.4
  6
Continuous
 62
     7
370
    30
100
AcDbText
 10
32.84772624624999
 20
33.60934664244999
 30
0.0
 40
2.033999999999999
  1
3
 41
0.577433628318584
  7
KCADTEXTSTANDARD
100
AcDbText
1001
Sigma
1000

  0
TEXT
  5
32F
330
1F
100
AcDbEntity
  8
90-ScaleR0.4
  6
Continuous
 62
     7
370
    30
100
AcDbText
 10
32.84772624624999
 20
28.75816696914998
 30
0.0
 40
2.033999999999999
  1
2
 41
0.577433628318584
  7
KCADTEXTSTANDARD
100
AcDbText
1001
Sigma
1000

  0
TEXT
  5
331
330
1F
100
AcDbEntity
  8
90-ScaleR0.4
  6
Continuous
 62
     7
370
    30
100
AcDbText
 10
32.57780336705001
 20
24.04174228674998
 30
0.0
 40
2.033999999999999
  1
1
 41
0.577433628318584
  7
KCADTEXTSTANDARD
100
AcDbText
1001
Sigma
1000

  0
LINE
  5
333
330
1F
100
AcDbEntity
  8
90-ScaleR0.4
  6
Continuous
 62
     7
370
    30
100
AcDbLine
 10
261.819006761233
 20
37.43194192379999
 30
0.0
 11
261.819006761233
 21
17.48820326680001
 31
0.0
1001
Sigma
1000

  0
LINE
  5
335
330
1F
100
AcDbEntity
  8
90-ScaleR0.4
  6
Continuous
 62
     7
370
    15
100
AcDbLine
 10
261.819006761233
 20
32.43194192379999
 30
0.0
 11
291.819006761235
 21
32.43194192379999
 31
0.0
1001
Sigma
1000

  0
TEXT
  5
337
330
1F
100
AcDbEntity
  8
90-ScaleR0.4
  6
Continuous
 62
     7
370
    30
100
AcDbText
 10
280.370224528175
 20
33.2063520871
 30
0.0
 40
3.6
  1
尺度
 41
1.02125000283122
  7
KCADTEXTSTANDARD
100
AcDbText
1001
Sigma
1000

  0
TEXT
  5
339
330
1F
100
AcDbEntity
  8
90-ScaleR0.4
  6
Continuous
 62
     7
370
    30
100
AcDbText
 10
265.2545432942399
 20
33.2063520871
 30
0.0
 40
3.6
  1
個数
 41
1.02125000283122
  7
KCADTEXTSTANDARD
100
AcDbText
1001
Sigma
1000

  0
TEXT
  5
33B
330
1F
100
AcDbEntity
  8
90-ScaleR0.4
  6
Continuous
 62
     7
370
    30
100
AcDbText
 10
39.4396252236
 20
18.19818511794998
 30
0.0
 40
3.6
  1
年月日
 41
1.04500000377496
  7
KCADTEXTSTANDARD
100
AcDbText
1001
Sigma
1000

  0
TEXT
  5
33D
330
1F
100
AcDbEntity
  8
90-ScaleR0.4
  6
Continuous
 62
     7
370
    30
100
AcDbText
 10
56.75421837015001
 20
18.46769509979999
 30
0.0
 40
3.6
  1
担当
 41
1.02125000283122
  7
KCADTEXTSTANDARD
100
AcDbText
1001
Sigma
1000

  0
TEXT
  5
33F
330
1F
100
AcDbEntity
  8
90-ScaleR0.4
  6
Continuous
 62
     7
370
    30
100
AcDbText
 10
30.16822753154999
 20
18.91769509979999
 30
0.0
 40
2.7
  1
符号
 41
1.013333334277073
  7
KCADTEXTSTANDARD
100
AcDbText
1001
Sigma
1000

  0
TEXT
  5
341
330
1F
100
AcDbEntity
  8
90-ScaleR0.4
  6
Continuous
 62
     7
370
    30
100
AcDbText
 10
85.75645015410001
 20
18.19818511794998
 30
0.0
 40
3.6
  1
訂  正  記  事
 41
0.7505000033974647
  7
KCADTEXTSTANDARD
100
AcDbText
1001
Sigma
1000

  0
LINE
  5
343
330
1F
100
AcDbEntity
  8
90-ScaleR0.4
  6
Continuous
 62
     7
370
    15
100
AcDbLine
 10
201.36302619882
 20
17.43194192379999
 30
0.0
 11
201.36302619882
 21
47.43194192379998
 31
0.0
1001
Sigma
1000

  0
TEXT
  5
345
330
1F
100
AcDbEntity
  8
90-ScaleR0.4
  6
Continuous
 62
     7
370
    30
100
AcDbText
 10
236.6372452482055
 20
33.2063520871
 30
0.0
 40
3.6
  1
面
 41
0.95
  7
KCADTEXTSTANDARD
100
AcDbText
1001
Sigma
1000

  0
LINE
  5
347
330
1F
100
AcDbEntity
  8
90-ScaleR0.4
  6
Continuous
 62
     7
370
    30
100
AcDbLine
 10
235.8190065201555
 20
17.43194192379999
 30
0.0
 11
235.8190065201555
 21
47.43194192379998
 31
0.0
1001
Sigma
1000

  0
LINE
  5
349
330
1F
100
AcDbEntity
  8
90-ScaleR0.4
  6
Continuous
 62
     7
370
    30
100
AcDbLine
 10
276.819006761235
 20
17.48820326680001
 30
0.0
 11
276.819006761235
 21
37.43194192379999
 31
0.0
1001
Sigma
1000

  0
LINE
  5
34B
330
1F
100
AcDbEntity
  8
90-ScaleR0.4
  6
Continuous
 62
     7
370
    30
100
AcDbLine
 10
280.41882254347
 20
21.12369774049999
 30
0.0
 11
287.970676149205
 21
28.67555134625
 31
0.0
1001
Sigma
1000

  0
LINE
  5
34D
330
1F
100
AcDbEntity
  8
90-ScaleR0.4
  6
Continuous
 62
     7
370
    15
100
AcDbLine
 10
241.044198427471
 20
27.43194192379998
 30
0.0
 11
241.044198427471
 21
37.43194192379999
 31
0.0
1001
Sigma
1000

  0
TEXT
  5
34F
330
1F
100
AcDbEntity
  8
90-ScaleR0.4
  6
Continuous
 62
     7
370
    30
100
AcDbText
 10
236.6372452482055
 20
28.20635208709998
 30
0.0
 40
3.6
  1
取
 41
0.95
  7
KCADTEXTSTANDARD
100
AcDbText
1001
Sigma
1000

  0
TEXT
  5
351
330
1F
100
AcDbEntity
  8
90-ScaleR0.4
  6
Continuous
 62
     7
370
    30
100
AcDbText
 10
142.80210074895
 20
40.29800362975
 30
0.0
 40
3.6
  1
１９９６年４月２６日
 41
1.078250005096197
  7
KCADTEXTSTANDARD
100
AcDbText
1001
Sigma
1000

  0
LINE
  5
353
330
1F
100
AcDbEntity
  8
90-ScaleR0.4
  6
Continuous
 62
     7
370
    30
100
AcDbLine
 10
411.81900676123
 20
47.43194192379998
 30
0.0
 11
28.8189987163
 21
47.43194192379998
 31
0.0
1001
Sigma
1000

  0
TEXT
  5
355
330
1F
100
AcDbEntity
  8
90-ScaleR0.4
  6
Continuous
 62
     7
370
    30
100
AcDbText
 10
196.857370671825
 20
23.2344827586
 30
0.0
 40
3.6
  1
公
 41
0.95
  7
KCADTEXTSTANDARD
100
AcDbText
1001
Sigma
1000

  0
TEXT
  5
357
330
1F
100
AcDbEntity
  8
90-ScaleR0.4
  6
Continuous
 62
     7
370
    30
100
AcDbText
 10
196.857370671825
 20
18.2344827586
 30
0.0
 40
3.6
  1
差
 41
0.95
  7
KCADTEXTSTANDARD
100
AcDbText
1001
Sigma
1000

  0
LINE
  5
359
330
1F
100
AcDbEntity
  8
90-ScaleR0.4
  6
Continuous
 62
     7
370
    15
100
AcDbLine
 10
212.0000000000001
 20
15.43194192379999
 30
0.0
 11
212.0000000000001
 21
17.51814882035
 31
0.0
1001
Sigma
1000

  0
LINE
  5
35B
330
1F
100
AcDbEntity
  8
90-ScaleR0.4
  6
Continuous
 62
     7
370
    30
100
AcDbLine
 10
135.8190063753
 20
37.43194192379999
 30
0.0
 11
291.819006761235
 21
37.43194192379999
 31
0.0
1001
Sigma
1000

  0
TEXT
  5
35D
330
1F
100
AcDbEntity
  8
90-ScaleR0.4
  6
Continuous
 62
     7
370
    30
100
AcDbText
 10
139.09066116025
 20
33.35812159709999
 30
0.0
 40
3.6
  1
設計
 41
1.02125000283122
  7
KCADTEXTSTANDARD
100
AcDbText
1001
Sigma
1000

  0
TEXT
  5
35F
330
1F
100
AcDbEntity
  8
90-ScaleR0.4
  6
Continuous
 62
     7
370
    30
100
AcDbText
 10
154.47626527335
 20
33.35812159709999
 30
0.0
 40
3.6
  1
製図
 41
1.02125000283122
  7
KCADTEXTSTANDARD
100
AcDbText
1001
Sigma
1000

  0
TEXT
  5
361
330
1F
100
AcDbEntity
  8
90-ScaleR0.4
  6
Continuous
 62
     7
370
    30
100
AcDbText
 10
168.9171393093599
 20
33.35812159709999
 30
0.0
 40
3.6
  1
検図
 41
1.02125000283122
  7
KCADTEXTSTANDARD
100
AcDbText
1001
Sigma
1000

  0
TEXT
  5
363
330
1F
100
AcDbEntity
  8
90-ScaleR0.4
  6
Continuous
 62
     7
370
    30
100
AcDbText
 10
183.7628976641149
 20
33.35812159709999
 30
0.0
 40
3.6
  1
承認
 41
1.02125000283122
  7
KCADTEXTSTANDARD
100
AcDbText
1001
Sigma
1000

  0
LINE
  5
365
330
1F
100
AcDbEntity
  8
90-ScaleR0.4
  6
Continuous
 62
     7
370
    30
100
AcDbLine
 10
291.819006761235
 20
17.43194192379999
 30
0.0
 11
291.819006761235
 21
47.43194192379998
 31
0.0
1001
Sigma
1000

  0
LINE
  5
367
330
1F
100
AcDbEntity
  8
90-ScaleR0.4
  6
Continuous
 62
     7
370
    15
100
AcDbLine
 10
301.819006761235
 20
47.43194192379998
 30
0.0
 11
301.819006761235
 21
17.43194192379999
 31
0.0
1001
Sigma
1000

  0
LINE
  5
369
330
1F
100
AcDbEntity
  8
90-ScaleR0.4
  6
Continuous
 62
     7
370
    15
100
AcDbLine
 10
36.8189987398
 20
17.43194192379999
 30
0.0
 11
36.8189987398
 21
47.43194192379998
 31
0.0
1001
Sigma
1000

  0
LINE
  5
36B
330
1F
100
AcDbEntity
  8
90-ScaleR0.4
  6
Continuous
 62
     7
370
    15
100
AcDbLine
 10
135.8190063753
 20
32.43194192379999
 30
0.0
 11
195.819006375325
 21
32.43194192379999
 31
0.0
1001
Sigma
1000

  0
LINE
  5
36D
330
1F
100
AcDbEntity
  8
90-ScaleR0.4
  6
Continuous
 62
     7
370
    30
100
AcDbLine
 10
150.8190063753
 20
17.43194192379999
 30
0.0
 11
150.8190063753
 21
37.43194192379999
 31
0.0
1001
Sigma
1000

  0
LINE
  5
36F
330
1F
100
AcDbEntity
  8
90-ScaleR0.4
  6
Continuous
 62
     7
370
    30
100
AcDbLine
 10
165.8190063753249
 20
17.43194192379999
 30
0.0
 11
165.8190063753249
 21
37.43194192379999
 31
0.0
1001
Sigma
1000

  0
LINE
  5
371
330
1F
100
AcDbEntity
  8
90-ScaleR0.4
  6
Continuous
 62
     7
370
    30
100
AcDbLine
 10
180.819006375325
 20
37.43194192379999
 30
0.0
 11
180.819006375325
 21
17.43194192379999
 31
0.0
1001
Sigma
1000

  0
LINE
  5
373
330
1F
100
AcDbEntity
  8
90-ScaleR0.4
  6
Continuous
 62
     7
370
    15
100
AcDbLine
 10
54.81899953979999
 20
17.43194192379999
 30
0.0
 11
54.81899953979999
 21
47.43194192379998
 31
0.0
1001
Sigma
1000

  0
LINE
  5
375
330
1F
100
AcDbEntity
  8
90-ScaleR0.4
  6
Continuous
 62
     7
370
    15
100
AcDbLine
 10
28.8189987163
 20
22.43194192379998
 30
0.0
 11
135.8190063753
 21
22.43194192379998
 31
0.0
1001
Sigma
1000

  0
TEXT
  5
377
330
1F
100
AcDbEntity
  8
90-ScaleR0.4
  6
Continuous
 62
     7
370
    30
100
AcDbText
 10
196.84238913154
 20
33.36923774954999
 30
0.0
 40
3.6
  1
仕
 41
0.95
  7
KCADTEXTSTANDARD
100
AcDbText
1001
Sigma
1000

  0
LINE
  5
379
330
1F
100
AcDbEntity
  8
90-ScaleR0.4
  6
Continuous
 62
     7
370
    15
100
AcDbLine
 10
28.8189987163
 20
27.43194192379998
 30
0.0
 11
135.8190063753
 21
27.43194192379998
 31
0.0
1001
Sigma
1000

  0
TEXT
  5
37B
330
1F
100
AcDbEntity
  8
90-ScaleR0.4
  6
Continuous
 62
     7
370
    30
100
AcDbText
 10
196.84238913154
 20
28.36923774954999
 30
0.0
 40
3.6
  1
上
 41
0.95
  7
KCADTEXTSTANDARD
100
AcDbText
1001
Sigma
1000

  0
LINE
  5
37D
330
1F
100
AcDbEntity
  8
90-ScaleR0.4
  6
Continuous
 62
     7
370
    15
100
AcDbLine
 10
245.8190065201555
 20
37.43194192379999
 30
0.0
 11
245.8190065201555
 21
47.43194192379998
 31
0.0
1001
Sigma
1000

  0
TEXT
  5
37F
330
1F
100
AcDbEntity
  8
90-ScaleR0.4
  6
Continuous
 62
     7
370
    30
100
AcDbText
 10
236.9367443093575
 20
42.93684210524999
 30
0.0
 40
3.6
  1
表面
 41
1.02125000283122
  7
KCADTEXTSTANDARD
100
AcDbText
1001
Sigma
1000

  0
LINE
  5
381
330
1F
100
AcDbEntity
  8
90-ScaleR0.4
  6
Continuous
 62
     7
370
    15
100
AcDbLine
 10
28.8189987163
 20
32.43194192379999
 30
0.0
 11
135.8190063753
 21
32.43194192379999
 31
0.0
1001
Sigma
1000

  0
LINE
  5
383
330
1F
100
AcDbEntity
  8
90-ScaleR0.4
  6
Continuous
 62
     7
370
    15
100
AcDbLine
 10
28.8189987163
 20
37.43194192379999
 30
0.0
 11
135.8190063753
 21
37.43194192379999
 31
0.0
1001
Sigma
1000

  0
LINE
  5
385
330
1F
100
AcDbEntity
  8
90-ScaleR0.4
  6
Continuous
 62
     7
370
    15
100
AcDbLine
 10
66.81899986114999
 20
17.43194192379999
 30
0.0
 11
66.81899986114999
 21
47.43194192379998
 31
0.0
1001
Sigma
1000

  0
LINE
  5
387
330
1F
100
AcDbEntity
  8
90-ScaleR0.4
  6
Continuous
 62
     7
370
    15
100
AcDbLine
 10
28.8189987163
 20
42.43194192379998
 30
0.0
 11
135.8190063753
 21
42.43194192379998
 31
0.0
1001
Sigma
1000

  0
LINE
  5
38B
330
1F
100
AcDbEntity
  8
90-ScaleR0.4
  6
Continuous
 62
     7
370
    15
100
AcDbLine
 10
212.0
 20
285.931941923775
 30
0.0
 11
212.0
 21
288.431941923775
 31
0.0
1001
Sigma
1000

  0
LINE
  5
38D
330
1F
100
AcDbEntity
  8
90-ScaleR0.4
  6
Continuous
 62
     7
370
    15
100
AcDbLine
 10
29.3189987163
 20
148.5
 30
0.0
 11
26.8189987163
 21
148.5
 31
0.0
1001
Sigma
1000

  0
LINE
  5
38F
330
1F
100
AcDbEntity
  8
90-ScaleR0.4
  6
Continuous
 62
     7
370
    15
100
AcDbLine
 10
410.8190067612301
 20
148.5
 30
0.0
 11
413.31900676123
 21
148.5
 31
0.0
1001
Sigma
1000

  0
LINE
  5
391
330
1F
100
AcDbEntity
  8
0
  6
CENTER
 62
     7
370
    15
100
AcDbLine
 10
71.06539196940727
 20
148.4999999999996
 30
0.0
 11
255.5239887111947
 21
148.4999999999996
 31
0.0
1001
Sigma
1000

  0
LINE
  5
393
330
1F
100
AcDbEntity
  8
0
  6
CENTER
 62
     7
370
    15
100
AcDbLine
 10
253.0999999999998
 20
148.5000000000001
 30
0.0
 11
294.388805268109
 21
148.5000000000001
 31
0.0
1001
Sigma
1000

  0
LINE
  5
396
330
1F
100
AcDbEntity
  8
2
  6
Continuous
 62
     7
370
    30
100
AcDbLine
 10
153.9351834430854
 20
158.2000000000003
 30
0.0
 11
153.9351834430854
 21
148.5000000000003
 31
0.0
1001
Sigma
1000

  0
LINE
  5
398
330
1F
100
AcDbEntity
  8
2
  6
Continuous
 62
     7
370
    30
100
AcDbLine
 10
158.9351834430854
 20
148.5000000000003
 30
0.0
 11
158.9351834430854
 21
158.5000000000003
 31
0.0
1001
Sigma
1000

  0
LINE
  5
39A
330
1F
100
AcDbEntity
  8
2
  6
Continuous
 62
     7
370
    30
100
AcDbLine
 10
153.9351834430854
 20
138.7999999999998
 30
0.0
 11
153.9351834430854
 21
148.4999999999998
 31
0.0
1001
Sigma
1000

  0
LINE
  5
39C
330
1F
100
AcDbEntity
  8
2
  6
Continuous
 62
     7
370
    30
100
AcDbLine
 10
158.9351834430854
 20
148.4999999999998
 30
0.0
 11
158.9351834430854
 21
138.4999999999998
 31
0.0
1001
Sigma
1000

  0
LINE
  5
39E
330
1F
100
AcDbEntity
  8
2
  6
Continuous
 62
     7
370
    30
100
AcDbLine
 10
190.9351834430854
 20
148.5000000000002
 30
0.0
 11
190.9351834430854
 21
158.5000000000003
 31
0.0
1001
Sigma
1000

  0
LINE
  5
3A0
330
1F
100
AcDbEntity
  8
2
  6
Continuous
 62
     7
370
    30
100
AcDbLine
 10
190.9351834430854
 20
148.4999999999999
 30
0.0
 11
190.9351834430854
 21
138.4999999999998
 31
0.0
1001
Sigma
1000

  0
LINE
  5
3A3
330
1F
100
AcDbEntity
  8
3
  6
Continuous
 62
     7
370
    30
100
AcDbLine
 10
82.56871134484875
 20
149.4335279017636
 30
0.0
 11
80.59317042292965
 21
147.4579869798445
 31
0.0
1001
Sigma
1000

  0
LINE
  5
3A5
330
1F
100
AcDbEntity
  8
3
  6
Continuous
 62
     7
370
    30
100
AcDbLine
 10
80.70165554132211
 20
149.4335279017636
 30
0.0
 11
82.67719646324122
 21
147.4579869798445
 31
0.0
1001
Sigma
1000

  0
LINE
  5
3A7
330
1F
100
AcDbEntity
  8
2
  6
Continuous
 62
     7
370
    30
100
AcDbLine
 10
257.4351834430853
 20
158.5000000000003
 30
0.0
 11
154.2351834430854
 21
158.5000000000003
 31
0.0
1001
Sigma
1000

  0
LINE
  5
3A9
330
1F
100
AcDbEntity
  8
2
  6
Continuous
 62
     7
370
    30
100
AcDbLine
 10
257.4351834430852
 20
138.4999999999998
 30
0.0
 11
154.2351834430854
 21
138.4999999999998
 31
0.0
1001
Sigma
1000

  0
LINE
  5
3AB
330
1F
100
AcDbEntity
  8
2
  6
Continuous
 62
     7
370
    30
100
AcDbLine
 10
257.4351834430852
 20
162.0
 30
0.0
 11
257.4351834430852
 21
148.5000000000001
 31
0.0
1001
Sigma
1000

  0
LINE
  5
3AD
330
1F
100
AcDbEntity
  8
2
  6
Continuous
 62
     7
370
    30
100
AcDbLine
 10
257.4351834430852
 20
135.0
 30
0.0
 11
257.4351834430852
 21
148.5000000000001
 31
0.0
1001
Sigma
1000

  0
LINE
  5
3AF
330
1F
100
AcDbEntity
  8
2
  6
Continuous
 62
     7
370
    30
100
AcDbLine
 10
257.9351834430852
 20
162.5
 30
0.0
 11
268.4351834430852
 21
162.5
 31
0.0
1001
Sigma
1000

  0
LINE
  5
3B1
330
1F
100
AcDbEntity
  8
2
  6
Continuous
 62
     7
370
    30
100
AcDbLine
 10
257.9351834430852
 20
134.5
 30
0.0
 11
268.4351834430852
 21
134.5
 31
0.0
1001
Sigma
1000

  0
LINE
  5
3B3
330
1F
100
AcDbEntity
  8
2
  6
Continuous
 62
     7
370
    30
100
AcDbLine
 10
269.4351834430853
 20
135.5
 30
0.0
 11
269.4351834430853
 21
161.5
 31
0.0
1001
Sigma
1000

  0
LINE
  5
3B5
330
1F
100
AcDbEntity
  8
3
  6
Continuous
 62
     7
370
    30
100
AcDbLine
 10
287.8947113448485
 20
149.4335279017634
 30
0.0
 11
285.9191704229295
 21
147.4579869798442
 31
0.0
1001
Sigma
1000

  0
LINE
  5
3B7
330
1F
100
AcDbEntity
  8
3
  6
Continuous
 62
     7
370
    30
100
AcDbLine
 10
286.027655541322
 20
149.4335279017634
 30
0.0
 11
288.0031964632411
 21
147.4579869798443
 31
0.0
1001
Sigma
1000

  0
LINE
  5
3B9
330
1F
100
AcDbEntity
  8
2
  6
Continuous
 62
     7
370
    30
100
AcDbLine
 10
229.9351834430854
 20
158.5000000000009
 30
0.0
 11
229.9351834430854
 21
138.5000000000005
 31
0.0
1001
Sigma
1000

  0
LINE
  5
3BB
330
1F
100
AcDbEntity
  8
2
  6
Continuous
 62
     7
370
    30
100
AcDbLine
 10
270.2351834430853
 20
161.1500000000001
 30
0.0
 11
272.916442074818
 21
161.1500000000001
 31
0.0
1001
Sigma
1000

  0
LINE
  5
3BD
330
1F
100
AcDbEntity
  8
2
  6
Continuous
 62
     7
370
    30
100
AcDbLine
 10
273.4351834430853
 20
148.5000000000001
 30
0.0
 11
273.4351834430853
 21
160.6312586317328
 31
0.0
1001
Sigma
1000

  0
LINE
  5
3BF
330
1F
100
AcDbEntity
  8
2
  6
Continuous
 62
     7
370
    30
100
AcDbLine
 10
272.1518579492002
 20
160.6312586317328
 30
0.0
 11
273.4351834430853
 21
160.6312586317328
 31
0.0
1001
Sigma
1000

  0
LINE
  5
3C1
330
1F
100
AcDbEntity
  8
2
  6
Continuous
 62
     7
370
    30
100
AcDbLine
 10
270.2351834430853
 20
148.5000000000001
 30
0.0
 11
270.2351834430853
 21
161.1500000000001
 31
0.0
1001
Sigma
1000

  0
LINE
  5
3C3
330
1F
100
AcDbEntity
  8
2
  6
Continuous
 62
     7
370
    30
100
AcDbLine
 10
272.1518579492002
 20
160.6312586317328
 30
0.0
 11
269.4351834430853
 21
160.6312586317328
 31
0.0
1001
Sigma
1000

  0
LINE
  5
3C5
330
1F
100
AcDbEntity
  8
2
  6
Continuous
 62
     7
370
    30
100
AcDbLine
 10
268.4351834430852
 20
162.5
 30
0.0
 11
269.4351834430853
 21
161.5
 31
0.0
1001
Sigma
1000

  0
LINE
  5
3C7
330
1F
100
AcDbEntity
  8
2
  6
Continuous
 62
     7
370
    30
100
AcDbLine
 10
268.4351834430852
 20
162.5
 30
0.0
 11
268.4351834430852
 21
134.5
 31
0.0
1001
Sigma
1000

  0
LINE
  5
3C9
330
1F
100
AcDbEntity
  8
2
  6
Continuous
 62
     7
370
    30
100
AcDbLine
 10
269.4351834430853
 20
135.5
 30
0.0
 11
268.4351834430852
 21
134.5
 31
0.0
1001
Sigma
1000

  0
LINE
  5
3CB
330
1F
100
AcDbEntity
  8
2
  6
Continuous
 62
     7
370
    30
100
AcDbLine
 10
257.4351834430852
 20
162.0
 30
0.0
 11
257.9351834430852
 21
162.5
 31
0.0
1001
Sigma
1000

  0
LINE
  5
3CD
330
1F
100
AcDbEntity
  8
2
  6
Continuous
 62
     7
370
    30
100
AcDbLine
 10
257.9351834430852
 20
162.5
 30
0.0
 11
257.9351834430852
 21
134.5
 31
0.0
1001
Sigma
1000

  0
LINE
  5
3CF
330
1F
100
AcDbEntity
  8
2
  6
Continuous
 62
     7
370
    30
100
AcDbLine
 10
257.4351834430852
 20
135.0
 30
0.0
 11
257.9351834430852
 21
134.5
 31
0.0
1001
Sigma
1000

  0
LINE
  5
3D1
330
1F
100
AcDbEntity
  8
2
  6
Continuous
 62
     7
370
    30
100
AcDbLine
 10
273.4351834430853
 20
160.6312586317328
 30
0.0
 11
272.916442074818
 21
161.1500000000001
 31
0.0
1001
Sigma
1000

  0
LINE
  5
3D3
330
1F
100
AcDbEntity
  8
2
  6
Continuous
 62
     7
370
    30
100
AcDbLine
 10
272.916442074818
 20
161.1500000000001
 30
0.0
 11
272.916442074818
 21
148.5000000000001
 31
0.0
1001
Sigma
1000

  0
LINE
  5
3D5
330
1F
100
AcDbEntity
  8
2
  6
Continuous
 62
     7
370
    30
100
AcDbLine
 10
270.2351834430853
 20
135.85
 30
0.0
 11
272.916442074818
 21
135.85
 31
0.0
1001
Sigma
1000

  0
LINE
  5
3D7
330
1F
100
AcDbEntity
  8
2
  6
Continuous
 62
     7
370
    30
100
AcDbLine
 10
273.4351834430853
 20
148.5000000000001
 30
0.0
 11
273.4351834430853
 21
136.3687413682673
 31
0.0
1001
Sigma
1000

  0
LINE
  5
3D9
330
1F
100
AcDbEntity
  8
2
  6
Continuous
 62
     7
370
    30
100
AcDbLine
 10
273.4351834430853
 20
136.3687413682673
 30
0.0
 11
269.4351834430853
 21
136.3687413682673
 31
0.0
1001
Sigma
1000

  0
LINE
  5
3DB
330
1F
100
AcDbEntity
  8
2
  6
Continuous
 62
     7
370
    30
100
AcDbLine
 10
270.2351834430853
 20
148.5000000000001
 30
0.0
 11
270.2351834430853
 21
135.85
 31
0.0
1001
Sigma
1000

  0
LINE
  5
3DD
330
1F
100
AcDbEntity
  8
2
  6
Continuous
 62
     7
370
    30
100
AcDbLine
 10
273.4351834430853
 20
136.3687413682673
 30
0.0
 11
272.916442074818
 21
135.85
 31
0.0
1001
Sigma
1000

  0
LINE
  5
3DF
330
1F
100
AcDbEntity
  8
2
  6
Continuous
 62
     7
370
    30
100
AcDbLine
 10
272.916442074818
 20
135.85
 30
0.0
 11
272.916442074818
 21
148.5000000000001
 31
0.0
1001
Sigma
1000

  0
LINE
  5
3E1
330
1F
100
AcDbEntity
  8
2
  6
Continuous
 62
     7
370
    30
100
AcDbLine
 10
153.9351834430854
 20
158.2000000000003
 30
0.0
 11
154.2351834430854
 21
158.5000000000003
 31
0.0
1001
Sigma
1000

  0
LINE
  5
3E3
330
1F
100
AcDbEntity
  8
2
  6
Continuous
 62
     7
370
    30
100
AcDbLine
 10
153.9351834430854
 20
138.7999999999998
 30
0.0
 11
154.2351834430854
 21
138.4999999999998
 31
0.0
1001
Sigma
1000

  0
LINE
  5
3E7
102
{ACAD_REACTORS
330
3E5
102
}
330
1F
100
AcDbEntity
  8
4
  6
Continuous
 62
     7
370
    15
100
AcDbLine
 10
271.5219190968954
 20
135.413816526891
 30
0.0
 11
261.1598048703867
 21
115.6106648940074
 31
0.0
1001
Sigma
1000

  0
INSERT
  5
3E9
102
{ACAD_REACTORS
330
3E5
102
}
330
1F
100
AcDbEntity
  8
4
  6
Continuous
 62
     7
370
    15
100
AcDbBlockReference
  2
_OPEN30
 10
271.5219190968954
 20
135.413816526891
 30
0.0
 41
3.0
 42
3.0
 43
3.0
 50
62.37892501692484
1001
Sigma
1000
_BRRS
  0
LINE
  5
3EB
330
1F
100
AcDbEntity
  8
4
  6
Continuous
 62
     7
370
    15
100
AcDbLine
 10
261.1598048703866
 20
115.6106648940074
 30
0.0
 11
316.2926152398869
 21
115.6106648940074
 31
0.0
1001
Sigma
1000

  0
TEXT
  5
3ED
330
1F
100
AcDbEntity
  8
4
  6
Continuous
 62
     7
370
    30
100
AcDbText
 10
267.3951552210723
 20
116.6680498288666
 30
0.0
 40
4.5
  1
Ｍ２５．４　３２山
 41
1.027206374804178
  7
KCADTEXTSTANDARD
100
AcDbText
1001
Sigma
1000

  0
TEXT
  5
3EF
330
1F
100
AcDbEntity
  8
0
  6
Continuous
 62
     7
370
    30
100
AcDbText
 10
309.4443627282453
 20
21.14139352235196
 30
0.0
 40
4.5
  1
ＫＣＭ－３Ｄ
 41
1.022380976378917
  7
KCADTEXTSTANDARD
100
AcDbText
1001
Sigma
1000

  0
TEXT
  5
3F1
330
1F
100
AcDbEntity
  8
0
  6
Continuous
 62
     7
370
    30
100
AcDbText
 10
366.7640811111223
 20
21.9316098911196
 30
0.0
 40
4.5
  1
TSTM-064
 41
1.026000025197863
  7
KCADTEXTSTANDARD
100
AcDbText
1001
Sigma
1000

  0
TEXT
  5
3F3
330
1F
100
AcDbEntity
  8
0
  6
Continuous
 62
     7
370
    30
100
AcDbText
 10
317.8425369357903
 20
36.88137504915788
 30
0.0
 40
4.5
  1
外 観 図
 41
0.8121143029928207
  7
KCADTEXTSTANDARD
100
AcDbText
1001
Sigma
1000

  0
CIRCLE
  5
3F5
330
1F
100
AcDbEntity
  8
2
  6
Continuous
 62
     7
370
    15
100
AcDbCircle
 10
261.4351834430852
 20
148.5000000000001
 30
0.0
 40
1.5
1001
Sigma
1000

  0
CIRCLE
  5
3F7
330
1F
100
AcDbEntity
  8
2
  6
Continuous
 62
     7
370
    15
100
AcDbCircle
 10
261.4351834430852
 20
148.5000000000001
 30
0.0
 40
1.0
1001
Sigma
1000

  0
LINE
  5
3F9
330
1F
100
AcDbEntity
  8
0
  6
CENTER
 62
     7
370
    15
100
AcDbLine
 10
174.9351834430854
 20
138.4999999999998
 30
0.0
 11
174.9351834430854
 21
160.899097260604
 31
0.0
1001
Sigma
1000

  0
LINE
  5
3FB
330
1F
100
AcDbEntity
  8
0
  6
CENTER
 62
     7
370
    15
100
AcDbLine
 10
174.9351834430854
 20
138.4999999999998
 30
0.0
 11
174.9351834430856
 21
102.6423544002893
 31
0.0
1001
Sigma
1000

  0
LINE
  5
3FD
330
1F
100
AcDbEntity
  8
2
  6
Continuous
 62
     7
370
    30
100
AcDbLine
 10
174.9351834430854
 20
138.4999999999998
 30
0.0
 11
174.9351834430854
 21
136.4999999999998
 31
0.0
1001
Sigma
1000

  0
LINE
  5
3FF
330
1F
100
AcDbEntity
  8
2
  6
Continuous
 62
     7
370
    30
100
AcDbLine
 10
174.9351834430854
 20
136.4999999999998
 30
0.0
 11
164.9351834430854
 21
136.4999999999998
 31
0.0
1001
Sigma
1000

  0
LINE
  5
401
330
1F
100
AcDbEntity
  8
2
  6
Continuous
 62
     7
370
    30
100
AcDbLine
 10
174.9351834430854
 20
136.4999999999998
 30
0.0
 11
184.9351834430854
 21
136.4999999999998
 31
0.0
1001
Sigma
1000

  0
LINE
  5
403
330
1F
100
AcDbEntity
  8
2
  6
Continuous
 62
     7
370
    30
100
AcDbLine
 10
184.9351834430854
 20
136.4999999999998
 30
0.0
 11
184.9351834430854
 21
138.4999999999998
 31
0.0
1001
Sigma
1000

  0
LINE
  5
405
330
1F
100
AcDbEntity
  8
2
  6
Continuous
 62
     7
370
    30
100
AcDbLine
 10
164.9351834430854
 20
136.4999999999998
 30
0.0
 11
164.9351834430854
 21
138.4999999999998
 31
0.0
1001
Sigma
1000

  0
LINE
  5
407
330
1F
100
AcDbEntity
  8
2
  6
Continuous
 62
     7
370
    30
100
AcDbLine
 10
182.9351834430854
 20
131.4999999999998
 30
0.0
 11
182.9351834430854
 21
136.4999999999998
 31
0.0
1001
Sigma
1000

  0
LINE
  5
409
330
1F
100
AcDbEntity
  8
2
  6
Continuous
 62
     7
370
    30
100
AcDbLine
 10
174.9351834430854
 20
131.4999999999998
 30
0.0
 11
183.9351834430853
 21
131.4999999999998
 31
0.0
1001
Sigma
1000

  0
LINE
  5
40B
330
1F
100
AcDbEntity
  8
2
  6
Continuous
 62
     7
370
    30
100
AcDbLine
 10
174.9351834430854
 20
131.4999999999998
 30
0.0
 11
182.9351834430854
 21
131.4999999999998
 31
0.0
1001
Sigma
1000

  0
LINE
  5
40D
330
1F
100
AcDbEntity
  8
2
  6
Continuous
 62
     7
370
    30
100
AcDbLine
 10
174.9351834430854
 20
131.4999999999998
 30
0.0
 11
165.9351834430854
 21
131.4999999999998
 31
0.0
1001
Sigma
1000

  0
LINE
  5
40F
330
1F
100
AcDbEntity
  8
2
  6
Continuous
 62
     7
370
    30
100
AcDbLine
 10
166.9351834430854
 20
131.4999999999998
 30
0.0
 11
166.9351834430854
 21
136.4999999999998
 31
0.0
1001
Sigma
1000

  0
LINE
  5
411
330
1F
100
AcDbEntity
  8
2
  6
Continuous
 62
     7
370
    30
100
AcDbLine
 10
174.9351834430855
 20
120.5
 30
0.0
 11
165.9351834430854
 21
120.5
 31
0.0
1001
Sigma
1000

  0
LINE
  5
413
330
1F
100
AcDbEntity
  8
2
  6
Continuous
 62
     7
370
    30
100
AcDbLine
 10
174.9351834430853
 20
120.5
 30
0.0
 11
183.9351834430853
 21
120.5
 31
0.0
1001
Sigma
1000

  0
LINE
  5
415
330
1F
100
AcDbEntity
  8
2
  6
Continuous
 62
     7
370
    30
100
AcDbLine
 10
183.9351834430853
 20
120.5
 30
0.0
 11
183.9351834430853
 21
131.4999999999998
 31
0.0
1001
Sigma
1000

  0
LINE
  5
417
330
1F
100
AcDbEntity
  8
2
  6
Continuous
 62
     7
370
    30
100
AcDbLine
 10
165.9351834430854
 20
120.5
 30
0.0
 11
165.9351834430854
 21
131.4999999999998
 31
0.0
1001
Sigma
1000

  0
LINE
  5
419
330
1F
100
AcDbEntity
  8
2
  6
HIDDEN
 62
     7
370
    15
100
AcDbLine
 10
168.9351834430852
 20
130.5
 30
0.0
 11
168.9351834430852
 21
120.5
 31
0.0
1001
Sigma
1000

  0
LINE
  5
41B
330
1F
100
AcDbEntity
  8
2
  6
HIDDEN
 62
     7
370
    15
100
AcDbLine
 10
180.9351834430854
 20
130.5
 30
0.0
 11
180.9351834430854
 21
120.5
 31
0.0
1001
Sigma
1000

  0
CIRCLE
  5
41D
330
1F
100
AcDbEntity
  8
2
  6
Continuous
 62
     7
370
    15
100
AcDbCircle
 10
174.9351834430852
 20
123.5
 30
0.0
 40
1.5
1001
Sigma
1000

  0
CIRCLE
  5
41F
330
1F
100
AcDbEntity
  8
2
  6
Continuous
 62
     7
370
    15
100
AcDbCircle
 10
174.9351834430852
 20
123.5
 30
0.0
 40
1.0
1001
Sigma
1000

  0
LINE
  5
422
102
{ACAD_REACTORS
330
421
102
}
330
1F
100
AcDbEntity
  8
90-ScaleR0.4
  6
Continuous
 62
     7
370
    15
100
AcDbLine
 10
33.1352874227
 20
46.8197959774
 30
0.0
 11
35.1352874227
 21
43.35569436225
 31
0.0
1001
Sigma
1000

  0
LINE
  5
424
102
{ACAD_REACTORS
330
421
102
}
330
1F
100
AcDbEntity
  8
90-ScaleR0.4
  6
Continuous
 62
     7
370
    15
100
AcDbLine
 10
35.1352874227
 20
43.35569436225
 30
0.0
 11
31.1352874227
 21
43.35569436225
 31
0.0
1001
Sigma
1000

  0
LINE
  5
426
102
{ACAD_REACTORS
330
421
102
}
330
1F
100
AcDbEntity
  8
90-ScaleR0.4
  6
Continuous
 62
     7
370
    15
100
AcDbLine
 10
31.1352874227
 20
43.35569436225
 30
0.0
 11
33.1352874227
 21
46.8197959774
 31
0.0
1001
Sigma
1000

  0
LINE
  5
429
102
{ACAD_REACTORS
330
428
102
}
330
1F
100
AcDbEntity
  8
90-ScaleR0.4
  6
Continuous
 62
     7
370
    15
100
AcDbLine
 10
33.1352874227
 20
41.96861630409998
 30
0.0
 11
35.1352874227
 21
38.50451468894999
 31
0.0
1001
Sigma
1000

  0
LINE
  5
42B
102
{ACAD_REACTORS
330
428
102
}
330
1F
100
AcDbEntity
  8
90-ScaleR0.4
  6
Continuous
 62
     7
370
    15
100
AcDbLine
 10
35.1352874227
 20
38.50451468894999
 30
0.0
 11
31.1352874227
 21
38.50451468894999
 31
0.0
1001
Sigma
1000

  0
LINE
  5
42D
102
{ACAD_REACTORS
330
428
102
}
330
1F
100
AcDbEntity
  8
90-ScaleR0.4
  6
Continuous
 62
     7
370
    15
100
AcDbLine
 10
31.1352874227
 20
38.50451468894999
 30
0.0
 11
33.1352874227
 21
41.96861630409998
 31
0.0
1001
Sigma
1000

  0
LINE
  5
430
102
{ACAD_REACTORS
330
42F
102
}
330
1F
100
AcDbEntity
  8
90-ScaleR0.4
  6
Continuous
 62
     7
370
    15
100
AcDbLine
 10
30.86536454349999
 20
23.41195570529998
 30
0.0
 11
32.86536454349996
 21
26.87605732039997
 31
0.0
1001
Sigma
1000

  0
LINE
  5
432
102
{ACAD_REACTORS
330
42F
102
}
330
1F
100
AcDbEntity
  8
90-ScaleR0.4
  6
Continuous
 62
     7
370
    15
100
AcDbLine
 10
34.86536454349999
 20
23.41195570529998
 30
0.0
 11
30.86536454349999
 21
23.41195570529998
 31
0.0
1001
Sigma
1000

  0
LINE
  5
434
102
{ACAD_REACTORS
330
42F
102
}
330
1F
100
AcDbEntity
  8
90-ScaleR0.4
  6
Continuous
 62
     7
370
    15
100
AcDbLine
 10
32.86536454349996
 20
26.87605732039997
 30
0.0
 11
34.86536454349999
 21
23.41195570529998
 31
0.0
1001
Sigma
1000

  0
LINE
  5
437
102
{ACAD_REACTORS
330
436
102
}
330
1F
100
AcDbEntity
  8
90-ScaleR0.4
  6
Continuous
 62
     7
370
    15
100
AcDbLine
 10
33.1352874227
 20
31.72723699375
 30
0.0
 11
35.1352874227
 21
28.26313537859998
 31
0.0
1001
Sigma
1000

  0
LINE
  5
439
102
{ACAD_REACTORS
330
436
102
}
330
1F
100
AcDbEntity
  8
90-ScaleR0.4
  6
Continuous
 62
     7
370
    15
100
AcDbLine
 10
35.1352874227
 20
28.26313537859998
 30
0.0
 11
31.1352874227
 21
28.26313537859998
 31
0.0
1001
Sigma
1000

  0
LINE
  5
43B
102
{ACAD_REACTORS
330
436
102
}
330
1F
100
AcDbEntity
  8
90-ScaleR0.4
  6
Continuous
 62
     7
370
    15
100
AcDbLine
 10
31.1352874227
 20
28.26313537859998
 30
0.0
 11
33.1352874227
 21
31.72723699375
 31
0.0
1001
Sigma
1000

  0
LINE
  5
43E
102
{ACAD_REACTORS
330
43D
102
}
330
1F
100
AcDbEntity
  8
90-ScaleR0.4
  6
Continuous
 62
     7
370
    15
100
AcDbLine
 10
33.1352874227
 20
36.57841666704999
 30
0.0
 11
35.1352874227
 21
33.11431505189999
 31
0.0
1001
Sigma
1000

  0
LINE
  5
440
102
{ACAD_REACTORS
330
43D
102
}
330
1F
100
AcDbEntity
  8
90-ScaleR0.4
  6
Continuous
 62
     7
370
    15
100
AcDbLine
 10
35.1352874227
 20
33.11431505189999
 30
0.0
 11
31.1352874227
 21
33.11431505189999
 31
0.0
1001
Sigma
1000

  0
LINE
  5
442
102
{ACAD_REACTORS
330
43D
102
}
330
1F
100
AcDbEntity
  8
90-ScaleR0.4
  6
Continuous
 62
     7
370
    15
100
AcDbLine
 10
31.1352874227
 20
33.11431505189999
 30
0.0
 11
33.1352874227
 21
36.57841666704999
 31
0.0
1001
Sigma
1000

  0
DIMENSION
  5
444
330
1F
100
AcDbEntity
  8
KCAD_DIMS
 62
     7
100
AcDbDimension
  2
*D43
 10
273.4351834430853
 20
180.156590890895
 30
0.0
 11
277.9730723809123
 21
182.302271021657
 31
0.0
 70
    32
 71
     5
 42
-1.0
  3
Standard
100
AcDbAlignedDimension
 13
269.4351834430853
 23
135.5
 33
0.0
 14
273.4351834430853
 24
148.5000000000001
 34
0.0
100
AcDbRotatedDimension
1001
Sigma
1000
DIM_TPHO
1001
KCAD_DIM_EXT
1002
{
1071
 20001212
1070
     0
1070
     1
1070
     1
1040
3.0
1040
5.0
1040
5.0
1040
0.0
1040
0.0
1040
0.0
1040
0.0
1040
0.0
1070
     1
1040
50.0
1040
5.362925784520929
1013
0.9999973496751962
1023
0.0023023124425195
1033
0.0
1040
2.3499547336026
1013
1.0
1023
0.0
1033
0.0
1000
_NONE
1040
0.0
1040
3.999999999999985
1070
     0
1070
     0
1070
     0
1012
1.0
1022
0.0
1032
0.0
1013
1.0
1023
0.0
1033
0.0
1002
}
1001
ACAD
1000
DSTYLE
1002
{
1070
    41
1040
3.0
1070
    42
1040
1.0
1070
    43
1040
8.0
1070
    44
1040
1.0
1070
    45
1040
0.0
1070
    73
1070
     0
1070
    74
1070
     0
1070
    77
1070
     1
1070
    78
1070
     8
1070
    79
1070
     2
1070
   140
1040
3.2
1070
   141
1040
2.5
1070
   145
1040
0.0001
1070
   146
1040
0.667
1070
   147
1040
0.5333000000000001
1070
   172
1070
     1
1070
   173
1070
     1
1070
   179
1070
     3
1070
   271
1070
     3
1070
   272
1070
     3
1070
   279
1070
     2
1070
   284
1070
     8
1070
   289
1070
     2
1070
   340
1005
189
1070
   341
1005
21
1070
   343
1005
12D
1070
   344
1005
12D
1002
}
  0
DIMENSION
  5
48E
330
1F
100
AcDbEntity
  8
KCAD_DIMS
 62
     7
100
AcDbDimension
  2
*D44
 10
153.9351834430854
 20
194.2208622725726
 30
0.0
 11
211.6851834430853
 21
196.3541952725726
 31
0.0
 70
    32
 71
     5
 42
-1.0
  3
Standard
100
AcDbAlignedDimension
 13
269.4351834430853
 23
194.2208622725726
 33
0.0
 14
153.9351834430854
 24
180.156590890895
 34
0.0
100
AcDbRotatedDimension
1001
Sigma
1000
DIM_TPHO
1001
KCAD_DIM_EXT
1002
{
1071
 20001212
1070
     0
1070
     2
1070
     2
1040
3.0
1040
0.0
1040
0.0
1040
0.0
1040
0.0
1040
0.0
1040
0.0
1040
0.0
1070
     0
1040
50.0
1040
-1.0
1013
1.0
1023
0.0
1033
0.0
1040
0.0
1013
1.0
1023
0.0
1033
0.0
1000
_None
1040
1.0
1040
115.4999999999998
1070
     0
1070
     0
1070
     0
1012
1.0
1022
0.0
1032
0.0
1013
1.0
1023
0.0
1033
0.0
1002
}
1001
ACAD
1000
DSTYLE
1002
{
1070
    41
1040
3.0
1070
    42
1040
1.0
1070
    43
1040
8.0
1070
    44
1040
1.0
1070
    45
1040
0.0
1070
    73
1070
     0
1070
    74
1070
     0
1070
    75
1070
     1
1070
    77
1070
     1
1070
    78
1070
     8
1070
    79
1070
     2
1070
   140
1040
3.2
1070
   141
1040
2.5
1070
   145
1040
0.0001
1070
   146
1040
0.667
1070
   147
1040
0.5333000000000001
1070
   172
1070
     1
1070
   173
1070
     1
1070
   179
1070
     3
1070
   271
1070
     3
1070
   272
1070
     3
1070
   279
1070
     2
1070
   284
1070
     8
1070
   289
1070
     2
1070
   340
1005
189
1070
   341
1005
21
1070
   343
1005
12D
1070
   344
1005
12D
1002
}
  0
DIMENSION
  5
4C4
330
1F
100
AcDbEntity
  8
KCAD_DIMS
 62
     7
100
AcDbDimension
  2
*D45
 10
81.63518344308474
 20
213.6662234042553
 30
0.0
 11
184.298183443085
 21
215.7995564042553
 31
0.0
 70
    32
 71
     5
 42
-1.0
  3
Standard
100
AcDbAlignedDimension
 13
286.9611834430853
 23
148.5000000000001
 33
0.0
 14
81.63518344308474
 24
148.4999999999996
 34
0.0
100
AcDbRotatedDimension
1001
Sigma
1000
DIM_TPHO
1001
KCAD_DIM_EXT
1002
{
1071
 20001212
1070
     0
1070
     2
1070
     2
1040
3.0
1040
0.0
1040
0.0
1040
0.0
1040
0.0
1040
0.0
1040
0.0
1040
0.0
1070
     0
1040
50.0
1040
-1.0
1013
1.0
1023
0.0
1033
0.0
1040
0.0
1013
1.0
1023
0.0
1033
0.0
1000
_None
1040
1.0
1040
205.3260000000005
1070
     0
1070
     0
1070
     0
1012
1.0
1022
0.0
1032
0.0
1013
1.0
1023
0.0
1033
0.0
1002
}
1001
ACAD
1000
DSTYLE
1002
{
1070
    41
1040
3.0
1070
    42
1040
1.0
1070
    43
1040
8.0
1070
    44
1040
1.0
1070
    45
1040
0.0
1070
    73
1070
     0
1070
    74
1070
     0
1070
    77
1070
     1
1070
    78
1070
     8
1070
    79
1070
     2
1070
   140
1040
3.2
1070
   141
1040
2.5
1070
   145
1040
0.0001
1070
   146
1040
0.667
1070
   147
1040
0.5333000000000001
1070
   172
1070
     1
1070
   173
1070
     1
1070
   179
1070
     3
1070
   271
1070
     2
1070
   272
1070
     3
1070
   279
1070
     2
1070
   284
1070
     8
1070
   289
1070
     2
1070
   340
1005
189
1070
   341
1005
21
1070
   343
1005
12D
1070
   344
1005
12D
1002
}
  0
DIMENSION
  5
500
330
1F
100
AcDbEntity
  8
KCAD_DIMS
 62
     7
100
AcDbDimension
  2
*D46
 10
153.9351834430854
 20
180.156590890895
 30
0.0
 11
117.7851834430857
 21
182.289923890895
 31
0.0
 70
    32
 71
     5
 42
-1.0
  3
Standard
100
AcDbAlignedDimension
 13
81.6351834430861
 23
148.4999999999996
 33
0.0
 14
153.9351834430854
 24
148.4999999999998
 34
0.0
100
AcDbRotatedDimension
1001
Sigma
1000
DIM_TPHO
1001
KCAD_DIM_EXT
1002
{
1071
 20001212
1070
     0
1070
     2
1070
     2
1040
3.0
1040
0.0
1040
0.0
1040
0.0
1040
0.0
1040
0.0
1040
0.0
1040
0.0
1070
     0
1040
50.0
1040
-1.0
1013
1.0
1023
0.0
1033
0.0
1040
0.0
1013
1.0
1023
0.0
1033
0.0
1000
_None
1040
1.0
1040
72.2999999999993
1070
     0
1070
     0
1070
     0
1012
1.0
1022
0.0
1032
0.0
1013
1.0
1023
0.0
1033
0.0
1002
}
1001
ACAD
1000
DSTYLE
1002
{
1070
     3
1000
WD=<>
1070
    41
1040
3.0
1070
    42
1040
1.0
1070
    43
1040
8.0
1070
    44
1040
1.0
1070
    45
1040
0.0
1070
    73
1070
     0
1070
    74
1070
     0
1070
    77
1070
     1
1070
    78
1070
     8
1070
    79
1070
     2
1070
   140
1040
3.2
1070
   141
1040
2.5
1070
   145
1040
0.0001
1070
   146
1040
0.667
1070
   147
1040
0.5333000000000001
1070
   172
1070
     1
1070
   173
1070
     1
1070
   179
1070
     3
1070
   271
1070
     3
1070
   272
1070
     3
1070
   279
1070
     2
1070
   284
1070
     8
1070
   289
1070
     2
1070
   340
1005
189
1070
   341
1005
21
1070
   343
1005
12D
1070
   344
1005
12D
1002
}
  0
DIMENSION
  5
53C
330
1F
100
AcDbEntity
  8
KCAD_DIMS
 62
     7
100
AcDbDimension
  2
*D47
 10
134.1303857008465
 20
138.4999999999998
 30
0.0
 11
131.9970527008465
 21
148.5
 31
0.0
 70
    32
 71
     5
 42
-1.0
 53
90.00000000000007
  3
Standard
100
AcDbAlignedDimension
 13
169.9351834430854
 23
158.5000000000003
 33
0.0
 14
154.2351834430854
 24
138.4999999999998
 34
0.0
 50
90.00000000000007
100
AcDbRotatedDimension
1001
Sigma
1000
DIM_TPVO
1001
KCAD_DIM_EXT
1002
{
1071
 20001212
1070
     0
1070
     2
1070
     2
1040
3.0
1040
0.0
1040
0.0
1040
0.0
1040
0.0
1040
0.0
1040
0.0
1040
0.0
1070
     0
1040
50.0
1040
-1.0
1013
1.0
1023
0.0
1033
0.0
1040
0.0
1013
1.0
1023
0.0
1033
0.0
1000
_None
1040
1.0
1040
20.00000000000045
1070
     0
1070
     0
1070
     0
1012
1.0
1022
0.0
1032
0.0
1013
1.0
1023
0.0
1033
0.0
1002
}
1001
ACAD
1000
DSTYLE
1002
{
1070
     3
1000
%%c<>
1070
    41
1040
3.0
1070
    42
1040
1.0
1070
    43
1040
8.0
1070
    44
1040
1.0
1070
    45
1040
0.0
1070
    73
1070
     0
1070
    74
1070
     0
1070
    77
1070
     1
1070
    78
1070
     8
1070
    79
1070
     2
1070
   140
1040
3.2
1070
   141
1040
2.5
1070
   145
1040
0.0001
1070
   146
1040
0.667
1070
   147
1040
0.5333000000000001
1070
   172
1070
     1
1070
   173
1070
     1
1070
   179
1070
     3
1070
   271
1070
     1
1070
   272
1070
     3
1070
   279
1070
     2
1070
   284
1070
     8
1070
   289
1070
     2
1070
   340
1005
189
1070
   341
1005
21
1070
   343
1005
12D
1070
   344
1005
12D
1002
}
  0
DIMENSION
  5
578
330
1F
100
AcDbEntity
  8
KCAD_DIMS
 62
     7
100
AcDbDimension
  2
*D48
 10
257.4351834430852
 20
180.156590890895
 30
0.0
 11
205.6851834430853
 21
182.289923890895
 31
0.0
 70
    32
 71
     5
 42
-1.0
  3
Standard
100
AcDbAlignedDimension
 13
153.9351834430854
 23
148.5000000000003
 33
0.0
 14
257.4351834430852
 24
148.5000000000001
 34
0.0
100
AcDbRotatedDimension
1001
Sigma
1000
DIM_TPHO
1001
KCAD_DIM_EXT
1002
{
1071
 20001212
1070
     0
1070
     2
1070
     2
1040
3.0
1040
0.0
1040
0.0
1040
0.0
1040
0.0
1040
0.0
1040
0.0
1040
0.0
1070
     0
1040
50.0
1040
-1.0
1013
1.0
1023
0.0
1033
0.0
1040
0.0
1013
1.0
1023
0.0
1033
0.0
1000
_None
1040
1.0
1040
103.4999999999998
1070
     0
1070
     0
1070
     0
1012
1.0
1022
0.0
1032
0.0
1013
1.0
1023
0.0
1033
0.0
1002
}
1001
ACAD
1000
DSTYLE
1002
{
1070
    41
1040
3.0
1070
    42
1040
1.0
1070
    43
1040
8.0
1070
    44
1040
1.0
1070
    45
1040
0.0
1070
    73
1070
     0
1070
    74
1070
     0
1070
    77
1070
     1
1070
    78
1070
     8
1070
    79
1070
     2
1070
   140
1040
3.2
1070
   141
1040
2.5
1070
   145
1040
0.0001
1070
   146
1040
0.667
1070
   147
1040
0.5333000000000001
1070
   172
1070
     1
1070
   173
1070
     1
1070
   179
1070
     3
1070
   271
1070
     3
1070
   272
1070
     3
1070
   279
1070
     2
1070
   284
1070
     8
1070
   289
1070
     2
1070
   340
1005
189
1070
   341
1005
21
1070
   343
1005
12D
1070
   344
1005
12D
1002
}
  0
DIMENSION
  5
5B4
330
1F
100
AcDbEntity
  8
KCAD_DIMS
 62
     7
100
AcDbDimension
  2
*D49
 10
269.4351834430853
 20
180.156590890895
 30
0.0
 11
263.4351834430852
 21
182.289923890895
 31
0.0
 70
    32
 71
     5
 42
-1.0
  3
Standard
100
AcDbAlignedDimension
 13
257.4351834430852
 23
148.5000000000001
 33
0.0
 14
269.4351834430853
 24
148.5000000000001
 34
0.0
100
AcDbRotatedDimension
1001
Sigma
1000
DIM_TPHO
1001
KCAD_DIM_EXT
1002
{
1071
 20001212
1070
     0
1070
     2
1070
     2
1040
3.0
1040
0.0
1040
0.0
1040
0.0
1040
0.0
1040
0.0
1040
0.0
1040
0.0
1070
     0
1040
50.0
1040
-1.0
1013
1.0
1023
0.0
1033
0.0
1040
0.0
1013
1.0
1023
0.0
1033
0.0
1000
_None
1040
1.0
1040
12.0
1070
     0
1070
     0
1070
     0
1012
1.0
1022
0.0
1032
0.0
1013
1.0
1023
0.0
1033
0.0
1002
}
1001
ACAD
1000
DSTYLE
1002
{
1070
    41
1040
3.0
1070
    42
1040
1.0
1070
    43
1040
8.0
1070
    44
1040
1.0
1070
    45
1040
0.0
1070
    73
1070
     0
1070
    74
1070
     0
1070
    77
1070
     1
1070
    78
1070
     8
1070
    79
1070
     2
1070
   140
1040
3.2
1070
   141
1040
2.5
1070
   145
1040
0.0001
1070
   146
1040
0.667
1070
   147
1040
0.5333000000000001
1070
   172
1070
     1
1070
   173
1070
     1
1070
   179
1070
     3
1070
   271
1070
     1
1070
   272
1070
     3
1070
   279
1070
     2
1070
   284
1070
     8
1070
   289
1070
     2
1070
   340
1005
189
1070
   341
1005
21
1070
   343
1005
12D
1070
   344
1005
12D
1002
}
  0
DIMENSION
  5
5F0
330
1F
100
AcDbEntity
  8
KCAD_DIMS
 62
     7
100
AcDbDimension
  2
*D59
 10
286.9611834430853
 20
194.2208622725726
 30
0.0
 11
306.4570679920863
 21
193.9920205200757
 31
0.0
 70
    32
 71
     5
 42
-1.0
  3
Standard
100
AcDbAlignedDimension
 13
269.4351834430853
 23
148.5000000000001
 33
0.0
 14
286.9611834430853
 24
148.5000000000001
 34
0.0
100
AcDbRotatedDimension
1001
Sigma
1000
DIM_TPHO
1001
KCAD_DIM_EXT
1002
{
1071
 20001212
1070
     0
1070
     2
1070
     2
1040
3.0
1040
0.0
1040
0.0
1040
0.0
1040
0.0
1040
0.0
1040
0.0
1040
0.0
1070
     1
1040
49.99999999999984
1040
24.19596661360399
1013
0.5548389427347326
1023
0.8319577799534085
1033
0.0
1040
39.52493347503599
1013
1.0
1023
0.0
1033
0.0
1000
_NONE
1040
0.0
1040
17.52599999999999
1070
     0
1070
     0
1070
     0
1012
1.0
1022
0.0
1032
0.0
1013
1.0
1023
0.0
1033
0.0
1002
}
1001
ACAD
1000
DSTYLE
1002
{
1070
     3
1000
FB=<>
1070
    41
1040
3.0
1070
    42
1040
1.0
1070
    43
1040
8.0
1070
    44
1040
1.0
1070
    45
1040
0.0
1070
    73
1070
     0
1070
    74
1070
     0
1070
    77
1070
     1
1070
    78
1070
     8
1070
    79
1070
     2
1070
   140
1040
3.2
1070
   141
1040
2.5
1070
   145
1040
0.0001
1070
   146
1040
0.667
1070
   147
1040
0.5333000000000001
1070
   172
1070
     1
1070
   173
1070
     1
1070
   179
1070
     3
1070
   271
1070
     3
1070
   272
1070
     3
1070
   279
1070
     2
1070
   284
1070
     8
1070
   289
1070
     2
1070
   340
1005
189
1070
   341
1005
21
1070
   343
1005
12D
1070
   344
1005
12D
1002
}
  0
DIMENSION
  5
62E
330
1F
100
AcDbEntity
  8
KCAD_DIMS
 62
     7
100
AcDbDimension
  2
*D51
 10
273.4417063411851
 20
166.3553664961059
 30
0.0
 11
277.9957666980244
 21
168.4863158266048
 31
0.0
 70
    32
  1
\A1;C1{\H0.667000x;}
 71
     5
 42
-1.0
  3
Standard
100
AcDbAlignedDimension
 13
269.0107616440822
 23
161.924421799003
 33
0.0
 14
273.441706341185
 24
166.3553664961059
 34
0.0
 50
45.00000000000045
100
AcDbRotatedDimension
1001
Sigma
1000
DIM_TPCHO
1001
KCAD_DIM_EXT
1002
{
1071
 20001212
1070
     7
1070
     2
1070
     2
1040
3.0
1040
0.0
1040
0.0
1040
0.0
1040
0.0
1040
0.0
1040
0.0
1040
0.0
1070
     1
1040
57.31170652337424
1040
2.689124578639562
1013
0.7116833795321345
1023
0.7025003681833342
1033
0.0
1040
7.206727188894171
1013
1.0
1023
0.0
1033
0.0
1000
_NONE
1040
0.0
1040
1.000000000000001
1070
     0
1070
     0
1070
     0
1012
1.0
1022
0.0
1032
0.0
1013
1.0
1023
0.0
1033
0.0
1002
}
1001
ACAD
1000
DSTYLE
1002
{
1070
     3
1000
C<>
1070
    41
1040
3.0
1070
    42
1040
1.0
1070
    43
1040
8.0
1070
    44
1040
1.0
1070
    45
1040
0.0
1070
    75
1070
     1
1070
    76
1070
     1
1070
    77
1070
     1
1070
    78
1070
     8
1070
    79
1070
     2
1070
   140
1040
3.2
1070
   141
1040
2.5
1070
   145
1040
0.0001
1070
   146
1040
0.667
1070
   147
1040
0.5333000000000001
1070
   172
1070
     1
1070
   173
1070
     1
1070
   179
1070
     3
1070
   271
1070
     3
1070
   272
1070
     3
1070
   279
1070
     2
1070
   284
1070
     8
1070
   289
1070
     2
1070
   340
1005
189
1070
   341
1005
21
1070
   343
1005
12D
1070
   344
1005
12D
1002
}
  0
DIMENSION
  5
669
330
1F
100
AcDbEntity
  8
KCAD_DIMS
 62
     7
100
AcDbDimension
  2
*D52
 10
252.7949224346305
 20
167.2666681059909
 30
0.0
 11
247.082901106713
 21
169.4370448952783
 31
0.0
 70
    32
  1
\A1;C0.5{\H0.667000x;}
 71
     5
 42
-1.0
  3
Standard
100
AcDbAlignedDimension
 13
257.7483869918534
 23
162.3132035487682
 33
0.0
 14
252.7949224346306
 24
167.266668105991
 34
0.0
 50
315.0000000000004
100
AcDbRotatedDimension
1001
Sigma
1000
DIM_TPCHO
1001
KCAD_DIM_EXT
1002
{
1071
 20001212
1070
     7
1070
     2
1070
     2
1040
3.0
1040
0.0
1040
0.0
1040
0.0
1040
0.0
1040
0.0
1040
0.0
1040
0.0
1070
     1
1040
18.98972821364705
1040
5.727365367842112
1013
-0.7071067811865464
1023
0.7071067811865488
1033
0.0
1040
11.34995507726063
1013
-1.0
1023
0.0
1033
0.0
1000
_NONE
1040
0.0
1040
0.4999999999999993
1070
     0
1070
     0
1070
     0
1012
1.0
1022
0.0
1032
0.0
1013
1.0
1023
0.0
1033
0.0
1002
}
1001
ACAD
1000
DSTYLE
1002
{
1070
     3
1000
C<>
1070
    41
1040
3.0
1070
    42
1040
1.0
1070
    43
1040
8.0
1070
    44
1040
1.0
1070
    45
1040
0.0
1070
    75
1070
     1
1070
    76
1070
     1
1070
    77
1070
     1
1070
    78
1070
     8
1070
    79
1070
     2
1070
   140
1040
3.2
1070
   141
1040
2.5
1070
   145
1040
0.0001
1070
   146
1040
0.667
1070
   147
1040
0.5333000000000001
1070
   172
1070
     1
1070
   173
1070
     1
1070
   179
1070
     3
1070
   271
1070
     3
1070
   272
1070
     3
1070
   279
1070
     2
1070
   284
1070
     8
1070
   289
1070
     2
1070
   340
1005
189
1070
   341
1005
21
1070
   343
1005
12D
1070
   344
1005
12D
1002
}
  0
DIMENSION
  5
6A4
330
1F
100
AcDbEntity
  8
KCAD_DIMS
 62
     7
100
AcDbDimension
  2
*D53
 10
311.2342427093132
 20
134.5
 30
0.0
 11
309.1009097093132
 21
148.5000000000002
 31
0.0
 70
    32
 71
     5
 42
-1.0
 53
90.00000000000007
  3
Standard
100
AcDbAlignedDimension
 13
268.4351834430852
 23
162.5
 33
0.0
 14
268.4351834430852
 24
134.5
 34
0.0
 50
90.00000000000007
100
AcDbRotatedDimension
1001
Sigma
1000
DIM_TPVO
1001
KCAD_DIM_EXT
1002
{
1071
 20001212
1070
     0
1070
     2
1070
     2
1040
3.0
1040
0.0
1040
0.0
1040
0.0
1040
0.0
1040
0.0
1040
0.0
1040
0.0
1070
     0
1040
50.0
1040
-1.0
1013
1.0
1023
0.0
1033
0.0
1040
0.0
1013
1.0
1023
0.0
1033
0.0
1000
_None
1040
1.0
1040
28.0
1070
     0
1070
     0
1070
     0
1012
1.0
1022
0.0
1032
0.0
1013
1.0
1023
0.0
1033
0.0
1002
}
1001
ACAD
1000
DSTYLE
1002
{
1070
     3
1000
%%c<>
1070
    41
1040
3.0
1070
    42
1040
1.0
1070
    43
1040
8.0
1070
    44
1040
1.0
1070
    45
1040
0.0
1070
    73
1070
     0
1070
    74
1070
     0
1070
    77
1070
     1
1070
    78
1070
     8
1070
    79
1070
     2
1070
   140
1040
3.2
1070
   141
1040
2.5
1070
   145
1040
0.0001
1070
   146
1040
0.667
1070
   147
1040
0.5333000000000001
1070
   172
1070
     1
1070
   173
1070
     1
1070
   179
1070
     3
1070
   271
1070
     3
1070
   272
1070
     3
1070
   279
1070
     2
1070
   284
1070
     8
1070
   289
1070
     2
1070
   340
1005
189
1070
   341
1005
21
1070
   343
1005
12D
1070
   344
1005
12D
1002
}
  0
DIMENSION
  5
6E0
330
1F
100
AcDbEntity
  8
KCAD_DIMS
 62
     7
100
AcDbDimension
  2
*D54
 10
216.4244741873805
 20
138.4999999999998
 30
0.0
 11
214.2911411873805
 21
165.661567877629
 31
0.0
 70
    32
 71
     5
 42
-1.0
 53
90.00000000000007
  3
Standard
100
AcDbAlignedDimension
 13
257.4351834430853
 23
158.5000000000003
 33
0.0
 14
257.4351834430852
 24
138.4999999999998
 34
0.0
 50
90.00000000000007
100
AcDbRotatedDimension
1001
Sigma
1000
DIM_TPVO
1001
KCAD_DIM_EXT
1002
{
1071
 20001212
1070
     0
1070
     1
1070
     1
1040
3.0
1040
11.33654535898281
1040
5.0
1040
0.0
1040
0.0
1040
0.0
1040
0.0
1040
0.0
1070
     0
1040
50.0
1040
-1.0
1013
1.0
1023
0.0
1033
0.0
1040
0.0
1013
1.0
1023
0.0
1033
0.0
1000
_None
1040
1.0
1040
20.00000000000047
1070
     0
1070
     0
1070
     0
1012
1.0
1022
0.0
1032
0.0
1013
1.0
1023
0.0
1033
0.0
1002
}
1001
ACAD
1000
DSTYLE
1002
{
1070
     3
1000
%%c<>
1070
    41
1040
3.0
1070
    42
1040
1.0
1070
    43
1040
8.0
1070
    44
1040
1.0
1070
    45
1040
0.0
1070
    73
1070
     0
1070
    74
1070
     0
1070
    77
1070
     1
1070
    78
1070
     8
1070
    79
1070
     2
1070
   140
1040
3.2
1070
   141
1040
2.5
1070
   145
1040
0.0001
1070
   146
1040
0.667
1070
   147
1040
0.5333000000000001
1070
   172
1070
     1
1070
   173
1070
     1
1070
   179
1070
     3
1070
   271
1070
     3
1070
   272
1070
     3
1070
   279
1070
     2
1070
   284
1070
     8
1070
   289
1070
     2
1070
   340
1005
189
1070
   341
1005
21
1070
   343
1005
12D
1070
   344
1005
12D
1002
}
  0
DIMENSION
  5
71E
330
1F
100
AcDbEntity
  8
KCAD_DIMS
 62
     7
100
AcDbDimension
  2
*D55
 10
174.9351834430855
 20
108.6652989509586
 30
0.0
 11
164.4351834430854
 21
110.7986319509586
 31
0.0
 70
    32
 71
     5
 42
-1.0
  3
Standard
100
AcDbAlignedDimension
 13
153.9351834430854
 23
138.7999999999998
 33
0.0
 14
174.9351834430855
 24
120.5
 34
0.0
100
AcDbRotatedDimension
1001
Sigma
1000
DIM_TPHO
1001
KCAD_DIM_EXT
1002
{
1071
 20001212
1070
     0
1070
     2
1070
     2
1040
3.0
1040
0.0
1040
0.0
1040
0.0
1040
0.0
1040
0.0
1040
0.0
1040
0.0
1070
     0
1040
50.0
1040
-1.0
1013
1.0
1023
0.0
1033
0.0
1040
0.0
1013
1.0
1023
0.0
1033
0.0
1000
_None
1040
1.0
1040
21.00000000000008
1070
     0
1070
     0
1070
     0
1012
1.0
1022
0.0
1032
0.0
1013
1.0
1023
0.0
1033
0.0
1002
}
1001
ACAD
1000
DSTYLE
1002
{
1070
    41
1040
3.0
1070
    42
1040
1.0
1070
    43
1040
8.0
1070
    44
1040
1.0
1070
    45
1040
0.0
1070
    73
1070
     0
1070
    74
1070
     0
1070
    77
1070
     1
1070
    78
1070
     8
1070
    79
1070
     2
1070
   140
1040
3.2
1070
   141
1040
2.5
1070
   145
1040
0.0001
1070
   146
1040
0.667
1070
   147
1040
0.5333000000000001
1070
   172
1070
     1
1070
   173
1070
     1
1070
   179
1070
     3
1070
   271
1070
     3
1070
   272
1070
     3
1070
   279
1070
     2
1070
   284
1070
     8
1070
   289
1070
     2
1070
   340
1005
189
1070
   341
1005
21
1070
   343
1005
12D
1070
   344
1005
12D
1002
}
  0
DIMENSION
  5
75A
330
1F
100
AcDbEntity
  8
KCAD_DIMS
 62
     7
100
AcDbDimension
  2
*D56
 10
180.9351834430854
 20
95.01329130277504
 30
0.0
 11
174.9351834430853
 21
97.14662430277507
 31
0.0
 70
    32
 71
     5
 42
-1.0
  3
Standard
100
AcDbAlignedDimension
 13
168.9351834430852
 23
120.5
 33
0.0
 14
180.9351834430854
 24
120.5
 34
0.0
100
AcDbRotatedDimension
1001
Sigma
1000
DIM_TPHO
1001
KCAD_DIM_EXT
1002
{
1071
 20001212
1070
     0
1070
     2
1070
     2
1040
3.0
1040
0.0
1040
0.0
1040
0.0
1040
0.0
1040
0.0
1040
0.0
1040
0.0
1070
     0
1040
50.0
1040
-1.0
1013
1.0
1023
0.0
1033
0.0
1040
0.0
1013
1.0
1023
0.0
1033
0.0
1000
_None
1040
1.0
1040
12.00000000000021
1070
     0
1070
     0
1070
     0
1012
1.0
1022
0.0
1032
0.0
1013
1.0
1023
0.0
1033
0.0
1002
}
1001
ACAD
1000
DSTYLE
1002
{
1070
     3
1000
%%c<>
1070
    41
1040
3.0
1070
    42
1040
1.0
1070
    43
1040
8.0
1070
    44
1040
1.0
1070
    45
1040
0.0
1070
    73
1070
     0
1070
    74
1070
     0
1070
    77
1070
     1
1070
    78
1070
     8
1070
    79
1070
     2
1070
   140
1040
3.2
1070
   141
1040
2.5
1070
   145
1040
0.0001
1070
   146
1040
0.667
1070
   147
1040
0.5333000000000001
1070
   172
1070
     1
1070
   173
1070
     1
1070
   179
1070
     3
1070
   271
1070
     3
1070
   272
1070
     3
1070
   279
1070
     2
1070
   284
1070
     8
1070
   289
1070
     2
1070
   340
1005
189
1070
   341
1005
21
1070
   343
1005
12D
1070
   344
1005
12D
1002
}
  0
DIMENSION
  5
796
330
1F
100
AcDbEntity
  8
KCAD_DIMS
 62
     7
100
AcDbDimension
  2
*D57
 10
183.9351834430853
 20
125.730308511188
 30
0.0
 11
191.8307839388145
 21
127.863641511188
 31
0.0
 70
    32
 71
     5
 42
-1.0
  3
Standard
100
AcDbAlignedDimension
 13
165.9351834430854
 23
131.4999999999998
 33
0.0
 14
183.9351834430853
 24
131.4999999999998
 34
0.0
100
AcDbRotatedDimension
1001
Sigma
1000
DIM_TPHO
1001
KCAD_DIM_EXT
1002
{
1071
 20001212
1070
     0
1070
     1
1070
     1
1040
3.0
1040
5.0
1040
10.57057791980678
1040
0.0
1040
0.0
1040
0.0
1040
0.0
1040
0.0
1070
     0
1040
50.0
1040
-1.0
1013
1.0
1023
0.0
1033
0.0
1040
0.0
1013
1.0
1023
0.0
1033
0.0
1000
_None
1040
1.0
1040
17.99999999999988
1070
     0
1070
     0
1070
     0
1012
1.0
1022
0.0
1032
0.0
1013
1.0
1023
0.0
1033
0.0
1002
}
1001
ACAD
1000
DSTYLE
1002
{
1070
     3
1000
%%c<>
1070
    41
1040
3.0
1070
    42
1040
1.0
1070
    43
1040
8.0
1070
    44
1040
1.0
1070
    45
1040
0.0
1070
    73
1070
     0
1070
    74
1070
     0
1070
    77
1070
     1
1070
    78
1070
     8
1070
    79
1070
     2
1070
   140
1040
3.2
1070
   141
1040
2.5
1070
   145
1040
0.0001
1070
   146
1040
0.667
1070
   147
1040
0.5333000000000001
1070
   172
1070
     1
1070
   173
1070
     1
1070
   179
1070
     3
1070
   271
1070
     3
1070
   272
1070
     3
1070
   279
1070
     2
1070
   284
1070
     8
1070
   289
1070
     2
1070
   340
1005
189
1070
   341
1005
21
1070
   343
1005
12D
1070
   344
1005
12D
1002
}
  0
DIMENSION
  5
7D4
330
1F
100
AcDbEntity
  8
KCAD_DIMS
 62
     7
100
AcDbDimension
  2
*D58
 10
202.2705544933078
 20
148.5
 30
0.0
 11
200.1372214933078
 21
134.5
 31
0.0
 70
    32
 71
     5
 42
-1.0
 53
90.00000000000007
  3
Standard
100
AcDbAlignedDimension
 13
174.9351834430853
 23
120.5
 33
0.0
 14
210.0
 24
148.5
 34
0.0
 50
90.00000000000007
100
AcDbRotatedDimension
1001
Sigma
1000
DIM_TPVO
1001
KCAD_DIM_EXT
1002
{
1071
 20001212
1070
     0
1070
     2
1070
     2
1040
3.0
1040
0.0
1040
0.0
1040
0.0
1040
0.0
1040
0.0
1040
0.0
1040
0.0
1070
     0
1040
50.0
1040
-1.0
1013
1.0
1023
0.0
1033
0.0
1040
0.0
1013
1.0
1023
0.0
1033
0.0
1000
_None
1040
1.0
1040
27.99999999999991
1070
     0
1070
     0
1070
     0
1012
1.0
1022
0.0
1032
0.0
1013
1.0
1023
0.0
1033
0.0
1002
}
1001
ACAD
1000
DSTYLE
1002
{
1070
    41
1040
3.0
1070
    42
1040
1.0
1070
    43
1040
8.0
1070
    44
1040
1.0
1070
    45
1040
0.0
1070
    73
1070
     0
1070
    74
1070
     0
1070
    77
1070
     1
1070
    78
1070
     8
1070
    79
1070
     2
1070
   140
1040
3.2
1070
   141
1040
2.5
1070
   145
1040
0.0001
1070
   146
1040
0.667
1070
   147
1040
0.5333000000000001
1070
   172
1070
     1
1070
   173
1070
     1
1070
   179
1070
     3
1070
   271
1070
     3
1070
   272
1070
     3
1070
   279
1070
     2
1070
   284
1070
     8
1070
   289
1070
     2
1070
   340
1005
189
1070
   341
1005
21
1070
   343
1005
12D
1070
   344
1005
12D
1002
}
  0
TEXT
  5
816
330
1F
100
AcDbEntity
  8
99
  6
Continuous
 62
     7
370
    30
100
AcDbText
 10
330.5092365063982
 20
10.21628823906591
 30
0.0
 40
4.0
  1
株式会社トキナー
  7
KCADTEXTSTANDARD
100
AcDbText
1001
Sigma
1000

  0
TEXT
  5
817
330
1F
100
AcDbEntity
  8
99
  6
Continuous
 62
     7
370
    30
100
AcDbText
 10
377.4826923747369
 20
10.69820790455002
 30
0.0
 40
4.0
  1
Tokina Co.,Ltd.
 41
0.7000000000000001
  7
KCADTEXTSTANDARD
100
AcDbText
1001
Sigma
1000

  0
OLE2FRAME
  5
81A
330
1F
100
AcDbEntity
  8
0
  6
Continuous
 62
   134
370
    15
100
AcDbOle2Frame
 70
     2
 10
192.5216266486472
 20
14.69545732938172
 30
0.0
 11
231.204933438433
 21
8.744179361722363
 31
0.0
 72
     0
 73
   205
 90
     9344
310
00552E955E2AB11068407EEAAAFB12642D400000000000000000A8FD91D08EE6
310
6C407EEAAAFB12642D400000000000000000A8FD91D08EE66C4052E9C913057D
310
214000000000000000002E955E2AB110684052E9C913057D2140000000000000
310
0000000000000100000000010000010000000100000000000100000000240000
310
D0CF11E0A1B11AE1000000000000000000000000000000003E000300FEFF0900
310
0600000000000000000000000100000001000000000000000010000002000000
310
01000000FEFFFFFF0000000000000000FFFFFFFFFFFFFFFFFFFFFFFFFFFFFFFF
310
FFFFFFFFFFFFFFFFFFFFFFFFFFFFFFFFFFFFFFFFFFFFFFFFFFFFFFFFFFFFFFFF
310
FFFFFFFFFFFFFFFFFFFFFFFFFFFFFFFFFFFFFFFFFFFFFFFFFFFFFFFFFFFFFFFF
310
FFFFFFFFFFFFFFFFFFFFFFFFFFFFFFFFFFFFFFFFFFFFFFFFFFFFFFFFFFFFFFFF
310
FFFFFFFFFFFFFFFFFFFFFFFFFFFFFFFFFFFFFFFFFFFFFFFFFFFFFFFFFFFFFFFF
310
FFFFFFFFFFFFFFFFFFFFFFFFFFFFFFFFFFFFFFFFFFFFFFFFFFFFFFFFFFFFFFFF
310
FFFFFFFFFFFFFFFFFFFFFFFFFFFFFFFFFFFFFFFFFFFFFFFFFFFFFFFFFFFFFFFF
310
FFFFFFFFFFFFFFFFFFFFFFFFFFFFFFFFFFFFFFFFFFFFFFFFFFFFFFFFFFFFFFFF
310
FFFFFFFFFFFFFFFFFFFFFFFFFFFFFFFFFFFFFFFFFFFFFFFFFFFFFFFFFFFFFFFF
310
FFFFFFFFFFFFFFFFFFFFFFFFFFFFFFFFFFFFFFFFFFFFFFFFFFFFFFFFFFFFFFFF
310
FFFFFFFFFFFFFFFFFFFFFFFFFFFFFFFFFFFFFFFFFFFFFFFFFFFFFFFFFFFFFFFF
310
FFFFFFFFFFFFFFFFFFFFFFFFFFFFFFFFFFFFFFFFFFFFFFFFFFFFFFFFFFFFFFFF
310
FFFFFFFFFFFFFFFFFFFFFFFFFFFFFFFFFFFFFFFFFFFFFFFFFFFFFFFFFFFFFFFF
310
FFFFFFFFFFFFFFFFFFFFFFFFFFFFFFFFFFFFFFFFFFFFFFFFFFFFFFFFFFFFFFFF
310
FDFFFFFFFEFFFFFFFEFFFFFFFEFFFFFF05000000060000000700000008000000
310
090000000A0000000B0000000C0000000D0000000E0000000F00000010000000
310
FEFFFFFFFFFFFFFFFFFFFFFFFFFFFFFFFFFFFFFFFFFFFFFFFFFFFFFFFFFFFFFF
310
FFFFFFFFFFFFFFFFFFFFFFFFFFFFFFFFFFFFFFFFFFFFFFFFFFFFFFFFFFFFFFFF
310
FFFFFFFFFFFFFFFFFFFFFFFFFFFFFFFFFFFFFFFFFFFFFFFFFFFFFFFFFFFFFFFF
310
FFFFFFFFFFFFFFFFFFFFFFFFFFFFFFFFFFFFFFFFFFFFFFFFFFFFFFFFFFFFFFFF
310
FFFFFFFFFFFFFFFFFFFFFFFFFFFFFFFFFFFFFFFFFFFFFFFFFFFFFFFFFFFFFFFF
310
FFFFFFFFFFFFFFFFFFFFFFFFFFFFFFFFFFFFFFFFFFFFFFFFFFFFFFFFFFFFFFFF
310
FFFFFFFFFFFFFFFFFFFFFFFFFFFFFFFFFFFFFFFFFFFFFFFFFFFFFFFFFFFFFFFF
310
FFFFFFFFFFFFFFFFFFFFFFFFFFFFFFFFFFFFFFFFFFFFFFFFFFFFFFFFFFFFFFFF
310
FFFFFFFFFFFFFFFFFFFFFFFFFFFFFFFFFFFFFFFFFFFFFFFFFFFFFFFFFFFFFFFF
310
FFFFFFFFFFFFFFFFFFFFFFFFFFFFFFFFFFFFFFFFFFFFFFFFFFFFFFFFFFFFFFFF
310
FFFFFFFFFFFFFFFFFFFFFFFFFFFFFFFFFFFFFFFFFFFFFFFFFFFFFFFFFFFFFFFF
310
FFFFFFFFFFFFFFFFFFFFFFFFFFFFFFFFFFFFFFFFFFFFFFFFFFFFFFFFFFFFFFFF
310
FFFFFFFFFFFFFFFFFFFFFFFFFFFFFFFFFFFFFFFFFFFFFFFFFFFFFFFFFFFFFFFF
310
FFFFFFFFFFFFFFFFFFFFFFFFFFFFFFFFFFFFFFFFFFFFFFFFFFFFFFFFFFFFFFFF
310
52006F006F007400200045006E00740072007900000000000000000000000000
310
0000000000000000000000000000000000000000000000000000000000000000
310
16000500FFFFFFFFFFFFFFFF020000000A00030000000000C000000000000046
310
0000000000000000000000001097EB430B9AC80103000000C000000000000000
310
01004F006C006500000000000000000000000000000000000000000000000000
310
0000000000000000000000000000000000000000000000000000000000000000
310
0A000200FFFFFFFFFFFFFFFFFFFFFFFF00000000000000000000000000000000
310
0000000000000000000000000000000000000000000000001400000000000000
310
010043006F006D0070004F0062006A0000000000000000000000000000000000
310
0000000000000000000000000000000000000000000000000000000000000000
310
120002010100000003000000FFFFFFFF00000000000000000000000000000000
310
0000000000000000000000000000000000000000010000004D00000000000000
310
01004F006C006500310030004E00610074006900760065000000000000000000
310
0000000000000000000000000000000000000000000000000000000000000000
310
1A000200FFFFFFFFFFFFFFFFFFFFFFFF00000000000000000000000000000000
310
0000000000000000000000000000000000000000040000000419000000000000
310
FEFFFFFF02000000FEFFFFFFFFFFFFFFFFFFFFFFFFFFFFFFFFFFFFFFFFFFFFFF
310
FFFFFFFFFFFFFFFFFFFFFFFFFFFFFFFFFFFFFFFFFFFFFFFFFFFFFFFFFFFFFFFF
310
FFFFFFFFFFFFFFFFFFFFFFFFFFFFFFFFFFFFFFFFFFFFFFFFFFFFFFFFFFFFFFFF
310
FFFFFFFFFFFFFFFFFFFFFFFFFFFFFFFFFFFFFFFFFFFFFFFFFFFFFFFFFFFFFFFF
310
FFFFFFFFFFFFFFFFFFFFFFFFFFFFFFFFFFFFFFFFFFFFFFFFFFFFFFFFFFFFFFFF
310
FFFFFFFFFFFFFFFFFFFFFFFFFFFFFFFFFFFFFFFFFFFFFFFFFFFFFFFFFFFFFFFF
310
FFFFFFFFFFFFFFFFFFFFFFFFFFFFFFFFFFFFFFFFFFFFFFFFFFFFFFFFFFFFFFFF
310
FFFFFFFFFFFFFFFFFFFFFFFFFFFFFFFFFFFFFFFFFFFFFFFFFFFFFFFFFFFFFFFF
310
FFFFFFFFFFFFFFFFFFFFFFFFFFFFFFFFFFFFFFFFFFFFFFFFFFFFFFFFFFFFFFFF
310
FFFFFFFFFFFFFFFFFFFFFFFFFFFFFFFFFFFFFFFFFFFFFFFFFFFFFFFFFFFFFFFF
310
FFFFFFFFFFFFFFFFFFFFFFFFFFFFFFFFFFFFFFFFFFFFFFFFFFFFFFFFFFFFFFFF
310
FFFFFFFFFFFFFFFFFFFFFFFFFFFFFFFFFFFFFFFFFFFFFFFFFFFFFFFFFFFFFFFF
310
FFFFFFFFFFFFFFFFFFFFFFFFFFFFFFFFFFFFFFFFFFFFFFFFFFFFFFFFFFFFFFFF
310
FFFFFFFFFFFFFFFFFFFFFFFFFFFFFFFFFFFFFFFFFFFFFFFFFFFFFFFFFFFFFFFF
310
FFFFFFFFFFFFFFFFFFFFFFFFFFFFFFFFFFFFFFFFFFFFFFFFFFFFFFFFFFFFFFFF
310
FFFFFFFFFFFFFFFFFFFFFFFFFFFFFFFFFFFFFFFFFFFFFFFFFFFFFFFFFFFFFFFF
310
0100000200000000000000000000000000000000780115000000000000000000
310
0000000000000000000000000000000000000000000000000000000000000000
310
0100FEFF030A0000FFFFFFFF0A00030000000000C00000000000004607000000
310
5042727573680007000000504272757368000700000050427275736800F439B2
310
7100000000000000000000000000000000000000000000000000000000000000
310
0000000000000000000000000000000000000000000000000000000000000000
310
0000000000000000000000000000000000000000000000000000000000000000
310
0000000000000000000000000000000000000000000000000000000000000000
310
0000000000000000000000000000000000000000000000000000000000000000
310
0000000000000000000000000000000000000000000000000000000000000000
310
0000000000000000000000000000000000000000000000000000000000000000
310
0000000000000000000000000000000000000000000000000000000000000000
310
0000000000000000000000000000000000000000000000000000000000000000
310
0000000000000000000000000000000000000000000000000000000000000000
310
0000000000000000000000000000000000000000000000000000000000000000
310
0000000000000000000000000000000000000000000000000000000000000000
310
00190000424DF618000000000000360000002800000075000000120000000100
310
180000000000C018000000000000000000000000000000000000FFFFFFFFFFFF
310
FFFFFFFFFFFFFFFFFFFFFFFFFFFFFFFFFFFF6666660808081212120C0C0C3535
310
35FFFFFFFFFFFFFFFFFFFFFFFFFFFFFFFFFFFFFFFFFFFFFFFFFFFFFFC0C0C045
310
4545151515121212121212121212131313141414151515151515161616181818
310
1818181919191919191E1E1E484848B0B0B0FFFFFFFFFFFFFFFFFFD4D4D42424
310
242424242424242E2E2EF1F1F1FFFFFFFFFFFFFFFFFFFFFFFFFFFFFFFFFFFFFF
310
FFFFDEDEDE4B4B4B3333333838383A3A3A3838382C2C2C5E5E5EEBEBEBFFFFFF
310
F1F1F14949494242424444444D4D4DF5F5F5FFFFFFA5A5A54343435050504848
310
48999999FFFFFFFFFFFFFFFFFFFFFFFFFFFFFFFFFFFFFFFFFFFFFFFFFFFFFFFF
310
FFFFFFFFFFBCBCBC6666667171716C6C6C9A9A9AFFFFFFFFFFFFFFFFFFE9E9E9
310
9393938181818080808282828484848484848585858888888888888989898B8B
310
8B8C8C8C8D8D8D8F8F8F90909090909092929291919199999900FFFFFFFFFFFF
310
FFFFFFFFFFFFFFFFFFFFFFFFFFFFFFFFFFFF5D5D5D0000000202020000002727
310
27FFFFFFFFFFFFFFFFFFFFFFFFFFFFFFFFFFFFFFFFFFFFFFFFA6A6A600000000
310
0000020202030303020202030303020202020202020202020202020202020202
310
0202020202020101010000000000000000006B6B6BFFFFFFFFFFFFCECECE0000
310
00000000000000080808EDEDEDFFFFFFFFFFFFFFFFFFFFFFFFFFFFFFFFFFFF9B
310
9B9B000000000000000000000000000000000000838383FFFFFFFFFFFFFFFFFF
310
ECECEC060606000000000000050505EEEEEEFFFFFF7B7B7B0000000000000000
310
00656565FFFFFFFFFFFFFFFFFFFFFFFFFFFFFFFFFFFFFFFFFFFFFFFFFFFFFFFF
310
FFFFFFFFFF8888880000000000000000003F3F3FFFFFFFFFFFFFC1C1C1000000
310
0000000000000000000000000000000000000000000000000000000000000000
310
0000000000000000000000000000000000000000000003030300FFFFFFFFFFFF
310
FFFFFFFFFFFFFFFFFFFFFFFFFFFFFFFFFFFF5E5E5E0000000404040000002525
310
25FFFFFFFFFFFFFFFFFFFFFFFFFFFFFFFFFFFFFFFFFFFEFEFE13131300000005
310
0505030303000000000000000000000000000000000000000000000000000000
310
000000000000000000000000050505010101000000CDCDCDFFFFFFCECECE0303
310
030202020101010B0B0BEDEDEDFFFFFFFFFFFFFFFFFFFFFFFFF7F7F759595900
310
0000000000050505000000000000383838D8D8D8FFFFFFFFFFFFFFFFFFFFFFFF
310
EDEDED0B0B0B0101010101010B0B0BEFEFEFFFFFFF7F7F7F0000000505050000
310
00686868FFFFFFFFFFFFFFFFFFFFFFFFFFFFFFFFFFFFFFFFFFFFFFFFFFFFFFFF
310
FFFFFFFFFF8D8D8D000000040404000000464646FFFFFFFFFFFF2E2E2E000000
310
0404040404040000000000000000000000000000000000000000000000000000
310
0000000000000000000000000003030305050503030312121200FFFFFFFFFFFF
310
FFFFFFFFFFFFFFFFFFFFFFFFFFFFFFFFFFFF5F5F5F0000000505050000002424
310
24FFFFFFFFFFFFFFFFFFFFFFFFFFFFFFFFFFFFFFFFFFD9D9D900000003030304
310
04040000007070709D9D9D9797979797979696969393939292928F8F8F8C8C8C
310
8A8A8A8B8B8B7E7E7E131313010101040404000000858585FFFFFFCECECE0404
310
040202020101010C0C0CEDEDEDFFFFFFFFFFFFFFFFFFCBCBCB23232300000003
310
03030404040000000606068D8D8DFFFFFFFFFFFFFFFFFFFFFFFFFFFFFFFFFFFF
310
EDEDED0C0C0C0101010101010B0B0BEFEFEFFFFFFF7F7F7F0000000505050000
310
00686868FFFFFFFFFFFFFFFFFFFFFFFFFFFFFFFFFFFFFFFFFFFFFFFFFFFFFFFF
310
FFFFFFFFFF8D8D8D000000050505000000444444FFFFFFFEFEFE050505010101
310
0404040101015A5A5A6666666464646464646464646464646363636262626262
310
626060606060606060605E5E5E00000004040403030312121200FFFFFFFFFFFF
310
FFFFFFFFFFFFFFFFFFFFFFFFFFFFFFFFFFFF5F5F5F0000000404040000002323
310
23FFFFFFFFFFFFFFFFFFFFFFFFFFFFFFFFFFFFFFFFFFD2D2D200000003030302
310
0202060606FFFFFFFFFFFFFFFFFFFFFFFFFFFFFFFFFFFFFFFFFFFFFFFFFFFFFF
310
FFFFFFFFFFFFFFFFFF666666000000040404000000808080FFFFFFCECECE0404
310
040202020101010B0B0BEDEDEDFFFFFFFFFFFF8C8C8C03030300000003030300
310
00000000003E3E3ED9D9D9FFFFFFFFFFFFFFFFFFFFFFFFFFFFFFFFFFFFFFFFFF
310
EDEDED0C0C0C0101010101010B0B0BEFEFEFFFFFFF7F7F7F0000000505050000
310
00676767FFFFFFFFFFFFFFFFFFFFFFFFFFFFFFFFFFFFFFFFFFFFFFFFFFFFFFFF
310
FFFFFFFFFF8D8D8D000000040404000000444444FFFFFFFFFFFF070707010101
310
030303000000F7F7F7FFFFFFFFFFFFFFFFFFFFFFFFFFFFFFFFFFFFFFFFFFFFFF
310
FFFFFFFFFFFFFFFFFFFFFFFFFF00000003030303030311111100FFFFFFFFFFFF
310
FFFFFFFFFFFFFFFFFFFFFFFFFFFFFFFFFFFF6161610000000404040000002222
310
22FFFFFFFFFFFFFFFFFFFFFFFFFFFFFFFFFFFFFFFFFFD3D3D300000002020202
310
0202070707FCFCFCFFFFFFFFFFFFFFFFFFFFFFFFFFFFFFFFFFFFFFFFFFFFFFFF
310
FFFFFFFFFFFFFFFFFF696969000000040404000000818181FFFFFFCECECE0404
310
040202020101010D0D0DFAFAFAEEEEEE4D4D4D0000000000000303030000000D
310
0D0D949494FFFFFFFFFFFFFFFFFFFFFFFFFFFFFFFFFFFFFFFFFFFFFFFFFFFFFF
310
EDEDED0C0C0C0101010101010B0B0BEFEFEFFFFFFF7F7F7F0000000505050000
310
00676767FFFFFFFFFFFFFFFFFFFFFFFFFFFFFFFFFFFFFFFFFFFFFFFFFFFFFFFF
310
FFFFFFFFFF8D8D8D000000040404000000434343FFFFFFFEFEFE050505010101
310
030303010101A9A9A9C1C1C1BEBEBEC1C1C1C1C1C1C2C2C2C3C3C3C4C4C4C5C5
310
C5C5C5C5C8C8C8CACACACCCCCC00000003030303030311111100FFFFFFFFFFFF
310
FFFFFFFFFFFFFFFFFFFFFFFFFFFFFFFFFFFF6161610000000404040000002121
310
21FFFFFFFFFFFFFFFFFFFFFFFFFFFFFFFFFFFFFFFFFFD5D5D500000002020202
310
0202060606FCFCFCFFFFFFFFFFFFFFFFFFFFFFFFFFFFFFFFFFFFFFFFFFFFFFFF
310
FFFFFFFFFFFFFFFFFF686868000000050505000000818181FFFFFFCCCCCC0303
310
030202020202020D0D0D9898981D1D1D000000030303040404010101545454E1
310
E1E1FFFFFFFFFFFFFFFFFFFFFFFFFFFFFFFFFFFFFFFFFFFFFFFFFFFFFFFFFFFF
310
EDEDED0C0C0C0101010101010B0B0BEFEFEFFFFFFF7F7F7F0000000505050000
310
00666666FFFFFFFFFFFFFFFFFFFFFFFFFFFFFFFFFFFFFFFFFFFFFFFFFFFFFFFF
310
FFFFFFFFFF8D8D8D000000040404000000424242FFFFFFFFFFFF1E1E1E000000
310
0505050303030000000000000000000000000000000101010101010101010202
310
0202020203030304040405050502020204040403030311111100FFFFFFFFFFFF
310
FFFFFFFFFFFFFFFFFFFFFFFFFFFFFFFFFFFF6363630000000505050000001F1F
310
1FFFFFFFFFFFFFFFFFFFFFFFFFFFFFFFFEFEFEFFFFFFD5D5D500000003030302
310
0202050505FCFCFCFFFFFFFFFFFFFFFFFFFFFFFFFFFFFFFFFFFFFFFFFFFFFFFF
310
FFFFFFFFFFFFFFFFFF686868000000040404000000818181FFFFFFCDCDCD0303
310
030202020303030707074545450000000000000404040303030303039E9E9EFF
310
FFFFFFFFFFFFFFFFFFFFFFFFFFFFFFFFFFFFFFFFFFFFFFFFFFFFFFFFFFFFFFFF
310
EDEDED0C0C0C0101010101010B0B0BEEEEEEFFFFFF7F7F7F0000000505050000
310
00666666FFFFFFFFFFFFFFFFFFFFFFFFFFFFFFFFFFFFFFFFFFFFFFFFFFFFFFFF
310
FFFFFFFFFF8D8D8D000000040404000000434343FFFFFFFFFFFF9C9C9C000000
310
0000000000000000000000000000000000000000000000000000000000000000
310
0000000000000000000000000004040405050503030311111100FFFFFFFFFFFF
310
FFFFFFFFFFFFFFFFFFFFFFFFFFFFFFFFFFFF6262620000000505050000002121
310
21FFFFFFFFFFFFFFFFFFFFFFFFFFFFFFFEFEFEFFFFFFD5D5D500000002020201
310
0101070707FDFDFDFFFFFFFFFFFFFFFFFFFFFFFFFFFFFFFFFFFFFFFFFFFFFFFF
310
FFFFFFFFFFFFFFFFFF696969000000050505000000818181FFFFFFCCCCCC0303
310
030202020101010D0D0DF6F6F6B3B3B319191900000003030302020200000057
310
5757E8E8E8FFFFFFFFFFFFFFFFFFFFFFFFFFFFFFFFFFFFFFFFFFFFFFFFFFFFFF
310
EDEDED0C0C0C0101010101010C0C0CEDEDEDFFFFFF7F7F7F0000000505050000
310
00666666FFFFFFFFFFFFFFFFFFFFFFFFFFFFFFFFFFFFFFFFFFFFFFFFFFFFFFFF
310
FFFFFFFFFF8D8D8D000000040404000000434343FFFFFFFFFFFFFFFFFFA8A8A8
310
3C3C3C2E2E2E2C2C2C2B2B2B2A2A2A2A2A2A2929292828282727272727272626
310
2626262625252525252524242400000004040403030311111100FFFFFFFFFFFF
310
FFFFFFFFFFFFFFFFFFFFFFFFFFFFFFFFFFFF6161610000000505050000002121
310
21FFFFFFFFFFFFFFFFFFFFFFFFFFFFFFFFFFFFFFFFFFD2D2D200000003030302
310
0202060606FFFFFFFFFFFFFFFFFFFFFFFFFFFFFFFFFFFFFFFFFFFFFFFFFFFFFF
310
FFFFFFFFFFFFFFFFFF666666000000050505000000808080FFFFFFCCCCCC0202
310
020202020101010B0B0BECECECFFFFFFE5E5E54D4D4D00000000000003030300
310
00001B1B1BABABABFFFFFFFFFFFFFFFFFFFFFFFFFFFFFFFFFFFFFFFFFFFFFFFF
310
EDEDED0C0C0C0101010101010B0B0BEEEEEEFFFFFF7F7F7F0000000505050000
310
00696969FFFFFFFFFFFFFFFFFFFFFFFFFFFFFFFFFFFFFFFFFFFFFFFFFFFFFFFF
310
FFFFFFFFFF909090000000040404000000414141FFFFFFFFFFFFFFFFFFFFFFFF
310
FFFFFFFDFDFDFAFAFAF9F9F9F9F9F9F7F7F7F7F7F7F7F7F7F5F5F5F5F5F5F4F4
310
F4F4F4F4F2F2F2F4F4F4F7F7F700000004040403030311111100FFFFFFFFFFFF
310
FFFFFFFFFFFFFFFFFFFFFFFFFFFFFFFFFFFF5F5F5F0000000505050000002222
310
22FFFFFFFFFFFFFFFFFFFFFFFFFFFFFFFFFFFFFFFFFFDBDBDB00000003030304
310
04040000005858588585858383838585858686868989898989898D8D8D8E8E8E
310
919191949494898989161616010101040404000000828282FFFFFFCCCCCC0303
310
030202020101010B0B0BECECECFFFFFFFFFFFFFFFFFF8F8F8F0A0A0A00000003
310
0303000000000000636363EDEDEDFFFFFFFFFFFFFFFFFFFFFFFFFFFFFFFFFFFF
310
ECECEC0C0C0C0101010101010B0B0BEFEFEFFFFFFF7F7F7F0000000505050000
310
00555555D8D8D8D1D1D1D1D1D1D2D2D2D2D2D2D2D2D2D4D4D4D4D4D4D4D4D4D5
310
D5D5DCDCDC565656000000050505000000424242FFFFFFFFFFFFFFFFFFFFFFFF
310
FFFFFFFFFFFFFFFFFFFFFFFFFFFFFFFFFFFFFFFFFFFFFFFFFFFFFFFFFFFFFFFF
310
FFFFFFFFFFFFFFFFFFFFFDFDFD00000003030303030310101000FFFFFFFFFFFF
310
FFFFFFFFFFFFFFFFFFFFFFFFFFFFFFFFFFFF5F5F5F0000000505050000002121
310
21FFFFFFFFFFFFFFFFFFFFFFFFFFFFFFFFFFFFFFFFFFFFFFFF1D1D1D00000004
310
0404040404000000000000000000000000000000000000000000000000000000
310
000000000000000000000000050505020202000000BFBFBFFFFFFFCBCBCB0202
310
020202020101010C0C0CECECECFFFFFFFFFFFFFFFFFFFFFFFFD2D2D235353500
310
00000101010202020000001F1F1FB5B5B5FFFFFFFFFFFFFFFFFFFFFFFFFFFFFF
310
ECECEC0C0C0C0101010101010B0B0BEFEFEFFFFFFF7F7F7F0000000505050404
310
0400000000000000000000000000000000000000000000000000000000000000
310
00000000000000000404040404040000006E6E6EFFFFFFFFFFFF7C7C7C464646
310
4D4D4D4D4D4D4D4D4D4D4D4D4D4D4D4D4D4D4D4D4D4D4D4D4C4C4C4D4D4D4E4E
310
4E4F4F4F50505055555530303000000004040401010115151500FFFFFFFFFFFF
310
FFFFFFFFFFFFFFFFFFFFFFFFFFFFFFFFFFFF6060600000000505050000001F1F
310
1FFFFFFFFFFFFFFFFFFFFFFFFFFFFFFFFFFFFFFFFFFFFFFFFFB3B3B300000000
310
0000000000000000000000000000000000000000000000000000000000000000
310
000000000000000000000000000000000000585858FFFFFFFFFFFFCCCCCC0303
310
030202020101010B0B0BEAEAEAFFFFFFFFFFFFFFFFFFFFFFFFFFFFFFFEFEFE77
310
7777010101000000010101000000000000656565F0F0F0FFFFFFFFFFFFFFFFFF
310
EDEDED0A0A0A0000000000000A0A0AEDEDEDFFFFFF7E7E7E0000000303030303
310
0303030302020202020202020202020202020202020202020202020202020202
310
0202020202030303020202000000040404DADADAFFFFFFFFFFFF3F3F3F000000
310
0000000000000000000000000000000000000000000000000000000000000000
310
0000000000000000000000000004040402020200000082828200F1F1F1F1F1F1
310
F1F1F1F1F1F1F2F2F2F2F2F2F3F3F3FFFFFF5F5F5F0000000505050000001E1E
310
1EFFFFFFFCFCFCFCFCFCFBFBFBFDFDFDFDFDFDFEFEFEFEFEFEFFFFFFC6C6C646
310
4646131313131313131313131313121212121212121212111111111111111111
310
1010101010101010100F0F0F1C1C1C848484FEFEFEFFFFFFFFFFFFCDCDCD0404
310
040202020101010B0B0BEBEBEBFFFFFFFFFFFFFFFFFFFFFFFFFFFFFFFFFFFFFF
310
FFFFC0C0C0222222030303060606030303000000222222BCBCBCFFFFFFFFFFFF
310
ECECEC0D0D0D0000000000000B0B0BECECECFFFFFF7E7E7E0000000000000000
310
0000000000000000000000000000000000000000000000000000000000000000
310
00000000000000000000001C1C1CBBBBBBFFFFFFFFFFFFFFFFFF3F3F3F000000
310
0000000000000000000000000000000000000000000000000000000000000000
310
000000000000000000000000000000000000004F4F4FFFFFFF00111111101010
310
1010101111111313131313131515151919190909090303030505050404040404
310
043030302E2E2E2F2F2F3131313333333333333636362F2F2F7F7F7FFFFFFFFF
310
FFFFFFFFFFFDFDFDFCFCFCFBFBFBFAFAFAF8F8F8F7F7F7F7F7F7F6F6F6F5F5F5
310
F3F3F3F3F3F3F0F0F0F4F4F4FFFFFFFFFFFFFFFFFFFFFFFFFFFFFFCECECE0404
310
040303030000000B0B0BEBEBEBFFFFFFFFFFFFFFFFFFFFFFFFFFFFFFFFFFFFFF
310
FFFFFFFFFFF5F5F5D3D3D3D5D5D5D3D3D3D1D1D1C6C6C6C9C9C9FCFCFCFFFFFF
310
FFFFFFD5D5D5D4D4D4D4D4D4D1D1D1FDFDFDFFFFFFDFDFDFBBBBBBBDBDBDBDBD
310
BDBBBBBBB9B9B9B8B8B8B5B5B5B4B4B4B3B3B3B1B1B1AFAFAFAEAEAEADADADAB
310
ABABA9A9A9A9A9A9C4C4C4FDFDFDFFFFFFFFFFFFFFFFFFFFFFFFB8B8B89B9B9B
310
9D9D9D9B9B9B9B9B9B9999999999999999999999999999999999999999999999
310
999A9A9A989898979797979797989898CCCCCCFFFFFFFFFFFF00010101000000
310
0000000000000000000000000000000000000303030505050505050404040404
310
04000000000000000000000000000000000000000000000000555555FFFFFFFF
310
FFFFFFFFFFFFFFFFFFFFFFFFFFFFFFFFFFFFFFFFFFFFFFFFFFFFFFFFFFFFFFFF
310
FFFFFFFFFFFFFFFFFFFFFFFFFFFFFFFFFFFFFFFFFFFFFFFFFFFFFFCECECE0404
310
040101010101010B0B0BEBEBEBFFFFFFFFFFFFFFFFFFFFFFFFFFFFFFFFFFFFFF
310
FFFFFFFFFFFFFFFFFFFFFFFFFFFFFFFFFFFFFFFFFFFFFFFFFFFFFFFFFFFFFFFF
310
F5F5F57979797272727373737A7A7AF6F6F6FFFFFFFFFFFFFFFFFFFFFFFFFFFF
310
FFFFFFFFFFFFFFFFFFFFFFFFFFFFFFFFFFFFFFFFFFFFFFFFFFFFFFFFFFFFFFFF
310
FFFFFFFFFFFFFFFFFFFFFFFFFFFFFFFFFFFFFFFFFFFFFFFFFFFFFFFFFFFFFFFF
310
FFFFFFFFFFFFFFFFFFFFFFFFFFFFFFFFFFFFFFFFFFFFFFFFFFFFFFFFFFFFFFFF
310
FFFFFFFFFFFFFFFFFFFFFFFFFFFFFFFFFFFFFFFFFFFFFFFFFF00030303020202
310
0303030202020303030303030303030303030303030303030303030303030303
310
030303030303030303030303030303030303030303030000005A5A5AFFFFFFFF
310
FFFFFFFFFFFFFFFFFFFFFFFFFFFFFFFFFFFFFFFFFFFFFFFFFFFFFFFFFFFFFFFF
310
FFFFFFFFFFFFFFFFFFFFFFFFFFFFFFFFFFFFFFFFFFFFFFFFFFFFFFCECECE0303
310
030202020101010A0A0AEBEBEBFFFFFFFFFFFFFFFFFFFFFFFFFFFFFFFFFFFFFF
310
FFFFFFFFFFFFFFFFFFFFFFFFFFFFFFFFFFFFFFFFFFFFFFFFFFFFFFFFFFFFFFFF
310
EDEDED000000000000000000000000EDEDEDFFFFFFFFFFFFFFFFFFFFFFFFFFFF
310
FFFFFFFFFFFFFFFFFFFFFFFFFFFFFFFFFFFFFFFFFFFFFFFFFFFFFFFFFFFFFFFF
310
FFFFFFFFFFFFFFFFFFFFFFFFFFFFFFFFFFFFFFFFFFFFFFFFFFFFFFFFFFFFFFFF
310
FFFFFFFFFFFFFFFFFFFFFFFFFFFFFFFFFFFFFFFFFFFFFFFFFFFFFFFFFFFFFFFF
310
FFFFFFFFFFFFFFFFFFFFFFFFFFFFFFFFFFFFFFFFFFFFFFFFFF00141414121212
310
1212121212121111111212121111111111111111111111111111111010101010
310
101010100F0F0F1010101010100F0F0F0F0F0F0F0F0F030303646464FFFFFFFF
310
FFFFFFFFFFFFFFFFFFFFFFFFFFFFFFFFFFFFFFFFFFFFFFFFFFFFFFFFFFFFFFFF
310
FFFFFFFFFFFFFFFFFFFFFFFFFFFFFFFFFFFFFFFFFFFFFFFFFFFFFFD0D0D00A0A
310
0A070707060606111111ECECECFFFFFFFFFFFFFFFFFFFFFFFFFFFFFFFFFFFFFF
310
FFFFFFFFFFFFFFFFFFFFFFFFFFFFFFFFFFFFFFFFFFFFFFFFFFFFFFFFFFFFFFFF
310
F0F0F00E0E0E0000000101010C0C0CEFEFEFFFFFFFFFFFFFFFFFFFFFFFFFFFFF
310
FFFFFFFFFFFFFFFFFFFFFFFFFFFFFFFFFFFFFFFFFFFFFFFFFFFFFFFFFFFFFFFF
310
FFFFFFFFFFFFFFFFFFFFFFFFFFFFFFFFFFFFFFFFFFFFFFFFFFFFFFFFFFFFFFFF
310
FFFFFFFFFFFFFFFFFFFFFFFFFFFFFFFFFFFFFFFFFFFFFFFFFFFFFFFFFFFFFFFF
310
FFFFFFFFFFFFFFFFFFFFFFFFFFFFFFFFFFFFFFFFFFFFFFFFFF00000000000000
310
0000000000000000000000000000000000000000000000000000000000000000
310
0000000000000000000000000000000000000000000000000000000000000000
310
0000000000000000000000000000000000000000000000000000000000000000
310
0000000000000000000000000000000000000000000000000000000000000000
310
0000000000000000000000000000000000000000000000000000000000000000
310
0000000000000000000000000000000000000000000000000000000000000000
310
0000000000000000000000000000000000000000000000000000000000000000
310
0000000000000000000000000000000000000000000000000000000000000000
  1
OLE
  0
TEXT
  5
9F4
330
1F
100
AcDbEntity
  8
99
  6
Continuous
 62
     7
370
    30
100
AcDbText
 10
153.4252151482699
 20
24.62740123719109
 30
0.0
 40
2.5
  1
図番登録
 41
0.7000000000000001
  7
KCADTEXTSTANDARD
100
AcDbText
1001
Sigma
1000

  0
TEXT
  5
9F5
330
1F
100
AcDbEntity
  8
99
  6
Continuous
 62
     7
370
    30
100
AcDbText
 10
152.9687640814962
 20
19.45175228347671
 30
0.0
 40
2.0
  1
2008.5.15
 41
0.7000000000000001
  7
KCADTEXTSTANDARD
100
AcDbText
1001
Sigma
1000

  0
ENDSEC
  0
SECTION
  2
OBJECTS
  0
DICTIONARY
  5
C
330
0
100
AcDbDictionary
281
     1
  3
ACAD_COLOR
350
6C
  3
ACAD_GROUP
350
D
  3
ACAD_LAYOUT
350
1A
  3
ACAD_MATERIAL
350
6B
  3
ACAD_MLINESTYLE
350
17
  3
ACAD_PLOTSETTINGS
350
19
  3
ACAD_PLOTSTYLENAME
350
E
  3
ACAD_TABLESTYLE
350
92
  3
ACDBHEADERROUNDTRIPXREC
350
B00
  3
AcDbVariableDictionary
350
59
  3
DWGPROPS
350
B03
  3
KCADFRAMEINFO
350
2A7
  0
DICTIONARY
  5
6C
102
{ACAD_REACTORS
330
C
102
}
330
C
100
AcDbDictionary
281
     1
  0
DICTIONARY
  5
D
102
{ACAD_REACTORS
330
C
102
}
330
C
100
AcDbDictionary
281
     1
  3
*A1
350
3E5
  3
*A2
350
421
  3
*A3
350
428
  3
*A4
350
42F
  3
*A5
350
436
  3
*A6
350
43D
  0
DICTIONARY
  5
1A
102
{ACAD_REACTORS
330
C
102
}
330
C
100
AcDbDictionary
281
     1
  3
Model
350
22
  3
ﾚｲｱｳﾄ1
350
22F
  0
DICTIONARY
  5
6B
102
{ACAD_REACTORS
330
C
102
}
330
C
100
AcDbDictionary
281
     1
  0
DICTIONARY
  5
17
102
{ACAD_REACTORS
330
C
102
}
330
C
100
AcDbDictionary
281
     1
  3
Standard
350
18
  0
DICTIONARY
  5
19
102
{ACAD_REACTORS
330
C
102
}
330
C
100
AcDbDictionary
281
     1
  0
ACDBDICTIONARYWDFLT
  5
E
102
{ACAD_REACTORS
330
C
102
}
330
C
100
AcDbDictionary
281
     1
  3
Normal
350
F
100
AcDbDictionaryWithDefault
340
F
  0
DICTIONARY
  5
92
102
{ACAD_REACTORS
330
C
102
}
330
C
100
AcDbDictionary
281
     1
  0
DICTIONARY
  5
B00
102
{ACAD_REACTORS
330
C
102
}
330
C
100
AcDbDictionary
281
     1
  3
COLORDICT
350
B01
  3
MATERIALDICT
350
B02
  0
DICTIONARY
  5
59
102
{ACAD_REACTORS
330
C
102
}
330
C
100
AcDbDictionary
281
     1
  3
DIMASSOC
350
AFF
  0
XRECORD
  5
B03
102
{ACAD_REACTORS
330
C
102
}
330
C
100
AcDbXrecord
280
     1
  1
DWGPROPS COOKIE
  2

  3

  4

  6

  7

  8
fottrem
  9

300
=
301
=
302
=
303
=
304
=
305
=
306
=
307
=
308
=
309
=
 40
0.0
 41
2453353.717125822
 42
2453294.129627813
  1

 90
        0
  0
XRECORD
  5
2A7
102
{ACAD_REACTORS
330
C
102
}
330
C
100
AcDbXrecord
280
     1
  1
A3
 40
420.0
 40
297.0
 90
        1
 90
        1
  0
GROUP
  5
3E5
102
{ACAD_REACTORS
330
D
102
}
330
D
100
AcDbGroup
300
line with arrowBlockRef from kcad family
 70
     1
 71
     1
340
3E7
340
3E9
  0
GROUP
  5
421
102
{ACAD_REACTORS
330
D
102
}
330
D
100
AcDbGroup
300
group from kcad family
 70
     1
 71
     1
340
422
340
424
340
426
  0
GROUP
  5
428
102
{ACAD_REACTORS
330
D
102
}
330
D
100
AcDbGroup
300
group from kcad family
 70
     1
 71
     1
340
429
340
42B
340
42D
  0
GROUP
  5
42F
102
{ACAD_REACTORS
330
D
102
}
330
D
100
AcDbGroup
300
group from kcad family
 70
     1
 71
     1
340
430
340
432
340
434
  0
GROUP
  5
436
102
{ACAD_REACTORS
330
D
102
}
330
D
100
AcDbGroup
300
group from kcad family
 70
     1
 71
     1
340
437
340
439
340
43B
  0
GROUP
  5
43D
102
{ACAD_REACTORS
330
D
102
}
330
D
100
AcDbGroup
300
group from kcad family
 70
     1
 71
     1
340
43E
340
440
340
442
  0
LAYOUT
  5
22
102
{ACAD_REACTORS
330
1A
102
}
330
1A
100
AcDbPlotSettings
  1

  2
DWF ePlot.pc3
  4
ISO_A3_(297.00_x_420.00_MM)
  6

 40
5.793749809265136
 41
17.79375076293945
 42
5.79376220703125
 43
17.79376220703125
 44
297.0
 45
420.0
 46
0.0
 47
0.0
 48
0.0
 49
0.0
140
0.0
141
0.0
142
1.0
143
1.0
 70
 11952
 72
     1
 73
     1
 74
     2
  7

 75
    16
147
1.0
148
0.0
149
0.0
100
AcDbLayout
  1
Model
 70
     1
 71
     0
 10
0.0
 20
0.0
 11
420.0
 21
297.0
 12
0.0
 22
0.0
 32
0.0
 14
26.8189987163
 24
8.744179361722363
 34
0.0
 15
413.31900676123
 25
288.431941923775
 35
0.0
146
0.0
 13
0.0
 23
0.0
 33
0.0
 16
1.0
 26
0.0
 36
0.0
 17
0.0
 27
1.0
 37
0.0
 76
     0
330
1F
  0
LAYOUT
  5
22F
102
{ACAD_REACTORS
330
1A
102
}
330
1A
100
AcDbPlotSettings
  1

  2
D:\ACAD2000\plotters\HP DesignJet 700(System).pc3
  4

  6

 40
0.0
 41
0.0
 42
0.0
 43
0.0
 44
0.0
 45
0.0
 46
0.0
 47
0.0
 48
0.0
 49
0.0
140
0.0
141
0.0
142
1.0
143
1.0
 70
   688
 72
     0
 73
     0
 74
     5
  7
monochrome.ctb
 75
    16
147
1.0
148
0.0
149
0.0
100
AcDbLayout
  1
ﾚｲｱｳﾄ1
 70
     1
 71
     1
 10
0.0
 20
0.0
 11
12.0
 21
9.0
 12
0.0
 22
0.0
 32
0.0
 14
0.0
 24
0.0
 34
0.0
 15
0.0
 25
0.0
 35
0.0
146
0.0
 13
0.0
 23
0.0
 33
0.0
 16
1.0
 26
0.0
 36
0.0
 17
0.0
 27
1.0
 37
0.0
 76
     0
330
73
  0
MLINESTYLE
  5
18
102
{ACAD_REACTORS
330
17
102
}
330
17
100
AcDbMlineStyle
  2
Standard
 70
     0
  3

 62
   256
 51
90.0
 52
90.0
 71
     2
 49
0.5
 62
   256
  6
BYLAYER
 49
-0.5
 62
   256
  6
BYLAYER
  0
ACDBPLACEHOLDER
  5
F
102
{ACAD_REACTORS
330
E
102
}
330
E
  0
XRECORD
  5
B01
102
{ACAD_REACTORS
330
B00
102
}
330
B00
100
AcDbXrecord
280
     1
340
6C
  0
XRECORD
  5
B02
102
{ACAD_REACTORS
330
B00
102
}
330
B00
100
AcDbXrecord
280
     1
340
6B
  0
DICTIONARYVAR
  5
AFF
102
{ACAD_REACTORS
330
59
102
}
330
59
100
DictionaryVariables
280
     0
  1
1
  0
ENDSEC
  0
EOF
