  0
SECTION
  2
HEADER
  9
$ACADVER
  1
AC1015
  9
$ACADMAINTVER
 70
     6
  9
$DWGCODEPAGE
  3
ANSI_932
  9
$INSBASE
 10
0.0
 20
0.0
 30
0.0
  9
$EXTMIN
 10
12.47329910140999
 20
4.096523202969568
 30
0.0
  9
$EXTMAX
 10
286.6338193791157
 20
205.0523593466424
 30
0.0
  9
$LIMMIN
 10
0.0
 20
0.0
  9
$LIMMAX
 10
297.0
 20
210.0
  9
$ORTHOMODE
 70
     0
  9
$REGENMODE
 70
     1
  9
$FILLMODE
 70
     1
  9
$QTEXTMODE
 70
     0
  9
$MIRRTEXT
 70
     1
  9
$LTSCALE
 40
0.2
  9
$ATTMODE
 70
     1
  9
$TEXTSIZE
 40
3.2
  9
$TRACEWID
 40
1.0
  9
$TEXTSTYLE
  7
KCADTEXTSTANDARD
  9
$CLAYER
  8
0
  9
$CELTYPE
  6
Continuous
  9
$CECOLOR
 62
   134
  9
$CELTSCALE
 40
1.0
  9
$DISPSILH
 70
     0
  9
$DIMSCALE
 40
1.0
  9
$DIMASZ
 40
3.0
  9
$DIMEXO
 40
1.0
  9
$DIMDLI
 40
8.0
  9
$DIMRND
 40
0.0
  9
$DIMDLE
 40
0.0
  9
$DIMEXE
 40
1.0
  9
$DIMTP
 40
0.0
  9
$DIMTM
 40
0.0
  9
$DIMTXT
 40
3.2
  9
$DIMCEN
 40
2.5
  9
$DIMTSZ
 40
0.0
  9
$DIMTOL
 70
     0
  9
$DIMLIM
 70
     0
  9
$DIMTIH
 70
     0
  9
$DIMTOH
 70
     0
  9
$DIMSE1
 70
     0
  9
$DIMSE2
 70
     0
  9
$DIMTAD
 70
     1
  9
$DIMZIN
 70
     8
  9
$DIMBLK
  1

  9
$DIMASO
 70
     1
  9
$DIMSHO
 70
     1
  9
$DIMPOST
  1

  9
$DIMAPOST
  1

  9
$DIMALT
 70
     0
  9
$DIMALTD
 70
     2
  9
$DIMALTF
 40
25.4
  9
$DIMLFAC
 40
1.0
  9
$DIMTOFL
 70
     1
  9
$DIMTVP
 40
0.0
  9
$DIMTIX
 70
     0
  9
$DIMSOXD
 70
     0
  9
$DIMSAH
 70
     1
  9
$DIMBLK1
  1
KCAD_OPEN30
  9
$DIMBLK2
  1
KCAD_OPEN30
  9
$DIMSTYLE
  2
Standard
  9
$DIMCLRD
 70
     0
  9
$DIMCLRE
 70
     0
  9
$DIMCLRT
 70
     0
  9
$DIMTFAC
 40
0.667
  9
$DIMGAP
 40
0.5333000000000001
  9
$DIMJUST
 70
     0
  9
$DIMSD1
 70
     0
  9
$DIMSD2
 70
     0
  9
$DIMTOLJ
 70
     1
  9
$DIMTZIN
 70
     8
  9
$DIMALTZ
 70
     0
  9
$DIMALTTZ
 70
     0
  9
$DIMUPT
 70
     0
  9
$DIMDEC
 70
     3
  9
$DIMTDEC
 70
     3
  9
$DIMALTU
 70
     2
  9
$DIMALTTD
 70
     2
  9
$DIMTXSTY
  7
KCADDIMSTANDARD
  9
$DIMAUNIT
 70
     0
  9
$DIMADEC
 70
     3
  9
$DIMALTRND
 40
0.0
  9
$DIMAZIN
 70
     2
  9
$DIMDSEP
 70
    46
  9
$DIMATFIT
 70
     3
  9
$DIMFRAC
 70
     0
  9
$DIMLDRBLK
  1
KCAD_OPEN
  9
$DIMLUNIT
 70
     2
  9
$DIMLWD
 70
    -2
  9
$DIMLWE
 70
    -2
  9
$DIMTMOVE
 70
     0
  9
$LUNITS
 70
     2
  9
$LUPREC
 70
     4
  9
$SKETCHINC
 40
1.0
  9
$FILLETRAD
 40
5.0
  9
$AUNITS
 70
     0
  9
$AUPREC
 70
     0
  9
$MENU
  1
.
  9
$ELEVATION
 40
0.0
  9
$PELEVATION
 40
0.0
  9
$THICKNESS
 40
0.0
  9
$LIMCHECK
 70
     0
  9
$CHAMFERA
 40
5.0
  9
$CHAMFERB
 40
5.0
  9
$CHAMFERC
 40
5.0
  9
$CHAMFERD
 40
0.7853981633974483
  9
$SKPOLY
 70
     0
  9
$TDCREATE
 40
2453354.092125822
  9
$TDUCREATE
 40
2453353.717125822
  9
$TDUPDATE
 40
2453294.53343294
  9
$TDUUPDATE
 40
2453294.15843294
  9
$TDINDWG
 40
0.0646835648
  9
$TDUSRTIMER
 40
0.0646488773
  9
$USRTIMER
 70
     1
  9
$ANGBASE
 50
0.0
  9
$ANGDIR
 70
     0
  9
$PDMODE
 70
     0
  9
$PDSIZE
 40
0.0
  9
$PLINEWID
 40
0.0
  9
$SPLFRAME
 70
     0
  9
$SPLINETYPE
 70
     6
  9
$SPLINESEGS
 70
     8
  9
$HANDSEED
  5
A59
  9
$SURFTAB1
 70
     6
  9
$SURFTAB2
 70
     6
  9
$SURFTYPE
 70
     6
  9
$SURFU
 70
     6
  9
$SURFV
 70
     6
  9
$UCSBASE
  2

  9
$UCSNAME
  2

  9
$UCSORG
 10
0.0
 20
0.0
 30
0.0
  9
$UCSXDIR
 10
1.0
 20
0.0
 30
0.0
  9
$UCSYDIR
 10
0.0
 20
1.0
 30
0.0
  9
$UCSORTHOREF
  2

  9
$UCSORTHOVIEW
 70
     0
  9
$UCSORGTOP
 10
0.0
 20
0.0
 30
0.0
  9
$UCSORGBOTTOM
 10
0.0
 20
0.0
 30
0.0
  9
$UCSORGLEFT
 10
0.0
 20
0.0
 30
0.0
  9
$UCSORGRIGHT
 10
0.0
 20
0.0
 30
0.0
  9
$UCSORGFRONT
 10
0.0
 20
0.0
 30
0.0
  9
$UCSORGBACK
 10
0.0
 20
0.0
 30
0.0
  9
$PUCSBASE
  2

  9
$PUCSNAME
  2

  9
$PUCSORG
 10
0.0
 20
0.0
 30
0.0
  9
$PUCSXDIR
 10
1.0
 20
0.0
 30
0.0
  9
$PUCSYDIR
 10
0.0
 20
1.0
 30
0.0
  9
$PUCSORTHOREF
  2

  9
$PUCSORTHOVIEW
 70
     0
  9
$PUCSORGTOP
 10
0.0
 20
0.0
 30
0.0
  9
$PUCSORGBOTTOM
 10
0.0
 20
0.0
 30
0.0
  9
$PUCSORGLEFT
 10
0.0
 20
0.0
 30
0.0
  9
$PUCSORGRIGHT
 10
0.0
 20
0.0
 30
0.0
  9
$PUCSORGFRONT
 10
0.0
 20
0.0
 30
0.0
  9
$PUCSORGBACK
 10
0.0
 20
0.0
 30
0.0
  9
$USERI1
 70
     0
  9
$USERI2
 70
     0
  9
$USERI3
 70
     0
  9
$USERI4
 70
   257
  9
$USERI5
 70
     0
  9
$USERR1
 40
0.0
  9
$USERR2
 40
0.0
  9
$USERR3
 40
0.0
  9
$USERR4
 40
0.0
  9
$USERR5
 40
0.0
  9
$WORLDVIEW
 70
     1
  9
$SHADEDGE
 70
     3
  9
$SHADEDIF
 70
    70
  9
$TILEMODE
 70
     1
  9
$MAXACTVP
 70
    48
  9
$PINSBASE
 10
0.0
 20
0.0
 30
0.0
  9
$PLIMCHECK
 70
     0
  9
$PEXTMIN
 10
0.0
 20
0.0
 30
0.0
  9
$PEXTMAX
 10
0.0
 20
0.0
 30
0.0
  9
$PLIMMIN
 10
0.0
 20
0.0
  9
$PLIMMAX
 10
12.0
 20
9.0
  9
$UNITMODE
 70
     0
  9
$VISRETAIN
 70
     1
  9
$PLINEGEN
 70
     0
  9
$PSLTSCALE
 70
     1
  9
$TREEDEPTH
 70
  3020
  9
$CMLSTYLE
  2
Standard
  9
$CMLJUST
 70
     0
  9
$CMLSCALE
 40
20.0
  9
$PROXYGRAPHICS
 70
     1
  9
$MEASUREMENT
 70
     1
  9
$CELWEIGHT
370
    15
  9
$ENDCAPS
280
     0
  9
$JOINSTYLE
280
     0
  9
$LWDISPLAY
290
     0
  9
$INSUNITS
 70
     0
  9
$HYPERLINKBASE
  1

  9
$STYLESHEET
  1

  9
$XEDIT
290
     0
  9
$CEPSNTYPE
380
     0
  9
$PSTYLEMODE
290
     1
  9
$FINGERPRINTGUID
  2
{1989D620-E742-11D2-9219-00105A146177}
  9
$VERSIONGUID
  2
{1704AF6F-3775-4B32-8FD2-1CA8674D765D}
  9
$EXTNAMES
290
     1
  9
$PSVPSCALE
 40
0.0
  9
$OLESTARTUP
290
     0
  0
ENDSEC
  0
SECTION
  2
CLASSES
  0
CLASS
  1
ACDBDICTIONARYWDFLT
  2
AcDbDictionaryWithDefault
  3
ObjectDBX Classes
 90
        0
280
     0
281
     0
  0
CLASS
  1
ACDBPLACEHOLDER
  2
AcDbPlaceHolder
  3
ObjectDBX Classes
 90
        0
280
     0
281
     0
  0
CLASS
  1
LAYOUT
  2
AcDbLayout
  3
ObjectDBX Classes
 90
        0
280
     0
281
     0
  0
CLASS
  1
DICTIONARYVAR
  2
AcDbDictionaryVar
  3
ObjectDBX Classes
 90
        0
280
     0
281
     0
  0
CLASS
  1
TABLESTYLE
  2
AcDbTableStyle
  3
ObjectDBX Classes
 90
     2047
280
     0
281
     0
  0
ENDSEC
  0
SECTION
  2
TABLES
  0
TABLE
  2
VPORT
  5
8
330
0
100
AcDbSymbolTable
 70
     2
  0
VPORT
  5
97
330
8
100
AcDbSymbolTableRecord
100
AcDbViewportTableRecord
  2
*Active
 70
     0
 10
0.0
 20
0.0
 11
1.0
 21
1.0
 12
162.6593321585533
 22
104.574441274806
 13
0.0
 23
0.0
 14
10.0
 24
10.0
 15
10.0
 25
10.0
 16
0.0
 26
0.0
 36
1.0
 17
0.0
 27
0.0
 37
0.0
 40
204.9749528665463
 41
2.20035778175313
 42
50.0
 43
0.0
 44
0.0
 50
0.0
 51
0.0
 71
    16
 72
 20000
 73
     1
 74
     1
 75
     0
 76
     0
 77
     0
 78
     0
281
     0
 65
     0
110
0.0
120
0.0
130
0.0
111
1.0
121
0.0
131
0.0
112
0.0
122
1.0
132
0.0
 79
     0
146
0.0
  0
ENDTAB
  0
TABLE
  2
LTYPE
  5
5
330
0
100
AcDbSymbolTable
 70
     6
  0
LTYPE
  5
14
330
5
100
AcDbSymbolTableRecord
100
AcDbLinetypeTableRecord
  2
ByBlock
 70
     0
  3

 72
    65
 73
     0
 40
0.0
  0
LTYPE
  5
15
330
5
100
AcDbSymbolTableRecord
100
AcDbLinetypeTableRecord
  2
ByLayer
 70
     0
  3

 72
    65
 73
     0
 40
0.0
  0
LTYPE
  5
16
330
5
100
AcDbSymbolTableRecord
100
AcDbLinetypeTableRecord
  2
Continuous
 70
     0
  3
Solid line
 72
    65
 73
     0
 40
0.0
  0
LTYPE
  5
9CB
330
5
100
AcDbSymbolTableRecord
100
AcDbLinetypeTableRecord
  2
CENTER
 70
     0
  3
Center ____ _ ____ _ ____ _ ____ _ ____ _ ____
 72
    65
 73
     4
 40
50.8
 49
31.75
 74
     4
 75
     0
340
0
 46
1.0
 50
0.0
 44
0.0
 45
0.0
 49
-6.349999999999999
 74
     4
 75
     0
340
0
 46
1.0
 50
0.0
 44
0.0
 45
0.0
 49
6.349999999999999
 74
     4
 75
     0
340
0
 46
1.0
 50
0.0
 44
0.0
 45
0.0
 49
-6.349999999999999
 74
     4
 75
     0
340
0
 46
1.0
 50
0.0
 44
0.0
 45
0.0
  0
LTYPE
  5
9CC
330
5
100
AcDbSymbolTableRecord
100
AcDbLinetypeTableRecord
  2
DASHED
 70
     0
  3
Dashed __ __ __ __ __ __ __ __ __ __ __ __ __ _
 72
    65
 73
     2
 40
19.05
 49
12.7
 74
     4
 75
     0
340
0
 46
1.0
 50
0.0
 44
0.0
 45
0.0
 49
-6.349999999999999
 74
     4
 75
     0
340
0
 46
1.0
 50
0.0
 44
0.0
 45
0.0
  0
LTYPE
  5
9CD
330
5
100
AcDbSymbolTableRecord
100
AcDbLinetypeTableRecord
  2
HIDDEN
 70
     0
  3
Hidden __ __ __ __ __ __ __ __ __ __ __ __ __ _
 72
    65
 73
     2
 40
9.524999999999999
 49
6.349999999999999
 74
     4
 75
     0
340
0
 46
1.0
 50
0.0
 44
0.0
 45
0.0
 49
-3.174999999999999
 74
     4
 75
     0
340
0
 46
1.0
 50
0.0
 44
0.0
 45
0.0
  0
LTYPE
  5
9CE
330
5
100
AcDbSymbolTableRecord
100
AcDbLinetypeTableRecord
  2
PHANTOM
 70
     0
  3
Phantom ______  __  __  ______  __  __  ______
 72
    65
 73
     6
 40
63.50000000000001
 49
31.75
 74
     4
 75
     0
340
0
 46
1.0
 50
0.0
 44
0.0
 45
0.0
 49
-6.349999999999999
 74
     4
 75
     0
340
0
 46
1.0
 50
0.0
 44
0.0
 45
0.0
 49
6.349999999999999
 74
     4
 75
     0
340
0
 46
1.0
 50
0.0
 44
0.0
 45
0.0
 49
-6.349999999999999
 74
     4
 75
     0
340
0
 46
1.0
 50
0.0
 44
0.0
 45
0.0
 49
6.349999999999999
 74
     4
 75
     0
340
0
 46
1.0
 50
0.0
 44
0.0
 45
0.0
 49
-6.349999999999999
 74
     4
 75
     0
340
0
 46
1.0
 50
0.0
 44
0.0
 45
0.0
  0
LTYPE
  5
9CF
330
5
100
AcDbSymbolTableRecord
100
AcDbLinetypeTableRecord
  2
RUPTURE
 70
     0
  3
Rupture line
 72
    65
 73
     4
 40
45.72
 49
25.4
 74
     4
 75
     0
340
0
 46
1.0
 50
0.0
 44
0.0
 45
0.0
 49
-5.08
 74
     4
 75
   131
340
11
 46
5.08
 50
0.0
 44
-5.08
 45
0.0
 49
-10.16
 74
     4
 75
   131
340
11
 46
5.08
 50
180.0
 44
5.08
 45
0.0
 49
-5.08
 74
     4
 75
     0
340
0
 46
1.0
 50
0.0
 44
0.0
 45
0.0
  0
ENDTAB
  0
TABLE
  2
LAYER
  5
2
330
0
100
AcDbSymbolTable
 70
    16
  0
LAYER
  5
10
330
2
100
AcDbSymbolTableRecord
100
AcDbLayerTableRecord
  2
0
 70
     0
 62
     7
  6
Continuous
370
    -3
390
F
  0
LAYER
  5
737
330
2
100
AcDbSymbolTableRecord
100
AcDbLayerTableRecord
  2
KCAD_DIMS
 70
     0
 62
   134
  6
Continuous
370
    15
390
F
  0
LAYER
  5
4F
330
2
100
AcDbSymbolTableRecord
100
AcDbLayerTableRecord
  2
DEFPOINTS
 70
     0
 62
     7
  6
Continuous
290
     0
370
    -3
390
F
  0
LAYER
  5
20B
330
2
100
AcDbSymbolTableRecord
100
AcDbLayerTableRecord
  2
KCAD_ASST
 70
     0
 62
   134
  6
Continuous
370
    15
390
F
  0
LAYER
  5
20C
330
2
100
AcDbSymbolTableRecord
100
AcDbLayerTableRecord
  2
KCAD_RASTER
 70
     0
 62
     7
  6
Continuous
370
    30
390
F
  0
LAYER
  5
20D
330
2
100
AcDbSymbolTableRecord
100
AcDbLayerTableRecord
  2
SYBCENTER
 70
     0
 62
   134
  6
CENTER
370
    15
390
F
  0
LAYER
  5
20E
330
2
100
AcDbSymbolTableRecord
100
AcDbLayerTableRecord
  2
SYBHIDE
 70
     0
 62
   134
  6
HIDDEN
370
    15
390
F
  0
LAYER
  5
20F
330
2
100
AcDbSymbolTableRecord
100
AcDbLayerTableRecord
  2
SYBOUTLINE
 70
     0
 62
     7
  6
Continuous
370
    30
390
F
  0
LAYER
  5
210
330
2
100
AcDbSymbolTableRecord
100
AcDbLayerTableRecord
  2
SYBTHREAD
 70
     0
 62
   134
  6
Continuous
370
    15
390
F
  0
LAYER
  5
211
330
2
100
AcDbSymbolTableRecord
100
AcDbLayerTableRecord
  2
SYBTHRHID
 70
     0
 62
   134
  6
HIDDEN
370
    15
390
F
  0
LAYER
  5
282
330
2
100
AcDbSymbolTableRecord
100
AcDbLayerTableRecord
  2
KCAD_UIR_TMP_LAYER_
 70
     0
 62
     7
  6
Continuous
370
    -3
390
F
  0
LAYER
  5
2A8
330
2
100
AcDbSymbolTableRecord
100
AcDbLayerTableRecord
  2
KCAD_CPM_MAX_LAYER
 70
     3
 62
     7
  6
Continuous
370
    -3
390
F
  0
LAYER
  5
2EF
330
2
100
AcDbSymbolTableRecord
100
AcDbLayerTableRecord
  2
2
 70
     0
 62
     7
  6
Continuous
370
    -3
390
F
  0
LAYER
  5
2F4
330
2
100
AcDbSymbolTableRecord
100
AcDbLayerTableRecord
  2
1
 70
     0
 62
     7
  6
Continuous
370
    -3
390
F
  0
LAYER
  5
345
330
2
100
AcDbSymbolTableRecord
100
AcDbLayerTableRecord
  2
99
 70
     0
 62
     7
  6
Continuous
370
    -3
390
F
  0
LAYER
  5
34A
330
2
100
AcDbSymbolTableRecord
100
AcDbLayerTableRecord
  2
3
 70
     0
 62
     7
  6
Continuous
370
    -3
390
F
  0
ENDTAB
  0
TABLE
  2
STYLE
  5
3
330
0
100
AcDbSymbolTable
 70
     5
  0
STYLE
  5
11
330
3
100
AcDbSymbolTableRecord
100
AcDbTextStyleTableRecord
  2
Standard
 70
     0
 40
0.0
 41
1.0
 50
0.0
 71
     0
 42
3.2
  3
txt.shx
  4
bigfont.shx
  0
STYLE
  5
17F
330
3
100
AcDbSymbolTableRecord
100
AcDbTextStyleTableRecord
  2

 70
     1
 40
0.0
 41
1.0
 50
0.0
 71
     0
 42
3.2
  3
ltypeshp.shx
  4

  0
STYLE
  5
189
330
3
100
AcDbSymbolTableRecord
100
AcDbTextStyleTableRecord
  2
KCADDIMSTANDARD
 70
     0
 40
0.0
 41
1.0
 50
0.0
 71
     0
 42
3.2
  3
txt.shx
  4
bigfont.shx
  0
STYLE
  5
18A
330
3
100
AcDbSymbolTableRecord
100
AcDbTextStyleTableRecord
  2
KCADTEXTSTANDARD
 70
     0
 40
0.0
 41
1.0
 50
0.0
 71
     0
 42
3.2
  3
txt.shx
  4
bigfont.shx
  0
STYLE
  5
1AD
330
3
100
AcDbSymbolTableRecord
100
AcDbTextStyleTableRecord
  2
KCADTEXT2
 70
     0
 40
0.0
 41
1.0
 50
0.0
 71
     0
 42
3.2
  3
txt.shx
  4
extfont.shx
  0
ENDTAB
  0
TABLE
  2
VIEW
  5
6
330
0
100
AcDbSymbolTable
 70
     0
  0
ENDTAB
  0
TABLE
  2
UCS
  5
7
330
0
100
AcDbSymbolTable
 70
     0
  0
ENDTAB
  0
TABLE
  2
APPID
  5
9
330
0
100
AcDbSymbolTable
 70
     3
  0
APPID
  5
12
330
9
100
AcDbSymbolTableRecord
100
AcDbRegAppTableRecord
  2
ACAD
 70
     0
  0
APPID
  5
9C9
330
9
100
AcDbSymbolTableRecord
100
AcDbRegAppTableRecord
  2
Sigma
 70
     0
  0
APPID
  5
9CA
330
9
100
AcDbSymbolTableRecord
100
AcDbRegAppTableRecord
  2
KCAD_DIM_EXT
 70
     0
  0
ENDTAB
  0
TABLE
  2
DIMSTYLE
  5
A
330
0
100
AcDbSymbolTable
 70
     1
100
AcDbDimStyleTable
  0
DIMSTYLE
105
27
102
{ACAD_REACTORS
330
3F3
330
42F
330
46B
330
4B1
330
4EF
330
52B
330
567
330
5A3
330
5EB
330
627
102
}
330
A
100
AcDbSymbolTableRecord
100
AcDbDimStyleTableRecord
  2
Standard
 70
     0
340
11
  0
ENDTAB
  0
TABLE
  2
BLOCK_RECORD
  5
1
330
0
100
AcDbSymbolTable
 70
    65
  0
BLOCK_RECORD
  5
1F
330
1
100
AcDbSymbolTableRecord
100
AcDbBlockTableRecord
  2
*Model_Space
340
22
  0
BLOCK_RECORD
  5
73
330
1
100
AcDbSymbolTableRecord
100
AcDbBlockTableRecord
  2
*Paper_Space
340
22F
  0
BLOCK_RECORD
  5
738
330
1
100
AcDbSymbolTableRecord
100
AcDbBlockTableRecord
  2
KCAD_OPEN
340
0
  0
BLOCK_RECORD
  5
3C
330
1
100
AcDbSymbolTableRecord
100
AcDbBlockTableRecord
  2
KCAD_DOTSMALL
340
0
  0
BLOCK_RECORD
  5
44
330
1
100
AcDbSymbolTableRecord
100
AcDbBlockTableRecord
  2
KCAD_NONE
340
0
  0
BLOCK_RECORD
  5
FC
330
1
100
AcDbSymbolTableRecord
100
AcDbBlockTableRecord
  2
_CLOSED
340
0
  0
BLOCK_RECORD
  5
103
330
1
100
AcDbSymbolTableRecord
100
AcDbBlockTableRecord
  2
_DOT
340
0
  0
BLOCK_RECORD
  5
10B
330
1
100
AcDbSymbolTableRecord
100
AcDbBlockTableRecord
  2
_CLOSEDBLANK
340
0
  0
BLOCK_RECORD
  5
111
330
1
100
AcDbSymbolTableRecord
100
AcDbBlockTableRecord
  2
_OBLIQUE
340
0
  0
BLOCK_RECORD
  5
115
330
1
100
AcDbSymbolTableRecord
100
AcDbBlockTableRecord
  2
_ARCHTICK
340
0
  0
BLOCK_RECORD
  5
11C
330
1
100
AcDbSymbolTableRecord
100
AcDbBlockTableRecord
  2
_OPEN
340
0
  0
BLOCK_RECORD
  5
122
330
1
100
AcDbSymbolTableRecord
100
AcDbBlockTableRecord
  2
_ORIGIN
340
0
  0
BLOCK_RECORD
  5
127
330
1
100
AcDbSymbolTableRecord
100
AcDbBlockTableRecord
  2
_OPEN90
340
0
  0
BLOCK_RECORD
  5
12D
330
1
100
AcDbSymbolTableRecord
100
AcDbBlockTableRecord
  2
_OPEN30
340
0
102
{BLKREFS
331
428
331
429
331
464
331
465
331
4A0
331
4A1
331
4E6
331
4E7
331
524
331
525
331
560
331
561
331
59C
331
59D
331
5E2
331
5E3
331
620
331
621
331
666
331
667
331
69D
331
4AB
102
}
  0
BLOCK_RECORD
  5
133
330
1
100
AcDbSymbolTableRecord
100
AcDbBlockTableRecord
  2
_DOTBLANK
340
0
  0
BLOCK_RECORD
  5
138
330
1
100
AcDbSymbolTableRecord
100
AcDbBlockTableRecord
  2
_DOTSMALL
340
0
  0
BLOCK_RECORD
  5
13F
330
1
100
AcDbSymbolTableRecord
100
AcDbBlockTableRecord
  2
_BOXFILLED
340
0
  0
BLOCK_RECORD
  5
144
330
1
100
AcDbSymbolTableRecord
100
AcDbBlockTableRecord
  2
_BOXBLANK
340
0
  0
BLOCK_RECORD
  5
14C
330
1
100
AcDbSymbolTableRecord
100
AcDbBlockTableRecord
  2
_DATUMFILLED
340
0
  0
BLOCK_RECORD
  5
150
330
1
100
AcDbSymbolTableRecord
100
AcDbBlockTableRecord
  2
_DATUMBLANK
340
0
  0
BLOCK_RECORD
  5
156
330
1
100
AcDbSymbolTableRecord
100
AcDbBlockTableRecord
  2
_INTEGRAL
340
0
  0
BLOCK_RECORD
  5
1F1
330
1
100
AcDbSymbolTableRecord
100
AcDbBlockTableRecord
  2
_Origin2
340
0
  0
BLOCK_RECORD
  5
1F7
330
1
100
AcDbSymbolTableRecord
100
AcDbBlockTableRecord
  2
KCAD_OPEN30
340
0
102
{BLKREFS
331
7C0
331
7C2
331
7D8
331
7DA
331
7F2
331
7F4
331
800
331
802
331
80E
331
80F
331
825
331
826
331
847
331
849
331
853
331
854
331
85F
331
860
331
876
331
878
331
883
331
884
331
88E
331
88F
331
899
331
89A
331
8A3
331
8A4
102
}
  0
BLOCK_RECORD
  5
222
330
1
100
AcDbSymbolTableRecord
100
AcDbBlockTableRecord
  2
_None
340
0
  0
BLOCK_RECORD
  5
283
330
1
100
AcDbSymbolTableRecord
100
AcDbBlockTableRecord
  2
_Small
340
0
  0
BLOCK_RECORD
  5
287
330
1
100
AcDbSymbolTableRecord
100
AcDbBlockTableRecord
  2
KCAD_OPEN_2
340
0
  0
BLOCK_RECORD
  5
28E
330
1
100
AcDbSymbolTableRecord
100
AcDbBlockTableRecord
  2
KCAD_OPEN30_2
340
0
  0
BLOCK_RECORD
  5
2AD
330
1
100
AcDbSymbolTableRecord
100
AcDbBlockTableRecord
  2
KCAD_OPEN30ANG
340
0
  0
BLOCK_RECORD
  5
2B6
330
1
100
AcDbSymbolTableRecord
100
AcDbBlockTableRecord
  2
KCAD_DOTANG
340
0
  0
BLOCK_RECORD
  5
3F4
330
1
100
AcDbSymbolTableRecord
100
AcDbBlockTableRecord
  2
*D27
340
0
  0
BLOCK_RECORD
  5
430
330
1
100
AcDbSymbolTableRecord
100
AcDbBlockTableRecord
  2
*D28
340
0
  0
BLOCK_RECORD
  5
46C
330
1
100
AcDbSymbolTableRecord
100
AcDbBlockTableRecord
  2
*D29
340
0
  0
BLOCK_RECORD
  5
4B2
330
1
100
AcDbSymbolTableRecord
100
AcDbBlockTableRecord
  2
*D30
340
0
  0
BLOCK_RECORD
  5
4F0
330
1
100
AcDbSymbolTableRecord
100
AcDbBlockTableRecord
  2
*D31
340
0
  0
BLOCK_RECORD
  5
52C
330
1
100
AcDbSymbolTableRecord
100
AcDbBlockTableRecord
  2
*D32
340
0
  0
BLOCK_RECORD
  5
568
330
1
100
AcDbSymbolTableRecord
100
AcDbBlockTableRecord
  2
*D33
340
0
  0
BLOCK_RECORD
  5
5A4
330
1
100
AcDbSymbolTableRecord
100
AcDbBlockTableRecord
  2
*D34
340
0
  0
BLOCK_RECORD
  5
5EC
330
1
100
AcDbSymbolTableRecord
100
AcDbBlockTableRecord
  2
*D35
340
0
  0
BLOCK_RECORD
  5
628
330
1
100
AcDbSymbolTableRecord
100
AcDbBlockTableRecord
  2
*D36
340
0
  0
BLOCK_RECORD
  5
66E
330
1
100
AcDbSymbolTableRecord
100
AcDbBlockTableRecord
  2
*D37
340
0
  0
BLOCK_RECORD
  5
6B5
330
1
100
AcDbSymbolTableRecord
100
AcDbBlockTableRecord
  2
*D38
340
0
  0
BLOCK_RECORD
  5
6C1
330
1
100
AcDbSymbolTableRecord
100
AcDbBlockTableRecord
  2
*D39
340
0
  0
BLOCK_RECORD
  5
6CD
330
1
100
AcDbSymbolTableRecord
100
AcDbBlockTableRecord
  2
*D40
340
0
  0
BLOCK_RECORD
  5
6D9
330
1
100
AcDbSymbolTableRecord
100
AcDbBlockTableRecord
  2
*D41
340
0
  0
BLOCK_RECORD
  5
6E5
330
1
100
AcDbSymbolTableRecord
100
AcDbBlockTableRecord
  2
*D42
340
0
  0
BLOCK_RECORD
  5
6F1
330
1
100
AcDbSymbolTableRecord
100
AcDbBlockTableRecord
  2
*D43
340
0
  0
BLOCK_RECORD
  5
6FD
330
1
100
AcDbSymbolTableRecord
100
AcDbBlockTableRecord
  2
*D44
340
0
  0
BLOCK_RECORD
  5
70A
330
1
100
AcDbSymbolTableRecord
100
AcDbBlockTableRecord
  2
*D45
340
0
  0
BLOCK_RECORD
  5
716
330
1
100
AcDbSymbolTableRecord
100
AcDbBlockTableRecord
  2
*D46
340
0
  0
BLOCK_RECORD
  5
723
330
1
100
AcDbSymbolTableRecord
100
AcDbBlockTableRecord
  2
*D47
340
0
  0
BLOCK_RECORD
  5
72E
330
1
100
AcDbSymbolTableRecord
100
AcDbBlockTableRecord
  2
*D48
340
0
  0
BLOCK_RECORD
  5
7AC
330
1
100
AcDbSymbolTableRecord
100
AcDbBlockTableRecord
  2
*D49
340
0
  0
BLOCK_RECORD
  5
7B8
330
1
100
AcDbSymbolTableRecord
100
AcDbBlockTableRecord
  2
*D50
340
0
  0
BLOCK_RECORD
  5
7C5
330
1
100
AcDbSymbolTableRecord
100
AcDbBlockTableRecord
  2
*D51
340
0
  0
BLOCK_RECORD
  5
7D1
330
1
100
AcDbSymbolTableRecord
100
AcDbBlockTableRecord
  2
*D52
340
0
  0
BLOCK_RECORD
  5
7DE
330
1
100
AcDbSymbolTableRecord
100
AcDbBlockTableRecord
  2
*D53
340
0
  0
BLOCK_RECORD
  5
7F8
330
1
100
AcDbSymbolTableRecord
100
AcDbBlockTableRecord
  2
*D54
340
0
  0
BLOCK_RECORD
  5
806
330
1
100
AcDbSymbolTableRecord
100
AcDbBlockTableRecord
  2
*D55
340
0
  0
BLOCK_RECORD
  5
812
330
1
100
AcDbSymbolTableRecord
100
AcDbBlockTableRecord
  2
*D56
340
0
  0
BLOCK_RECORD
  5
829
330
1
100
AcDbSymbolTableRecord
100
AcDbBlockTableRecord
  2
*D57
340
0
  0
BLOCK_RECORD
  5
84C
330
1
100
AcDbSymbolTableRecord
100
AcDbBlockTableRecord
  2
*D58
340
0
  0
BLOCK_RECORD
  5
857
330
1
100
AcDbSymbolTableRecord
100
AcDbBlockTableRecord
  2
*D59
340
0
  0
BLOCK_RECORD
  5
863
330
1
100
AcDbSymbolTableRecord
100
AcDbBlockTableRecord
  2
*D60
340
0
  0
BLOCK_RECORD
  5
87B
330
1
100
AcDbSymbolTableRecord
100
AcDbBlockTableRecord
  2
*D61
340
0
  0
BLOCK_RECORD
  5
887
330
1
100
AcDbSymbolTableRecord
100
AcDbBlockTableRecord
  2
*D62
340
0
  0
BLOCK_RECORD
  5
892
330
1
100
AcDbSymbolTableRecord
100
AcDbBlockTableRecord
  2
*D63
340
0
  0
BLOCK_RECORD
  5
89D
330
1
100
AcDbSymbolTableRecord
100
AcDbBlockTableRecord
  2
*D64
340
0
  0
ENDTAB
  0
ENDSEC
  0
SECTION
  2
BLOCKS
  0
BLOCK
  5
20
330
1F
100
AcDbEntity
  8
0
100
AcDbBlockBegin
  2
*Model_Space
 70
     0
 71
     0
 10
0.0
 20
0.0
 30
0.0
  3
*Model_Space
  1

  0
ENDBLK
  5
21
330
1F
100
AcDbEntity
  8
0
100
AcDbBlockEnd
  0
BLOCK
  5
75
330
73
100
AcDbEntity
 67
     1
  8
0
100
AcDbBlockBegin
  2
*Paper_Space
 70
     0
 71
     0
 10
0.0
 20
0.0
 30
0.0
  3
*Paper_Space
  1

  0
ENDBLK
  5
76
330
73
100
AcDbEntity
 67
     1
  8
0
100
AcDbBlockEnd
  0
BLOCK
  5
9D2
330
738
100
AcDbEntity
  8
KCAD_DIMS
100
AcDbBlockBegin
  2
KCAD_OPEN
 70
     0
 71
     0
 10
0.0
 20
0.0
 30
0.0
  3
KCAD_OPEN
  1

  0
LINE
  5
79B
330
738
100
AcDbEntity
  8
0
  6
Continuous
 62
     0
370
    -2
100
AcDbLine
 10
0.0
 20
0.0
 30
0.0
 11
-1.0
 21
0.0
 31
0.0
  0
LINE
  5
23
330
738
100
AcDbEntity
  8
0
  6
Continuous
 62
     0
370
    -2
100
AcDbLine
 10
0.0
 20
0.0
 30
0.0
 11
-1.0
 21
0.158384
 31
0.0
  0
LINE
  5
24
330
738
100
AcDbEntity
  8
0
  6
Continuous
 62
     0
370
    -2
100
AcDbLine
 10
0.0
 20
0.0
 30
0.0
 11
-1.0
 21
-0.158384
 31
0.0
  0
ENDBLK
  5
9D3
330
738
100
AcDbEntity
  8
KCAD_DIMS
100
AcDbBlockEnd
  0
BLOCK
  5
9D4
330
3C
100
AcDbEntity
  8
KCAD_DIMS
100
AcDbBlockBegin
  2
KCAD_DOTSMALL
 70
     0
 71
     0
 10
0.0
 20
0.0
 30
0.0
  3
KCAD_DOTSMALL
  1

  0
LWPOLYLINE
  5
3D
330
3C
100
AcDbEntity
  8
KCAD_DIMS
 62
     0
100
AcDbPolyline
 90
        2
 70
     1
 43
0.5
 10
0.06252
 20
0.0
 42
1.0
 10
-0.06262
 20
0.0
 42
1.0
  0
LINE
  5
41
330
3C
100
AcDbEntity
  8
0
  6
Continuous
 62
     0
370
    -2
100
AcDbLine
 10
0.0
 20
0.0
 30
0.0
 11
-1.0
 21
0.0
 31
0.0
  0
ENDBLK
  5
9D5
330
3C
100
AcDbEntity
  8
0
100
AcDbBlockEnd
  0
BLOCK
  5
9D6
330
44
100
AcDbEntity
  8
KCAD_DIMS
100
AcDbBlockBegin
  2
KCAD_NONE
 70
     0
 71
     0
 10
0.0
 20
0.0
 30
0.0
  3
KCAD_NONE
  1

  0
LINE
  5
45
330
44
100
AcDbEntity
  8
0
  6
Continuous
 62
     0
370
    -2
100
AcDbLine
 10
0.0
 20
0.0
 30
0.0
 11
-1.0
 21
0.0
 31
0.0
  0
ENDBLK
  5
9D7
330
44
100
AcDbEntity
  8
0
100
AcDbBlockEnd
  0
BLOCK
  5
9D8
330
FC
100
AcDbEntity
  8
0
100
AcDbBlockBegin
  2
_CLOSED
 70
     0
 71
     0
 10
0.0
 20
0.0
 30
0.0
  3
_CLOSED
  1

  0
LINE
  5
FE
330
FC
100
AcDbEntity
  8
0
  6
Continuous
 62
     0
370
    -2
100
AcDbLine
 10
-1.0
 20
0.166667
 30
0.0
 11
0.0
 21
0.0
 31
0.0
  0
LINE
  5
FF
330
FC
100
AcDbEntity
  8
0
  6
Continuous
 62
     0
370
    -2
100
AcDbLine
 10
0.0
 20
0.0
 30
0.0
 11
-1.0
 21
-0.166667
 31
0.0
  0
LINE
  5
100
330
FC
100
AcDbEntity
  8
0
  6
Continuous
 62
     0
370
    -2
100
AcDbLine
 10
-1.0
 20
0.166667
 30
0.0
 11
-1.0
 21
-0.166667
 31
0.0
  0
LINE
  5
101
330
FC
100
AcDbEntity
  8
0
  6
Continuous
 62
     0
370
    -2
100
AcDbLine
 10
0.0
 20
0.0
 30
0.0
 11
-1.0
 21
0.0
 31
0.0
  0
ENDBLK
  5
9D9
330
FC
100
AcDbEntity
  8
0
100
AcDbBlockEnd
  0
BLOCK
  5
9DA
330
103
100
AcDbEntity
  8
0
100
AcDbBlockBegin
  2
_DOT
 70
     0
 71
     0
 10
0.0
 20
0.0
 30
0.0
  3
_DOT
  1

  0
LWPOLYLINE
  5
105
330
103
100
AcDbEntity
  8
0
  6
ByBlock
 62
     0
100
AcDbPolyline
 90
        2
 70
     1
 43
0.5
 10
-0.25
 20
0.0
 42
1.0
 10
0.25
 20
0.0
 42
1.0
  0
LINE
  5
109
330
103
100
AcDbEntity
  8
0
  6
Continuous
 62
     0
370
    -2
100
AcDbLine
 10
-0.5
 20
0.0
 30
0.0
 11
-1.0
 21
0.0
 31
0.0
  0
ENDBLK
  5
9DB
330
103
100
AcDbEntity
  8
0
100
AcDbBlockEnd
  0
BLOCK
  5
9DC
330
10B
100
AcDbEntity
  8
0
100
AcDbBlockBegin
  2
_CLOSEDBLANK
 70
     0
 71
     0
 10
0.0
 20
0.0
 30
0.0
  3
_CLOSEDBLANK
  1

  0
LINE
  5
10D
330
10B
100
AcDbEntity
  8
0
  6
Continuous
 62
     0
370
    -2
100
AcDbLine
 10
-1.0
 20
0.166667
 30
0.0
 11
0.0
 21
0.0
 31
0.0
  0
LINE
  5
10E
330
10B
100
AcDbEntity
  8
0
  6
Continuous
 62
     0
370
    -2
100
AcDbLine
 10
0.0
 20
0.0
 30
0.0
 11
-1.0
 21
-0.166667
 31
0.0
  0
LINE
  5
10F
330
10B
100
AcDbEntity
  8
0
  6
Continuous
 62
     0
370
    -2
100
AcDbLine
 10
-1.0
 20
0.166667
 30
0.0
 11
-1.0
 21
-0.166667
 31
0.0
  0
ENDBLK
  5
9DD
330
10B
100
AcDbEntity
  8
0
100
AcDbBlockEnd
  0
BLOCK
  5
9DE
330
111
100
AcDbEntity
  8
0
100
AcDbBlockBegin
  2
_OBLIQUE
 70
     0
 71
     0
 10
0.0
 20
0.0
 30
0.0
  3
_OBLIQUE
  1

  0
LINE
  5
113
330
111
100
AcDbEntity
  8
0
  6
Continuous
 62
     0
370
    -2
100
AcDbLine
 10
-0.5
 20
-0.5
 30
0.0
 11
0.5
 21
0.5
 31
0.0
  0
ENDBLK
  5
9DF
330
111
100
AcDbEntity
  8
0
100
AcDbBlockEnd
  0
BLOCK
  5
9E0
330
115
100
AcDbEntity
  8
0
100
AcDbBlockBegin
  2
_ARCHTICK
 70
     0
 71
     0
 10
0.0
 20
0.0
 30
0.0
  3
_ARCHTICK
  1

  0
LWPOLYLINE
  5
117
330
115
100
AcDbEntity
  8
0
  6
ByBlock
 62
     0
100
AcDbPolyline
 90
        2
 70
     0
 43
0.15
 10
-0.5
 20
-0.5
 10
0.5
 20
0.5
  0
ENDBLK
  5
9E1
330
115
100
AcDbEntity
  8
0
100
AcDbBlockEnd
  0
BLOCK
  5
9E2
330
11C
100
AcDbEntity
  8
0
100
AcDbBlockBegin
  2
_OPEN
 70
     0
 71
     0
 10
0.0
 20
0.0
 30
0.0
  3
_OPEN
  1

  0
LINE
  5
11E
330
11C
100
AcDbEntity
  8
0
  6
Continuous
 62
     0
370
    -2
100
AcDbLine
 10
-1.0
 20
0.166667
 30
0.0
 11
0.0
 21
0.0
 31
0.0
  0
LINE
  5
11F
330
11C
100
AcDbEntity
  8
0
  6
Continuous
 62
     0
370
    -2
100
AcDbLine
 10
0.0
 20
0.0
 30
0.0
 11
-1.0
 21
-0.166667
 31
0.0
  0
LINE
  5
120
330
11C
100
AcDbEntity
  8
0
  6
Continuous
 62
     0
370
    -2
100
AcDbLine
 10
0.0
 20
0.0
 30
0.0
 11
-1.0
 21
0.0
 31
0.0
  0
ENDBLK
  5
9E3
330
11C
100
AcDbEntity
  8
0
100
AcDbBlockEnd
  0
BLOCK
  5
9E4
330
122
100
AcDbEntity
  8
0
100
AcDbBlockBegin
  2
_ORIGIN
 70
     0
 71
     0
 10
0.0
 20
0.0
 30
0.0
  3
_ORIGIN
  1

  0
CIRCLE
  5
124
330
122
100
AcDbEntity
  8
0
  6
ByBlock
 62
     0
100
AcDbCircle
 10
0.0
 20
0.0
 30
0.0
 40
0.5
  0
LINE
  5
125
330
122
100
AcDbEntity
  8
0
  6
Continuous
 62
     0
370
    -2
100
AcDbLine
 10
0.0
 20
0.0
 30
0.0
 11
-1.0
 21
0.0
 31
0.0
  0
ENDBLK
  5
9E5
330
122
100
AcDbEntity
  8
0
100
AcDbBlockEnd
  0
BLOCK
  5
9E6
330
127
100
AcDbEntity
  8
0
100
AcDbBlockBegin
  2
_OPEN90
 70
     0
 71
     0
 10
0.0
 20
0.0
 30
0.0
  3
_OPEN90
  1

  0
LINE
  5
129
330
127
100
AcDbEntity
  8
0
  6
Continuous
 62
     0
370
    -2
100
AcDbLine
 10
-0.5
 20
0.5
 30
0.0
 11
0.0
 21
0.0
 31
0.0
  0
LINE
  5
12A
330
127
100
AcDbEntity
  8
0
  6
Continuous
 62
     0
370
    -2
100
AcDbLine
 10
0.0
 20
0.0
 30
0.0
 11
-0.5
 21
-0.5
 31
0.0
  0
LINE
  5
12B
330
127
100
AcDbEntity
  8
0
  6
Continuous
 62
     0
370
    -2
100
AcDbLine
 10
0.0
 20
0.0
 30
0.0
 11
-1.0
 21
0.0
 31
0.0
  0
ENDBLK
  5
9E7
330
127
100
AcDbEntity
  8
0
100
AcDbBlockEnd
  0
BLOCK
  5
9E8
330
12D
100
AcDbEntity
  8
0
100
AcDbBlockBegin
  2
_OPEN30
 70
     0
 71
     0
 10
0.0
 20
0.0
 30
0.0
  3
_OPEN30
  1

  0
LINE
  5
12F
330
12D
100
AcDbEntity
  8
0
  6
Continuous
 62
     0
370
    -2
100
AcDbLine
 10
-1.0
 20
0.267949
 30
0.0
 11
0.0
 21
0.0
 31
0.0
  0
LINE
  5
130
330
12D
100
AcDbEntity
  8
0
  6
Continuous
 62
     0
370
    -2
100
AcDbLine
 10
0.0
 20
0.0
 30
0.0
 11
-1.0
 21
-0.267949
 31
0.0
  0
LINE
  5
131
330
12D
100
AcDbEntity
  8
0
  6
Continuous
 62
     0
370
    -2
100
AcDbLine
 10
0.0
 20
0.0
 30
0.0
 11
-1.0
 21
0.0
 31
0.0
  0
ENDBLK
  5
9E9
330
12D
100
AcDbEntity
  8
0
100
AcDbBlockEnd
  0
BLOCK
  5
9EA
330
133
100
AcDbEntity
  8
0
100
AcDbBlockBegin
  2
_DOTBLANK
 70
     0
 71
     0
 10
0.0
 20
0.0
 30
0.0
  3
_DOTBLANK
  1

  0
CIRCLE
  5
135
330
133
100
AcDbEntity
  8
0
  6
ByBlock
 62
     0
100
AcDbCircle
 10
0.0
 20
0.0
 30
0.0
 40
0.5
  0
LINE
  5
136
330
133
100
AcDbEntity
  8
0
  6
Continuous
 62
     0
370
    -2
100
AcDbLine
 10
-0.5
 20
0.0
 30
0.0
 11
-1.0
 21
0.0
 31
0.0
  0
ENDBLK
  5
9EB
330
133
100
AcDbEntity
  8
0
100
AcDbBlockEnd
  0
BLOCK
  5
9EC
330
138
100
AcDbEntity
  8
0
100
AcDbBlockBegin
  2
_DOTSMALL
 70
     0
 71
     0
 10
0.0
 20
0.0
 30
0.0
  3
_DOTSMALL
  1

  0
LWPOLYLINE
  5
13A
330
138
100
AcDbEntity
  8
0
  6
ByBlock
 62
     0
100
AcDbPolyline
 90
        2
 70
     1
 43
0.5
 10
-0.0625
 20
0.0
 42
1.0
 10
0.0625
 20
0.0
 42
1.0
  0
ENDBLK
  5
9ED
330
138
100
AcDbEntity
  8
0
100
AcDbBlockEnd
  0
BLOCK
  5
9EE
330
13F
100
AcDbEntity
  8
0
100
AcDbBlockBegin
  2
_BOXFILLED
 70
     0
 71
     0
 10
0.0
 20
0.0
 30
0.0
  3
_BOXFILLED
  1

  0
SOLID
  5
141
330
13F
100
AcDbEntity
  8
0
  6
ByBlock
 62
     0
100
AcDbTrace
 10
-0.5
 20
0.5
 30
0.0
 11
0.5
 21
0.5
 31
0.0
 12
-0.5
 22
-0.5
 32
0.0
 13
0.5
 23
-0.5
 33
0.0
  0
LINE
  5
142
330
13F
100
AcDbEntity
  8
0
  6
Continuous
 62
     0
370
    -2
100
AcDbLine
 10
-0.5
 20
0.0
 30
0.0
 11
-1.0
 21
0.0
 31
0.0
  0
ENDBLK
  5
9EF
330
13F
100
AcDbEntity
  8
0
100
AcDbBlockEnd
  0
BLOCK
  5
9F0
330
144
100
AcDbEntity
  8
0
100
AcDbBlockBegin
  2
_BOXBLANK
 70
     0
 71
     0
 10
0.0
 20
0.0
 30
0.0
  3
_BOXBLANK
  1

  0
LINE
  5
146
330
144
100
AcDbEntity
  8
0
  6
Continuous
 62
     0
370
    -2
100
AcDbLine
 10
-0.5
 20
-0.5
 30
0.0
 11
0.5
 21
-0.5
 31
0.0
  0
LINE
  5
147
330
144
100
AcDbEntity
  8
0
  6
Continuous
 62
     0
370
    -2
100
AcDbLine
 10
0.5
 20
-0.5
 30
0.0
 11
0.5
 21
0.5
 31
0.0
  0
LINE
  5
148
330
144
100
AcDbEntity
  8
0
  6
Continuous
 62
     0
370
    -2
100
AcDbLine
 10
0.5
 20
0.5
 30
0.0
 11
-0.5
 21
0.5
 31
0.0
  0
LINE
  5
149
330
144
100
AcDbEntity
  8
0
  6
Continuous
 62
     0
370
    -2
100
AcDbLine
 10
-0.5
 20
0.5
 30
0.0
 11
-0.5
 21
-0.5
 31
0.0
  0
LINE
  5
14A
330
144
100
AcDbEntity
  8
0
  6
Continuous
 62
     0
370
    -2
100
AcDbLine
 10
-0.5
 20
0.0
 30
0.0
 11
-1.0
 21
0.0
 31
0.0
  0
ENDBLK
  5
9F1
330
144
100
AcDbEntity
  8
0
100
AcDbBlockEnd
  0
BLOCK
  5
9F2
330
14C
100
AcDbEntity
  8
0
100
AcDbBlockBegin
  2
_DATUMFILLED
 70
     0
 71
     0
 10
0.0
 20
0.0
 30
0.0
  3
_DATUMFILLED
  1

  0
SOLID
  5
14E
330
14C
100
AcDbEntity
  8
0
  6
ByBlock
 62
     0
100
AcDbTrace
 10
0.0
 20
0.5773500000000001
 30
0.0
 11
-1.0
 21
0.0
 31
0.0
 12
0.0
 22
-0.5773500000000001
 32
0.0
 13
0.0
 23
-0.5773500000000001
 33
0.0
  0
ENDBLK
  5
9F3
330
14C
100
AcDbEntity
  8
0
100
AcDbBlockEnd
  0
BLOCK
  5
9F4
330
150
100
AcDbEntity
  8
0
100
AcDbBlockBegin
  2
_DATUMBLANK
 70
     0
 71
     0
 10
0.0
 20
0.0
 30
0.0
  3
_DATUMBLANK
  1

  0
LINE
  5
152
330
150
100
AcDbEntity
  8
0
  6
Continuous
 62
     0
370
    -2
100
AcDbLine
 10
0.0
 20
0.5773500000000001
 30
0.0
 11
-1.0
 21
0.0
 31
0.0
  0
LINE
  5
153
330
150
100
AcDbEntity
  8
0
  6
Continuous
 62
     0
370
    -2
100
AcDbLine
 10
-1.0
 20
0.0
 30
0.0
 11
0.0
 21
-0.5773500000000001
 31
0.0
  0
LINE
  5
154
330
150
100
AcDbEntity
  8
0
  6
Continuous
 62
     0
370
    -2
100
AcDbLine
 10
0.0
 20
-0.5773500000000001
 30
0.0
 11
0.0
 21
0.5773500000000001
 31
0.0
  0
ENDBLK
  5
9F5
330
150
100
AcDbEntity
  8
0
100
AcDbBlockEnd
  0
BLOCK
  5
9F6
330
156
100
AcDbEntity
  8
0
100
AcDbBlockBegin
  2
_INTEGRAL
 70
     0
 71
     0
 10
0.0
 20
0.0
 30
0.0
  3
_INTEGRAL
  1

  0
ARC
  5
158
330
156
100
AcDbEntity
  8
0
  6
ByBlock
 62
     0
100
AcDbCircle
 10
0.444888
 20
-0.091335
 30
0.0
 40
0.454167
100
AcDbArc
 50
102.0
 51
168.0
  0
ARC
  5
159
330
156
100
AcDbEntity
  8
0
  6
ByBlock
 62
     0
100
AcDbCircle
 10
-0.444888
 20
0.091335
 30
0.0
 40
0.454167
100
AcDbArc
 50
282.0
 51
348.0
  0
ENDBLK
  5
9F7
330
156
100
AcDbEntity
  8
0
100
AcDbBlockEnd
  0
BLOCK
  5
9F8
330
1F1
100
AcDbEntity
  8
0
100
AcDbBlockBegin
  2
_Origin2
 70
     0
 71
     0
 10
0.0
 20
0.0
 30
0.0
  3
_Origin2
  1

  0
CIRCLE
  5
1F2
330
1F1
100
AcDbEntity
  8
0
  6
Continuous
 62
     0
370
    -2
100
AcDbCircle
 10
0.0
 20
0.0
 30
0.0
 40
0.5
  0
CIRCLE
  5
1F3
330
1F1
100
AcDbEntity
  8
0
  6
Continuous
 62
     0
370
    -2
100
AcDbCircle
 10
0.0
 20
0.0
 30
0.0
 40
0.25
  0
LINE
  5
1F4
330
1F1
100
AcDbEntity
  8
0
  6
Continuous
 62
     0
370
    -2
100
AcDbLine
 10
-0.5
 20
0.0
 30
0.0
 11
-1.0
 21
0.0
 31
0.0
  0
ENDBLK
  5
9F9
330
1F1
100
AcDbEntity
  8
0
100
AcDbBlockEnd
  0
BLOCK
  5
9FA
330
1F7
100
AcDbEntity
  8
0
100
AcDbBlockBegin
  2
KCAD_OPEN30
 70
     0
 71
     0
 10
0.0
 20
0.0
 30
0.0
  3
KCAD_OPEN30
  1

  0
LINE
  5
1F8
330
1F7
100
AcDbEntity
  8
0
  6
Continuous
 62
     0
370
    -2
100
AcDbLine
 10
0.0
 20
0.0
 30
0.0
 11
-1.0
 21
0.0
 31
0.0
  0
LINE
  5
1F9
330
1F7
100
AcDbEntity
  8
0
  6
Continuous
 62
     0
370
    -2
100
AcDbLine
 10
0.0
 20
0.0
 30
0.0
 11
-1.0
 21
0.2679491924311227
 31
0.0
  0
LINE
  5
1FA
330
1F7
100
AcDbEntity
  8
0
  6
Continuous
 62
     0
370
    -2
100
AcDbLine
 10
0.0
 20
0.0
 30
0.0
 11
-1.0
 21
-0.2679491924311227
 31
0.0
  0
ENDBLK
  5
9FB
330
1F7
100
AcDbEntity
  8
0
100
AcDbBlockEnd
  0
BLOCK
  5
9FC
330
222
100
AcDbEntity
  8
0
100
AcDbBlockBegin
  2
_None
 70
     0
 71
     0
 10
0.0
 20
0.0
 30
0.0
  3
_None
  1

  0
ENDBLK
  5
9FD
330
222
100
AcDbEntity
  8
0
100
AcDbBlockEnd
  0
BLOCK
  5
9FE
330
283
100
AcDbEntity
  8
0
100
AcDbBlockBegin
  2
_Small
 70
     0
 71
     0
 10
0.0
 20
0.0
 30
0.0
  3
_Small
  1

  0
CIRCLE
  5
284
330
283
100
AcDbEntity
  8
0
  6
ByBlock
 62
     0
370
    -2
100
AcDbCircle
 10
0.0
 20
0.0
 30
0.0
 40
0.25
  0
ENDBLK
  5
9FF
330
283
100
AcDbEntity
  8
0
100
AcDbBlockEnd
  0
BLOCK
  5
A00
330
287
100
AcDbEntity
  8
0
100
AcDbBlockBegin
  2
KCAD_OPEN_2
 70
     0
 71
     0
 10
0.0
 20
0.0
 30
0.0
  3
KCAD_OPEN_2
  1

  0
LINE
  5
288
330
287
100
AcDbEntity
  8
0
  6
Continuous
 62
     0
370
    -2
100
AcDbLine
 10
0.0
 20
0.0
 30
0.0
 11
-2.0
 21
0.0
 31
0.0
  0
LINE
  5
289
330
287
100
AcDbEntity
  8
0
  6
Continuous
 62
     0
370
    -2
100
AcDbLine
 10
0.0
 20
0.0
 30
0.0
 11
-2.0
 21
0.3167688806490725
 31
0.0
  0
LINE
  5
28A
330
287
100
AcDbEntity
  8
0
  6
Continuous
 62
     0
370
    -2
100
AcDbLine
 10
0.0
 20
0.0
 30
0.0
 11
-2.0
 21
-0.3167688806490725
 31
0.0
  0
LINE
  5
28B
330
287
100
AcDbEntity
  8
0
  6
Continuous
 62
     0
370
    -2
100
AcDbLine
 10
-2.0
 20
0.0
 30
0.0
 11
-4.0
 21
0.0
 31
0.0
  0
ENDBLK
  5
A01
330
287
100
AcDbEntity
  8
0
100
AcDbBlockEnd
  0
BLOCK
  5
A02
330
28E
100
AcDbEntity
  8
0
100
AcDbBlockBegin
  2
KCAD_OPEN30_2
 70
     0
 71
     0
 10
0.0
 20
0.0
 30
0.0
  3
KCAD_OPEN30_2
  1

  0
LINE
  5
28F
330
28E
100
AcDbEntity
  8
0
  6
Continuous
 62
     0
370
    -2
100
AcDbLine
 10
0.0
 20
0.0
 30
0.0
 11
-2.0
 21
0.0
 31
0.0
  0
LINE
  5
290
330
28E
100
AcDbEntity
  8
0
  6
Continuous
 62
     0
370
    -2
100
AcDbLine
 10
0.0
 20
0.0
 30
0.0
 11
-2.0
 21
0.5358983848622455
 31
0.0
  0
LINE
  5
291
330
28E
100
AcDbEntity
  8
0
  6
Continuous
 62
     0
370
    -2
100
AcDbLine
 10
0.0
 20
0.0
 30
0.0
 11
-2.0
 21
-0.5358983848622455
 31
0.0
  0
LINE
  5
292
330
28E
100
AcDbEntity
  8
0
  6
Continuous
 62
     0
370
    -2
100
AcDbLine
 10
-2.0
 20
0.0
 30
0.0
 11
-4.0
 21
0.0
 31
0.0
  0
ENDBLK
  5
A03
330
28E
100
AcDbEntity
  8
0
100
AcDbBlockEnd
  0
BLOCK
  5
A04
330
2AD
100
AcDbEntity
  8
0
100
AcDbBlockBegin
  2
KCAD_OPEN30ANG
 70
     0
 71
     0
 10
0.0
 20
0.0
 30
0.0
  3
KCAD_OPEN30ANG
  1

  0
LINE
  5
2D7
330
2AD
100
AcDbEntity
  8
0
  6
Continuous
 62
     0
370
    -2
100
AcDbLine
 10
0.0
 20
0.0
 30
0.0
 11
-1.0
 21
-0.267949
 31
0.0
  0
LINE
  5
2D8
330
2AD
100
AcDbEntity
  8
0
  6
Continuous
 62
     0
370
    -2
100
AcDbLine
 10
-1.0
 20
0.267949
 30
0.0
 11
0.0
 21
0.0
 31
0.0
  0
ENDBLK
  5
A05
330
2AD
100
AcDbEntity
  8
0
100
AcDbBlockEnd
  0
BLOCK
  5
A06
330
2B6
100
AcDbEntity
  8
0
100
AcDbBlockBegin
  2
KCAD_DOTANG
 70
     0
 71
     0
 10
0.0
 20
0.0
 30
0.0
  3
KCAD_DOTANG
  1

  0
LWPOLYLINE
  5
2DD
330
2B6
100
AcDbEntity
  8
0
  6
ByBlock
 62
     0
100
AcDbPolyline
 90
        2
 70
     1
 43
0.5
 10
-0.25
 20
0.0
 42
1.0
 10
0.25
 20
0.0
 42
1.0
  0
ENDBLK
  5
A07
330
2B6
100
AcDbEntity
  8
0
100
AcDbBlockEnd
  0
BLOCK
  5
A08
330
3F4
100
AcDbEntity
  8
0
100
AcDbBlockBegin
  2
*D27
 70
     1
 71
     0
 10
0.0
 20
0.0
 30
0.0
  3
*D27
  1

  0
LINE
  5
426
330
3F4
100
AcDbEntity
  8
KCAD_DIMS
 62
     0
370
    -2
100
AcDbLine
 10
110.6275298630911
 20
155.7878495226276
 30
0.0
 11
110.6275298630911
 21
133.9202127659562
 31
0.0
  0
LINE
  5
427
330
3F4
100
AcDbEntity
  8
KCAD_DIMS
 62
     0
370
    -2
100
AcDbLine
 10
183.2875298630911
 20
155.7878495226276
 30
0.0
 11
183.2875298630911
 21
133.9202127659569
 31
0.0
  0
INSERT
  5
428
330
3F4
100
AcDbEntity
  8
KCAD_DIMS
 62
     0
370
    -2
100
AcDbBlockReference
  2
_OPEN30
 10
110.6275298630911
 20
154.7878495226276
 30
0.0
 41
2.5
 42
2.5
 43
2.5
 50
180.0
  0
INSERT
  5
429
330
3F4
100
AcDbEntity
  8
KCAD_DIMS
 62
     0
370
    -2
100
AcDbBlockReference
  2
_OPEN30
 10
183.2875298630911
 20
154.7878495226276
 30
0.0
 41
2.5
 42
2.5
 43
2.5
  0
LINE
  5
42A
330
3F4
100
AcDbEntity
  8
KCAD_DIMS
 62
     0
370
    -2
100
AcDbLine
 10
113.1275298630911
 20
154.7878495226276
 30
0.0
 11
180.7875298630911
 21
154.7878495226276
 31
0.0
  0
POINT
  5
42B
330
3F4
100
AcDbEntity
  8
DEFPOINTS
 62
     0
370
    15
100
AcDbPoint
 10
110.6275298630911
 20
132.9202127659562
 30
0.0
  0
POINT
  5
42C
330
3F4
100
AcDbEntity
  8
DEFPOINTS
 62
     0
370
    15
100
AcDbPoint
 10
183.2875298630911
 20
132.9202127659569
 30
0.0
  0
POINT
  5
42D
330
3F4
100
AcDbEntity
  8
DEFPOINTS
 62
     0
370
    15
100
AcDbPoint
 10
183.2875298630911
 20
154.7878495226276
 30
0.0
  0
MTEXT
  5
42E
330
3F4
100
AcDbEntity
  8
KCAD_DIMS
 62
     0
100
AcDbMText
 10
146.9575298630911
 20
156.9211825226276
 30
0.0
 40
3.2
 41
0.0
 71
     5
 72
     1
  1
\A1;72.66
  7
KCADDIMSTANDARD
 73
     1
 44
1.0
  0
ENDBLK
  5
A09
330
3F4
100
AcDbEntity
  8
0
100
AcDbBlockEnd
  0
BLOCK
  5
A0A
330
430
100
AcDbEntity
  8
0
100
AcDbBlockBegin
  2
*D28
 70
     1
 71
     0
 10
0.0
 20
0.0
 30
0.0
  3
*D28
  1

  0
LINE
  5
462
330
430
100
AcDbEntity
  8
KCAD_DIMS
 62
     0
370
    -2
100
AcDbLine
 10
195.2875298630911
 20
170.8750525409819
 30
0.0
 11
195.2875298630911
 21
139.6202127659574
 31
0.0
  0
LINE
  5
463
330
430
100
AcDbEntity
  8
KCAD_DIMS
 62
     0
370
    -2
100
AcDbLine
 10
110.6275298630911
 20
170.8750525409819
 30
0.0
 11
110.6275298630911
 21
133.9202127659575
 31
0.0
  0
INSERT
  5
464
330
430
100
AcDbEntity
  8
KCAD_DIMS
 62
     0
370
    -2
100
AcDbBlockReference
  2
_OPEN30
 10
195.2875298630911
 20
169.8750525409819
 30
0.0
 41
2.5
 42
2.5
 43
2.5
  0
INSERT
  5
465
330
430
100
AcDbEntity
  8
KCAD_DIMS
 62
     0
370
    -2
100
AcDbBlockReference
  2
_OPEN30
 10
110.6275298630911
 20
169.8750525409819
 30
0.0
 41
2.5
 42
2.5
 43
2.5
 50
180.0
  0
LINE
  5
466
330
430
100
AcDbEntity
  8
KCAD_DIMS
 62
     0
370
    -2
100
AcDbLine
 10
192.7875298630911
 20
169.8750525409819
 30
0.0
 11
113.127529863091
 21
169.8750525409819
 31
0.0
  0
POINT
  5
467
330
430
100
AcDbEntity
  8
DEFPOINTS
 62
     0
370
    15
100
AcDbPoint
 10
195.2875298630911
 20
138.6202127659574
 30
0.0
  0
POINT
  5
468
330
430
100
AcDbEntity
  8
DEFPOINTS
 62
     0
370
    15
100
AcDbPoint
 10
110.6275298630911
 20
132.9202127659575
 30
0.0
  0
POINT
  5
469
330
430
100
AcDbEntity
  8
DEFPOINTS
 62
     0
370
    15
100
AcDbPoint
 10
110.6275298630911
 20
169.8750525409819
 30
0.0
  0
MTEXT
  5
46A
330
430
100
AcDbEntity
  8
KCAD_DIMS
 62
     0
100
AcDbMText
 10
152.9575298630911
 20
172.0083855409819
 30
0.0
 40
3.2
 41
0.0
 71
     5
 72
     1
  1
\A1;84.66
  7
KCADDIMSTANDARD
 73
     1
 44
1.0
  0
ENDBLK
  5
A0B
330
430
100
AcDbEntity
  8
0
100
AcDbBlockEnd
  0
BLOCK
  5
A0C
330
46C
100
AcDbEntity
  8
0
100
AcDbBlockBegin
  2
*D29
 70
     1
 71
     0
 10
0.0
 20
0.0
 30
0.0
  3
*D29
  1

  0
LINE
  5
49E
330
46C
100
AcDbEntity
  8
KCAD_DIMS
 62
     0
370
    -2
100
AcDbLine
 10
183.2875298630911
 20
155.7878495226276
 30
0.0
 11
183.2875298630911
 21
137.1202127659574
 31
0.0
  0
LINE
  5
49F
330
46C
100
AcDbEntity
  8
KCAD_DIMS
 62
     0
370
    -2
100
AcDbLine
 10
195.2875298630911
 20
155.7878495226276
 30
0.0
 11
195.2875298630911
 21
139.6202127659574
 31
0.0
  0
INSERT
  5
4A0
330
46C
100
AcDbEntity
  8
KCAD_DIMS
 62
     0
370
    -2
100
AcDbBlockReference
  2
_OPEN30
 10
183.2875298630911
 20
154.7878495226276
 30
0.0
 41
2.5
 42
2.5
 43
2.5
 50
180.0
  0
INSERT
  5
4A1
330
46C
100
AcDbEntity
  8
KCAD_DIMS
 62
     0
370
    -2
100
AcDbBlockReference
  2
_OPEN30
 10
195.2875298630911
 20
154.7878495226276
 30
0.0
 41
2.5
 42
2.5
 43
2.5
  0
LINE
  5
4A2
330
46C
100
AcDbEntity
  8
KCAD_DIMS
 62
     0
370
    -2
100
AcDbLine
 10
185.7875298630911
 20
154.7878495226276
 30
0.0
 11
192.7875298630911
 21
154.7878495226276
 31
0.0
  0
POINT
  5
4A3
330
46C
100
AcDbEntity
  8
DEFPOINTS
 62
     0
370
    15
100
AcDbPoint
 10
183.2875298630911
 20
136.1202127659574
 30
0.0
  0
POINT
  5
4A4
330
46C
100
AcDbEntity
  8
DEFPOINTS
 62
     0
370
    15
100
AcDbPoint
 10
195.2875298630911
 20
138.6202127659574
 30
0.0
  0
POINT
  5
4A5
330
46C
100
AcDbEntity
  8
DEFPOINTS
 62
     0
370
    15
100
AcDbPoint
 10
195.2875298630911
 20
154.7878495226276
 30
0.0
  0
MTEXT
  5
4A6
330
46C
100
AcDbEntity
  8
KCAD_DIMS
 62
     0
100
AcDbMText
 10
189.2875298630911
 20
156.9211825226276
 30
0.0
 40
3.2
 41
0.0
 71
     5
 72
     1
  1
\A1;12
  7
KCADDIMSTANDARD
 73
     1
 44
1.0
  0
ENDBLK
  5
A0D
330
46C
100
AcDbEntity
  8
0
100
AcDbBlockEnd
  0
BLOCK
  5
A0E
330
4B2
100
AcDbEntity
  8
0
100
AcDbBlockBegin
  2
*D30
 70
     1
 71
     0
 10
0.0
 20
0.0
 30
0.0
  3
*D30
  1

  0
LINE
  5
4E4
330
4B2
100
AcDbEntity
  8
KCAD_DIMS
 62
     0
370
    -2
100
AcDbLine
 10
212.8135298630912
 20
94.13707650856696
 30
0.0
 11
212.8135298630912
 21
119.9688106723244
 31
0.0
  0
LINE
  5
4E5
330
4B2
100
AcDbEntity
  8
KCAD_DIMS
 62
     0
370
    -2
100
AcDbLine
 10
195.2875298630912
 20
94.13707650856696
 30
0.0
 11
195.2875298630912
 21
108.9202127659575
 31
0.0
  0
INSERT
  5
4E6
330
4B2
100
AcDbEntity
  8
KCAD_DIMS
 62
     0
370
    -2
100
AcDbBlockReference
  2
_OPEN30
 10
212.8135298630912
 20
95.13707650856696
 30
0.0
 41
3.0
 42
3.0
 43
3.0
 50
180.0
  0
INSERT
  5
4E7
330
4B2
100
AcDbEntity
  8
KCAD_DIMS
 62
     0
370
    -2
100
AcDbBlockReference
  2
_OPEN30
 10
195.2875298630912
 20
95.13707650856696
 30
0.0
 41
3.0
 42
3.0
 43
3.0
  0
LINE
  5
4E8
330
4B2
100
AcDbEntity
  8
KCAD_DIMS
 62
     0
370
    -2
100
AcDbLine
 10
212.8135298630912
 20
95.13707650856696
 30
0.0
 11
195.2875298630912
 21
95.13707650856696
 31
0.0
  0
LINE
  5
4E9
330
4B2
100
AcDbEntity
  8
KCAD_DIMS
 62
     0
370
    -2
100
AcDbLine
 10
215.8135298630912
 20
95.13707650856696
 30
0.0
 11
244.8897509584885
 21
95.13707650856696
 31
0.0
  0
LINE
  5
4EA
330
4B2
100
AcDbEntity
  8
KCAD_DIMS
 62
     0
370
    -2
100
AcDbLine
 10
192.2875298630912
 20
95.13707650856696
 30
0.0
 11
190.2875298630912
 21
95.13707650856696
 31
0.0
  0
POINT
  5
4EB
330
4B2
100
AcDbEntity
  8
DEFPOINTS
 62
     0
370
    15
100
AcDbPoint
 10
212.8135298630912
 20
120.9688106723244
 30
0.0
  0
POINT
  5
4EC
330
4B2
100
AcDbEntity
  8
DEFPOINTS
 62
     0
370
    15
100
AcDbPoint
 10
195.2875298630912
 20
109.9202127659575
 30
0.0
  0
POINT
  5
4ED
330
4B2
100
AcDbEntity
  8
DEFPOINTS
 62
     0
370
    15
100
AcDbPoint
 10
195.2875298630912
 20
95.13707650856696
 30
0.0
  0
MTEXT
  5
4EE
330
4B2
100
AcDbEntity
  8
KCAD_DIMS
 62
     0
100
AcDbMText
 10
235.4874451970511
 20
97.27040950856697
 30
0.0
 40
3.2
 41
0.0
 71
     5
 72
     1
  1
\A1;F.B.=17.526
  7
KCADDIMSTANDARD
 73
     1
 44
1.0
  0
ENDBLK
  5
A0F
330
4B2
100
AcDbEntity
  8
0
100
AcDbBlockEnd
  0
BLOCK
  5
A10
330
4F0
100
AcDbEntity
  8
0
100
AcDbBlockBegin
  2
*D31
 70
     1
 71
     0
 10
0.0
 20
0.0
 30
0.0
  3
*D31
  1

  0
LINE
  5
522
330
4F0
100
AcDbEntity
  8
KCAD_DIMS
 62
     0
370
    -2
100
AcDbLine
 10
98.27036702198458
 20
114.9202127659575
 30
0.0
 11
109.627529863091
 21
114.9202127659575
 31
0.0
  0
LINE
  5
523
330
4F0
100
AcDbEntity
  8
KCAD_DIMS
 62
     0
370
    -2
100
AcDbLine
 10
98.27036702198457
 20
132.9202127659575
 30
0.0
 11
109.627529863091
 21
132.9202127659575
 31
0.0
  0
INSERT
  5
524
330
4F0
100
AcDbEntity
  8
KCAD_DIMS
 62
     0
370
    -2
100
AcDbBlockReference
  2
_OPEN30
 10
99.27036702198458
 20
114.9202127659575
 30
0.0
 41
2.5
 42
2.5
 43
2.5
 50
270.0
  0
INSERT
  5
525
330
4F0
100
AcDbEntity
  8
KCAD_DIMS
 62
     0
370
    -2
100
AcDbBlockReference
  2
_OPEN30
 10
99.27036702198455
 20
132.9202127659575
 30
0.0
 41
2.5
 42
2.5
 43
2.5
 50
90.00000000000006
  0
LINE
  5
526
330
4F0
100
AcDbEntity
  8
KCAD_DIMS
 62
     0
370
    -2
100
AcDbLine
 10
99.27036702198458
 20
117.4202127659575
 30
0.0
 11
99.27036702198455
 21
130.4202127659575
 31
0.0
  0
POINT
  5
527
330
4F0
100
AcDbEntity
  8
DEFPOINTS
 62
     0
370
    15
100
AcDbPoint
 10
110.6275298630911
 20
114.9202127659575
 30
0.0
  0
POINT
  5
528
330
4F0
100
AcDbEntity
  8
DEFPOINTS
 62
     0
370
    15
100
AcDbPoint
 10
110.6275298630911
 20
132.9202127659575
 30
0.0
  0
POINT
  5
529
330
4F0
100
AcDbEntity
  8
DEFPOINTS
 62
     0
370
    15
100
AcDbPoint
 10
99.27036702198455
 20
132.9202127659575
 30
0.0
  0
MTEXT
  5
52A
330
4F0
100
AcDbEntity
  8
KCAD_DIMS
 62
     0
100
AcDbMText
 10
97.13703402198458
 20
125.1339141271563
 30
0.0
 40
3.2
 41
0.0
 71
     5
 72
     1
  1
\A1;%%c18
  7
KCADDIMSTANDARD
 11
1.000000000000000E-16
 21
1.0
 31
0.0
 73
     1
 44
1.0
  0
ENDBLK
  5
A11
330
4F0
100
AcDbEntity
  8
0
100
AcDbBlockEnd
  0
BLOCK
  5
A12
330
52C
100
AcDbEntity
  8
0
100
AcDbBlockBegin
  2
*D32
 70
     1
 71
     0
 10
0.0
 20
0.0
 30
0.0
  3
*D32
  1

  0
LINE
  5
55E
330
52C
100
AcDbEntity
  8
KCAD_DIMS
 62
     0
370
    -2
100
AcDbLine
 10
228.5059751434034
 20
109.920212765957
 30
0.0
 11
195.9875298630912
 21
109.9202127659569
 31
0.0
  0
LINE
  5
55F
330
52C
100
AcDbEntity
  8
KCAD_DIMS
 62
     0
370
    -2
100
AcDbLine
 10
228.5059751434034
 20
137.920212765957
 30
0.0
 11
195.9875298630911
 21
137.9202127659569
 31
0.0
  0
INSERT
  5
560
330
52C
100
AcDbEntity
  8
KCAD_DIMS
 62
     0
370
    -2
100
AcDbBlockReference
  2
_OPEN30
 10
227.5059751434034
 20
109.920212765957
 30
0.0
 41
2.5
 42
2.5
 43
2.5
 50
270.0
  0
INSERT
  5
561
330
52C
100
AcDbEntity
  8
KCAD_DIMS
 62
     0
370
    -2
100
AcDbBlockReference
  2
_OPEN30
 10
227.5059751434034
 20
137.920212765957
 30
0.0
 41
2.5
 42
2.5
 43
2.5
 50
90.00000000000006
  0
LINE
  5
562
330
52C
100
AcDbEntity
  8
KCAD_DIMS
 62
     0
370
    -2
100
AcDbLine
 10
227.5059751434034
 20
112.420212765957
 30
0.0
 11
227.5059751434034
 21
135.420212765957
 31
0.0
  0
POINT
  5
563
330
52C
100
AcDbEntity
  8
DEFPOINTS
 62
     0
370
    15
100
AcDbPoint
 10
194.9875298630912
 20
109.9202127659569
 30
0.0
  0
POINT
  5
564
330
52C
100
AcDbEntity
  8
DEFPOINTS
 62
     0
370
    15
100
AcDbPoint
 10
194.9875298630911
 20
137.9202127659569
 30
0.0
  0
POINT
  5
565
330
52C
100
AcDbEntity
  8
DEFPOINTS
 62
     0
370
    15
100
AcDbPoint
 10
227.5059751434034
 20
137.9202127659569
 30
0.0
  0
MTEXT
  5
566
330
52C
100
AcDbEntity
  8
KCAD_DIMS
 62
     0
100
AcDbMText
 10
225.3726421434034
 20
123.920212765957
 30
0.0
 40
3.2
 41
0.0
 71
     5
 72
     1
  1
\A1;%%c28
  7
KCADDIMSTANDARD
 11
1.000000000000000E-16
 21
1.0
 31
0.0
 73
     1
 44
1.0
  0
ENDBLK
  5
A13
330
52C
100
AcDbEntity
  8
0
100
AcDbBlockEnd
  0
BLOCK
  5
A14
330
568
100
AcDbEntity
  8
0
100
AcDbBlockBegin
  2
*D33
 70
     1
 71
     0
 10
0.0
 20
0.0
 30
0.0
  3
*D33
  1

  0
LINE
  5
59A
330
568
100
AcDbEntity
  8
KCAD_DIMS
 62
     0
370
    -2
100
AcDbLine
 10
110.6275298630911
 20
94.13707650856709
 30
0.0
 11
110.6275298630911
 21
113.9202127659575
 31
0.0
  0
LINE
  5
59B
330
568
100
AcDbEntity
  8
KCAD_DIMS
 62
     0
370
    -2
100
AcDbLine
 10
39.52752986309038
 20
94.13707650856709
 30
0.0
 11
39.52752986309038
 21
122.9202127659563
 31
0.0
  0
INSERT
  5
59C
330
568
100
AcDbEntity
  8
KCAD_DIMS
 62
     0
370
    -2
100
AcDbBlockReference
  2
_OPEN30
 10
110.6275298630911
 20
95.13707650856709
 30
0.0
 41
2.5
 42
2.5
 43
2.5
  0
INSERT
  5
59D
330
568
100
AcDbEntity
  8
KCAD_DIMS
 62
     0
370
    -2
100
AcDbBlockReference
  2
_OPEN30
 10
39.52752986309038
 20
95.13707650856709
 30
0.0
 41
2.5
 42
2.5
 43
2.5
 50
180.0
  0
LINE
  5
59E
330
568
100
AcDbEntity
  8
KCAD_DIMS
 62
     0
370
    -2
100
AcDbLine
 10
108.1275298630911
 20
95.13707650856709
 30
0.0
 11
42.02752986309038
 21
95.13707650856709
 31
0.0
  0
POINT
  5
59F
330
568
100
AcDbEntity
  8
DEFPOINTS
 62
     0
370
    15
100
AcDbPoint
 10
110.6275298630911
 20
114.9202127659575
 30
0.0
  0
POINT
  5
5A0
330
568
100
AcDbEntity
  8
DEFPOINTS
 62
     0
370
    15
100
AcDbPoint
 10
39.52752986309038
 20
123.9202127659563
 30
0.0
  0
POINT
  5
5A1
330
568
100
AcDbEntity
  8
DEFPOINTS
 62
     0
370
    15
100
AcDbPoint
 10
39.52752986309038
 20
95.13707650856709
 30
0.0
  0
MTEXT
  5
5A2
330
568
100
AcDbEntity
  8
KCAD_DIMS
 62
     0
100
AcDbMText
 10
73.3382211986425
 20
97.27040950856708
 30
0.0
 40
3.2
 41
0.0
 71
     5
 72
     1
  1
\A1;W.D.=71.1
  7
KCADDIMSTANDARD
 73
     1
 44
1.0
  0
ENDBLK
  5
A15
330
568
100
AcDbEntity
  8
0
100
AcDbBlockEnd
  0
BLOCK
  5
A16
330
5A4
100
AcDbEntity
  8
0
100
AcDbBlockBegin
  2
*D34
 70
     1
 71
     0
 10
0.0
 20
0.0
 30
0.0
  3
*D34
  1

  0
LINE
  5
5E0
330
5A4
100
AcDbEntity
  8
KCAD_DIMS
 62
     0
370
    -2
100
AcDbLine
 10
195.2875298630911
 20
170.8750525409819
 30
0.0
 11
195.2875298630911
 21
139.6202127659574
 31
0.0
  0
LINE
  5
5E1
330
5A4
100
AcDbEntity
  8
KCAD_DIMS
 62
     0
370
    -2
100
AcDbLine
 10
199.2875298630912
 20
170.8750525409819
 30
0.0
 11
199.2875298630912
 21
136.8702127659575
 31
0.0
  0
INSERT
  5
5E2
330
5A4
100
AcDbEntity
  8
KCAD_DIMS
 62
     0
370
    -2
100
AcDbBlockReference
  2
_OPEN30
 10
195.2875298630911
 20
169.8750525409819
 30
0.0
 41
2.5
 42
2.5
 43
2.5
  0
INSERT
  5
5E3
330
5A4
100
AcDbEntity
  8
KCAD_DIMS
 62
     0
370
    -2
100
AcDbBlockReference
  2
_OPEN30
 10
199.2875298630912
 20
169.8750525409819
 30
0.0
 41
2.5
 42
2.5
 43
2.5
 50
180.0
  0
LINE
  5
5E4
330
5A4
100
AcDbEntity
  8
KCAD_DIMS
 62
     0
370
    -2
100
AcDbLine
 10
195.2875298630911
 20
169.8750525409819
 30
0.0
 11
199.2875298630912
 21
169.8750525409819
 31
0.0
  0
LINE
  5
5E5
330
5A4
100
AcDbEntity
  8
KCAD_DIMS
 62
     0
370
    -2
100
AcDbLine
 10
192.7875298630911
 20
169.8750525409819
 30
0.0
 11
190.2875298630911
 21
169.8750525409819
 31
0.0
  0
LINE
  5
5E6
330
5A4
100
AcDbEntity
  8
KCAD_DIMS
 62
     0
370
    -2
100
AcDbLine
 10
201.7875298630912
 20
169.8750525409819
 30
0.0
 11
205.9924459200435
 21
169.8750525409819
 31
0.0
  0
POINT
  5
5E7
330
5A4
100
AcDbEntity
  8
DEFPOINTS
 62
     0
370
    15
100
AcDbPoint
 10
195.2875298630911
 20
138.6202127659574
 30
0.0
  0
POINT
  5
5E8
330
5A4
100
AcDbEntity
  8
DEFPOINTS
 62
     0
370
    15
100
AcDbPoint
 10
199.2875298630912
 20
135.8702127659575
 30
0.0
  0
POINT
  5
5E9
330
5A4
100
AcDbEntity
  8
DEFPOINTS
 62
     0
370
    15
100
AcDbPoint
 10
199.2875298630912
 20
169.8750525409819
 30
0.0
  0
MTEXT
  5
5EA
330
5A4
100
AcDbEntity
  8
KCAD_DIMS
 62
     0
100
AcDbMText
 10
204.9924459440251
 20
172.0083855409819
 30
0.0
 40
3.2
 41
0.0
 71
     5
 72
     1
  1
\A1;4
  7
KCADDIMSTANDARD
 73
     1
 44
1.0
  0
ENDBLK
  5
A17
330
5A4
100
AcDbEntity
  8
0
100
AcDbBlockEnd
  0
BLOCK
  5
A18
330
5EC
100
AcDbEntity
  8
0
100
AcDbBlockBegin
  2
*D35
 70
     1
 71
     0
 10
0.0
 20
0.0
 30
0.0
  3
*D35
  1

  0
LINE
  5
61E
330
5EC
100
AcDbEntity
  8
KCAD_DIMS
 62
     0
370
    -2
100
AcDbLine
 10
126.6275298630911
 20
140.2034649372125
 30
0.0
 11
126.6275298630911
 21
133.9202127659563
 31
0.0
  0
LINE
  5
61F
330
5EC
100
AcDbEntity
  8
KCAD_DIMS
 62
     0
370
    -2
100
AcDbLine
 10
110.6275298630911
 20
140.2034649372125
 30
0.0
 11
110.6275298630911
 21
133.9202127659562
 31
0.0
  0
INSERT
  5
620
330
5EC
100
AcDbEntity
  8
KCAD_DIMS
 62
     0
370
    -2
100
AcDbBlockReference
  2
_OPEN30
 10
126.6275298630911
 20
139.2034649372125
 30
0.0
 41
2.5
 42
2.5
 43
2.5
  0
INSERT
  5
621
330
5EC
100
AcDbEntity
  8
KCAD_DIMS
 62
     0
370
    -2
100
AcDbBlockReference
  2
_OPEN30
 10
110.6275298630911
 20
139.2034649372125
 30
0.0
 41
2.5
 42
2.5
 43
2.5
 50
180.0
  0
LINE
  5
622
330
5EC
100
AcDbEntity
  8
KCAD_DIMS
 62
     0
370
    -2
100
AcDbLine
 10
124.1275298630911
 20
139.2034649372125
 30
0.0
 11
113.1275298630911
 21
139.2034649372125
 31
0.0
  0
POINT
  5
623
330
5EC
100
AcDbEntity
  8
DEFPOINTS
 62
     0
370
    15
100
AcDbPoint
 10
126.6275298630911
 20
132.9202127659563
 30
0.0
  0
POINT
  5
624
330
5EC
100
AcDbEntity
  8
DEFPOINTS
 62
     0
370
    15
100
AcDbPoint
 10
110.6275298630911
 20
132.9202127659562
 30
0.0
  0
POINT
  5
625
330
5EC
100
AcDbEntity
  8
DEFPOINTS
 62
     0
370
    15
100
AcDbPoint
 10
110.6275298630911
 20
139.2034649372125
 30
0.0
  0
MTEXT
  5
626
330
5EC
100
AcDbEntity
  8
KCAD_DIMS
 62
     0
100
AcDbMText
 10
118.6275298630911
 20
141.3367979372125
 30
0.0
 40
3.2
 41
0.0
 71
     5
 72
     1
  1
\A1;16
  7
KCADDIMSTANDARD
 73
     1
 44
1.0
  0
ENDBLK
  5
A19
330
5EC
100
AcDbEntity
  8
0
100
AcDbBlockEnd
  0
BLOCK
  5
A1A
330
628
100
AcDbEntity
  8
0
100
AcDbBlockBegin
  2
*D36
 70
     1
 71
     0
 10
0.0
 20
0.0
 30
0.0
  3
*D36
  1

  0
LINE
  5
664
330
628
100
AcDbEntity
  8
KCAD_DIMS
 62
     0
370
    -2
100
AcDbLine
 10
126.6275298630911
 20
140.2034649372125
 30
0.0
 11
126.6275298630911
 21
133.6702127659563
 31
0.0
  0
LINE
  5
665
330
628
100
AcDbEntity
  8
KCAD_DIMS
 62
     0
370
    -2
100
AcDbLine
 10
132.6275298630911
 20
140.2034649372125
 30
0.0
 11
132.6275298630911
 21
133.6702127659563
 31
0.0
  0
INSERT
  5
666
330
628
100
AcDbEntity
  8
KCAD_DIMS
 62
     0
370
    -2
100
AcDbBlockReference
  2
_OPEN30
 10
126.6275298630911
 20
139.2034649372125
 30
0.0
 41
2.5
 42
2.5
 43
2.5
 50
180.0
  0
INSERT
  5
667
330
628
100
AcDbEntity
  8
KCAD_DIMS
 62
     0
370
    -2
100
AcDbBlockReference
  2
_OPEN30
 10
132.6275298630911
 20
139.2034649372125
 30
0.0
 41
2.5
 42
2.5
 43
2.5
  0
LINE
  5
668
330
628
100
AcDbEntity
  8
KCAD_DIMS
 62
     0
370
    -2
100
AcDbLine
 10
129.1275298630911
 20
139.2034649372125
 30
0.0
 11
130.1275298630911
 21
139.2034649372125
 31
0.0
  0
POINT
  5
669
330
628
100
AcDbEntity
  8
DEFPOINTS
 62
     0
370
    15
100
AcDbPoint
 10
126.6275298630911
 20
132.6702127659563
 30
0.0
  0
POINT
  5
66A
330
628
100
AcDbEntity
  8
DEFPOINTS
 62
     0
370
    15
100
AcDbPoint
 10
132.6275298630911
 20
132.6702127659563
 30
0.0
  0
POINT
  5
66B
330
628
100
AcDbEntity
  8
DEFPOINTS
 62
     0
370
    15
100
AcDbPoint
 10
132.6275298630911
 20
139.2034649372125
 30
0.0
  0
MTEXT
  5
66C
330
628
100
AcDbEntity
  8
KCAD_DIMS
 62
     0
100
AcDbMText
 10
129.6275298630911
 20
141.3367979372125
 30
0.0
 40
3.2
 41
0.0
 71
     5
 72
     1
  1
\A1;6
  7
KCADDIMSTANDARD
 73
     1
 44
1.0
  0
ENDBLK
  5
A1B
330
628
100
AcDbEntity
  8
0
100
AcDbBlockEnd
  0
BLOCK
  5
A1C
330
66E
100
AcDbEntity
  8
0
100
AcDbBlockBegin
  2
*D37
 70
     1
 71
     0
 10
0.0
 20
0.0
 30
0.0
  3
*D37
  1

  0
LINE
  5
69C
330
66E
100
AcDbEntity
  8
KCAD_DIMS
 62
     0
370
    -2
100
AcDbLine
 10
128.8310229445511
 20
115.1702127659584
 30
0.0
 11
131.6275298630911
 21
115.1702127659584
 31
0.0
  0
INSERT
  5
69D
330
66E
100
AcDbEntity
  8
KCAD_DIMS
 62
     0
370
    -2
100
AcDbBlockReference
  2
_OPEN30
 10
129.8310229445512
 20
115.1702127659584
 30
0.0
 41
2.5
 42
2.5
 43
2.5
 50
270.0
  0
LINE
  5
69E
330
66E
100
AcDbEntity
  8
KCAD_DIMS
 62
     0
370
    -2
100
AcDbLine
 10
129.8310229445512
 20
117.6702127659585
 30
0.0
 11
129.8310229445512
 21
132.8166810965953
 31
0.0
  0
POINT
  5
69F
330
66E
100
AcDbEntity
  8
DEFPOINTS
 62
     0
370
    15
100
AcDbPoint
 10
132.6275298630911
 20
115.1702127659584
 30
0.0
  0
POINT
  5
6A0
330
66E
100
AcDbEntity
  8
DEFPOINTS
 62
     0
370
    15
100
AcDbPoint
 10
132.6275298630911
 20
123.9202127659566
 30
0.0
  0
POINT
  5
6A1
330
66E
100
AcDbEntity
  8
DEFPOINTS
 62
     0
370
    15
100
AcDbPoint
 10
129.8310229445512
 20
123.9202127659566
 30
0.0
  0
MTEXT
  5
6A2
330
66E
100
AcDbEntity
  8
KCAD_DIMS
 62
     0
100
AcDbMText
 10
127.6976899445511
 20
104.923744250943
 30
0.0
 40
3.2
 41
0.0
 71
     5
 72
     1
  1
\A1;%%c17.5
  7
KCADDIMSTANDARD
 11
1.000000000000000E-16
 21
1.0
 31
0.0
 73
     1
 44
1.0
  0
ENDBLK
  5
A1D
330
66E
100
AcDbEntity
  8
0
100
AcDbBlockEnd
  0
BLOCK
  5
A1E
330
6B5
100
AcDbEntity
  8
0
100
AcDbBlockBegin
  2
*D38
 70
     1
 71
     0
 10
0.0
 20
0.0
 30
0.0
  3
*D38
  1

  0
POINT
  5
6AB
330
6B5
100
AcDbEntity
  8
DEFPOINTS
  6
ByBlock
 62
     0
370
    15
100
AcDbPoint
 10
110.6275298630911
 20
132.9202127659562
 30
0.0
  0
POINT
  5
6AC
330
6B5
100
AcDbEntity
  8
DEFPOINTS
  6
ByBlock
 62
     0
370
    15
100
AcDbPoint
 10
183.2875298630911
 20
132.9202127659569
 30
0.0
  0
LINE
  5
6AD
330
6B5
100
AcDbEntity
  8
0
  6
ByBlock
 62
     0
370
    -2
100
AcDbLine
 10
110.6275298630911
 20
133.9202127659562
 30
0.0
 11
110.6275298630911
 21
155.7878495226276
 31
0.0
  0
LINE
  5
6AE
330
6B5
100
AcDbEntity
  8
0
  6
ByBlock
 62
     0
370
    -2
100
AcDbLine
 10
183.2875298630911
 20
133.9202127659569
 30
0.0
 11
183.2875298630911
 21
155.7878495226276
 31
0.0
  0
LINE
  5
6AF
330
6B5
100
AcDbEntity
  8
0
  6
ByBlock
 62
     0
370
    -2
100
AcDbLine
 10
110.6275298630911
 20
154.7878495226276
 30
0.0
 11
183.2875298630911
 21
154.7878495226276
 31
0.0
  0
SOLID
  5
6B0
330
6B5
100
AcDbEntity
  8
0
  6
ByBlock
 62
     0
370
    15
100
AcDbTrace
 10
110.6275298630911
 20
154.7878495226276
 30
0.0
 11
113.1275298630911
 21
154.3711828559609
 31
0.0
 12
113.1275298630911
 22
155.2045161892943
 32
0.0
 13
113.1275298630911
 23
155.2045161892943
 33
0.0
  0
SOLID
  5
6B1
330
6B5
100
AcDbEntity
  8
0
  6
ByBlock
 62
     0
370
    15
100
AcDbTrace
 10
183.2875298630911
 20
154.7878495226276
 30
0.0
 11
180.7875298630911
 21
154.3711828559609
 31
0.0
 12
180.7875298630911
 22
155.2045161892943
 32
0.0
 13
180.7875298630911
 23
155.2045161892943
 33
0.0
  0
LINE
  5
6B2
330
6B5
100
AcDbEntity
  8
0
  6
ByBlock
 62
     0
370
    -2
100
AcDbLine
 10
110.6275298630911
 20
132.9202127659562
 30
0.0
 11
110.6275298630911
 21
132.9202127659562
 31
0.0
  0
MTEXT
  5
6B3
330
6B5
100
AcDbEntity
  8
0
  6
ByBlock
 62
     0
100
AcDbMText
 10
146.9575298630911
 20
156.9211825226276
 30
0.0
 40
3.2
 41
0.0
 71
     5
 72
     1
  1
72.66
  7
KCADDIMSTANDARD
 73
     1
 44
1.0
  0
ENDBLK
  5
A1F
330
6B5
100
AcDbEntity
  8
0
100
AcDbBlockEnd
  0
BLOCK
  5
A20
330
6C1
100
AcDbEntity
  8
0
100
AcDbBlockBegin
  2
*D39
 70
     1
 71
     0
 10
0.0
 20
0.0
 30
0.0
  3
*D39
  1

  0
POINT
  5
6B7
330
6C1
100
AcDbEntity
  8
DEFPOINTS
  6
ByBlock
 62
     0
370
    15
100
AcDbPoint
 10
195.2875298630911
 20
138.6202127659574
 30
0.0
  0
POINT
  5
6B8
330
6C1
100
AcDbEntity
  8
DEFPOINTS
  6
ByBlock
 62
     0
370
    15
100
AcDbPoint
 10
110.6275298630911
 20
132.9202127659575
 30
0.0
  0
LINE
  5
6B9
330
6C1
100
AcDbEntity
  8
0
  6
ByBlock
 62
     0
370
    -2
100
AcDbLine
 10
195.2875298630911
 20
139.6202127659574
 30
0.0
 11
195.2875298630911
 21
170.8750525409819
 31
0.0
  0
LINE
  5
6BA
330
6C1
100
AcDbEntity
  8
0
  6
ByBlock
 62
     0
370
    -2
100
AcDbLine
 10
110.6275298630911
 20
133.9202127659575
 30
0.0
 11
110.6275298630911
 21
170.8750525409819
 31
0.0
  0
LINE
  5
6BB
330
6C1
100
AcDbEntity
  8
0
  6
ByBlock
 62
     0
370
    -2
100
AcDbLine
 10
195.2875298630911
 20
169.8750525409819
 30
0.0
 11
110.6275298630911
 21
169.8750525409819
 31
0.0
  0
SOLID
  5
6BC
330
6C1
100
AcDbEntity
  8
0
  6
ByBlock
 62
     0
370
    15
100
AcDbTrace
 10
195.2875298630911
 20
169.8750525409819
 30
0.0
 11
192.7875298630911
 21
170.2917192076486
 31
0.0
 12
192.7875298630911
 22
169.4583858743152
 32
0.0
 13
192.7875298630911
 23
169.4583858743152
 33
0.0
  0
SOLID
  5
6BD
330
6C1
100
AcDbEntity
  8
0
  6
ByBlock
 62
     0
370
    15
100
AcDbTrace
 10
110.6275298630911
 20
169.8750525409819
 30
0.0
 11
113.1275298630911
 21
170.2917192076486
 31
0.0
 12
113.1275298630911
 22
169.4583858743152
 32
0.0
 13
113.1275298630911
 23
169.4583858743152
 33
0.0
  0
LINE
  5
6BE
330
6C1
100
AcDbEntity
  8
0
  6
ByBlock
 62
     0
370
    -2
100
AcDbLine
 10
195.2875298630911
 20
138.6202127659574
 30
0.0
 11
195.2875298630911
 21
138.6202127659574
 31
0.0
  0
MTEXT
  5
6BF
330
6C1
100
AcDbEntity
  8
0
  6
ByBlock
 62
     0
100
AcDbMText
 10
152.9575298630911
 20
172.0083855409819
 30
0.0
 40
3.2
 41
0.0
 71
     5
 72
     1
  1
84.66
  7
KCADDIMSTANDARD
 73
     1
 44
1.0
  0
ENDBLK
  5
A21
330
6C1
100
AcDbEntity
  8
0
100
AcDbBlockEnd
  0
BLOCK
  5
A22
330
6CD
100
AcDbEntity
  8
0
100
AcDbBlockBegin
  2
*D40
 70
     1
 71
     0
 10
0.0
 20
0.0
 30
0.0
  3
*D40
  1

  0
POINT
  5
6C3
330
6CD
100
AcDbEntity
  8
DEFPOINTS
  6
ByBlock
 62
     0
370
    15
100
AcDbPoint
 10
183.2875298630911
 20
136.1202127659574
 30
0.0
  0
POINT
  5
6C4
330
6CD
100
AcDbEntity
  8
DEFPOINTS
  6
ByBlock
 62
     0
370
    15
100
AcDbPoint
 10
195.2875298630911
 20
138.6202127659574
 30
0.0
  0
LINE
  5
6C5
330
6CD
100
AcDbEntity
  8
0
  6
ByBlock
 62
     0
370
    -2
100
AcDbLine
 10
183.2875298630911
 20
137.1202127659574
 30
0.0
 11
183.2875298630911
 21
155.7878495226276
 31
0.0
  0
LINE
  5
6C6
330
6CD
100
AcDbEntity
  8
0
  6
ByBlock
 62
     0
370
    -2
100
AcDbLine
 10
195.2875298630911
 20
139.6202127659574
 30
0.0
 11
195.2875298630911
 21
155.7878495226276
 31
0.0
  0
LINE
  5
6C7
330
6CD
100
AcDbEntity
  8
0
  6
ByBlock
 62
     0
370
    -2
100
AcDbLine
 10
183.2875298630911
 20
154.7878495226276
 30
0.0
 11
195.2875298630911
 21
154.7878495226276
 31
0.0
  0
SOLID
  5
6C8
330
6CD
100
AcDbEntity
  8
0
  6
ByBlock
 62
     0
370
    15
100
AcDbTrace
 10
183.2875298630911
 20
154.7878495226276
 30
0.0
 11
185.7875298630911
 21
154.3711828559609
 31
0.0
 12
185.7875298630911
 22
155.2045161892943
 32
0.0
 13
185.7875298630911
 23
155.2045161892943
 33
0.0
  0
SOLID
  5
6C9
330
6CD
100
AcDbEntity
  8
0
  6
ByBlock
 62
     0
370
    15
100
AcDbTrace
 10
195.2875298630911
 20
154.7878495226276
 30
0.0
 11
192.7875298630911
 21
154.3711828559609
 31
0.0
 12
192.7875298630911
 22
155.2045161892943
 32
0.0
 13
192.7875298630911
 23
155.2045161892943
 33
0.0
  0
LINE
  5
6CA
330
6CD
100
AcDbEntity
  8
0
  6
ByBlock
 62
     0
370
    -2
100
AcDbLine
 10
183.2875298630911
 20
136.1202127659574
 30
0.0
 11
183.2875298630911
 21
136.1202127659574
 31
0.0
  0
MTEXT
  5
6CB
330
6CD
100
AcDbEntity
  8
0
  6
ByBlock
 62
     0
100
AcDbMText
 10
189.2875298630911
 20
156.9211825226276
 30
0.0
 40
3.2
 41
0.0
 71
     5
 72
     1
  1
12
  7
KCADDIMSTANDARD
 73
     1
 44
1.0
  0
ENDBLK
  5
A23
330
6CD
100
AcDbEntity
  8
0
100
AcDbBlockEnd
  0
BLOCK
  5
A24
330
6D9
100
AcDbEntity
  8
0
100
AcDbBlockBegin
  2
*D41
 70
     1
 71
     0
 10
0.0
 20
0.0
 30
0.0
  3
*D41
  1

  0
POINT
  5
6CF
330
6D9
100
AcDbEntity
  8
DEFPOINTS
  6
ByBlock
 62
     0
370
    15
100
AcDbPoint
 10
212.8135298630912
 20
120.9688106723244
 30
0.0
  0
POINT
  5
6D0
330
6D9
100
AcDbEntity
  8
DEFPOINTS
  6
ByBlock
 62
     0
370
    15
100
AcDbPoint
 10
195.2875298630912
 20
109.9202127659575
 30
0.0
  0
LINE
  5
6D1
330
6D9
100
AcDbEntity
  8
0
  6
ByBlock
 62
     0
370
    -2
100
AcDbLine
 10
212.8135298630912
 20
119.9688106723244
 30
0.0
 11
212.8135298630912
 21
94.13707650856696
 31
0.0
  0
LINE
  5
6D2
330
6D9
100
AcDbEntity
  8
0
  6
ByBlock
 62
     0
370
    -2
100
AcDbLine
 10
195.2875298630912
 20
108.9202127659575
 30
0.0
 11
195.2875298630912
 21
94.13707650856696
 31
0.0
  0
LINE
  5
6D3
330
6D9
100
AcDbEntity
  8
0
  6
ByBlock
 62
     0
370
    -2
100
AcDbLine
 10
212.8135298630912
 20
95.13707650856696
 30
0.0
 11
195.2875298630912
 21
95.13707650856696
 31
0.0
  0
SOLID
  5
6D4
330
6D9
100
AcDbEntity
  8
0
  6
ByBlock
 62
     0
370
    15
100
AcDbTrace
 10
212.8135298630912
 20
95.13707650856696
 30
0.0
 11
209.8135298630912
 21
95.63707650856706
 31
0.0
 12
209.8135298630912
 22
94.63707650856686
 32
0.0
 13
209.8135298630912
 23
94.63707650856686
 33
0.0
  0
SOLID
  5
6D5
330
6D9
100
AcDbEntity
  8
0
  6
ByBlock
 62
     0
370
    15
100
AcDbTrace
 10
195.2875298630912
 20
95.13707650856696
 30
0.0
 11
198.2875298630912
 21
95.63707650856706
 31
0.0
 12
198.2875298630912
 22
94.63707650856686
 32
0.0
 13
198.2875298630912
 23
94.63707650856686
 33
0.0
  0
LINE
  5
6D6
330
6D9
100
AcDbEntity
  8
0
  6
ByBlock
 62
     0
370
    -2
100
AcDbLine
 10
212.8135298630912
 20
120.9688106723244
 30
0.0
 11
212.8135298630912
 21
120.9688106723244
 31
0.0
  0
MTEXT
  5
6D7
330
6D9
100
AcDbEntity
  8
0
  6
ByBlock
 62
     0
100
AcDbMText
 10
235.4874451970511
 20
97.27040950856697
 30
0.0
 40
3.2
 41
0.0
 71
     5
 72
     1
  1
\A1;F.B.=17.526
  7
KCADDIMSTANDARD
 73
     1
 44
1.0
  0
ENDBLK
  5
A25
330
6D9
100
AcDbEntity
  8
0
100
AcDbBlockEnd
  0
BLOCK
  5
A26
330
6E5
100
AcDbEntity
  8
0
100
AcDbBlockBegin
  2
*D42
 70
     1
 71
     0
 10
0.0
 20
0.0
 30
0.0
  3
*D42
  1

  0
POINT
  5
6DB
330
6E5
100
AcDbEntity
  8
DEFPOINTS
  6
ByBlock
 62
     0
370
    15
100
AcDbPoint
 10
110.6275298630911
 20
114.9202127659575
 30
0.0
  0
POINT
  5
6DC
330
6E5
100
AcDbEntity
  8
DEFPOINTS
  6
ByBlock
 62
     0
370
    15
100
AcDbPoint
 10
110.6275298630911
 20
132.9202127659575
 30
0.0
  0
LINE
  5
6DD
330
6E5
100
AcDbEntity
  8
0
  6
ByBlock
 62
     0
370
    -2
100
AcDbLine
 10
109.6275298630911
 20
114.9202127659575
 30
0.0
 11
98.27036702198455
 21
114.9202127659575
 31
0.0
  0
LINE
  5
6DE
330
6E5
100
AcDbEntity
  8
0
  6
ByBlock
 62
     0
370
    -2
100
AcDbLine
 10
109.6275298630911
 20
132.9202127659575
 30
0.0
 11
98.27036702198455
 21
132.9202127659575
 31
0.0
  0
LINE
  5
6DF
330
6E5
100
AcDbEntity
  8
0
  6
ByBlock
 62
     0
370
    -2
100
AcDbLine
 10
99.27036702198455
 20
114.9202127659575
 30
0.0
 11
99.27036702198455
 21
132.9202127659575
 31
0.0
  0
SOLID
  5
6E0
330
6E5
100
AcDbEntity
  8
0
  6
ByBlock
 62
     0
370
    15
100
AcDbTrace
 10
99.27036702198455
 20
114.9202127659575
 30
0.0
 11
99.6870336886513
 21
117.4202127659575
 31
0.0
 12
98.85370035531781
 22
117.4202127659575
 32
0.0
 13
98.85370035531781
 23
117.4202127659575
 33
0.0
  0
SOLID
  5
6E1
330
6E5
100
AcDbEntity
  8
0
  6
ByBlock
 62
     0
370
    15
100
AcDbTrace
 10
99.27036702198455
 20
132.9202127659575
 30
0.0
 11
99.6870336886513
 21
130.4202127659575
 31
0.0
 12
98.85370035531781
 22
130.4202127659575
 32
0.0
 13
98.85370035531781
 23
130.4202127659575
 33
0.0
  0
LINE
  5
6E2
330
6E5
100
AcDbEntity
  8
0
  6
ByBlock
 62
     0
370
    -2
100
AcDbLine
 10
110.6275298630911
 20
114.9202127659575
 30
0.0
 11
110.6275298630911
 21
114.9202127659575
 31
0.0
  0
MTEXT
  5
6E3
330
6E5
100
AcDbEntity
  8
0
  6
ByBlock
 62
     0
100
AcDbMText
 10
97.13703402198458
 20
125.1339141271563
 30
0.0
 40
3.2
 41
0.0
 71
     5
 72
     1
  1
\A1;%%c18
  7
KCADDIMSTANDARD
 11
-1.271037311859069E-15
 21
1.0
 31
0.0
 73
     1
 44
1.0
  0
ENDBLK
  5
A27
330
6E5
100
AcDbEntity
  8
0
100
AcDbBlockEnd
  0
BLOCK
  5
A28
330
6F1
100
AcDbEntity
  8
0
100
AcDbBlockBegin
  2
*D43
 70
     1
 71
     0
 10
0.0
 20
0.0
 30
0.0
  3
*D43
  1

  0
POINT
  5
6E7
330
6F1
100
AcDbEntity
  8
DEFPOINTS
  6
ByBlock
 62
     0
370
    15
100
AcDbPoint
 10
194.9875298630912
 20
109.9202127659569
 30
0.0
  0
POINT
  5
6E8
330
6F1
100
AcDbEntity
  8
DEFPOINTS
  6
ByBlock
 62
     0
370
    15
100
AcDbPoint
 10
194.9875298630911
 20
137.9202127659569
 30
0.0
  0
LINE
  5
6E9
330
6F1
100
AcDbEntity
  8
0
  6
ByBlock
 62
     0
370
    -2
100
AcDbLine
 10
195.9875298630912
 20
109.9202127659569
 30
0.0
 11
228.5059751434034
 21
109.9202127659569
 31
0.0
  0
LINE
  5
6EA
330
6F1
100
AcDbEntity
  8
0
  6
ByBlock
 62
     0
370
    -2
100
AcDbLine
 10
195.9875298630911
 20
137.9202127659569
 30
0.0
 11
228.5059751434034
 21
137.9202127659569
 31
0.0
  0
LINE
  5
6EB
330
6F1
100
AcDbEntity
  8
0
  6
ByBlock
 62
     0
370
    -2
100
AcDbLine
 10
227.5059751434034
 20
109.9202127659569
 30
0.0
 11
227.5059751434034
 21
137.9202127659569
 31
0.0
  0
SOLID
  5
6EC
330
6F1
100
AcDbEntity
  8
0
  6
ByBlock
 62
     0
370
    15
100
AcDbTrace
 10
227.5059751434034
 20
109.9202127659569
 30
0.0
 11
227.9226418100701
 21
112.4202127659569
 31
0.0
 12
227.0893084767366
 22
112.4202127659569
 32
0.0
 13
227.0893084767366
 23
112.4202127659569
 33
0.0
  0
SOLID
  5
6ED
330
6F1
100
AcDbEntity
  8
0
  6
ByBlock
 62
     0
370
    15
100
AcDbTrace
 10
227.5059751434034
 20
137.9202127659569
 30
0.0
 11
227.9226418100701
 21
135.4202127659569
 31
0.0
 12
227.0893084767366
 22
135.4202127659569
 32
0.0
 13
227.0893084767366
 23
135.4202127659569
 33
0.0
  0
LINE
  5
6EE
330
6F1
100
AcDbEntity
  8
0
  6
ByBlock
 62
     0
370
    -2
100
AcDbLine
 10
194.9875298630912
 20
109.9202127659569
 30
0.0
 11
194.9875298630912
 21
109.9202127659569
 31
0.0
  0
MTEXT
  5
6EF
330
6F1
100
AcDbEntity
  8
0
  6
ByBlock
 62
     0
100
AcDbMText
 10
225.3726421434034
 20
123.920212765957
 30
0.0
 40
3.2
 41
0.0
 71
     5
 72
     1
  1
\A1;%%c28
  7
KCADDIMSTANDARD
 11
-1.271037311859069E-15
 21
1.0
 31
0.0
 73
     1
 44
1.0
  0
ENDBLK
  5
A29
330
6F1
100
AcDbEntity
  8
0
100
AcDbBlockEnd
  0
BLOCK
  5
A2A
330
6FD
100
AcDbEntity
  8
0
100
AcDbBlockBegin
  2
*D44
 70
     1
 71
     0
 10
0.0
 20
0.0
 30
0.0
  3
*D44
  1

  0
POINT
  5
6F3
330
6FD
100
AcDbEntity
  8
DEFPOINTS
  6
ByBlock
 62
     0
370
    15
100
AcDbPoint
 10
110.6275298630911
 20
114.9202127659575
 30
0.0
  0
POINT
  5
6F4
330
6FD
100
AcDbEntity
  8
DEFPOINTS
  6
ByBlock
 62
     0
370
    15
100
AcDbPoint
 10
39.52752986309038
 20
123.9202127659563
 30
0.0
  0
LINE
  5
6F5
330
6FD
100
AcDbEntity
  8
0
  6
ByBlock
 62
     0
370
    -2
100
AcDbLine
 10
110.6275298630911
 20
113.9202127659575
 30
0.0
 11
110.6275298630911
 21
94.13707650856709
 31
0.0
  0
LINE
  5
6F6
330
6FD
100
AcDbEntity
  8
0
  6
ByBlock
 62
     0
370
    -2
100
AcDbLine
 10
39.52752986309038
 20
122.9202127659563
 30
0.0
 11
39.52752986309038
 21
94.13707650856709
 31
0.0
  0
LINE
  5
6F7
330
6FD
100
AcDbEntity
  8
0
  6
ByBlock
 62
     0
370
    -2
100
AcDbLine
 10
110.6275298630911
 20
95.13707650856709
 30
0.0
 11
39.52752986309038
 21
95.13707650856709
 31
0.0
  0
SOLID
  5
6F8
330
6FD
100
AcDbEntity
  8
0
  6
ByBlock
 62
     0
370
    15
100
AcDbTrace
 10
110.6275298630911
 20
95.13707650856709
 30
0.0
 11
108.1275298630911
 21
95.55374317523385
 31
0.0
 12
108.1275298630911
 22
94.72040984190033
 32
0.0
 13
108.1275298630911
 23
94.72040984190033
 33
0.0
  0
SOLID
  5
6F9
330
6FD
100
AcDbEntity
  8
0
  6
ByBlock
 62
     0
370
    15
100
AcDbTrace
 10
39.52752986309038
 20
95.13707650856709
 30
0.0
 11
42.02752986309038
 21
95.55374317523385
 31
0.0
 12
42.02752986309038
 22
94.72040984190033
 32
0.0
 13
42.02752986309038
 23
94.72040984190033
 33
0.0
  0
LINE
  5
6FA
330
6FD
100
AcDbEntity
  8
0
  6
ByBlock
 62
     0
370
    -2
100
AcDbLine
 10
110.6275298630911
 20
114.9202127659575
 30
0.0
 11
110.6275298630911
 21
114.9202127659575
 31
0.0
  0
MTEXT
  5
6FB
330
6FD
100
AcDbEntity
  8
0
  6
ByBlock
 62
     0
100
AcDbMText
 10
73.3382211986425
 20
97.27040950856708
 30
0.0
 40
3.2
 41
0.0
 71
     5
 72
     1
  1
\A1;W.D.=71.1
  7
KCADDIMSTANDARD
 73
     1
 44
1.0
  0
ENDBLK
  5
A2B
330
6FD
100
AcDbEntity
  8
0
100
AcDbBlockEnd
  0
BLOCK
  5
A2C
330
70A
100
AcDbEntity
  8
0
100
AcDbBlockBegin
  2
*D45
 70
     1
 71
     0
 10
0.0
 20
0.0
 30
0.0
  3
*D45
  1

  0
POINT
  5
6FF
330
70A
100
AcDbEntity
  8
DEFPOINTS
  6
ByBlock
 62
     0
370
    15
100
AcDbPoint
 10
195.2875298630911
 20
138.6202127659574
 30
0.0
  0
POINT
  5
700
330
70A
100
AcDbEntity
  8
DEFPOINTS
  6
ByBlock
 62
     0
370
    15
100
AcDbPoint
 10
199.2875298630912
 20
135.8702127659575
 30
0.0
  0
LINE
  5
701
330
70A
100
AcDbEntity
  8
0
  6
ByBlock
 62
     0
370
    -2
100
AcDbLine
 10
195.2875298630911
 20
139.6202127659574
 30
0.0
 11
195.2875298630911
 21
170.8750525409819
 31
0.0
  0
LINE
  5
702
330
70A
100
AcDbEntity
  8
0
  6
ByBlock
 62
     0
370
    -2
100
AcDbLine
 10
199.2875298630912
 20
136.8702127659575
 30
0.0
 11
199.2875298630912
 21
170.8750525409819
 31
0.0
  0
LINE
  5
703
330
70A
100
AcDbEntity
  8
0
  6
ByBlock
 62
     0
370
    -2
100
AcDbLine
 10
192.7875298630911
 20
169.8750525409819
 30
0.0
 11
190.2875298630911
 21
169.8750525409819
 31
0.0
  0
SOLID
  5
704
330
70A
100
AcDbEntity
  8
0
  6
ByBlock
 62
     0
370
    15
100
AcDbTrace
 10
195.2875298630911
 20
169.8750525409819
 30
0.0
 11
192.7875298630911
 21
169.4583858743152
 31
0.0
 12
192.7875298630911
 22
170.2917192076486
 32
0.0
 13
192.7875298630911
 23
170.2917192076486
 33
0.0
  0
LINE
  5
705
330
70A
100
AcDbEntity
  8
0
  6
ByBlock
 62
     0
370
    -2
100
AcDbLine
 10
201.7875298630912
 20
169.8750525409819
 30
0.0
 11
204.2875298630912
 21
169.8750525409819
 31
0.0
  0
SOLID
  5
706
330
70A
100
AcDbEntity
  8
0
  6
ByBlock
 62
     0
370
    15
100
AcDbTrace
 10
199.2875298630912
 20
169.8750525409819
 30
0.0
 11
201.7875298630912
 21
169.4583858743152
 31
0.0
 12
201.7875298630912
 22
170.2917192076486
 32
0.0
 13
201.7875298630912
 23
170.2917192076486
 33
0.0
  0
LINE
  5
707
330
70A
100
AcDbEntity
  8
0
  6
ByBlock
 62
     0
370
    -2
100
AcDbLine
 10
195.2875298630911
 20
169.8750525409819
 30
0.0
 11
199.2875298630912
 21
169.8750525409819
 31
0.0
  0
MTEXT
  5
708
330
70A
100
AcDbEntity
  8
0
  6
ByBlock
 62
     0
100
AcDbMText
 10
204.9924459440251
 20
172.0083855409819
 30
0.0
 40
3.2
 41
0.0
 71
     5
 72
     1
  1
4
  7
KCADDIMSTANDARD
 73
     1
 44
1.0
  0
ENDBLK
  5
A2D
330
70A
100
AcDbEntity
  8
0
100
AcDbBlockEnd
  0
BLOCK
  5
A2E
330
716
100
AcDbEntity
  8
0
100
AcDbBlockBegin
  2
*D46
 70
     1
 71
     0
 10
0.0
 20
0.0
 30
0.0
  3
*D46
  1

  0
POINT
  5
70C
330
716
100
AcDbEntity
  8
DEFPOINTS
  6
ByBlock
 62
     0
370
    15
100
AcDbPoint
 10
126.6275298630911
 20
132.9202127659563
 30
0.0
  0
POINT
  5
70D
330
716
100
AcDbEntity
  8
DEFPOINTS
  6
ByBlock
 62
     0
370
    15
100
AcDbPoint
 10
110.6275298630911
 20
132.9202127659562
 30
0.0
  0
LINE
  5
70E
330
716
100
AcDbEntity
  8
0
  6
ByBlock
 62
     0
370
    -2
100
AcDbLine
 10
126.6275298630911
 20
133.9202127659563
 30
0.0
 11
126.6275298630911
 21
140.2034649372125
 31
0.0
  0
LINE
  5
70F
330
716
100
AcDbEntity
  8
0
  6
ByBlock
 62
     0
370
    -2
100
AcDbLine
 10
110.6275298630911
 20
133.9202127659562
 30
0.0
 11
110.6275298630911
 21
140.2034649372125
 31
0.0
  0
LINE
  5
710
330
716
100
AcDbEntity
  8
0
  6
ByBlock
 62
     0
370
    -2
100
AcDbLine
 10
126.6275298630911
 20
139.2034649372125
 30
0.0
 11
110.6275298630911
 21
139.2034649372125
 31
0.0
  0
SOLID
  5
711
330
716
100
AcDbEntity
  8
0
  6
ByBlock
 62
     0
370
    15
100
AcDbTrace
 10
126.6275298630911
 20
139.2034649372125
 30
0.0
 11
124.1275298630911
 21
139.6201316038792
 31
0.0
 12
124.1275298630911
 22
138.7867982705457
 32
0.0
 13
124.1275298630911
 23
138.7867982705457
 33
0.0
  0
SOLID
  5
712
330
716
100
AcDbEntity
  8
0
  6
ByBlock
 62
     0
370
    15
100
AcDbTrace
 10
110.6275298630911
 20
139.2034649372125
 30
0.0
 11
113.1275298630911
 21
139.6201316038792
 31
0.0
 12
113.1275298630911
 22
138.7867982705457
 32
0.0
 13
113.1275298630911
 23
138.7867982705457
 33
0.0
  0
LINE
  5
713
330
716
100
AcDbEntity
  8
0
  6
ByBlock
 62
     0
370
    -2
100
AcDbLine
 10
126.6275298630911
 20
132.9202127659563
 30
0.0
 11
126.6275298630911
 21
132.9202127659563
 31
0.0
  0
MTEXT
  5
714
330
716
100
AcDbEntity
  8
0
  6
ByBlock
 62
     0
100
AcDbMText
 10
118.6275298630911
 20
141.3367979372125
 30
0.0
 40
3.2
 41
0.0
 71
     5
 72
     1
  1
16
  7
KCADDIMSTANDARD
 73
     1
 44
1.0
  0
ENDBLK
  5
A2F
330
716
100
AcDbEntity
  8
0
100
AcDbBlockEnd
  0
BLOCK
  5
A30
330
723
100
AcDbEntity
  8
0
100
AcDbBlockBegin
  2
*D47
 70
     1
 71
     0
 10
0.0
 20
0.0
 30
0.0
  3
*D47
  1

  0
POINT
  5
718
330
723
100
AcDbEntity
  8
DEFPOINTS
  6
ByBlock
 62
     0
370
    15
100
AcDbPoint
 10
126.6275298630911
 20
132.6702127659563
 30
0.0
  0
POINT
  5
719
330
723
100
AcDbEntity
  8
DEFPOINTS
  6
ByBlock
 62
     0
370
    15
100
AcDbPoint
 10
132.6275298630911
 20
132.6702127659563
 30
0.0
  0
LINE
  5
71A
330
723
100
AcDbEntity
  8
0
  6
ByBlock
 62
     0
370
    -2
100
AcDbLine
 10
126.6275298630911
 20
133.6702127659563
 30
0.0
 11
126.6275298630911
 21
140.2034649372125
 31
0.0
  0
LINE
  5
71B
330
723
100
AcDbEntity
  8
0
  6
ByBlock
 62
     0
370
    -2
100
AcDbLine
 10
132.6275298630911
 20
133.6702127659563
 30
0.0
 11
132.6275298630911
 21
140.2034649372125
 31
0.0
  0
LINE
  5
71C
330
723
100
AcDbEntity
  8
0
  6
ByBlock
 62
     0
370
    -2
100
AcDbLine
 10
124.1275298630911
 20
139.2034649372125
 30
0.0
 11
121.6275298630911
 21
139.2034649372125
 31
0.0
  0
SOLID
  5
71D
330
723
100
AcDbEntity
  8
0
  6
ByBlock
 62
     0
370
    15
100
AcDbTrace
 10
126.6275298630911
 20
139.2034649372125
 30
0.0
 11
124.1275298630911
 21
138.7867982705457
 31
0.0
 12
124.1275298630911
 22
139.6201316038792
 32
0.0
 13
124.1275298630911
 23
139.6201316038792
 33
0.0
  0
LINE
  5
71E
330
723
100
AcDbEntity
  8
0
  6
ByBlock
 62
     0
370
    -2
100
AcDbLine
 10
135.1275298630911
 20
139.2034649372125
 30
0.0
 11
137.6275298630911
 21
139.2034649372125
 31
0.0
  0
SOLID
  5
71F
330
723
100
AcDbEntity
  8
0
  6
ByBlock
 62
     0
370
    15
100
AcDbTrace
 10
132.6275298630911
 20
139.2034649372125
 30
0.0
 11
135.1275298630911
 21
138.7867982705457
 31
0.0
 12
135.1275298630911
 22
139.6201316038792
 32
0.0
 13
135.1275298630911
 23
139.6201316038792
 33
0.0
  0
LINE
  5
720
330
723
100
AcDbEntity
  8
0
  6
ByBlock
 62
     0
370
    -2
100
AcDbLine
 10
126.6275298630911
 20
139.2034649372125
 30
0.0
 11
132.6275298630911
 21
139.2034649372125
 31
0.0
  0
MTEXT
  5
721
330
723
100
AcDbEntity
  8
0
  6
ByBlock
 62
     0
100
AcDbMText
 10
129.6275298630911
 20
141.3367979372125
 30
0.0
 40
3.2
 41
0.0
 71
     5
 72
     1
  1
6
  7
KCADDIMSTANDARD
 73
     1
 44
1.0
  0
ENDBLK
  5
A31
330
723
100
AcDbEntity
  8
0
100
AcDbBlockEnd
  0
BLOCK
  5
A32
330
72E
100
AcDbEntity
  8
0
100
AcDbBlockBegin
  2
*D48
 70
     1
 71
     0
 10
0.0
 20
0.0
 30
0.0
  3
*D48
  1

  0
POINT
  5
725
330
72E
100
AcDbEntity
  8
DEFPOINTS
  6
ByBlock
 62
     0
370
    15
100
AcDbPoint
 10
132.6275298630911
 20
115.1702127659584
 30
0.0
  0
POINT
  5
726
330
72E
100
AcDbEntity
  8
DEFPOINTS
  6
ByBlock
 62
     0
370
    15
100
AcDbPoint
 10
132.6275298630911
 20
123.9202127659566
 30
0.0
  0
LINE
  5
727
330
72E
100
AcDbEntity
  8
0
  6
ByBlock
 62
     0
370
    -2
100
AcDbLine
 10
131.6275298630911
 20
115.1702127659584
 30
0.0
 11
128.8310229445512
 21
115.1702127659584
 31
0.0
  0
LINE
  5
728
330
72E
100
AcDbEntity
  8
0
  6
ByBlock
 62
     0
370
    -2
100
AcDbLine
 10
129.8310229445512
 20
115.1702127659584
 30
0.0
 11
129.8310229445512
 21
123.9202127659566
 31
0.0
  0
SOLID
  5
729
330
72E
100
AcDbEntity
  8
0
  6
ByBlock
 62
     0
370
    15
100
AcDbTrace
 10
129.8310229445512
 20
115.1702127659584
 30
0.0
 11
130.2476896112179
 21
117.6702127659584
 31
0.0
 12
129.4143562778845
 22
117.6702127659584
 32
0.0
 13
129.4143562778845
 23
117.6702127659584
 33
0.0
  0
SOLID
  5
72A
330
72E
100
AcDbEntity
  8
0
  6
ByBlock
 62
     0
370
    15
100
AcDbTrace
 10
129.8310229445512
 20
123.9202127659566
 30
0.0
 11
130.2476896112179
 21
121.4202127659566
 31
0.0
 12
129.4143562778845
 22
121.4202127659566
 32
0.0
 13
129.4143562778845
 23
121.4202127659566
 33
0.0
  0
LINE
  5
72B
330
72E
100
AcDbEntity
  8
0
  6
ByBlock
 62
     0
370
    -2
100
AcDbLine
 10
132.6275298630911
 20
115.1702127659584
 30
0.0
 11
132.6275298630911
 21
115.1702127659584
 31
0.0
  0
MTEXT
  5
72C
330
72E
100
AcDbEntity
  8
0
  6
ByBlock
 62
     0
100
AcDbMText
 10
127.6976899445511
 20
104.923744250943
 30
0.0
 40
3.2
 41
0.0
 71
     5
 72
     1
  1
\A1;%%c17.5
  7
KCADDIMSTANDARD
 11
-1.271037311859069E-15
 21
1.0
 31
0.0
 73
     1
 44
1.0
  0
ENDBLK
  5
A33
330
72E
100
AcDbEntity
  8
0
100
AcDbBlockEnd
  0
BLOCK
  5
A34
330
7AC
100
AcDbEntity
  8
0
100
AcDbBlockBegin
  2
*D49
 70
     1
 71
     0
 10
0.0
 20
0.0
 30
0.0
  3
*D49
  1

  0
POINT
  5
7A2
330
7AC
100
AcDbEntity
  8
DEFPOINTS
  6
ByBlock
 62
     0
370
    15
100
AcDbPoint
 10
212.8135298630912
 20
120.9688106723244
 30
0.0
  0
POINT
  5
7A3
330
7AC
100
AcDbEntity
  8
DEFPOINTS
  6
ByBlock
 62
     0
370
    15
100
AcDbPoint
 10
195.2875298630912
 20
109.9202127659575
 30
0.0
  0
LINE
  5
7A4
330
7AC
100
AcDbEntity
  8
0
  6
ByBlock
 62
     0
370
    -2
100
AcDbLine
 10
212.8135298630912
 20
119.9688106723244
 30
0.0
 11
212.8135298630912
 21
94.13707650856696
 31
0.0
  0
LINE
  5
7A5
330
7AC
100
AcDbEntity
  8
0
  6
ByBlock
 62
     0
370
    -2
100
AcDbLine
 10
195.2875298630912
 20
108.9202127659575
 30
0.0
 11
195.2875298630912
 21
94.13707650856696
 31
0.0
  0
LINE
  5
7A6
330
7AC
100
AcDbEntity
  8
0
  6
ByBlock
 62
     0
370
    -2
100
AcDbLine
 10
212.8135298630912
 20
95.13707650856696
 30
0.0
 11
195.2875298630912
 21
95.13707650856696
 31
0.0
  0
SOLID
  5
7A7
330
7AC
100
AcDbEntity
  8
0
  6
ByBlock
 62
     0
370
    15
100
AcDbTrace
 10
212.8135298630912
 20
95.13707650856696
 30
0.0
 11
209.8135298630912
 21
95.63707650856706
 31
0.0
 12
209.8135298630912
 22
94.63707650856686
 32
0.0
 13
209.8135298630912
 23
94.63707650856686
 33
0.0
  0
SOLID
  5
7A8
330
7AC
100
AcDbEntity
  8
0
  6
ByBlock
 62
     0
370
    15
100
AcDbTrace
 10
195.2875298630912
 20
95.13707650856696
 30
0.0
 11
198.2875298630912
 21
95.63707650856706
 31
0.0
 12
198.2875298630912
 22
94.63707650856686
 32
0.0
 13
198.2875298630912
 23
94.63707650856686
 33
0.0
  0
LINE
  5
7A9
330
7AC
100
AcDbEntity
  8
0
  6
ByBlock
 62
     0
370
    -2
100
AcDbLine
 10
212.8135298630912
 20
120.9688106723244
 30
0.0
 11
212.8135298630912
 21
120.9688106723244
 31
0.0
  0
MTEXT
  5
7AA
330
7AC
100
AcDbEntity
  8
0
  6
ByBlock
 62
     0
100
AcDbMText
 10
228.4580097106889
 20
98.19189368603628
 30
0.0
 40
3.2
 41
0.0
 71
     5
 72
     1
  1
\A1;F.B.=17.526
  7
KCADDIMSTANDARD
 73
     1
 44
1.0
  0
ENDBLK
  5
A35
330
7AC
100
AcDbEntity
  8
0
100
AcDbBlockEnd
  0
BLOCK
  5
A36
330
7B8
100
AcDbEntity
  8
0
100
AcDbBlockBegin
  2
*D50
 70
     1
 71
     0
 10
0.0
 20
0.0
 30
0.0
  3
*D50
  1

  0
POINT
  5
7AE
330
7B8
100
AcDbEntity
  8
DEFPOINTS
  6
ByBlock
 62
     0
370
    15
100
AcDbPoint
 10
132.6275298630911
 20
115.1702127659584
 30
0.0
  0
POINT
  5
7AF
330
7B8
100
AcDbEntity
  8
DEFPOINTS
  6
ByBlock
 62
     0
370
    15
100
AcDbPoint
 10
132.6275298630911
 20
123.9202127659566
 30
0.0
  0
LINE
  5
7B0
330
7B8
100
AcDbEntity
  8
0
  6
ByBlock
 62
     0
370
    -2
100
AcDbLine
 10
131.6275298630911
 20
115.1702127659584
 30
0.0
 11
128.8310229445512
 21
115.1702127659584
 31
0.0
  0
LINE
  5
7B1
330
7B8
100
AcDbEntity
  8
0
  6
ByBlock
 62
     0
370
    -2
100
AcDbLine
 10
131.6275298630911
 20
123.9202127659566
 30
0.0
 11
128.8310229445512
 21
123.9202127659566
 31
0.0
  0
LINE
  5
7B2
330
7B8
100
AcDbEntity
  8
0
  6
ByBlock
 62
     0
370
    -2
100
AcDbLine
 10
129.8310229445512
 20
115.1702127659584
 30
0.0
 11
129.8310229445512
 21
123.9202127659566
 31
0.0
  0
SOLID
  5
7B3
330
7B8
100
AcDbEntity
  8
0
  6
ByBlock
 62
     0
370
    15
100
AcDbTrace
 10
129.8310229445512
 20
115.1702127659584
 30
0.0
 11
130.2476896112179
 21
117.6702127659584
 31
0.0
 12
129.4143562778845
 22
117.6702127659584
 32
0.0
 13
129.4143562778845
 23
117.6702127659584
 33
0.0
  0
SOLID
  5
7B4
330
7B8
100
AcDbEntity
  8
0
  6
ByBlock
 62
     0
370
    15
100
AcDbTrace
 10
129.8310229445512
 20
123.9202127659566
 30
0.0
 11
130.2476896112179
 21
121.4202127659566
 31
0.0
 12
129.4143562778845
 22
121.4202127659566
 32
0.0
 13
129.4143562778845
 23
121.4202127659566
 33
0.0
  0
LINE
  5
7B5
330
7B8
100
AcDbEntity
  8
0
  6
ByBlock
 62
     0
370
    -2
100
AcDbLine
 10
132.6275298630911
 20
115.1702127659584
 30
0.0
 11
132.6275298630911
 21
115.1702127659584
 31
0.0
  0
MTEXT
  5
7B6
330
7B8
100
AcDbEntity
  8
0
  6
ByBlock
 62
     0
100
AcDbMText
 10
127.6976899445511
 20
104.923744250943
 30
0.0
 40
3.2
 41
0.0
 71
     5
 72
     1
  1
\A1;%%c17.5
  7
KCADDIMSTANDARD
 11
-1.271037311859069E-15
 21
1.0
 31
0.0
 73
     1
 44
1.0
  0
ENDBLK
  5
A37
330
7B8
100
AcDbEntity
  8
0
100
AcDbBlockEnd
  0
BLOCK
  5
A38
330
7C5
100
AcDbEntity
  8
0
100
AcDbBlockBegin
  2
*D51
 70
     1
 71
     0
 10
0.0
 20
0.0
 30
0.0
  3
*D51
  1

  0
POINT
  5
7BB
330
7C5
100
AcDbEntity
  8
DEFPOINTS
  6
ByBlock
 62
     0
370
    15
100
AcDbPoint
 10
132.6275298630911
 20
132.6702127659563
 30
0.0
  0
POINT
  5
7BC
330
7C5
100
AcDbEntity
  8
DEFPOINTS
  6
ByBlock
 62
     0
370
    15
100
AcDbPoint
 10
132.6275298630911
 20
114.9202127659574
 30
0.0
  0
LINE
  5
7BD
330
7C5
100
AcDbEntity
  8
0
  6
ByBlock
 62
     0
370
    -2
100
AcDbLine
 10
131.6275298630911
 20
132.6702127659563
 30
0.0
 11
128.7237677715862
 21
132.6702127659563
 31
0.0
  0
LINE
  5
7BE
330
7C5
100
AcDbEntity
  8
0
  6
ByBlock
 62
     0
370
    -2
100
AcDbLine
 10
131.6275298630911
 20
114.9202127659574
 30
0.0
 11
128.7237677715862
 21
114.9202127659574
 31
0.0
  0
LINE
  5
7BF
330
7C5
100
AcDbEntity
  8
0
  6
ByBlock
 62
     0
370
    -2
100
AcDbLine
 10
129.7237677715862
 20
135.6702127659563
 30
0.0
 11
129.7237677715862
 21
138.6702127659563
 31
0.0
  0
INSERT
  5
7C0
330
7C5
100
AcDbEntity
  8
0
  6
ByBlock
 62
   134
370
    -2
100
AcDbBlockReference
  2
KCAD_OPEN30
 10
129.7237677715862
 20
132.6702127659563
 30
0.0
 41
3.0
 42
3.0
 43
3.0
 50
270.0
  0
LINE
  5
7C1
330
7C5
100
AcDbEntity
  8
0
  6
ByBlock
 62
     0
370
    -2
100
AcDbLine
 10
129.7237677715862
 20
111.9202127659574
 30
0.0
 11
129.7237677715862
 21
108.9202127659574
 31
0.0
  0
INSERT
  5
7C2
330
7C5
100
AcDbEntity
  8
0
  6
ByBlock
 62
   134
370
    -2
100
AcDbBlockReference
  2
KCAD_OPEN30
 10
129.7237677715862
 20
114.9202127659574
 30
0.0
 41
3.0
 42
3.0
 43
3.0
 50
90.0
  0
MTEXT
  5
7C3
330
7C5
100
AcDbEntity
  8
0
  6
ByBlock
 62
     0
370
    15
100
AcDbMText
 10
127.5904677715862
 20
123.7952127659568
 30
0.0
 40
3.2
 41
0.0
 71
     5
 72
     1
  1
17.75
  7
KCADDIMSTANDARD
 11
6.123031769111886E-17
 21
1.0
 31
0.0
 73
     1
 44
1.0
  0
ENDBLK
  5
A39
330
7C5
100
AcDbEntity
  8
0
100
AcDbBlockEnd
  0
BLOCK
  5
A3A
330
7D1
100
AcDbEntity
  8
0
100
AcDbBlockBegin
  2
*D52
 70
     1
 71
     0
 10
0.0
 20
0.0
 30
0.0
  3
*D52
  1

  0
POINT
  5
7C7
330
7D1
100
AcDbEntity
  8
DEFPOINTS
  6
ByBlock
 62
     0
370
    15
100
AcDbPoint
 10
155.7605101476347
 20
114.6673218902074
 30
0.0
  0
POINT
  5
7C8
330
7D1
100
AcDbEntity
  8
DEFPOINTS
  6
ByBlock
 62
     0
370
    15
100
AcDbPoint
 10
155.7605101476347
 20
123.4173218902057
 30
0.0
  0
LINE
  5
7C9
330
7D1
100
AcDbEntity
  8
0
  6
ByBlock
 62
     0
370
    -2
100
AcDbLine
 10
154.7605101476347
 20
114.6673218902074
 30
0.0
 11
151.9640032290948
 21
114.6673218902074
 31
0.0
  0
LINE
  5
7CA
330
7D1
100
AcDbEntity
  8
0
  6
ByBlock
 62
     0
370
    -2
100
AcDbLine
 10
154.7605101476347
 20
123.4173218902057
 30
0.0
 11
151.9640032290948
 21
123.4173218902057
 31
0.0
  0
LINE
  5
7CB
330
7D1
100
AcDbEntity
  8
0
  6
ByBlock
 62
     0
370
    -2
100
AcDbLine
 10
152.9640032290948
 20
114.6673218902074
 30
0.0
 11
152.9640032290948
 21
123.4173218902057
 31
0.0
  0
SOLID
  5
7CC
330
7D1
100
AcDbEntity
  8
0
  6
ByBlock
 62
     0
370
    15
100
AcDbTrace
 10
152.9640032290948
 20
114.6673218902074
 30
0.0
 11
153.3806698957615
 21
117.1673218902074
 31
0.0
 12
152.547336562428
 22
117.1673218902074
 32
0.0
 13
152.547336562428
 23
117.1673218902074
 33
0.0
  0
SOLID
  5
7CD
330
7D1
100
AcDbEntity
  8
0
  6
ByBlock
 62
     0
370
    15
100
AcDbTrace
 10
152.9640032290948
 20
123.4173218902057
 30
0.0
 11
153.3806698957615
 21
120.9173218902057
 31
0.0
 12
152.547336562428
 22
120.9173218902057
 32
0.0
 13
152.547336562428
 23
120.9173218902057
 33
0.0
  0
LINE
  5
7CE
330
7D1
100
AcDbEntity
  8
0
  6
ByBlock
 62
     0
370
    -2
100
AcDbLine
 10
155.7605101476347
 20
114.6673218902074
 30
0.0
 11
155.7605101476347
 21
114.6673218902074
 31
0.0
  0
MTEXT
  5
7CF
330
7D1
100
AcDbEntity
  8
0
  6
ByBlock
 62
     0
100
AcDbMText
 10
150.8306702290947
 20
104.4208533751921
 30
0.0
 40
3.2
 41
0.0
 71
     5
 72
     1
  1
\A1;%%c17.5
  7
KCADDIMSTANDARD
 11
-1.271037311859069E-15
 21
1.0
 31
0.0
 73
     1
 44
1.0
  0
ENDBLK
  5
A3B
330
7D1
100
AcDbEntity
  8
0
100
AcDbBlockEnd
  0
BLOCK
  5
A3C
330
7DE
100
AcDbEntity
  8
0
100
AcDbBlockBegin
  2
*D53
 70
     1
 71
     0
 10
0.0
 20
0.0
 30
0.0
  3
*D53
  1

  0
POINT
  5
7D3
330
7DE
100
AcDbEntity
  8
DEFPOINTS
  6
ByBlock
 62
     0
370
    15
100
AcDbPoint
 10
132.6275298630911
 20
132.6702127659563
 30
0.0
  0
POINT
  5
7D4
330
7DE
100
AcDbEntity
  8
DEFPOINTS
  6
ByBlock
 62
     0
370
    15
100
AcDbPoint
 10
132.6275298630911
 20
114.9202127659574
 30
0.0
  0
LINE
  5
7D5
330
7DE
100
AcDbEntity
  8
0
  6
ByBlock
 62
     0
370
    -2
100
AcDbLine
 10
131.6275298630911
 20
132.6702127659563
 30
0.0
 11
128.8913980635032
 21
132.6702127659563
 31
0.0
  0
LINE
  5
7D6
330
7DE
100
AcDbEntity
  8
0
  6
ByBlock
 62
     0
370
    -2
100
AcDbLine
 10
131.6275298630911
 20
114.9202127659574
 30
0.0
 11
128.8913980635032
 21
114.9202127659574
 31
0.0
  0
LINE
  5
7D7
330
7DE
100
AcDbEntity
  8
0
  6
ByBlock
 62
     0
370
    -2
100
AcDbLine
 10
129.8913980635032
 20
135.6702127659563
 30
0.0
 11
129.8913980635032
 21
138.6702127659563
 31
0.0
  0
INSERT
  5
7D8
330
7DE
100
AcDbEntity
  8
0
  6
ByBlock
 62
   134
370
    -2
100
AcDbBlockReference
  2
KCAD_OPEN30
 10
129.8913980635032
 20
132.6702127659563
 30
0.0
 41
3.0
 42
3.0
 43
3.0
 50
270.0
  0
LINE
  5
7D9
330
7DE
100
AcDbEntity
  8
0
  6
ByBlock
 62
     0
370
    -2
100
AcDbLine
 10
129.8913980635032
 20
111.9202127659574
 30
0.0
 11
129.8913980635032
 21
99.91409040012688
 31
0.0
  0
INSERT
  5
7DA
330
7DE
100
AcDbEntity
  8
0
  6
ByBlock
 62
   134
370
    -2
100
AcDbBlockReference
  2
KCAD_OPEN30
 10
129.8913980635032
 20
114.9202127659574
 30
0.0
 41
3.0
 42
3.0
 43
3.0
 50
90.0
  0
LINE
  5
7DB
330
7DE
100
AcDbEntity
  8
0
  6
ByBlock
 62
     0
370
    -2
100
AcDbLine
 10
129.8913980635032
 20
132.6702127659563
 30
0.0
 11
129.8913980635032
 21
114.9202127659574
 31
0.0
  0
MTEXT
  5
7DC
330
7DE
100
AcDbEntity
  8
0
  6
ByBlock
 62
     0
370
    15
100
AcDbMText
 10
127.7580980635032
 20
102.0473904001269
 30
0.0
 40
3.2
 41
0.0
 71
     5
 72
     1
  1
17.75
  7
KCADDIMSTANDARD
 11
6.123031769111886E-17
 21
1.0
 31
0.0
 73
     1
 44
1.0
  0
ENDBLK
  5
A3D
330
7DE
100
AcDbEntity
  8
0
100
AcDbBlockEnd
  0
BLOCK
  5
A3E
330
7F8
100
AcDbEntity
  8
0
100
AcDbBlockBegin
  2
*D54
 70
     1
 71
     0
 10
0.0
 20
0.0
 30
0.0
  3
*D54
  1

  0
POINT
  5
7ED
330
7F8
100
AcDbEntity
  8
DEFPOINTS
  6
ByBlock
 62
     0
370
    15
100
AcDbPoint
 10
125.7546878944948
 20
133.6759945174582
 30
0.0
  0
POINT
  5
7EE
330
7F8
100
AcDbEntity
  8
DEFPOINTS
  6
ByBlock
 62
     0
370
    15
100
AcDbPoint
 10
125.7546878944948
 20
115.9259945174593
 30
0.0
  0
LINE
  5
7EF
330
7F8
100
AcDbEntity
  8
0
  6
ByBlock
 62
     0
370
    -2
100
AcDbLine
 10
124.7546878944948
 20
133.6759945174582
 30
0.0
 11
122.0185560949069
 21
133.6759945174582
 31
0.0
  0
LINE
  5
7F0
330
7F8
100
AcDbEntity
  8
0
  6
ByBlock
 62
     0
370
    -2
100
AcDbLine
 10
124.7546878944948
 20
115.9259945174593
 30
0.0
 11
122.0185560949069
 21
115.9259945174593
 31
0.0
  0
LINE
  5
7F1
330
7F8
100
AcDbEntity
  8
0
  6
ByBlock
 62
     0
370
    -2
100
AcDbLine
 10
123.0185560949069
 20
136.6759945174582
 30
0.0
 11
123.0185560949069
 21
139.6759945174582
 31
0.0
  0
INSERT
  5
7F2
330
7F8
100
AcDbEntity
  8
0
  6
ByBlock
 62
   134
370
    -2
100
AcDbBlockReference
  2
KCAD_OPEN30
 10
123.0185560949069
 20
133.6759945174582
 30
0.0
 41
3.0
 42
3.0
 43
3.0
 50
270.0
  0
LINE
  5
7F3
330
7F8
100
AcDbEntity
  8
0
  6
ByBlock
 62
     0
370
    -2
100
AcDbLine
 10
123.0185560949069
 20
112.9259945174593
 30
0.0
 11
123.0185560949069
 21
100.9198721516288
 31
0.0
  0
INSERT
  5
7F4
330
7F8
100
AcDbEntity
  8
0
  6
ByBlock
 62
   134
370
    -2
100
AcDbBlockReference
  2
KCAD_OPEN30
 10
123.0185560949069
 20
115.9259945174593
 30
0.0
 41
3.0
 42
3.0
 43
3.0
 50
90.0
  0
LINE
  5
7F5
330
7F8
100
AcDbEntity
  8
0
  6
ByBlock
 62
     0
370
    -2
100
AcDbLine
 10
123.0185560949069
 20
133.6759945174582
 30
0.0
 11
123.0185560949069
 21
115.9259945174593
 31
0.0
  0
MTEXT
  5
7F6
330
7F8
100
AcDbEntity
  8
0
  6
ByBlock
 62
     0
370
    15
100
AcDbMText
 10
120.8852560949069
 20
103.0531721516288
 30
0.0
 40
3.2
 41
0.0
 71
     5
 72
     1
  1
17.75
  7
KCADDIMSTANDARD
 11
6.123031769111886E-17
 21
1.0
 31
0.0
 73
     1
 44
1.0
  0
ENDBLK
  5
A3F
330
7F8
100
AcDbEntity
  8
0
100
AcDbBlockEnd
  0
BLOCK
  5
A40
330
806
100
AcDbEntity
  8
0
100
AcDbBlockBegin
  2
*D55
 70
     1
 71
     0
 10
0.0
 20
0.0
 30
0.0
  3
*D55
  1

  0
POINT
  5
7FB
330
806
100
AcDbEntity
  8
DEFPOINTS
  6
ByBlock
 62
     0
370
    15
100
AcDbPoint
 10
126.6275298630911
 20
132.6702127659563
 30
0.0
  0
POINT
  5
7FC
330
806
100
AcDbEntity
  8
DEFPOINTS
  6
ByBlock
 62
     0
370
    15
100
AcDbPoint
 10
126.6275298630911
 20
115.1702127659584
 30
0.0
  0
LINE
  5
7FD
330
806
100
AcDbEntity
  8
0
  6
ByBlock
 62
     0
370
    -2
100
AcDbLine
 10
126.6275298630911
 20
131.6702127659563
 30
0.0
 11
126.6275298630911
 21
113.9202127659563
 31
0.0
  0
LINE
  5
7FE
330
806
100
AcDbEntity
  8
0
  6
ByBlock
 62
     0
370
    -2
100
AcDbLine
 10
126.6275298630911
 20
114.1702127659584
 30
0.0
 11
126.6275298630911
 21
113.9202127659563
 31
0.0
  0
LINE
  5
7FF
330
806
100
AcDbEntity
  8
0
  6
ByBlock
 62
     0
370
    -2
100
AcDbLine
 10
123.6275298630911
 20
114.9202127659563
 30
0.0
 11
120.6275298630911
 21
114.9202127659563
 31
0.0
  0
INSERT
  5
800
330
806
100
AcDbEntity
  8
0
  6
ByBlock
 62
   134
370
    -2
100
AcDbBlockReference
  2
KCAD_OPEN30
 10
126.6275298630911
 20
114.9202127659563
 30
0.0
 41
3.0
 42
3.0
 43
3.0
  0
LINE
  5
801
330
806
100
AcDbEntity
  8
0
  6
ByBlock
 62
     0
370
    -2
100
AcDbLine
 10
129.6275298630911
 20
114.9202127659563
 30
0.0
 11
135.2941298630911
 21
114.9202127659563
 31
0.0
  0
INSERT
  5
802
330
806
100
AcDbEntity
  8
0
  6
ByBlock
 62
   134
370
    -2
100
AcDbBlockReference
  2
KCAD_OPEN30
 10
126.6275298630911
 20
114.9202127659563
 30
0.0
 41
3.0
 42
3.0
 43
3.0
 50
180.0
  0
LINE
  5
803
330
806
100
AcDbEntity
  8
0
  6
ByBlock
 62
     0
370
    -2
100
AcDbLine
 10
126.6275298630911
 20
114.9202127659563
 30
0.0
 11
126.6275298630911
 21
114.9202127659563
 31
0.0
  0
MTEXT
  5
804
330
806
100
AcDbEntity
  8
0
  6
ByBlock
 62
     0
370
    15
100
AcDbMText
 10
133.9608298630911
 20
117.0535127659563
 30
0.0
 40
3.2
 41
0.0
 71
     5
 72
     1
  1
0
  7
KCADDIMSTANDARD
 73
     1
 44
1.0
  0
ENDBLK
  5
A41
330
806
100
AcDbEntity
  8
0
100
AcDbBlockEnd
  0
BLOCK
  5
A42
330
812
100
AcDbEntity
  8
0
100
AcDbBlockBegin
  2
*D56
 70
     1
 71
     0
 10
0.0
 20
0.0
 30
0.0
  3
*D56
  1

  0
POINT
  5
809
330
812
100
AcDbEntity
  8
DEFPOINTS
  6
ByBlock
 62
     0
370
    15
100
AcDbPoint
 10
132.6275298630911
 20
132.6702127659563
 30
0.0
  0
POINT
  5
80A
330
812
100
AcDbEntity
  8
DEFPOINTS
  6
ByBlock
 62
     0
370
    15
100
AcDbPoint
 10
132.6275298630911
 20
115.1702127659584
 30
0.0
  0
LINE
  5
80B
330
812
100
AcDbEntity
  8
0
  6
ByBlock
 62
     0
370
    -2
100
AcDbLine
 10
131.6275298630911
 20
132.6702127659563
 30
0.0
 11
129.1151383279233
 21
132.6702127659563
 31
0.0
  0
LINE
  5
80C
330
812
100
AcDbEntity
  8
0
  6
ByBlock
 62
     0
370
    -2
100
AcDbLine
 10
131.6275298630911
 20
115.1702127659584
 30
0.0
 11
129.1151383279233
 21
115.1702127659584
 31
0.0
  0
LINE
  5
80D
330
812
100
AcDbEntity
  8
0
  6
ByBlock
 62
     0
370
    -2
100
AcDbLine
 10
130.1151383279233
 20
129.6702127659563
 30
0.0
 11
130.1151383279233
 21
118.1702127659584
 31
0.0
  0
INSERT
  5
80E
330
812
100
AcDbEntity
  8
0
  6
ByBlock
 62
   134
370
    -2
100
AcDbBlockReference
  2
KCAD_OPEN30
 10
130.1151383279233
 20
132.6702127659563
 30
0.0
 41
3.0
 42
3.0
 43
3.0
 50
90.0
  0
INSERT
  5
80F
330
812
100
AcDbEntity
  8
0
  6
ByBlock
 62
   134
370
    -2
100
AcDbBlockReference
  2
KCAD_OPEN30
 10
130.1151383279233
 20
115.1702127659584
 30
0.0
 41
3.0
 42
3.0
 43
3.0
 50
270.0
  0
MTEXT
  5
810
330
812
100
AcDbEntity
  8
0
  6
ByBlock
 62
     0
370
    15
100
AcDbMText
 10
127.9818383279233
 20
123.9202127659574
 30
0.0
 40
3.2
 41
0.0
 71
     5
 72
     1
  1
17.5
  7
KCADDIMSTANDARD
 11
6.123031769111886E-17
 21
1.0
 31
0.0
 73
     1
 44
1.0
  0
ENDBLK
  5
A43
330
812
100
AcDbEntity
  8
0
100
AcDbBlockEnd
  0
BLOCK
  5
A44
330
829
100
AcDbEntity
  8
0
100
AcDbBlockBegin
  2
*D57
 70
     1
 71
     0
 10
0.0
 20
0.0
 30
0.0
  3
*D57
  1

  0
POINT
  5
820
330
829
100
AcDbEntity
  8
DEFPOINTS
  6
ByBlock
 62
     0
370
    15
100
AcDbPoint
 10
132.6275298630911
 20
132.6702127659563
 30
0.0
  0
POINT
  5
821
330
829
100
AcDbEntity
  8
DEFPOINTS
  6
ByBlock
 62
     0
370
    15
100
AcDbPoint
 10
132.6275298630911
 20
115.1702127659584
 30
0.0
  0
LINE
  5
822
330
829
100
AcDbEntity
  8
0
  6
ByBlock
 62
     0
370
    -2
100
AcDbLine
 10
131.6275298630911
 20
132.6702127659563
 30
0.0
 11
129.1151383279233
 21
132.6702127659563
 31
0.0
  0
LINE
  5
823
330
829
100
AcDbEntity
  8
0
  6
ByBlock
 62
     0
370
    -2
100
AcDbLine
 10
131.6275298630911
 20
115.1702127659584
 30
0.0
 11
129.1151383279233
 21
115.1702127659584
 31
0.0
  0
LINE
  5
824
330
829
100
AcDbEntity
  8
0
  6
ByBlock
 62
     0
370
    -2
100
AcDbLine
 10
130.1151383279233
 20
129.6702127659563
 30
0.0
 11
130.1151383279233
 21
118.1702127659584
 31
0.0
  0
INSERT
  5
825
330
829
100
AcDbEntity
  8
0
  6
ByBlock
 62
   134
370
    -2
100
AcDbBlockReference
  2
KCAD_OPEN30
 10
130.1151383279233
 20
132.6702127659563
 30
0.0
 41
3.0
 42
3.0
 43
3.0
 50
90.0
  0
INSERT
  5
826
330
829
100
AcDbEntity
  8
0
  6
ByBlock
 62
   134
370
    -2
100
AcDbBlockReference
  2
KCAD_OPEN30
 10
130.1151383279233
 20
115.1702127659584
 30
0.0
 41
3.0
 42
3.0
 43
3.0
 50
270.0
  0
MTEXT
  5
827
330
829
100
AcDbEntity
  8
0
  6
ByBlock
 62
     0
370
    15
100
AcDbMText
 10
127.9818383279233
 20
123.9202127659574
 30
0.0
 40
3.2
 41
0.0
 71
     5
 72
     1
  1
17.5
  7
KCADDIMSTANDARD
 11
6.123031769111886E-17
 21
1.0
 31
0.0
 73
     1
 44
1.0
  0
ENDBLK
  5
A45
330
829
100
AcDbEntity
  8
0
100
AcDbBlockEnd
  0
BLOCK
  5
A46
330
84C
100
AcDbEntity
  8
0
100
AcDbBlockBegin
  2
*D58
 70
     1
 71
     0
 10
0.0
 20
0.0
 30
0.0
  3
*D58
  1

  0
POINT
  5
842
330
84C
100
AcDbEntity
  8
DEFPOINTS
  6
ByBlock
 62
     0
370
    15
100
AcDbPoint
 10
132.6275298630911
 20
132.6702127659563
 30
0.0
  0
POINT
  5
843
330
84C
100
AcDbEntity
  8
DEFPOINTS
  6
ByBlock
 62
     0
370
    15
100
AcDbPoint
 10
132.6275298630911
 20
115.1702127659584
 30
0.0
  0
LINE
  5
844
330
84C
100
AcDbEntity
  8
0
  6
ByBlock
 62
     0
370
    -2
100
AcDbLine
 10
131.6275298630911
 20
132.6702127659563
 30
0.0
 11
129.1151383279233
 21
132.6702127659563
 31
0.0
  0
LINE
  5
845
330
84C
100
AcDbEntity
  8
0
  6
ByBlock
 62
     0
370
    -2
100
AcDbLine
 10
131.6275298630911
 20
115.1702127659584
 30
0.0
 11
129.1151383279233
 21
115.1702127659584
 31
0.0
  0
LINE
  5
846
330
84C
100
AcDbEntity
  8
0
  6
ByBlock
 62
     0
370
    -2
100
AcDbLine
 10
130.1151383279233
 20
129.6702127659563
 30
0.0
 11
130.1151383279233
 21
118.1702127659584
 31
0.0
  0
INSERT
  5
847
330
84C
100
AcDbEntity
  8
0
  6
ByBlock
 62
   134
370
    -2
100
AcDbBlockReference
  2
KCAD_OPEN30
 10
130.1151383279233
 20
132.6702127659563
 30
0.0
 41
3.0
 42
3.0
 43
3.0
 50
90.0
  0
LINE
  5
848
330
84C
100
AcDbEntity
  8
0
  6
ByBlock
 62
     0
370
    -2
100
AcDbLine
 10
130.1151383279233
 20
115.1702127659584
 30
0.0
 11
130.1151383279233
 21
101.6182384178706
 31
0.0
  0
INSERT
  5
849
330
84C
100
AcDbEntity
  8
0
  6
ByBlock
 62
   134
370
    -2
100
AcDbBlockReference
  2
KCAD_OPEN30
 10
130.1151383279233
 20
115.1702127659584
 30
0.0
 41
3.0
 42
3.0
 43
3.0
 50
90.0
  0
MTEXT
  5
84A
330
84C
100
AcDbEntity
  8
0
  6
ByBlock
 62
     0
370
    15
100
AcDbMText
 10
127.9818383279233
 20
103.7515384178706
 30
0.0
 40
3.2
 41
0.0
 71
     5
 72
     1
  1
17.5
  7
KCADDIMSTANDARD
 11
6.123031769111886E-17
 21
1.0
 31
0.0
 73
     1
 44
1.0
  0
ENDBLK
  5
A47
330
84C
100
AcDbEntity
  8
0
100
AcDbBlockEnd
  0
BLOCK
  5
A48
330
857
100
AcDbEntity
  8
0
100
AcDbBlockBegin
  2
*D59
 70
     1
 71
     0
 10
0.0
 20
0.0
 30
0.0
  3
*D59
  1

  0
POINT
  5
84E
330
857
100
AcDbEntity
  8
DEFPOINTS
  6
ByBlock
 62
     0
370
    15
100
AcDbPoint
 10
132.6275298630911
 20
132.6702127659563
 30
0.0
  0
POINT
  5
84F
330
857
100
AcDbEntity
  8
DEFPOINTS
  6
ByBlock
 62
     0
370
    15
100
AcDbPoint
 10
132.6275298630911
 20
115.1702127659584
 30
0.0
  0
LINE
  5
850
330
857
100
AcDbEntity
  8
0
  6
ByBlock
 62
     0
370
    -2
100
AcDbLine
 10
131.6275298630911
 20
132.6702127659563
 30
0.0
 11
129.1151383279233
 21
132.6702127659563
 31
0.0
  0
LINE
  5
851
330
857
100
AcDbEntity
  8
0
  6
ByBlock
 62
     0
370
    -2
100
AcDbLine
 10
131.6275298630911
 20
115.1702127659584
 30
0.0
 11
129.1151383279233
 21
115.1702127659584
 31
0.0
  0
LINE
  5
852
330
857
100
AcDbEntity
  8
0
  6
ByBlock
 62
     0
370
    -2
100
AcDbLine
 10
130.1151383279233
 20
132.6702127659563
 30
0.0
 11
130.1151383279233
 21
115.1702127659584
 31
0.0
  0
INSERT
  5
853
330
857
100
AcDbEntity
  8
0
  6
ByBlock
 62
   134
370
    -2
100
AcDbBlockReference
  2
KCAD_OPEN30
 10
130.1151383279233
 20
132.6702127659563
 30
0.0
 41
3.0
 42
3.0
 43
3.0
 50
90.0
  0
INSERT
  5
854
330
857
100
AcDbEntity
  8
0
  6
ByBlock
 62
   134
370
    -2
100
AcDbBlockReference
  2
KCAD_OPEN30
 10
130.1151383279233
 20
115.1702127659584
 30
0.0
 41
3.0
 42
3.0
 43
3.0
  0
MTEXT
  5
855
330
857
100
AcDbEntity
  8
0
  6
ByBlock
 62
     0
370
    15
100
AcDbMText
 10
127.9818383279233
 20
103.7515384178706
 30
0.0
 40
3.2
 41
0.0
 71
     5
 72
     1
  1
17.5
  7
KCADDIMSTANDARD
 11
6.123031769111886E-17
 21
1.0
 31
0.0
 73
     1
 44
1.0
  0
ENDBLK
  5
A49
330
857
100
AcDbEntity
  8
0
100
AcDbBlockEnd
  0
BLOCK
  5
A4A
330
863
100
AcDbEntity
  8
0
100
AcDbBlockBegin
  2
*D60
 70
     1
 71
     0
 10
0.0
 20
0.0
 30
0.0
  3
*D60
  1

  0
POINT
  5
85A
330
863
100
AcDbEntity
  8
DEFPOINTS
  6
ByBlock
 62
     0
370
    15
100
AcDbPoint
 10
131.6275298630911
 20
132.6702127659563
 30
0.0
  0
POINT
  5
85B
330
863
100
AcDbEntity
  8
DEFPOINTS
  6
ByBlock
 62
     0
370
    15
100
AcDbPoint
 10
131.6275298630911
 20
115.1702127659584
 30
0.0
  0
LINE
  5
85C
330
863
100
AcDbEntity
  8
0
  6
ByBlock
 62
     0
370
    -2
100
AcDbLine
 10
130.6275298630911
 20
132.6702127659563
 30
0.0
 11
129.1151383279233
 21
132.6702127659563
 31
0.0
  0
LINE
  5
85D
330
863
100
AcDbEntity
  8
0
  6
ByBlock
 62
     0
370
    -2
100
AcDbLine
 10
130.6275298630911
 20
115.1702127659584
 30
0.0
 11
129.1151383279233
 21
115.1702127659584
 31
0.0
  0
LINE
  5
85E
330
863
100
AcDbEntity
  8
0
  6
ByBlock
 62
     0
370
    -2
100
AcDbLine
 10
130.1151383279233
 20
129.6702127659563
 30
0.0
 11
130.1151383279233
 21
118.1702127659584
 31
0.0
  0
INSERT
  5
85F
330
863
100
AcDbEntity
  8
0
  6
ByBlock
 62
   134
370
    -2
100
AcDbBlockReference
  2
KCAD_OPEN30
 10
130.1151383279233
 20
132.6702127659563
 30
0.0
 41
3.0
 42
3.0
 43
3.0
 50
90.0
  0
INSERT
  5
860
330
863
100
AcDbEntity
  8
0
  6
ByBlock
 62
   134
370
    -2
100
AcDbBlockReference
  2
KCAD_OPEN30
 10
130.1151383279233
 20
115.1702127659584
 30
0.0
 41
3.0
 42
3.0
 43
3.0
 50
270.0
  0
MTEXT
  5
861
330
863
100
AcDbEntity
  8
0
  6
ByBlock
 62
     0
370
    15
100
AcDbMText
 10
127.9818383279233
 20
123.9202127659574
 30
0.0
 40
3.2
 41
0.0
 71
     5
 72
     1
  1
17.5
  7
KCADDIMSTANDARD
 11
6.123031769111886E-17
 21
1.0
 31
0.0
 73
     1
 44
1.0
  0
ENDBLK
  5
A4B
330
863
100
AcDbEntity
  8
0
100
AcDbBlockEnd
  0
BLOCK
  5
A4C
330
87B
100
AcDbEntity
  8
0
100
AcDbBlockBegin
  2
*D61
 70
     1
 71
     0
 10
0.0
 20
0.0
 30
0.0
  3
*D61
  1

  0
POINT
  5
871
330
87B
100
AcDbEntity
  8
DEFPOINTS
  6
ByBlock
 62
     0
370
    15
100
AcDbPoint
 10
131.6275298630911
 20
132.6702127659563
 30
0.0
  0
POINT
  5
872
330
87B
100
AcDbEntity
  8
DEFPOINTS
  6
ByBlock
 62
     0
370
    15
100
AcDbPoint
 10
131.6275298630911
 20
115.1702127659584
 30
0.0
  0
LINE
  5
873
330
87B
100
AcDbEntity
  8
0
  6
ByBlock
 62
     0
370
    -2
100
AcDbLine
 10
130.6275298630911
 20
132.6702127659563
 30
0.0
 11
128.9130864568648
 21
132.6702127659563
 31
0.0
  0
LINE
  5
874
330
87B
100
AcDbEntity
  8
0
  6
ByBlock
 62
     0
370
    -2
100
AcDbLine
 10
130.6275298630911
 20
115.1702127659584
 30
0.0
 11
128.9130864568648
 21
115.1702127659584
 31
0.0
  0
LINE
  5
875
330
87B
100
AcDbEntity
  8
0
  6
ByBlock
 62
     0
370
    -2
100
AcDbLine
 10
129.9130864568648
 20
129.6702127659563
 30
0.0
 11
129.9130864568648
 21
118.1702127659584
 31
0.0
  0
INSERT
  5
876
330
87B
100
AcDbEntity
  8
0
  6
ByBlock
 62
   134
370
    -2
100
AcDbBlockReference
  2
KCAD_OPEN30
 10
129.9130864568648
 20
132.6702127659563
 30
0.0
 41
3.0
 42
3.0
 43
3.0
 50
90.0
  0
LINE
  5
877
330
87B
100
AcDbEntity
  8
0
  6
ByBlock
 62
     0
370
    -2
100
AcDbLine
 10
129.9130864568648
 20
115.1702127659584
 30
0.0
 11
129.9130864568648
 21
103.4367052573974
 31
0.0
  0
INSERT
  5
878
330
87B
100
AcDbEntity
  8
0
  6
ByBlock
 62
   134
370
    -2
100
AcDbBlockReference
  2
KCAD_OPEN30
 10
129.9130864568648
 20
115.1702127659584
 30
0.0
 41
3.0
 42
3.0
 43
3.0
 50
90.0
  0
MTEXT
  5
879
330
87B
100
AcDbEntity
  8
0
  6
ByBlock
 62
     0
370
    15
100
AcDbMText
 10
127.7797864568648
 20
105.5700052573974
 30
0.0
 40
3.2
 41
0.0
 71
     5
 72
     1
  1
17.5
  7
KCADDIMSTANDARD
 11
6.123031769111886E-17
 21
1.0
 31
0.0
 73
     1
 44
1.0
  0
ENDBLK
  5
A4D
330
87B
100
AcDbEntity
  8
0
100
AcDbBlockEnd
  0
BLOCK
  5
A4E
330
887
100
AcDbEntity
  8
0
100
AcDbBlockBegin
  2
*D62
 70
     1
 71
     0
 10
0.0
 20
0.0
 30
0.0
  3
*D62
  1

  0
POINT
  5
87E
330
887
100
AcDbEntity
  8
DEFPOINTS
  6
ByBlock
 62
     0
370
    15
100
AcDbPoint
 10
132.6275298630911
 20
132.6702127659563
 30
0.0
  0
POINT
  5
87F
330
887
100
AcDbEntity
  8
DEFPOINTS
  6
ByBlock
 62
     0
370
    15
100
AcDbPoint
 10
132.6275298630911
 20
115.1702127659584
 30
0.0
  0
LINE
  5
880
330
887
100
AcDbEntity
  8
0
  6
ByBlock
 62
     0
370
    -2
100
AcDbLine
 10
131.6275298630911
 20
132.6702127659563
 30
0.0
 11
129.3171901989818
 21
132.6702127659563
 31
0.0
  0
LINE
  5
881
330
887
100
AcDbEntity
  8
0
  6
ByBlock
 62
     0
370
    -2
100
AcDbLine
 10
131.6275298630911
 20
115.1702127659584
 30
0.0
 11
129.3171901989818
 21
115.1702127659584
 31
0.0
  0
LINE
  5
882
330
887
100
AcDbEntity
  8
0
  6
ByBlock
 62
     0
370
    -2
100
AcDbLine
 10
130.3171901989818
 20
129.6702127659563
 30
0.0
 11
130.3171901989818
 21
118.1702127659584
 31
0.0
  0
INSERT
  5
883
330
887
100
AcDbEntity
  8
0
  6
ByBlock
 62
   134
370
    -2
100
AcDbBlockReference
  2
KCAD_OPEN30
 10
130.3171901989818
 20
132.6702127659563
 30
0.0
 41
3.0
 42
3.0
 43
3.0
 50
90.0
  0
INSERT
  5
884
330
887
100
AcDbEntity
  8
0
  6
ByBlock
 62
   134
370
    -2
100
AcDbBlockReference
  2
KCAD_OPEN30
 10
130.3171901989818
 20
115.1702127659584
 30
0.0
 41
3.0
 42
3.0
 43
3.0
 50
270.0
  0
MTEXT
  5
885
330
887
100
AcDbEntity
  8
0
  6
ByBlock
 62
     0
370
    15
100
AcDbMText
 10
128.1838901989819
 20
123.9202127659574
 30
0.0
 40
3.2
 41
0.0
 71
     5
 72
     1
  1
17.5
  7
KCADDIMSTANDARD
 11
6.123031769111886E-17
 21
1.0
 31
0.0
 73
     1
 44
1.0
  0
ENDBLK
  5
A4F
330
887
100
AcDbEntity
  8
0
100
AcDbBlockEnd
  0
BLOCK
  5
A50
330
892
100
AcDbEntity
  8
0
100
AcDbBlockBegin
  2
*D63
 70
     1
 71
     0
 10
0.0
 20
0.0
 30
0.0
  3
*D63
  1

  0
POINT
  5
889
330
892
100
AcDbEntity
  8
DEFPOINTS
  6
ByBlock
 62
     0
370
    15
100
AcDbPoint
 10
132.6275298630911
 20
132.6702127659563
 30
0.0
  0
POINT
  5
88A
330
892
100
AcDbEntity
  8
DEFPOINTS
  6
ByBlock
 62
     0
370
    15
100
AcDbPoint
 10
132.6275298630911
 20
115.1702127659584
 30
0.0
  0
LINE
  5
88B
330
892
100
AcDbEntity
  8
0
  6
ByBlock
 62
     0
370
    -2
100
AcDbLine
 10
131.6275298630911
 20
132.6702127659563
 30
0.0
 11
129.3171901989818
 21
132.6702127659563
 31
0.0
  0
LINE
  5
88C
330
892
100
AcDbEntity
  8
0
  6
ByBlock
 62
     0
370
    -2
100
AcDbLine
 10
131.6275298630911
 20
115.1702127659584
 30
0.0
 11
129.3171901989818
 21
115.1702127659584
 31
0.0
  0
LINE
  5
88D
330
892
100
AcDbEntity
  8
0
  6
ByBlock
 62
     0
370
    -2
100
AcDbLine
 10
130.3171901989818
 20
129.6702127659563
 30
0.0
 11
130.3171901989818
 21
118.1702127659584
 31
0.0
  0
INSERT
  5
88E
330
892
100
AcDbEntity
  8
0
  6
ByBlock
 62
   134
370
    -2
100
AcDbBlockReference
  2
KCAD_OPEN30
 10
130.3171901989818
 20
132.6702127659563
 30
0.0
 41
3.0
 42
3.0
 43
3.0
 50
90.0
  0
INSERT
  5
88F
330
892
100
AcDbEntity
  8
0
  6
ByBlock
 62
   134
370
    -2
100
AcDbBlockReference
  2
KCAD_OPEN30
 10
130.3171901989818
 20
115.1702127659584
 30
0.0
 41
3.0
 42
3.0
 43
3.0
 50
270.0
  0
MTEXT
  5
890
330
892
100
AcDbEntity
  8
0
  6
ByBlock
 62
     0
370
    15
100
AcDbMText
 10
128.1838901989819
 20
123.9202127659574
 30
0.0
 40
3.2
 41
0.0
 71
     5
 72
     1
  1
17.5
  7
KCADDIMSTANDARD
 11
6.123031769111886E-17
 21
1.0
 31
0.0
 73
     1
 44
1.0
  0
ENDBLK
  5
A51
330
892
100
AcDbEntity
  8
0
100
AcDbBlockEnd
  0
BLOCK
  5
A52
330
89D
100
AcDbEntity
  8
0
100
AcDbBlockBegin
  2
*D64
 70
     1
 71
     0
 10
0.0
 20
0.0
 30
0.0
  3
*D64
  1

  0
POINT
  5
894
330
89D
100
AcDbEntity
  8
DEFPOINTS
  6
ByBlock
 62
     0
370
    15
100
AcDbPoint
 10
132.6275298630911
 20
132.6702127659563
 30
0.0
  0
POINT
  5
895
330
89D
100
AcDbEntity
  8
DEFPOINTS
  6
ByBlock
 62
     0
370
    15
100
AcDbPoint
 10
132.6275298630911
 20
115.1702127659584
 30
0.0
  0
LINE
  5
896
330
89D
100
AcDbEntity
  8
0
  6
ByBlock
 62
     0
370
    -2
100
AcDbLine
 10
131.6275298630911
 20
132.6702127659563
 30
0.0
 11
129.3171901989818
 21
132.6702127659563
 31
0.0
  0
LINE
  5
897
330
89D
100
AcDbEntity
  8
0
  6
ByBlock
 62
     0
370
    -2
100
AcDbLine
 10
131.6275298630911
 20
115.1702127659584
 30
0.0
 11
129.3171901989818
 21
115.1702127659584
 31
0.0
  0
LINE
  5
898
330
89D
100
AcDbEntity
  8
0
  6
ByBlock
 62
     0
370
    -2
100
AcDbLine
 10
130.3171901989818
 20
129.6702127659563
 30
0.0
 11
130.3171901989818
 21
118.1702127659584
 31
0.0
  0
INSERT
  5
899
330
89D
100
AcDbEntity
  8
0
  6
ByBlock
 62
   134
370
    -2
100
AcDbBlockReference
  2
KCAD_OPEN30
 10
130.3171901989818
 20
132.6702127659563
 30
0.0
 41
3.0
 42
3.0
 43
3.0
 50
90.0
  0
INSERT
  5
89A
330
89D
100
AcDbEntity
  8
0
  6
ByBlock
 62
   134
370
    -2
100
AcDbBlockReference
  2
KCAD_OPEN30
 10
130.3171901989818
 20
115.1702127659584
 30
0.0
 41
3.0
 42
3.0
 43
3.0
 50
270.0
  0
MTEXT
  5
89B
330
89D
100
AcDbEntity
  8
0
  6
ByBlock
 62
     0
370
    15
100
AcDbMText
 10
128.1838901989819
 20
123.9202127659574
 30
0.0
 40
3.2
 41
0.0
 71
     5
 72
     1
  1
17.5
  7
KCADDIMSTANDARD
 11
6.123031769111886E-17
 21
1.0
 31
0.0
 73
     1
 44
1.0
  0
ENDBLK
  5
A53
330
89D
100
AcDbEntity
  8
0
100
AcDbBlockEnd
  0
ENDSEC
  0
SECTION
  2
ENTITIES
  0
LINE
  5
2F0
330
1F
100
AcDbEntity
  8
2
  6
Continuous
 62
     7
370
    30
100
AcDbLine
 10
13.87329910140997
 20
201.5523593466425
 30
0.0
 11
284.8838193791154
 21
201.5523593466425
 31
0.0
1001
Sigma
1000

  0
LINE
  5
2F2
330
1F
100
AcDbEntity
  8
2
  6
Continuous
 62
     7
370
    30
100
AcDbLine
 10
13.87329910140997
 20
201.5523593466425
 30
0.0
 11
13.87329910140997
 21
11.75235934666
 31
0.0
1001
Sigma
1000

  0
LINE
  5
2F5
330
1F
100
AcDbEntity
  8
1
  6
Continuous
 62
     7
370
    30
100
AcDbLine
 10
110.627529863091
 20
132.9202127659562
 30
0.0
 11
110.6275298630911
 21
114.9202127659562
 31
0.0
1001
Sigma
1000

  0
LINE
  5
2F7
330
1F
100
AcDbEntity
  8
1
  6
Continuous
 62
     7
370
    30
100
AcDbLine
 10
110.6275298630911
 20
114.9202127659562
 30
0.0
 11
126.6275298630911
 21
114.9202127659563
 31
0.0
1001
Sigma
1000

  0
LINE
  5
2F9
330
1F
100
AcDbEntity
  8
1
  6
Continuous
 62
     7
370
    30
100
AcDbLine
 10
126.6275298630911
 20
114.9202127659563
 30
0.0
 11
126.6275298630911
 21
132.9202127659563
 31
0.0
1001
Sigma
1000

  0
LINE
  5
2FB
330
1F
100
AcDbEntity
  8
1
  6
Continuous
 62
     7
370
    30
100
AcDbLine
 10
126.6275298630911
 20
132.9202127659563
 30
0.0
 11
110.6275298630911
 21
132.9202127659562
 31
0.0
1001
Sigma
1000

  0
LINE
  5
2FD
330
1F
100
AcDbEntity
  8
1
  6
Continuous
 62
     7
370
    30
100
AcDbLine
 10
126.6275298630911
 20
132.6702127659563
 30
0.0
 11
132.6275298630911
 21
132.6702127659563
 31
0.0
1001
Sigma
1000

  0
LINE
  5
2FF
330
1F
100
AcDbEntity
  8
1
  6
Continuous
 62
     7
370
    30
100
AcDbLine
 10
126.6275298630911
 20
115.1702127659584
 30
0.0
 11
132.6275298630911
 21
115.1702127659584
 31
0.0
1001
Sigma
1000

  0
LINE
  5
301
330
1F
100
AcDbEntity
  8
1
  6
Continuous
 62
     7
370
    30
100
AcDbLine
 10
132.627529863091
 20
132.9202127659574
 30
0.0
 11
132.6275298630911
 21
114.9202127659574
 31
0.0
1001
Sigma
1000

  0
LINE
  5
303
330
1F
100
AcDbEntity
  8
1
  6
Continuous
 62
     7
370
    30
100
AcDbLine
 10
132.6275298630911
 20
114.9202127659574
 30
0.0
 11
143.6275298630911
 21
114.9202127659574
 31
0.0
1001
Sigma
1000

  0
LINE
  5
305
330
1F
100
AcDbEntity
  8
1
  6
Continuous
 62
     7
370
    30
100
AcDbLine
 10
143.6275298630911
 20
132.9202127659575
 30
0.0
 11
143.6275298630912
 21
114.9202127659568
 31
0.0
1001
Sigma
1000

  0
LINE
  5
307
330
1F
100
AcDbEntity
  8
1
  6
Continuous
 62
     7
370
    30
100
AcDbLine
 10
143.6275298630911
 20
132.9202127659575
 30
0.0
 11
132.6275298630911
 21
132.9202127659574
 31
0.0
1001
Sigma
1000

  0
LINE
  5
309
330
1F
100
AcDbEntity
  8
1
  6
Continuous
 62
     7
370
    30
100
AcDbLine
 10
143.6275298630912
 20
114.9202127659568
 30
0.0
 11
173.6275298630912
 21
114.9202127659569
 31
0.0
1001
Sigma
1000

  0
LINE
  5
30B
330
1F
100
AcDbEntity
  8
1
  6
Continuous
 62
     7
370
    30
100
AcDbLine
 10
173.6275298630912
 20
114.9202127659569
 30
0.0
 11
173.6275298630912
 21
132.9202127659576
 31
0.0
1001
Sigma
1000

  0
LINE
  5
30D
330
1F
100
AcDbEntity
  8
1
  6
Continuous
 62
     7
370
    30
100
AcDbLine
 10
173.6275298630912
 20
132.9202127659576
 30
0.0
 11
143.6275298630911
 21
132.9202127659575
 31
0.0
1001
Sigma
1000

  0
LINE
  5
30F
330
1F
100
AcDbEntity
  8
1
  6
Continuous
 62
     7
370
    30
100
AcDbLine
 10
173.6275298630911
 20
114.9202127659568
 30
0.0
 11
183.2875298630911
 21
114.9202127659569
 31
0.0
1001
Sigma
1000

  0
LINE
  5
311
330
1F
100
AcDbEntity
  8
1
  6
Continuous
 62
     7
370
    30
100
AcDbLine
 10
183.2875298630911
 20
137.6202127659569
 30
0.0
 11
183.2875298630911
 21
110.2202127659569
 31
0.0
1001
Sigma
1000

  0
LINE
  5
313
330
1F
100
AcDbEntity
  8
1
  6
Continuous
 62
     7
370
    30
100
AcDbLine
 10
183.2875298630911
 20
132.9202127659569
 30
0.0
 11
173.6275298630911
 21
132.9202127659568
 31
0.0
1001
Sigma
1000

  0
LINE
  5
315
330
1F
100
AcDbEntity
  8
1
  6
Continuous
 62
     7
370
    30
100
AcDbLine
 10
183.2875298630911
 20
110.2202127659569
 30
0.0
 11
183.5875298630912
 21
109.9202127659569
 31
0.0
1001
Sigma
1000

  0
LINE
  5
317
330
1F
100
AcDbEntity
  8
1
  6
Continuous
 62
     7
370
    30
100
AcDbLine
 10
183.5875298630912
 20
109.9202127659569
 30
0.0
 11
194.9875298630912
 21
109.9202127659569
 31
0.0
1001
Sigma
1000

  0
LINE
  5
319
330
1F
100
AcDbEntity
  8
1
  6
Continuous
 62
     7
370
    30
100
AcDbLine
 10
194.9875298630912
 20
109.9202127659569
 30
0.0
 11
195.2875298630912
 21
110.2202127659569
 31
0.0
1001
Sigma
1000

  0
LINE
  5
31B
330
1F
100
AcDbEntity
  8
1
  6
Continuous
 62
     7
370
    30
100
AcDbLine
 10
195.2875298630912
 20
110.2202127659569
 30
0.0
 11
195.2875298630911
 21
137.6202127659569
 31
0.0
1001
Sigma
1000

  0
LINE
  5
31D
330
1F
100
AcDbEntity
  8
1
  6
Continuous
 62
     7
370
    30
100
AcDbLine
 10
195.2875298630911
 20
137.6202127659569
 30
0.0
 11
194.9875298630911
 21
137.9202127659569
 31
0.0
1001
Sigma
1000

  0
LINE
  5
31F
330
1F
100
AcDbEntity
  8
1
  6
Continuous
 62
     7
370
    30
100
AcDbLine
 10
194.9875298630911
 20
137.9202127659569
 30
0.0
 11
183.5875298630911
 21
137.9202127659569
 31
0.0
1001
Sigma
1000

  0
LINE
  5
321
330
1F
100
AcDbEntity
  8
1
  6
Continuous
 62
     7
370
    30
100
AcDbLine
 10
183.5875298630911
 20
137.9202127659569
 30
0.0
 11
183.2875298630911
 21
137.6202127659569
 31
0.0
1001
Sigma
1000

  0
LINE
  5
323
330
1F
100
AcDbEntity
  8
2
  6
Continuous
 62
     7
370
    15
100
AcDbLine
 10
147.0999999999999
 20
205.0523593466424
 30
0.0
 11
147.0999999999999
 21
201.5523593466425
 31
0.0
1001
Sigma
1000

  0
LINE
  5
325
330
1F
100
AcDbEntity
  8
2
  6
Continuous
 62
     7
370
    15
100
AcDbLine
 10
14.22329910140999
 20
105.0
 30
0.0
 11
12.47329910140999
 21
105.0
 31
0.0
1001
Sigma
1000

  0
LINE
  5
327
330
1F
100
AcDbEntity
  8
2
  6
Continuous
 62
     7
370
    15
100
AcDbLine
 10
284.8838193791157
 20
105.0
 30
0.0
 11
286.6338193791157
 21
105.0
 31
0.0
1001
Sigma
1000

  0
LINE
  5
329
330
1F
100
AcDbEntity
  8
2
  6
Continuous
 62
     7
370
    30
100
AcDbLine
 10
284.8838193791157
 20
11.75235934666
 30
0.0
 11
284.8838193791154
 21
201.5523593466425
 31
0.0
1001
Sigma
1000

  0
LINE
  5
32B
330
1F
100
AcDbEntity
  8
2
  6
CENTER
 62
     7
370
    15
100
AcDbLine
 10
215.910424769819
 20
123.9202127659573
 30
0.0
 11
38.11331630071784
 21
123.9202127659559
 31
0.0
1001
Sigma
1000

  0
LINE
  5
32D
330
1F
100
AcDbEntity
  8
2
  6
Continuous
 62
     7
370
    30
100
AcDbLine
 10
110.6275298630911
 20
123.9202127659575
 30
0.0
 11
110.6275298630911
 21
114.9202127659575
 31
0.0
1001
Sigma
1000

  0
LINE
  5
32F
330
1F
100
AcDbEntity
  8
2
  6
Continuous
 62
     7
370
    30
100
AcDbLine
 10
195.2875298630912
 20
135.8702127659575
 30
0.0
 11
195.2875298630912
 21
111.9702127659575
 31
0.0
1001
Sigma
1000

  0
LINE
  5
331
330
1F
100
AcDbEntity
  8
2
  6
Continuous
 62
     7
370
    30
100
AcDbLine
 10
196.0375298630912
 20
111.2202127659575
 30
0.0
 11
198.5375298630912
 21
111.2202127659575
 31
0.0
1001
Sigma
1000

  0
LINE
  5
333
330
1F
100
AcDbEntity
  8
2
  6
Continuous
 62
     7
370
    30
100
AcDbLine
 10
198.5375298630912
 20
111.2202127659575
 30
0.0
 11
199.2875298630912
 21
111.9702127659575
 31
0.0
1001
Sigma
1000

  0
LINE
  5
335
330
1F
100
AcDbEntity
  8
2
  6
Continuous
 62
     7
370
    30
100
AcDbLine
 10
199.2875298630912
 20
111.9702127659575
 30
0.0
 11
199.2875298630912
 21
135.8702127659575
 31
0.0
1001
Sigma
1000

  0
LINE
  5
337
330
1F
100
AcDbEntity
  8
2
  6
Continuous
 62
     7
370
    30
100
AcDbLine
 10
199.2875298630912
 20
135.8702127659575
 30
0.0
 11
198.5375298630912
 21
136.6202127659575
 31
0.0
1001
Sigma
1000

  0
LINE
  5
339
330
1F
100
AcDbEntity
  8
2
  6
Continuous
 62
     7
370
    30
100
AcDbLine
 10
198.5375298630912
 20
136.6202127659575
 30
0.0
 11
196.0375298630912
 21
136.6202127659575
 31
0.0
1001
Sigma
1000

  0
LINE
  5
33B
330
1F
100
AcDbEntity
  8
2
  6
Continuous
 62
     7
370
    30
100
AcDbLine
 10
198.5375298630912
 20
136.6202127659575
 30
0.0
 11
198.5375298630912
 21
111.2202127659575
 31
0.0
1001
Sigma
1000

  0
LINE
  5
33D
330
1F
100
AcDbEntity
  8
2
  6
Continuous
 62
     7
370
    30
100
AcDbLine
 10
196.0375298630912
 20
111.2202127659575
 30
0.0
 11
196.0375298630912
 21
136.6202127659575
 31
0.0
1001
Sigma
1000

  0
LINE
  5
33F
330
1F
100
AcDbEntity
  8
2
  6
Continuous
 62
     7
370
    30
100
AcDbLine
 10
199.2875298630912
 20
135.8702127659575
 30
0.0
 11
195.2875298630912
 21
135.8702127659575
 31
0.0
1001
Sigma
1000

  0
LINE
  5
341
330
1F
100
AcDbEntity
  8
2
  6
Continuous
 62
     7
370
    30
100
AcDbLine
 10
199.2875298630912
 20
111.9702127659575
 30
0.0
 11
195.2875298630912
 21
111.9702127659575
 31
0.0
1001
Sigma
1000

  0
LINE
  5
343
330
1F
100
AcDbEntity
  8
2
  6
CENTER
 62
     7
370
    15
100
AcDbLine
 10
212.8135298630912
 20
120.9688106723244
 30
0.0
 11
212.8135298630912
 21
126.6978793458894
 31
0.0
1001
Sigma
1000

  0
LINE
  5
346
330
1F
100
AcDbEntity
  8
99
  6
Continuous
 62
     7
370
    30
100
AcDbLine
 10
94.88381937911574
 20
59.25235934666003
 30
0.0
 11
284.8838193791157
 21
59.25235934666003
 31
0.0
1001
Sigma
1000

  0
LINE
  5
348
330
1F
100
AcDbEntity
  8
99
  6
Continuous
 62
     7
370
    30
100
AcDbLine
 10
223.8838193791157
 20
11.75235934666001
 30
0.0
 11
223.8838193791157
 21
59.25235934666003
 31
0.0
1001
Sigma
1000

  0
LINE
  5
34B
330
1F
100
AcDbEntity
  8
3
  6
Continuous
 62
     7
370
    15
100
AcDbLine
 10
39.52752986309107
 20
123.9202127659559
 30
0.0
 11
40.94174342546416
 21
125.334426328329
 31
0.0
1001
Sigma
1000

  0
LINE
  5
34D
330
1F
100
AcDbEntity
  8
3
  6
Continuous
 62
     7
370
    15
100
AcDbLine
 10
39.52752986309107
 20
123.9202127659559
 30
0.0
 11
39.52752986309107
 21
125.920212765956
 31
0.0
1001
Sigma
1000

  0
LINE
  5
34F
330
1F
100
AcDbEntity
  8
3
  6
Continuous
 62
     7
370
    15
100
AcDbLine
 10
39.52752986309107
 20
123.9202127659569
 30
0.0
 11
40.94174342546416
 21
122.5059992035838
 31
0.0
1001
Sigma
1000

  0
LINE
  5
351
330
1F
100
AcDbEntity
  8
3
  6
Continuous
 62
     7
370
    15
100
AcDbLine
 10
39.52752986309095
 20
123.9202127659559
 30
0.0
 11
38.11331630071784
 21
125.334426328329
 31
0.0
1001
Sigma
1000

  0
LINE
  5
353
330
1F
100
AcDbEntity
  8
3
  6
Continuous
 62
     7
370
    15
100
AcDbLine
 10
39.52752986309095
 20
123.9202127659559
 30
0.0
 11
39.52752986309095
 21
125.920212765956
 31
0.0
1001
Sigma
1000

  0
LINE
  5
355
330
1F
100
AcDbEntity
  8
3
  6
Continuous
 62
     7
370
    15
100
AcDbLine
 10
39.52752986309095
 20
123.9202127659569
 30
0.0
 11
38.11331630071784
 21
122.5059992035838
 31
0.0
1001
Sigma
1000

  0
LINE
  5
357
330
1F
100
AcDbEntity
  8
99
  6
Continuous
 62
     7
370
    30
100
AcDbLine
 10
163.8838193791157
 20
31.75235934666001
 30
0.0
 11
284.8838193791157
 21
31.75235934666001
 31
0.0
1001
Sigma
1000

  0
LINE
  5
359
330
1F
100
AcDbEntity
  8
99
  6
Continuous
 62
     7
370
    30
100
AcDbLine
 10
208.8838193791157
 20
11.75235934666001
 30
0.0
 11
208.8838193791157
 21
31.75235934666001
 31
0.0
1001
Sigma
1000

  0
LINE
  5
35B
330
1F
100
AcDbEntity
  8
99
  6
Continuous
 62
     7
370
    30
100
AcDbLine
 10
193.8838193791157
 20
11.75235934666001
 30
0.0
 11
193.8838193791157
 21
31.75235934666001
 31
0.0
1001
Sigma
1000

  0
LINE
  5
35D
330
1F
100
AcDbEntity
  8
99
  6
Continuous
 62
     7
370
    30
100
AcDbLine
 10
178.8838193791157
 20
11.75235934666001
 30
0.0
 11
178.8838193791157
 21
59.25235934666003
 31
0.0
1001
Sigma
1000

  0
LINE
  5
35F
330
1F
100
AcDbEntity
  8
99
  6
Continuous
 62
     7
370
    30
100
AcDbLine
 10
163.8838193791157
 20
11.75235934666001
 30
0.0
 11
163.8838193791157
 21
59.25235934666003
 31
0.0
1001
Sigma
1000

  0
LINE
  5
361
330
1F
100
AcDbEntity
  8
99
  6
Continuous
 62
     7
370
    15
100
AcDbLine
 10
94.88381937911574
 20
16.75235934666003
 30
0.0
 11
163.8838193791157
 21
16.75235934666003
 31
0.0
1001
Sigma
1000

  0
LINE
  5
363
330
1F
100
AcDbEntity
  8
99
  6
Continuous
 62
     7
370
    15
100
AcDbLine
 10
94.88381937911574
 20
21.75235934666003
 30
0.0
 11
163.8838193791157
 21
21.75235934666003
 31
0.0
1001
Sigma
1000

  0
TEXT
  5
365
330
1F
100
AcDbEntity
  8
3
  6
Continuous
 62
     7
370
    30
100
AcDbText
 10
107.333857810607
 20
79.01717539292821
 30
0.0
 40
2.879999828338623
  1
ＫＣＭ－０５ :　倍率＝０．５倍　　Ｗ．Ｄ．（作動距離)＝７１ｍｍ
 41
0.8338846962691391
  7
KCADTEXTSTANDARD
100
AcDbText
1001
Sigma
1000

  0
LINE
  5
367
330
1F
100
AcDbEntity
  8
99
  6
Continuous
 62
     7
370
    15
100
AcDbLine
 10
94.88381937911574
 20
26.75235934666004
 30
0.0
 11
223.8838193791157
 21
26.75235934666004
 31
0.0
1001
Sigma
1000

  0
LINE
  5
369
330
1F
100
AcDbEntity
  8
2
  6
Continuous
 62
     7
370
    30
100
AcDbLine
 10
13.87329910140997
 20
11.75235934666
 30
0.0
 11
284.8838193791157
 21
11.75235934666
 31
0.0
1001
Sigma
1000

  0
LINE
  5
36B
330
1F
100
AcDbEntity
  8
99
  6
Continuous
 62
     7
370
    15
100
AcDbLine
 10
94.88381937911574
 20
31.75235934666001
 30
0.0
 11
163.8838193791157
 21
31.75235934666001
 31
0.0
1001
Sigma
1000

  0
LINE
  5
36D
330
1F
100
AcDbEntity
  8
99
  6
Continuous
 62
     7
370
    15
100
AcDbLine
 10
94.88381937911574
 20
36.75235934666003
 30
0.0
 11
163.8838193791157
 21
36.75235934666003
 31
0.0
1001
Sigma
1000

  0
LINE
  5
36F
330
1F
100
AcDbEntity
  8
99
  6
Continuous
 62
     7
370
    30
100
AcDbLine
 10
178.8838193791157
 20
39.25235934666004
 30
0.0
 11
284.8838193791157
 21
39.25235934666004
 31
0.0
1001
Sigma
1000

  0
LINE
  5
371
330
1F
100
AcDbEntity
  8
99
  6
Continuous
 62
     7
370
    15
100
AcDbLine
 10
115.8838193791157
 20
11.75235934666001
 30
0.0
 11
115.8838193791157
 21
46.75235934666003
 31
0.0
1001
Sigma
1000

  0
LINE
  5
373
330
1F
100
AcDbEntity
  8
99
  6
Continuous
 62
     7
370
    15
100
AcDbLine
 10
126.8838193791157
 20
11.75235934666001
 30
0.0
 11
126.8838193791157
 21
46.75235934666003
 31
0.0
1001
Sigma
1000

  0
LINE
  5
375
330
1F
100
AcDbEntity
  8
99
  6
Continuous
 62
     7
370
    15
100
AcDbLine
 10
228.8838193791157
 20
11.75235934666001
 30
0.0
 11
228.8838193791157
 21
46.75235934666003
 31
0.0
1001
Sigma
1000

  0
LINE
  5
377
330
1F
100
AcDbEntity
  8
99
  6
Continuous
 62
     7
370
    30
100
AcDbLine
 10
223.8838193791157
 20
21.75235934666003
 30
0.0
 11
284.8838193791157
 21
21.75235934666003
 31
0.0
1001
Sigma
1000

  0
TEXT
  5
379
330
1F
100
AcDbEntity
  8
99
  6
Continuous
 62
     7
370
    30
100
AcDbText
 10
224.6137336406258
 20
28.63791118426004
 30
0.0
 40
2.7
  1
製
 41
1.266666666666666
  7
KCADTEXTSTANDARD
100
AcDbText
1001
Sigma
1000

  0
TEXT
  5
37B
330
1F
100
AcDbEntity
  8
99
  6
Continuous
 62
     7
370
    30
100
AcDbText
 10
178.1088193791157
 20
40.97735934666003
 30
0.0
 40
4.049999999999999
  1
 三角法
 41
0.791666663520866
  7
KCADTEXTSTANDARD
100
AcDbText
1001
Sigma
1000

  0
TEXT
  5
37D
330
1F
100
AcDbEntity
  8
99
  6
Continuous
 62
     7
370
    30
100
AcDbText
 10
224.6137336406258
 20
25.53791118426004
 30
0.0
 40
2.7
  1
品
 41
1.266666666666666
  7
KCADTEXTSTANDARD
100
AcDbText
1001
Sigma
1000

  0
LINE
  5
37F
330
1F
100
AcDbEntity
  8
99
  6
Continuous
 62
     7
370
    15
100
AcDbLine
 10
99.01601353182573
 20
17.45283220116003
 30
0.0
 11
95.81601353182575
 21
17.45283220116003
 31
0.0
1001
Sigma
1000

  0
TEXT
  5
381
330
1F
100
AcDbEntity
  8
99
  6
Continuous
 62
     7
370
    30
100
AcDbText
 10
224.6137336406258
 20
22.43791118426002
 30
0.0
 40
2.7
  1
名
 41
1.266666666666666
  7
KCADTEXTSTANDARD
100
AcDbText
1001
Sigma
1000

  0
TEXT
  5
383
330
1F
100
AcDbEntity
  8
99
  6
Continuous
 62
     7
370
    30
100
AcDbText
 10
163.7316875961657
 20
27.55342558986002
 30
0.0
 40
3.6
  1
 設計  製図  検図  承認
 41
1.147916666666666
  7
KCADTEXTSTANDARD
100
AcDbText
1001
Sigma
1000

  0
TEXT
  5
385
330
1F
100
AcDbEntity
  8
99
  6
Continuous
 62
     7
370
    30
100
AcDbText
 10
99.39110830122075
 20
12.55571478696
 30
0.0
 40
3.6
  1
 年月日   担当      訂 正 記 事
 41
0.8102941176470586
  7
KCADTEXTSTANDARD
100
AcDbText
1001
Sigma
1000

  0
TEXT
  5
387
330
1F
100
AcDbEntity
  8
99
  6
Continuous
 62
     7
370
    30
100
AcDbText
 10
95.58772562911577
 20
12.72211478386001
 30
0.0
 40
3.6
  1
符号
 41
0.4987499985843897
  7
KCADTEXTSTANDARD
100
AcDbText
1001
Sigma
1000

  0
LINE
  5
389
330
1F
100
AcDbEntity
  8
99
  6
Continuous
 62
     7
370
    15
100
AcDbLine
 10
99.01601353182573
 20
37.45283220116003
 30
0.0
 11
95.81601353182575
 21
37.45283220116003
 31
0.0
1001
Sigma
1000

  0
LINE
  5
38B
330
1F
100
AcDbEntity
  8
99
  6
Continuous
 62
     7
370
    15
100
AcDbLine
 10
97.41601353182574
 20
40.91693381636003
 30
0.0
 11
99.01601353182573
 21
37.45283220116003
 31
0.0
1001
Sigma
1000

  0
TEXT
  5
38D
330
1F
100
AcDbEntity
  8
99
  6
Continuous
 62
     7
370
    15
100
AcDbText
 10
97.01792291655323
 20
38.03913712138717
 30
0.0
 40
2.082815953445434
  1
5
 41
0.577433628318584
  7
KCADTEXTSTANDARD
100
AcDbText
1001
Sigma
1000

  0
LINE
  5
38F
330
1F
100
AcDbEntity
  8
99
  6
Continuous
 62
     7
370
    15
100
AcDbLine
 10
95.81601353182575
 20
37.45283220116003
 30
0.0
 11
97.41601353182574
 21
40.91693381636003
 31
0.0
1001
Sigma
1000

  0
LINE
  5
391
330
1F
100
AcDbEntity
  8
99
  6
Continuous
 62
     7
370
    15
100
AcDbLine
 10
99.01601353182573
 20
32.45283220116003
 30
0.0
 11
95.81601353182575
 21
32.45283220116003
 31
0.0
1001
Sigma
1000

  0
LINE
  5
393
330
1F
100
AcDbEntity
  8
99
  6
Continuous
 62
     7
370
    15
100
AcDbLine
 10
97.41601353182574
 20
35.91693381636003
 30
0.0
 11
99.01601353182573
 21
32.45283220116003
 31
0.0
1001
Sigma
1000

  0
TEXT
  5
395
330
1F
100
AcDbEntity
  8
99
  6
Continuous
 62
     7
370
    15
100
AcDbText
 10
97.01792291655323
 20
33.0391371213872
 30
0.0
 40
2.082815953445434
  1
4
 41
0.577433628318584
  7
KCADTEXTSTANDARD
100
AcDbText
1001
Sigma
1000

  0
LINE
  5
397
330
1F
100
AcDbEntity
  8
99
  6
Continuous
 62
     7
370
    15
100
AcDbLine
 10
95.81601353182575
 20
32.45283220116003
 30
0.0
 11
97.41601353182574
 21
35.91693381636003
 31
0.0
1001
Sigma
1000

  0
LINE
  5
399
330
1F
100
AcDbEntity
  8
99
  6
Continuous
 62
     7
370
    15
100
AcDbLine
 10
99.01601353182573
 20
27.45283220116005
 30
0.0
 11
95.81601353182575
 21
27.45283220116005
 31
0.0
1001
Sigma
1000

  0
LINE
  5
39B
330
1F
100
AcDbEntity
  8
99
  6
Continuous
 62
     7
370
    15
100
AcDbLine
 10
97.41601353182574
 20
30.91693381636001
 30
0.0
 11
99.01601353182573
 21
27.45283220116005
 31
0.0
1001
Sigma
1000

  0
TEXT
  5
39D
330
1F
100
AcDbEntity
  8
99
  6
Continuous
 62
     7
370
    15
100
AcDbText
 10
97.01792291655323
 20
28.03913712138719
 30
0.0
 40
2.082815953445434
  1
3
 41
0.577433628318584
  7
KCADTEXTSTANDARD
100
AcDbText
1001
Sigma
1000

  0
LINE
  5
39F
330
1F
100
AcDbEntity
  8
99
  6
Continuous
 62
     7
370
    15
100
AcDbLine
 10
97.41601353182574
 20
20.91693381636003
 30
0.0
 11
99.01601353182573
 21
17.45283220116003
 31
0.0
1001
Sigma
1000

  0
LINE
  5
3A1
330
1F
100
AcDbEntity
  8
99
  6
Continuous
 62
     7
370
    15
100
AcDbLine
 10
95.81601353182575
 20
17.45283220116003
 30
0.0
 11
97.41601353182574
 21
20.91693381636003
 31
0.0
1001
Sigma
1000

  0
LINE
  5
3A3
330
1F
100
AcDbEntity
  8
99
  6
Continuous
 62
     7
370
    15
100
AcDbLine
 10
95.81601353182575
 20
27.45283220116005
 30
0.0
 11
97.41601353182574
 21
30.91693381636001
 31
0.0
1001
Sigma
1000

  0
TEXT
  5
3A5
330
1F
100
AcDbEntity
  8
99
  6
Continuous
 62
     7
370
    15
100
AcDbText
 10
97.01792291655323
 20
23.03913712138718
 30
0.0
 40
2.082815953445434
  1
2
 41
0.577433628318584
  7
KCADTEXTSTANDARD
100
AcDbText
1001
Sigma
1000

  0
LINE
  5
3A7
330
1F
100
AcDbEntity
  8
99
  6
Continuous
 62
     7
370
    15
100
AcDbLine
 10
99.01601353182573
 20
22.45283220116003
 30
0.0
 11
95.81601353182575
 21
22.45283220116003
 31
0.0
1001
Sigma
1000

  0
LINE
  5
3A9
330
1F
100
AcDbEntity
  8
99
  6
Continuous
 62
     7
370
    15
100
AcDbLine
 10
97.41601353182574
 20
25.91693381636003
 30
0.0
 11
99.01601353182573
 21
22.45283220116003
 31
0.0
1001
Sigma
1000

  0
LINE
  5
3AB
330
1F
100
AcDbEntity
  8
99
  6
Continuous
 62
     7
370
    15
100
AcDbLine
 10
95.81601353182575
 20
22.45283220116003
 30
0.0
 11
97.41601353182574
 21
25.91693381636003
 31
0.0
1001
Sigma
1000

  0
TEXT
  5
3AD
330
1F
100
AcDbEntity
  8
99
  6
Continuous
 62
     7
370
    15
100
AcDbText
 10
97.01792291655323
 20
18.03913712138719
 30
0.0
 40
2.082815953445434
  1
1
 41
0.577433628318584
  7
KCADTEXTSTANDARD
100
AcDbText
1001
Sigma
1000

  0
TEXT
  5
3AF
330
1F
100
AcDbEntity
  8
99
  6
Continuous
 62
     7
370
    30
100
AcDbText
 10
224.6017334387457
 20
32.51422980946002
 30
0.0
 40
2.7
  1
差
 41
1.266666666666666
  7
KCADTEXTSTANDARD
100
AcDbText
1001
Sigma
1000

  0
TEXT
  5
3B1
330
1F
100
AcDbEntity
  8
99
  6
Continuous
 62
     7
370
    30
100
AcDbText
 10
224.6017334387457
 20
36.01422980946002
 30
0.0
 40
2.7
  1
公
 41
1.266666666666666
  7
KCADTEXTSTANDARD
100
AcDbText
1001
Sigma
1000

  0
TEXT
  5
3B3
330
1F
100
AcDbEntity
  8
99
  6
Continuous
 62
     7
370
    30
100
AcDbText
 10
194.7017334625875
 20
43.51422980946002
 30
0.0
 40
2.7
  1
面
 41
1.203333318233489
  7
KCADTEXTSTANDARD
100
AcDbText
1001
Sigma
1000

  0
TEXT
  5
3B5
330
1F
100
AcDbEntity
  8
99
  6
Continuous
 62
     7
370
    30
100
AcDbText
 10
194.7017334625875
 20
40.01422980946002
 30
0.0
 40
2.7
  1
取
 41
1.203333318233489
  7
KCADTEXTSTANDARD
100
AcDbText
1001
Sigma
1000

  0
TEXT
  5
3B7
330
1F
100
AcDbEntity
  8
99
  6
Continuous
 62
     7
370
    30
100
AcDbText
 10
224.6017334387457
 20
40.01422980946002
 30
0.0
 40
2.7
  1
上
 41
1.266666666666666
  7
KCADTEXTSTANDARD
100
AcDbText
1001
Sigma
1000

  0
TEXT
  5
3B9
330
1F
100
AcDbEntity
  8
99
  6
Continuous
 62
     7
370
    30
100
AcDbText
 10
224.6017334387457
 20
43.51422980946002
 30
0.0
 40
2.7
  1
仕
 41
1.266666666666666
  7
KCADTEXTSTANDARD
100
AcDbText
1001
Sigma
1000

  0
LINE
  5
3BB
330
1F
100
AcDbEntity
  8
99
  6
Continuous
 62
     7
370
    30
100
AcDbLine
 10
115.8838193791157
 20
46.75235934666003
 30
0.0
 11
115.8838193791157
 21
59.25235934666003
 31
0.0
1001
Sigma
1000

  0
TEXT
  5
3BD
330
1F
100
AcDbEntity
  8
99
  6
Continuous
 62
     7
370
    30
100
AcDbText
 10
224.5338193791158
 20
17.90235934666004
 30
0.0
 40
2.7
  1
図
 41
1.266666666666666
  7
KCADTEXTSTANDARD
100
AcDbText
1001
Sigma
1000

  0
TEXT
  5
3BF
330
1F
100
AcDbEntity
  8
99
  6
Continuous
 62
     7
370
    30
100
AcDbText
 10
224.5338193791158
 20
13.40235934666003
 30
0.0
 40
2.7
  1
番
 41
1.266666666666666
  7
KCADTEXTSTANDARD
100
AcDbText
1001
Sigma
1000

  0
LINE
  5
3C1
330
1F
100
AcDbEntity
  8
99
  6
Continuous
 62
     7
370
    15
100
AcDbLine
 10
94.88381937911574
 20
51.75235934666003
 30
0.0
 11
284.8838193791157
 21
51.75235934666003
 31
0.0
1001
Sigma
1000

  0
LINE
  5
3C3
330
1F
100
AcDbEntity
  8
99
  6
Continuous
 62
     7
370
    15
100
AcDbLine
 10
198.8838193791157
 20
46.75235934666003
 30
0.0
 11
198.8838193791157
 21
39.25235934666004
 31
0.0
1001
Sigma
1000

  0
TEXT
  5
3C5
330
1F
100
AcDbEntity
  8
99
  6
Continuous
 62
     7
370
    30
100
AcDbText
 10
166.2757112710057
 20
42.65449183306003
 30
0.0
 40
3.6
  1
尺度
 41
1.1875
  7
KCADTEXTSTANDARD
100
AcDbText
1001
Sigma
1000

  0
LINE
  5
3C7
330
1F
100
AcDbEntity
  8
99
  6
Continuous
 62
     7
370
    15
100
AcDbLine
 10
95.81601353182575
 20
42.45283220116004
 30
0.0
 11
97.41601353182574
 21
45.91693381633002
 31
0.0
1001
Sigma
1000

  0
TEXT
  5
3C9
330
1F
100
AcDbEntity
  8
99
  6
Continuous
 62
     7
370
    15
100
AcDbText
 10
97.01792291655323
 20
43.03913712138718
 30
0.0
 40
2.082815953445434
  1
6
 41
0.577433628318584
  7
KCADTEXTSTANDARD
100
AcDbText
1001
Sigma
1000

  0
LINE
  5
3CB
330
1F
100
AcDbEntity
  8
99
  6
Continuous
 62
     7
370
    15
100
AcDbLine
 10
97.41601353182574
 20
45.91693381633002
 30
0.0
 11
99.01601353182573
 21
42.45283220116004
 31
0.0
1001
Sigma
1000

  0
LINE
  5
3CD
330
1F
100
AcDbEntity
  8
99
  6
Continuous
 62
     7
370
    15
100
AcDbLine
 10
99.01601353182573
 20
42.45283220116004
 30
0.0
 11
95.81601353182575
 21
42.45283220116004
 31
0.0
1001
Sigma
1000

  0
LINE
  5
3CF
330
1F
100
AcDbEntity
  8
99
  6
Continuous
 62
     7
370
    30
100
AcDbLine
 10
193.8838193791157
 20
39.25235934666004
 30
0.0
 11
193.8838193791157
 21
46.75235934666003
 31
0.0
1001
Sigma
1000

  0
LINE
  5
3D1
330
1F
100
AcDbEntity
  8
99
  6
Continuous
 62
     7
370
    30
100
AcDbLine
 10
94.88381937911574
 20
46.75235934666003
 30
0.0
 11
284.8838193791157
 21
46.75235934666003
 31
0.0
1001
Sigma
1000

  0
LINE
  5
3D3
330
1F
100
AcDbEntity
  8
99
  6
Continuous
 62
     7
370
    15
100
AcDbLine
 10
94.88381937911574
 20
41.75235934666003
 30
0.0
 11
178.8838193791157
 21
41.75235934666003
 31
0.0
1001
Sigma
1000

  0
LINE
  5
3D5
330
1F
100
AcDbEntity
  8
99
  6
Continuous
 62
     7
370
    15
100
AcDbLine
 10
99.88381937911576
 20
11.75235934666001
 30
0.0
 11
99.88381937911576
 21
46.75235934666003
 31
0.0
1001
Sigma
1000

  0
TEXT
  5
3D7
330
1F
100
AcDbEntity
  8
99
  6
Continuous
 62
     7
370
    30
100
AcDbText
 10
96.71851732335276
 20
47.45709445156004
 30
0.0
 40
3.6
  1
部品番号     部   品   名
 41
0.7659374981911647
  7
KCADTEXTSTANDARD
100
AcDbText
1001
Sigma
1000

  0
TEXT
  5
3D9
330
1F
100
AcDbEntity
  8
99
  6
Continuous
 62
     7
370
    30
100
AcDbText
 10
166.2757112710057
 20
47.75449183305002
 30
0.0
 40
3.6
  1
個数
 41
1.1875
  7
KCADTEXTSTANDARD
100
AcDbText
1001
Sigma
1000

  0
TEXT
  5
3DB
330
1F
100
AcDbEntity
  8
99
  6
Continuous
 62
     7
370
    30
100
AcDbText
 10
187.7316875961757
 20
47.75342558985003
 30
0.0
 40
3.6
  1
材       質               表  面  処  理 
 41
0.6678663776994779
  7
KCADTEXTSTANDARD
100
AcDbText
1001
Sigma
1000

  0
LINE
  5
3DD
330
1F
100
AcDbEntity
  8
99
  6
Continuous
 62
     7
370
    30
100
AcDbLine
 10
94.88381937911574
 20
59.25235934666003
 30
0.0
 11
94.88381937911574
 21
11.75235934666001
 31
0.0
1001
Sigma
1000

  0
TEXT
  5
3DF
330
1F
100
AcDbEntity
  8
99
  6
Continuous
 62
     7
370
    30
100
AcDbText
 10
166.5182429569458
 20
35.02214114806003
 30
0.0
 40
4.067999999999999
  1
1/1
 41
1.22295977326152
  7
KCADTEXTSTANDARD
100
AcDbText
1001
Sigma
1000

  0
TEXT
  5
3E1
330
1F
100
AcDbEntity
  8
99
  6
Continuous
 62
     7
370
    30
100
AcDbText
 10
237.2295497058427
 20
13.74196043536703
 30
0.0
 40
5.695200387954711
  1
TSTM-066
 41
0.9100394675336989
  7
KCADTEXTSTANDARD
100
AcDbText
1001
Sigma
1000

  0
TEXT
  5
3E3
330
1F
100
AcDbEntity
  8
2
  6
Continuous
 62
     7
370
    30
100
AcDbText
 10
133.1770631327917
 20
53.9643316494228
 30
0.0
 40
3.307500171661377
  1
外観図
 41
0.9771428555286853
  7
KCADTEXTSTANDARD
100
AcDbText
1001
Sigma
1000

  0
TEXT
  5
3EB
330
1F
100
AcDbEntity
  8
99
  6
Continuous
 62
     7
370
    30
100
AcDbText
 10
181.5378010872557
 20
33.86576461756001
 30
0.0
 40
3.25
  1
１９９８年１２月０１日
  7
KCADTEXTSTANDARD
100
AcDbText
1001
Sigma
1000

  0
TEXT
  5
3ED
330
1F
100
AcDbEntity
  8
2
  6
Continuous
 62
     7
370
    30
100
AcDbText
 10
100.770702407382
 20
54.47125080008699
 30
0.0
 40
2.3625
  1
１００
 41
1.007904774991292
  7
KCADTEXTSTANDARD
100
AcDbText
1001
Sigma
1000

  0
TEXT
  5
3EF
330
1F
100
AcDbEntity
  8
99
  6
Continuous
 62
     7
370
    30
100
AcDbText
 10
241.9795497058427
 20
23.74196043536702
 30
0.0
 40
5.695200387954711
  1
KCM-05
 41
0.8549463687322516
  7
KCADTEXTSTANDARD
100
AcDbText
1001
Sigma
1000

  0
TEXT
  5
3F1
330
1F
100
AcDbEntity
  8
99
  6
Continuous
 62
     7
370
    30
100
AcDbText
 10
240.8592251145457
 20
52.78485806228003
 30
0.0
 40
4.5
  1
梨地黒アルマイト
 41
0.653125
  7
KCADTEXTSTANDARD
100
AcDbText
1001
Sigma
1000

  0
DIMENSION
  5
3F3
330
1F
100
AcDbEntity
  8
KCAD_DIMS
 62
     7
100
AcDbDimension
  2
*D38
 10
183.2875298630911
 20
154.7878495226276
 30
0.0
 11
146.9575298630911
 21
156.9211825226276
 31
0.0
 70
    32
  1
<>
 71
     5
 42
-1.0
  3
Standard
100
AcDbAlignedDimension
 13
110.6275298630911
 23
132.9202127659562
 33
0.0
 14
183.2875298630911
 24
132.9202127659569
 34
0.0
100
AcDbRotatedDimension
1001
Sigma
1000
DIM_TPHO
1001
KCAD_DIM_EXT
1002
{
1071
 20001212
1070
     0
1070
     2
1070
     2
1040
2.5
1040
0.0
1040
0.0
1040
0.0
1040
0.0
1040
0.0
1040
0.0
1040
0.0
1070
     0
1040
50.0
1040
-1.0
1013
1.0
1023
0.0
1033
0.0
1040
0.0
1013
1.0
1023
0.0
1033
0.0
1000
_None
1040
1.0
1040
72.66000000000005
1070
     0
1070
     0
1070
     0
1012
1.0
1022
0.0
1032
0.0
1013
1.0
1023
0.0
1033
0.0
1002
}
1001
ACAD
1000
DSTYLE
1002
{
1070
    41
1040
2.5
1070
    42
1040
1.0
1070
    43
1040
8.0
1070
    44
1040
1.0
1070
    45
1040
0.0
1070
    73
1070
     0
1070
    74
1070
     0
1070
    77
1070
     1
1070
    78
1070
     8
1070
    79
1070
     2
1070
   140
1040
3.2
1070
   141
1040
2.5
1070
   145
1040
0.0001
1070
   146
1040
0.667
1070
   147
1040
0.5333000000000001
1070
   172
1070
     1
1070
   173
1070
     1
1070
   179
1070
     3
1070
   271
1070
     3
1070
   272
1070
     3
1070
   279
1070
     2
1070
   284
1070
     8
1070
   289
1070
     2
1070
   340
1005
189
1070
   341
1005
21
1070
   343
1005
12D
1070
   344
1005
12D
1002
}
  0
DIMENSION
  5
42F
330
1F
100
AcDbEntity
  8
KCAD_DIMS
 62
     7
100
AcDbDimension
  2
*D39
 10
110.6275298630911
 20
169.8750525409819
 30
0.0
 11
152.9575298630911
 21
172.0083855409819
 31
0.0
 70
    32
  1
<>
 71
     5
 42
-1.0
  3
Standard
100
AcDbAlignedDimension
 13
195.2875298630911
 23
138.6202127659574
 33
0.0
 14
110.6275298630911
 24
132.9202127659575
 34
0.0
100
AcDbRotatedDimension
1001
Sigma
1000
DIM_TPHO
1001
KCAD_DIM_EXT
1002
{
1071
 20001212
1070
     0
1070
     2
1070
     2
1040
2.5
1040
0.0
1040
0.0
1040
0.0
1040
0.0
1040
0.0
1040
0.0
1040
0.0
1070
     0
1040
50.0
1040
-1.0
1013
1.0
1023
0.0
1033
0.0
1040
0.0
1013
1.0
1023
0.0
1033
0.0
1000
_None
1040
1.0
1040
84.66000000000008
1070
     0
1070
     0
1070
     0
1012
1.0
1022
0.0
1032
0.0
1013
1.0
1023
0.0
1033
0.0
1002
}
1001
ACAD
1000
DSTYLE
1002
{
1070
    41
1040
2.5
1070
    42
1040
1.0
1070
    43
1040
8.0
1070
    44
1040
1.0
1070
    45
1040
0.0
1070
    73
1070
     0
1070
    74
1070
     0
1070
    77
1070
     1
1070
    78
1070
     8
1070
    79
1070
     2
1070
   140
1040
3.2
1070
   141
1040
2.5
1070
   145
1040
0.0001
1070
   146
1040
0.667
1070
   147
1040
0.5333000000000001
1070
   172
1070
     1
1070
   173
1070
     1
1070
   179
1070
     3
1070
   271
1070
     3
1070
   272
1070
     3
1070
   279
1070
     2
1070
   284
1070
     8
1070
   289
1070
     2
1070
   340
1005
189
1070
   341
1005
21
1070
   343
1005
12D
1070
   344
1005
12D
1002
}
  0
DIMENSION
  5
46B
330
1F
100
AcDbEntity
  8
KCAD_DIMS
 62
     7
100
AcDbDimension
  2
*D40
 10
195.2875298630911
 20
154.7878495226276
 30
0.0
 11
189.2875298630911
 21
156.9211825226276
 31
0.0
 70
    32
  1
<>
 71
     5
 42
-1.0
  3
Standard
100
AcDbAlignedDimension
 13
183.2875298630911
 23
136.1202127659574
 33
0.0
 14
195.2875298630911
 24
138.6202127659574
 34
0.0
100
AcDbRotatedDimension
1001
Sigma
1000
DIM_TPHO
1001
KCAD_DIM_EXT
1002
{
1071
 20001212
1070
     0
1070
     2
1070
     2
1040
2.5
1040
0.0
1040
0.0
1040
0.0
1040
0.0
1040
0.0
1040
0.0
1040
0.0
1070
     0
1040
50.0
1040
-1.0
1013
1.0
1023
0.0
1033
0.0
1040
0.0
1013
1.0
1023
0.0
1033
0.0
1000
_None
1040
1.0
1040
12.0
1070
     0
1070
     0
1070
     0
1012
1.0
1022
0.0
1032
0.0
1013
1.0
1023
0.0
1033
0.0
1002
}
1001
ACAD
1000
DSTYLE
1002
{
1070
    41
1040
2.5
1070
    42
1040
1.0
1070
    43
1040
8.0
1070
    44
1040
1.0
1070
    45
1040
0.0
1070
    73
1070
     0
1070
    74
1070
     0
1070
    77
1070
     1
1070
    78
1070
     8
1070
    79
1070
     2
1070
   140
1040
3.2
1070
   141
1040
2.5
1070
   145
1040
0.0001
1070
   146
1040
0.667
1070
   147
1040
0.5333000000000001
1070
   172
1070
     1
1070
   173
1070
     1
1070
   179
1070
     3
1070
   271
1070
     3
1070
   272
1070
     3
1070
   279
1070
     2
1070
   284
1070
     8
1070
   289
1070
     2
1070
   340
1005
189
1070
   341
1005
21
1070
   343
1005
12D
1070
   344
1005
12D
1002
}
  0
LINE
  5
4A9
102
{ACAD_REACTORS
330
4A7
330
4A8
102
}
330
1F
100
AcDbEntity
  8
2
  6
Continuous
 62
     7
370
    15
100
AcDbLine
 10
198.4445340352364
 20
136.4744186209518
 30
0.0
 11
204.3060109872564
 21
147.7381711311151
 31
0.0
1001
Sigma
1000

  0
INSERT
  5
4AB
102
{ACAD_REACTORS
330
4A7
330
4A8
102
}
330
1F
100
AcDbEntity
  8
2
  6
Continuous
 62
     7
370
    15
100
AcDbBlockReference
  2
_OPEN30
 10
198.4445340352364
 20
136.4744186209518
 30
0.0
 41
3.0
 42
3.0
 43
3.0
 50
242.5082510083088
1001
Sigma
1000
_BRRS
  0
TEXT
  5
4AD
102
{ACAD_REACTORS
330
4A7
102
}
330
1F
100
AcDbEntity
  8
2
  6
Continuous
 62
     7
370
    15
100
AcDbText
 10
207.9504549561769
 20
148.4315011215784
 30
0.0
 40
2.879999828338623
  1
Ｃマウント
 41
0.8507590152775655
  7
KCADTEXTSTANDARD
100
AcDbText
1001
Sigma
1000

  0
LINE
  5
4AF
102
{ACAD_REACTORS
330
4A7
102
}
330
1F
100
AcDbEntity
  8
2
  6
Continuous
 62
     7
370
    15
100
AcDbLine
 10
204.3060109872564
 20
147.7381711311151
 30
0.0
 11
222.8581822289143
 21
147.7381711311151
 31
0.0
1001
Sigma
1000

  0
DIMENSION
  5
4B1
330
1F
100
AcDbEntity
  8
KCAD_DIMS
 62
     7
100
AcDbDimension
  2
*D49
 10
195.2875298630912
 20
95.13707650856696
 30
0.0
 11
228.4580097106889
 21
98.19189368603628
 31
0.0
 70
    32
  1
<>
 71
     5
 42
-1.0
  3
Standard
100
AcDbAlignedDimension
 13
212.8135298630912
 23
120.9688106723244
 33
0.0
 14
195.2875298630912
 24
109.9202127659575
 34
0.0
100
AcDbRotatedDimension
1001
Sigma
1000
DIM_TPHO
1001
KCAD_DIM_EXT
1002
{
1071
 20001212
1070
     0
1070
     1
1070
     1
1040
3.0
1040
32.0762210953973
1040
5.0
1040
0.0
1040
0.0
1040
0.0
1040
0.0
1040
0.0
1070
     0
1040
50.0
1040
-1.0
1013
1.0
1023
0.0
1033
0.0
1040
0.0
1013
1.0
1023
0.0
1033
0.0
1000
_None
1040
1.0
1040
17.52600000000003
1070
     0
1070
     0
1070
     0
1012
1.0
1022
0.0
1032
0.0
1013
1.0
1023
0.0
1033
0.0
1002
}
1001
ACAD
1000
DSTYLE
1002
{
1070
     3
1000
F.B.=<>
1070
    41
1040
3.0
1070
    42
1040
1.0
1070
    43
1040
8.0
1070
    44
1040
1.0
1070
    45
1040
0.0
1070
    73
1070
     0
1070
    74
1070
     0
1070
    77
1070
     1
1070
    78
1070
     8
1070
    79
1070
     2
1070
   140
1040
3.2
1070
   141
1040
2.5
1070
   145
1040
0.0001
1070
   146
1040
0.667
1070
   147
1040
0.5333000000000001
1070
   172
1070
     1
1070
   173
1070
     1
1070
   179
1070
     3
1070
   271
1070
     3
1070
   272
1070
     3
1070
   279
1070
     2
1070
   284
1070
     8
1070
   289
1070
     2
1070
   340
1005
189
1070
   341
1005
21
1070
   343
1005
12D
1070
   344
1005
12D
1002
}
  0
DIMENSION
  5
4EF
330
1F
100
AcDbEntity
  8
KCAD_DIMS
 62
     7
100
AcDbDimension
  2
*D42
 10
99.27036702198455
 20
132.9202127659575
 30
0.0
 11
97.13703402198458
 21
125.1339141271563
 31
0.0
 70
    32
  1
<>
 71
     5
 42
-1.0
 53
90.00000000000007
  3
Standard
100
AcDbAlignedDimension
 13
110.6275298630911
 23
114.9202127659575
 33
0.0
 14
110.6275298630911
 24
132.9202127659575
 34
0.0
 50
90.00000000000007
100
AcDbRotatedDimension
1001
Sigma
1000
DIM_TPVO
1001
KCAD_DIM_EXT
1002
{
1071
 20001212
1070
     0
1070
     2
1070
     2
1040
2.5
1040
0.0
1040
0.0
1040
0.0
1040
0.0
1040
0.0
1040
0.0
1040
0.0
1070
     0
1040
50.0
1040
-1.0
1013
1.0
1023
0.0
1033
0.0
1040
0.0
1013
1.0
1023
0.0
1033
0.0
1000
_None
1040
1.0
1040
17.99999999999999
1070
     0
1070
     0
1070
     0
1012
1.0
1022
0.0
1032
0.0
1013
1.0
1023
0.0
1033
0.0
1002
}
1001
ACAD
1000
DSTYLE
1002
{
1070
     3
1000
%%c<>
1070
    41
1040
2.5
1070
    42
1040
1.0
1070
    43
1040
8.0
1070
    44
1040
1.0
1070
    45
1040
0.0
1070
    73
1070
     0
1070
    74
1070
     0
1070
    77
1070
     1
1070
    78
1070
     8
1070
    79
1070
     2
1070
   140
1040
3.2
1070
   141
1040
2.5
1070
   145
1040
0.0001
1070
   146
1040
0.667
1070
   147
1040
0.5333000000000001
1070
   172
1070
     1
1070
   173
1070
     1
1070
   179
1070
     3
1070
   271
1070
     3
1070
   272
1070
     3
1070
   279
1070
     2
1070
   284
1070
     8
1070
   289
1070
     2
1070
   340
1005
189
1070
   341
1005
21
1070
   343
1005
12D
1070
   344
1005
12D
1002
}
  0
DIMENSION
  5
52B
330
1F
100
AcDbEntity
  8
KCAD_DIMS
 62
     7
100
AcDbDimension
  2
*D43
 10
227.5059751434034
 20
137.9202127659569
 30
0.0
 11
225.3726421434034
 21
123.920212765957
 31
0.0
 70
    32
  1
<>
 71
     5
 42
-1.0
 53
90.00000000000007
  3
Standard
100
AcDbAlignedDimension
 13
194.9875298630912
 23
109.9202127659569
 33
0.0
 14
194.9875298630911
 24
137.9202127659569
 34
0.0
 50
90.00000000000007
100
AcDbRotatedDimension
1001
Sigma
1000
DIM_TPVO
1001
KCAD_DIM_EXT
1002
{
1071
 20001212
1070
     0
1070
     2
1070
     2
1040
2.5
1040
0.0
1040
0.0
1040
0.0
1040
0.0
1040
0.0
1040
0.0
1040
0.0
1070
     0
1040
50.0
1040
-1.0
1013
1.0
1023
0.0
1033
0.0
1040
0.0
1013
1.0
1023
0.0
1033
0.0
1000
_None
1040
1.0
1040
27.99999999999999
1070
     0
1070
     0
1070
     0
1012
1.0
1022
0.0
1032
0.0
1013
1.0
1023
0.0
1033
0.0
1002
}
1001
ACAD
1000
DSTYLE
1002
{
1070
     3
1000
%%c<>
1070
    41
1040
2.5
1070
    42
1040
1.0
1070
    43
1040
8.0
1070
    44
1040
1.0
1070
    45
1040
0.0
1070
    73
1070
     0
1070
    74
1070
     0
1070
    77
1070
     1
1070
    78
1070
     8
1070
    79
1070
     2
1070
   140
1040
3.2
1070
   141
1040
2.5
1070
   145
1040
0.0001
1070
   146
1040
0.667
1070
   147
1040
0.5333000000000001
1070
   172
1070
     1
1070
   173
1070
     1
1070
   179
1070
     3
1070
   271
1070
     3
1070
   272
1070
     3
1070
   279
1070
     2
1070
   284
1070
     8
1070
   289
1070
     2
1070
   340
1005
189
1070
   341
1005
21
1070
   343
1005
12D
1070
   344
1005
12D
1002
}
  0
DIMENSION
  5
567
330
1F
100
AcDbEntity
  8
KCAD_DIMS
 62
     7
100
AcDbDimension
  2
*D44
 10
39.52752986309038
 20
95.13707650856709
 30
0.0
 11
73.3382211986425
 21
97.27040950856708
 31
0.0
 70
    32
  1
<>
 71
     5
 42
-1.0
  3
Standard
100
AcDbAlignedDimension
 13
110.6275298630911
 23
114.9202127659575
 33
0.0
 14
39.52752986309038
 24
123.9202127659563
 34
0.0
100
AcDbRotatedDimension
1001
Sigma
1000
DIM_TPHO
1001
KCAD_DIM_EXT
1002
{
1071
 20001212
1070
     0
1070
     2
1070
     2
1040
2.5
1040
0.0
1040
0.0
1040
0.0
1040
0.0
1040
0.0
1040
0.0
1040
0.0
1070
     0
1040
50.0
1040
-1.0
1013
1.0
1023
0.0
1033
0.0
1040
0.0
1013
1.0
1023
0.0
1033
0.0
1000
_None
1040
1.0
1040
71.10000000000072
1070
     0
1070
     0
1070
     0
1012
1.0
1022
0.0
1032
0.0
1013
1.0
1023
0.0
1033
0.0
1002
}
1001
ACAD
1000
DSTYLE
1002
{
1070
     3
1000
W.D.=<>
1070
    41
1040
2.5
1070
    42
1040
1.0
1070
    43
1040
8.0
1070
    44
1040
1.0
1070
    45
1040
0.0
1070
    73
1070
     0
1070
    74
1070
     0
1070
    77
1070
     1
1070
    78
1070
     8
1070
    79
1070
     2
1070
   140
1040
3.2
1070
   141
1040
2.5
1070
   145
1040
0.0001
1070
   146
1040
0.667
1070
   147
1040
0.5333000000000001
1070
   172
1070
     1
1070
   173
1070
     1
1070
   179
1070
     3
1070
   271
1070
     3
1070
   272
1070
     3
1070
   279
1070
     2
1070
   284
1070
     8
1070
   289
1070
     2
1070
   340
1005
189
1070
   341
1005
21
1070
   343
1005
12D
1070
   344
1005
12D
1002
}
  0
DIMENSION
  5
5A3
330
1F
100
AcDbEntity
  8
KCAD_DIMS
 62
     7
100
AcDbDimension
  2
*D45
 10
199.2875298630912
 20
169.8750525409819
 30
0.0
 11
204.9924459440251
 21
172.0083855409819
 31
0.0
 70
    32
  1
<>
 71
     5
 42
-1.0
  3
Standard
100
AcDbAlignedDimension
 13
195.2875298630911
 23
138.6202127659574
 33
0.0
 14
199.2875298630912
 24
135.8702127659575
 34
0.0
100
AcDbRotatedDimension
1001
Sigma
1000
DIM_TPHO
1001
KCAD_DIM_EXT
1002
{
1071
 20001212
1070
     0
1070
     1
1070
     1
1040
2.5
1040
5.0
1040
6.704916056952311
1040
0.0
1040
0.0
1040
0.0
1040
0.0
1040
0.0
1070
     0
1040
50.0
1040
-1.0
1013
1.0
1023
0.0
1033
0.0
1040
0.0
1013
1.0
1023
0.0
1033
0.0
1000
_None
1040
1.0
1040
4.000000000000039
1070
     0
1070
     0
1070
     0
1012
1.0
1022
0.0
1032
0.0
1013
1.0
1023
0.0
1033
0.0
1002
}
1001
ACAD
1000
DSTYLE
1002
{
1070
    41
1040
2.5
1070
    42
1040
1.0
1070
    43
1040
8.0
1070
    44
1040
1.0
1070
    45
1040
0.0
1070
    73
1070
     0
1070
    74
1070
     0
1070
    77
1070
     1
1070
    78
1070
     8
1070
    79
1070
     2
1070
   140
1040
3.2
1070
   141
1040
2.5
1070
   145
1040
0.0001
1070
   146
1040
0.667
1070
   147
1040
0.5333000000000001
1070
   172
1070
     1
1070
   173
1070
     1
1070
   179
1070
     3
1070
   271
1070
     3
1070
   272
1070
     3
1070
   279
1070
     2
1070
   284
1070
     8
1070
   289
1070
     2
1070
   340
1005
189
1070
   341
1005
21
1070
   343
1005
12D
1070
   344
1005
12D
1002
}
  0
DIMENSION
  5
5EB
330
1F
100
AcDbEntity
  8
KCAD_DIMS
 62
     7
100
AcDbDimension
  2
*D46
 10
110.6275298630911
 20
139.2034649372125
 30
0.0
 11
118.6275298630911
 21
141.3367979372125
 31
0.0
 70
    32
  1
<>
 71
     5
 42
-1.0
  3
Standard
100
AcDbAlignedDimension
 13
126.6275298630911
 23
132.9202127659563
 33
0.0
 14
110.6275298630911
 24
132.9202127659562
 34
0.0
100
AcDbRotatedDimension
1001
Sigma
1000
DIM_TPHO
1001
KCAD_DIM_EXT
1002
{
1071
 20001212
1070
     0
1070
     2
1070
     2
1040
2.5
1040
0.0
1040
0.0
1040
0.0
1040
0.0
1040
0.0
1040
0.0
1040
0.0
1070
     0
1040
50.0
1040
-1.0
1013
1.0
1023
0.0
1033
0.0
1040
0.0
1013
1.0
1023
0.0
1033
0.0
1000
_None
1040
1.0
1040
16.0
1070
     0
1070
     0
1070
     0
1012
1.0
1022
0.0
1032
0.0
1013
1.0
1023
0.0
1033
0.0
1002
}
1001
ACAD
1000
DSTYLE
1002
{
1070
    41
1040
2.5
1070
    42
1040
1.0
1070
    43
1040
8.0
1070
    44
1040
1.0
1070
    45
1040
0.0
1070
    73
1070
     0
1070
    74
1070
     0
1070
    77
1070
     1
1070
    78
1070
     8
1070
    79
1070
     2
1070
   140
1040
3.2
1070
   141
1040
2.5
1070
   145
1040
0.0001
1070
   146
1040
0.667
1070
   147
1040
0.5333000000000001
1070
   172
1070
     1
1070
   173
1070
     1
1070
   179
1070
     3
1070
   271
1070
     3
1070
   272
1070
     3
1070
   279
1070
     2
1070
   284
1070
     8
1070
   289
1070
     2
1070
   340
1005
189
1070
   341
1005
21
1070
   343
1005
12D
1070
   344
1005
12D
1002
}
  0
DIMENSION
  5
627
330
1F
100
AcDbEntity
  8
KCAD_DIMS
 62
     7
100
AcDbDimension
  2
*D47
 10
132.6275298630911
 20
139.2034649372125
 30
0.0
 11
129.6275298630911
 21
141.3367979372125
 31
0.0
 70
    32
  1
<>
 71
     5
 42
-1.0
  3
Standard
100
AcDbAlignedDimension
 13
126.6275298630911
 23
132.6702127659563
 33
0.0
 14
132.6275298630911
 24
132.6702127659563
 34
0.0
100
AcDbRotatedDimension
1001
Sigma
1000
DIM_TPHO
1001
KCAD_DIM_EXT
1002
{
1071
 20001212
1070
     0
1070
     2
1070
     2
1040
2.5
1040
0.0
1040
0.0
1040
0.0
1040
0.0
1040
0.0
1040
0.0
1040
0.0
1070
     0
1040
50.0
1040
-1.0
1013
1.0
1023
0.0
1033
0.0
1040
0.0
1013
1.0
1023
0.0
1033
0.0
1000
_None
1040
1.0
1040
5.999999999999999
1070
     0
1070
     0
1070
     0
1012
1.0
1022
0.0
1032
0.0
1013
1.0
1023
0.0
1033
0.0
1002
}
1001
ACAD
1000
DSTYLE
1002
{
1070
    41
1040
2.5
1070
    42
1040
1.0
1070
    43
1040
8.0
1070
    44
1040
1.0
1070
    45
1040
0.0
1070
    73
1070
     0
1070
    74
1070
     0
1070
    77
1070
     1
1070
    78
1070
     8
1070
    79
1070
     2
1070
   140
1040
3.2
1070
   141
1040
2.5
1070
   145
1040
0.0001
1070
   146
1040
0.667
1070
   147
1040
0.5333000000000001
1070
   172
1070
     1
1070
   173
1070
     1
1070
   179
1070
     3
1070
   271
1070
     3
1070
   272
1070
     3
1070
   279
1070
     2
1070
   284
1070
     8
1070
   289
1070
     2
1070
   340
1005
189
1070
   341
1005
21
1070
   343
1005
12D
1070
   344
1005
12D
1002
}
  0
OLE2FRAME
  5
6A6
330
1F
100
AcDbEntity
  8
0
  6
Continuous
 62
   134
370
    15
100
AcDbOle2Frame
 70
     2
 10
131.2078077496761
 20
10.45308772328834
 30
0.0
 11
172.3135916477376
 21
4.096523202969568
 31
0.0
 72
     0
 73
   205
 90
     5248
310
0055DC16705CA66660402E7C331DFBE7244000000000000000009DEA59F1088A
310
65402E7C331DFBE7244000000000000000009DEA59F1088A6540E43C80FAD662
310
10400000000000000000DC16705CA6666040E43C80FAD6621040000000000000
310
0000000000000100000000010000010000000100000000000100000000140000
310
D0CF11E0A1B11AE1000000000000000000000000000000003E000300FEFF0900
310
0600000000000000000000000100000001000000000000000010000002000000
310
01000000FEFFFFFF0000000000000000FFFFFFFFFFFFFFFFFFFFFFFFFFFFFFFF
310
FFFFFFFFFFFFFFFFFFFFFFFFFFFFFFFFFFFFFFFFFFFFFFFFFFFFFFFFFFFFFFFF
310
FFFFFFFFFFFFFFFFFFFFFFFFFFFFFFFFFFFFFFFFFFFFFFFFFFFFFFFFFFFFFFFF
310
FFFFFFFFFFFFFFFFFFFFFFFFFFFFFFFFFFFFFFFFFFFFFFFFFFFFFFFFFFFFFFFF
310
FFFFFFFFFFFFFFFFFFFFFFFFFFFFFFFFFFFFFFFFFFFFFFFFFFFFFFFFFFFFFFFF
310
FFFFFFFFFFFFFFFFFFFFFFFFFFFFFFFFFFFFFFFFFFFFFFFFFFFFFFFFFFFFFFFF
310
FFFFFFFFFFFFFFFFFFFFFFFFFFFFFFFFFFFFFFFFFFFFFFFFFFFFFFFFFFFFFFFF
310
FFFFFFFFFFFFFFFFFFFFFFFFFFFFFFFFFFFFFFFFFFFFFFFFFFFFFFFFFFFFFFFF
310
FFFFFFFFFFFFFFFFFFFFFFFFFFFFFFFFFFFFFFFFFFFFFFFFFFFFFFFFFFFFFFFF
310
FFFFFFFFFFFFFFFFFFFFFFFFFFFFFFFFFFFFFFFFFFFFFFFFFFFFFFFFFFFFFFFF
310
FFFFFFFFFFFFFFFFFFFFFFFFFFFFFFFFFFFFFFFFFFFFFFFFFFFFFFFFFFFFFFFF
310
FFFFFFFFFFFFFFFFFFFFFFFFFFFFFFFFFFFFFFFFFFFFFFFFFFFFFFFFFFFFFFFF
310
FFFFFFFFFFFFFFFFFFFFFFFFFFFFFFFFFFFFFFFFFFFFFFFFFFFFFFFFFFFFFFFF
310
FFFFFFFFFFFFFFFFFFFFFFFFFFFFFFFFFFFFFFFFFFFFFFFFFFFFFFFFFFFFFFFF
310
FDFFFFFFFEFFFFFFFEFFFFFF0400000005000000060000000700000008000000
310
FEFFFFFFFFFFFFFFFFFFFFFFFFFFFFFFFFFFFFFFFFFFFFFFFFFFFFFFFFFFFFFF
310
FFFFFFFFFFFFFFFFFFFFFFFFFFFFFFFFFFFFFFFFFFFFFFFFFFFFFFFFFFFFFFFF
310
FFFFFFFFFFFFFFFFFFFFFFFFFFFFFFFFFFFFFFFFFFFFFFFFFFFFFFFFFFFFFFFF
310
FFFFFFFFFFFFFFFFFFFFFFFFFFFFFFFFFFFFFFFFFFFFFFFFFFFFFFFFFFFFFFFF
310
FFFFFFFFFFFFFFFFFFFFFFFFFFFFFFFFFFFFFFFFFFFFFFFFFFFFFFFFFFFFFFFF
310
FFFFFFFFFFFFFFFFFFFFFFFFFFFFFFFFFFFFFFFFFFFFFFFFFFFFFFFFFFFFFFFF
310
FFFFFFFFFFFFFFFFFFFFFFFFFFFFFFFFFFFFFFFFFFFFFFFFFFFFFFFFFFFFFFFF
310
FFFFFFFFFFFFFFFFFFFFFFFFFFFFFFFFFFFFFFFFFFFFFFFFFFFFFFFFFFFFFFFF
310
FFFFFFFFFFFFFFFFFFFFFFFFFFFFFFFFFFFFFFFFFFFFFFFFFFFFFFFFFFFFFFFF
310
FFFFFFFFFFFFFFFFFFFFFFFFFFFFFFFFFFFFFFFFFFFFFFFFFFFFFFFFFFFFFFFF
310
FFFFFFFFFFFFFFFFFFFFFFFFFFFFFFFFFFFFFFFFFFFFFFFFFFFFFFFFFFFFFFFF
310
FFFFFFFFFFFFFFFFFFFFFFFFFFFFFFFFFFFFFFFFFFFFFFFFFFFFFFFFFFFFFFFF
310
FFFFFFFFFFFFFFFFFFFFFFFFFFFFFFFFFFFFFFFFFFFFFFFFFFFFFFFFFFFFFFFF
310
FFFFFFFFFFFFFFFFFFFFFFFFFFFFFFFFFFFFFFFFFFFFFFFFFFFFFFFFFFFFFFFF
310
FFFFFFFFFFFFFFFFFFFFFFFFFFFFFFFFFFFFFFFFFFFFFFFFFFFFFFFFFFFFFFFF
310
52006F006F007400200045006E00740072007900000000000000000000000000
310
0000000000000000000000000000000000000000000000000000000000000000
310
16000500FFFFFFFFFFFFFFFF020000000A00030000000000C000000000000046
310
0000000000000000000000008017B789099AC80103000000C00B000000000000
310
01004F006C006500310030004E00610074006900760065000000000000000000
310
0000000000000000000000000000000000000000000000000000000000000000
310
1A000200FFFFFFFFFFFFFFFFFFFFFFFF00000000000000000000000000000000
310
000000000000000000000000000000000000000000000000C40A000000000000
310
010043006F006D0070004F0062006A0000000000000000000000000000000000
310
0000000000000000000000000000000000000000000000000000000000000000
310
120002010300000001000000FFFFFFFF00000000000000000000000000000000
310
00000000000000000000000000000000000000002C0000004D00000000000000
310
01004F006C006500000000000000000000000000000000000000000000000000
310
0000000000000000000000000000000000000000000000000000000000000000
310
0A000200FFFFFFFFFFFFFFFFFFFFFFFF00000000000000000000000000000000
310
00000000000000000000000000000000000000002E0000001400000000000000
310
0100000002000000030000000400000005000000060000000700000008000000
310
090000000A0000000B0000000C0000000D0000000E0000000F00000010000000
310
1100000012000000130000001400000015000000160000001700000018000000
310
190000001A0000001B0000001C0000001D0000001E0000001F00000020000000
310
2100000022000000230000002400000025000000260000002700000028000000
310
290000002A0000002B000000FEFFFFFF2D000000FEFFFFFFFEFFFFFFFFFFFFFF
310
FFFFFFFFFFFFFFFFFFFFFFFFFFFFFFFFFFFFFFFFFFFFFFFFFFFFFFFFFFFFFFFF
310
FFFFFFFFFFFFFFFFFFFFFFFFFFFFFFFFFFFFFFFFFFFFFFFFFFFFFFFFFFFFFFFF
310
FFFFFFFFFFFFFFFFFFFFFFFFFFFFFFFFFFFFFFFFFFFFFFFFFFFFFFFFFFFFFFFF
310
FFFFFFFFFFFFFFFFFFFFFFFFFFFFFFFFFFFFFFFFFFFFFFFFFFFFFFFFFFFFFFFF
310
FFFFFFFFFFFFFFFFFFFFFFFFFFFFFFFFFFFFFFFFFFFFFFFFFFFFFFFFFFFFFFFF
310
FFFFFFFFFFFFFFFFFFFFFFFFFFFFFFFFFFFFFFFFFFFFFFFFFFFFFFFFFFFFFFFF
310
FFFFFFFFFFFFFFFFFFFFFFFFFFFFFFFFFFFFFFFFFFFFFFFFFFFFFFFFFFFFFFFF
310
FFFFFFFFFFFFFFFFFFFFFFFFFFFFFFFFFFFFFFFFFFFFFFFFFFFFFFFFFFFFFFFF
310
FFFFFFFFFFFFFFFFFFFFFFFFFFFFFFFFFFFFFFFFFFFFFFFFFFFFFFFFFFFFFFFF
310
FFFFFFFFFFFFFFFFFFFFFFFFFFFFFFFFFFFFFFFFFFFFFFFFFFFFFFFFFFFFFFFF
310
C00A0000424DBE0A0000000000003E0000002800000074010000380000000100
310
010000000000800A0000232E0000232E0000000000000000000000000000FFFF
310
FF00FFFFFFE0001FFFFFFFF0000000000007FFF0003FFFFFF8000007F8001FC0
310
00FFFFFFFFF0001FFE000000000000000000FFFFFFE0001FFFFFFFC000000000
310
0001FFF0003FFFFFF000001FF8001FC000FFFFFFFFF0001FF800000000000000
310
0000FFFFFFE0001FFFFFFF80000000000000FFF0003FFFFFC000003FF8001FC0
310
00FFFFFFFFF0001FF0000000000000000000FFFFFFE0001FFFFFFF0000000000
310
00003FF0003FFFFF800000FFF8001FC000FFFFFFFFF0001FE000000000000000
310
0000FFFFFFE0001FFFFFFE000000000000001FF0003FFFFF000001FFF8001FC0
310
00FFFFFFFFF0001FC0000000000000000000FFFFFFE0001FFFFFFC0000000000
310
00001FF0003FFFFC000007FFF8001FC000FFFFFFFFF0001F8000000000000000
310
0000FFFFFFE0001FFFFFF8000000000000000FF0003FFFF800000FFFF8001FC0
310
00FFFFFFFFF0001F80000000000000000000FFFFFFE0001FFFFFF80000000000
310
000007F0003FFFF000003FFFF8001FC000FFFFFFFFF0001F8000000000000000
310
0000FFFFFFE0001FFFFFF00000000000000007F0003FFFC000007FFFF8001FC0
310
00FFFFFFFFF0001F80000000000000000000FFFFFFE0001FFFFFF00000000000
310
000007F0003FFF800001FFFFF8001FC000FFFFFFFFF0001F8000000000000000
310
0000FFFFFFE0001FFFFFE00000000000000003F0003FFF000003FFFFF8001FC0
310
00FFFFFFFFF0001F80007FFFFFFFFC000000FFFFFFE0001FFFFFE00000000000
310
000003F0003FFC00000FFFFFF8001FC000FFFFFFFFF0001F80007FFFFFFFFC00
310
0000FFFFFFE0001FFFFFE000FFFFFFFFFE0003F0003FF800001FFFFFF8001FC0
310
00FFFFFFFFF0001F80007FFFFFFFFC000000FFFFFFE0001FFFFFE000FFFFFFFF
310
FE0003F0003FF000007FFFFFF8001FC000FFFFFFFFF0001F80007FFFFFFFFC00
310
0000FFFFFFE0001FFFFFE000FFFFFFFFFE0003F0003FC00000FFFFFFF8001FC0
310
00FFFFFFFFF0001F80007FFFFFFFFC000000FFFFFFE0001FFFFFE000FFFFFFFF
310
FE0003F0003F800003FFFFFFF8001FC000FFFFFFFFF0001F8000000000000000
310
0000FFFFFFE0001FFFFFE000FFFFFFFFFE0003F0003F000007FFFFFFF8001FC0
310
00FFFFFFFFF0001F80000000000000000000FFFFFFE0001FFFFFE000FFFFFFFF
310
FE0003F0003C00001FFFFFFFF8001FC000FFFFFFFFF0001F8000000000000000
310
0000FFFFFFE0001FFFFFE000FFFFFFFFFE0003F0003800007FFFFFFFF8001FC0
310
00FFFFFFFFF0001F80000000000000000000FFFFFFE0001FFFFFE000FFFFFFFF
310
FE0003F000300000FFFFFFFFF8001FC000FFFFFFFFF0001F8000000000000000
310
0000FFFFFFE0001FFFFFE000FFFFFFFFFE0003F000000003FFFFFFFFF8001FC0
310
00FFFFFFFFF0001F80000000000000000000FFFFFFE0001FFFFFE000FFFFFFFF
310
FE0003F000000007FFFFFFFFF8001FC000FFFFFFFFF0001FC000000000000000
310
0000FFFFFFE0001FFFFFE000FFFFFFFFFE0003F000000001FFFFFFFFF8001FC0
310
00FFFFFFFFF0001FE0000000000000000000FFFFFFE0001FFFFFE000FFFFFFFF
310
FE0003F000300000FFFFFFFFF8001FC000FFFFFFFFF0001FF000000000000000
310
0000FFFFFFE0001FFFFFE000FFFFFFFFFE0003F0003800003FFFFFFFF8001FC0
310
00FFFFFFFFF0001FF8000000000000000000FFFFFFE0001FFFFFE000FFFFFFFF
310
FE0003F0003E00001FFFFFFFF8001FC000FFFFFFFFF0001FFE00000000000000
310
0000FFFFFFE0001FFFFFE000FFFFFFFFFE0003F0003F00000FFFFFFFF8001FC0
310
00FFFFFFFFF0001FFFFFFFFFFFFFFC000000FFFFFFE0001FFFFFE000FFFFFFFF
310
FE0003F0003FC00003FFFFFFF8001FC000FFFFFFFFF0001FFFFFFFFFFFFFFC00
310
0000FFFFFFE0001FFFFFE000FFFFFFFFFE0003F0003FE00001FFFFFFF8001FC0
310
00FFFFFFFFF0001FFFFFFFFFFFFFFC000000FFFFFFE0001FFFFFE000FFFFFFFF
310
FE0003F0003FF000007FFFFFF8001FC000FFFFFFFFF0001FFFFFFFFFFFFFFC00
310
0000FFFFFFE0001FFFFFE000FFFFFFFFFE0003F0003FFC00003FFFFFF8001FC0
310
00FFFFFFFFF0001FFFFFFFFFFFFFFC000000FFFFFFE0001FFFFFE00000000000
310
000003F0003FFE00000FFFFFF8001FC0000000000000001FFFFFFFFFFFFFFC00
310
0000FFFFFFE0001FFFFFE00000000000000003F0003FFF800007FFFFF8001FC0
310
000000000000001FFFFFFFFFFFFFF8000000FFFFFFE0001FFFFFF00000000000
310
000007F0003FFFC00001FFFFF8001FC0000000000000003FC000000000000000
310
0000FFFFFFE0001FFFFFF00000000000000007F0003FFFE00000FFFFF8001FC0
310
000000000000003FC0000000000000000000FFFFFFE0001FFFFFF80000000000
310
00000FF0003FFFF800003FFFF8001FC0000000000000003FC000000000000000
310
0000FFFFFFE0001FFFFFF8000000000000000FF0003FFFFC00001FFFF8001FC0
310
000000000000007FC0000000000000001000FFFFFFE0001FFFFFFC0000000000
310
00001FF0003FFFFF000007FFF8001FC000000000000000FFC000000000000000
310
3000FFFFFFE0001FFFFFFE000000000000003FF0003FFFFF800003FFF8001FC0
310
00000000000000FFC0000000000000007000FFFFFFE0001FFFFFFF0000000000
310
00007FF0003FFFFFC00000FFF8001FC000000000000001FFC000000000000000
310
F000FFFFFFE0001FFFFFFF80000000000000FFF0003FFFFFF000007FF8001FC0
310
00000000000003FFC000000000000001F000FFFFFFE0001FFFFFFFE000000000
310
0003FFF0003FFFFFF800001FF8001FC00000000000000FFFC000000000000007
310
F000FFFFFFE0001FFFFFFFF800000000000FFFF0003FFFFFFE00000FF8001FC0
310
0000000000003FFFC00000000000001FF000000000000000000001FFFFFFFFFF
310
FFFFFFF0003FFFFFFFFFFFFFFFFFFFFFFFFFFFFFFFFFFFFFFFFFFFFFFFFFFFFF
310
F000000000000000000001FFFFFFFFFFFFFFFFF0003FFFFFFFFFFFFFFFFFFFFF
310
FFFFFFFFFFFFFFFFFFFFFFFFFFFFFFFFF000000000000000000001FFFFFFFFFF
310
FFFFFFF0003FFFFFFFFFFFFFF8001FFFFFFFFFFFFFFFFFFFFFFFFFFFFFFFFFFF
310
F000000000000000000001FFFFFFFFFFFFFFFFF0003FFFFFFFFFFFFFF8001FFF
310
FFFFFFFFFFFFFFFFFFFFFFFFFFFFFFFFF000000000000000000001FFFFFFFFFF
310
FFFFFFF0003FFFFFFFFFFFFFF8001FFFFFFFFFFFFFFFFFFFFFFFFFFFFFFFFFFF
310
F000000000000000000001FFFFFFFFFFFFFFFFF0003FFFFFFFFFFFFFF8001FFF
310
FFFFFFFFFFFFFFFFFFFFFFFFFFFFFFFFF000000000000000000001FFFFFFFFFF
310
FFFFFFF0003FFFFFFFFFFFFFF8001FFFFFFFFFFFFFFFFFFFFFFFFFFFFFFFFFFF
310
F000000000000000000001FFFFFFFFFFFFFFFFF0003FFFFFFFFFFFFFF8001FFF
310
FFFFFFFFFFFFFFFFFFFFFFFFFFFFFFFFF000000000000000000001FFFFFFFFFF
310
FFFFFFF0003FFFFFFFFFFFFFF8001FFFFFFFFFFFFFFFFFFFFFFFFFFFFFFFFFFF
310
F000000000000000000001FFFFFFFFFFFFFFFFF0003FFFFFFFFFFFFFF8001FFF
310
FFFFFFFFFFFFFFFFFFFFFFFFFFFFFFFFF000000000000000000001FFFFFFFFFF
310
FFFFFFF0003FFFFFFFFFFFFFF8001FFFFFFFFFFFFFFFFFFFFFFFFFFFFFFFFFFF
310
F000000000000000000001FFFFFFFFFFFFFFFFF0003FFFFFFFFFFFFFF8001FFF
310
FFFFFFFFFFFFFFFFFFFFFFFFFFFFFFFFF000000000000000000001FFFFFFFFFF
310
FFFFFFF0003FFFFFFFFFFFFFF8001FFFFFFFFFFFFFFFFFFFFFFFFFFFFFFFFFFF
310
F000000000000000000000000000000000000000000000000000000000000000
310
0000000000000000000000000000000000000000000000000000000000000000
310
0100FEFF030A0000FFFFFFFF0A00030000000000C00000000000004607000000
310
5042727573680007000000504272757368000700000050427275736800F439B2
310
7100000000000000000000000000000000000000000000000000000000000000
310
0000000000000000000000000000000000000000000000000000000000000000
310
01000002000000000000000000000000000000007801150025ADD01198A80800
310
361B11035A00310000000000733743081000494E445553547E31000042000300
310
0400EFBE6E37E4367337171E1400000049006E00640075007300740072006900
310
61006C00500072006F0064007500630074007300440069007600000018003800
  1
OLE
  0
TEXT
  5
6A7
330
1F
100
AcDbEntity
  8
99
  6
Continuous
 62
     7
370
    30
100
AcDbText
 10
206.8243602821759
 20
5.869208781940967
 30
0.0
 40
4.0
  1
株式会社トキナー
  7
KCADTEXTSTANDARD
100
AcDbText
1001
Sigma
1000

  0
TEXT
  5
6A8
330
1F
100
AcDbEntity
  8
99
  6
Continuous
 62
     7
370
    30
100
AcDbText
 10
251.0263189333706
 20
6.291105729467215
 30
0.0
 40
4.0
  1
Tokina Co.,Ltd.
 41
0.7000000000000001
  7
KCADTEXTSTANDARD
100
AcDbText
1001
Sigma
1000

  0
POINT
  5
89E
330
1F
100
AcDbEntity
  8
0
  6
Continuous
 62
   134
370
    15
100
AcDbPoint
 10
132.6275298630911
 20
132.6702127659563
 30
0.0
  0
POINT
  5
89F
330
1F
100
AcDbEntity
  8
0
  6
Continuous
 62
   134
370
    15
100
AcDbPoint
 10
132.6275298630911
 20
115.1702127659584
 30
0.0
  0
LINE
  5
8A2
330
1F
100
AcDbEntity
  8
0
  6
Continuous
 62
     7
370
    -2
100
AcDbLine
 10
130.3171901989818
 20
129.6702127659563
 30
0.0
 11
130.3171901989818
 21
118.1702127659584
 31
0.0
  0
INSERT
  5
8A3
330
1F
100
AcDbEntity
  8
0
  6
Continuous
 62
     7
370
    -2
100
AcDbBlockReference
  2
KCAD_OPEN30
 10
130.3171901989818
 20
132.6702127659563
 30
0.0
 41
3.0
 42
3.0
 43
3.0
 50
90.0
  0
INSERT
  5
8A4
330
1F
100
AcDbEntity
  8
0
  6
Continuous
 62
     7
370
    -2
100
AcDbBlockReference
  2
KCAD_OPEN30
 10
130.3171901989818
 20
115.1702127659584
 30
0.0
 41
3.0
 42
3.0
 43
3.0
 50
270.0
  0
MTEXT
  5
8A5
330
1F
100
AcDbEntity
  8
0
  6
Continuous
 62
     7
370
    15
100
AcDbMText
 10
129.9013311029794
 20
105.1293887575138
 30
0.0
 40
3.200000000000003
 41
0.0
 71
     5
 72
     1
  1
φ17.5
  7
KCADDIMSTANDARD
 11
0.0
 21
1.0
 31
0.0
 73
     1
 44
1.0
  0
TEXT
  5
937
330
1F
100
AcDbEntity
  8
99
  6
Continuous
 62
     7
370
    30
100
AcDbText
 10
181.8478358262486
 20
19.0880918452403
 30
0.0
 40
2.5
  1
図番登録
 41
0.7000000000000001
  7
KCADTEXTSTANDARD
100
AcDbText
1001
Sigma
1000

  0
TEXT
  5
938
330
1F
100
AcDbEntity
  8
99
  6
Continuous
 62
     7
370
    30
100
AcDbText
 10
181.3913847594749
 20
13.91244289152591
 30
0.0
 40
2.0
  1
2008.5.15
 41
0.7000000000000001
  7
KCADTEXTSTANDARD
100
AcDbText
1001
Sigma
1000

  0
ENDSEC
  0
SECTION
  2
OBJECTS
  0
DICTIONARY
  5
C
330
0
100
AcDbDictionary
281
     1
  3
ACAD_COLOR
350
6C
  3
ACAD_GROUP
350
D
  3
ACAD_LAYOUT
350
1A
  3
ACAD_MATERIAL
350
6B
  3
ACAD_MLINESTYLE
350
17
  3
ACAD_PLOTSETTINGS
350
19
  3
ACAD_PLOTSTYLENAME
350
E
  3
ACAD_TABLESTYLE
350
92
  3
ACDBHEADERROUNDTRIPXREC
350
A55
  3
AcDbVariableDictionary
350
59
  3
DWGPROPS
350
A58
  3
KCADFRAMEINFO
350
2A7
  0
DICTIONARY
  5
6C
102
{ACAD_REACTORS
330
C
102
}
330
C
100
AcDbDictionary
281
     1
  0
DICTIONARY
  5
D
102
{ACAD_REACTORS
330
C
102
}
330
C
100
AcDbDictionary
281
     1
  3
*A1
350
4A7
  3
*A2
350
4A8
  0
DICTIONARY
  5
1A
102
{ACAD_REACTORS
330
C
102
}
330
C
100
AcDbDictionary
281
     1
  3
Model
350
22
  3
ﾚｲｱｳﾄ1
350
22F
  0
DICTIONARY
  5
6B
102
{ACAD_REACTORS
330
C
102
}
330
C
100
AcDbDictionary
281
     1
  0
DICTIONARY
  5
17
102
{ACAD_REACTORS
330
C
102
}
330
C
100
AcDbDictionary
281
     1
  3
Standard
350
18
  0
DICTIONARY
  5
19
102
{ACAD_REACTORS
330
C
102
}
330
C
100
AcDbDictionary
281
     1
  0
ACDBDICTIONARYWDFLT
  5
E
102
{ACAD_REACTORS
330
C
102
}
330
C
100
AcDbDictionary
281
     1
  3
Normal
350
F
100
AcDbDictionaryWithDefault
340
F
  0
DICTIONARY
  5
92
102
{ACAD_REACTORS
330
C
102
}
330
C
100
AcDbDictionary
281
     1
  0
DICTIONARY
  5
A55
102
{ACAD_REACTORS
330
C
102
}
330
C
100
AcDbDictionary
281
     1
  3
COLORDICT
350
A56
  3
MATERIALDICT
350
A57
  0
DICTIONARY
  5
59
102
{ACAD_REACTORS
330
C
102
}
330
C
100
AcDbDictionary
281
     1
  3
DIMASSOC
350
A54
  0
XRECORD
  5
A58
102
{ACAD_REACTORS
330
C
102
}
330
C
100
AcDbXrecord
280
     1
  1
DWGPROPS COOKIE
  2

  3

  4

  6

  7

  8
fottrem
  9

300
=
301
=
302
=
303
=
304
=
305
=
306
=
307
=
308
=
309
=
 40
0.0
 41
2453353.717125822
 42
2453294.15843294
  1

 90
        0
  0
XRECORD
  5
2A7
102
{ACAD_REACTORS
330
C
102
}
330
C
100
AcDbXrecord
280
     1
  1
A4
 40
297.0
 40
210.0
 90
        1
 90
        1
  0
GROUP
  5
4A7
102
{ACAD_REACTORS
330
D
102
}
330
D
100
AcDbGroup
300
group from kcad family
 70
     1
 71
     1
340
4A9
340
4AB
340
4AD
340
4AF
  0
GROUP
  5
4A8
102
{ACAD_REACTORS
330
D
102
}
330
D
100
AcDbGroup
300
line with arrowBlockRef from kcad family
 70
     1
 71
     1
340
4A9
340
4AB
  0
LAYOUT
  5
22
102
{ACAD_REACTORS
330
1A
102
}
330
1A
100
AcDbPlotSettings
  1

  2
DWF ePlot.pc3
  4
ISO_A3_(297.00_x_420.00_MM)
  6

 40
5.793749809265136
 41
17.79375076293945
 42
5.79376220703125
 43
17.79376220703125
 44
297.0
 45
420.0
 46
0.0
 47
0.0
 48
0.0
 49
0.0
140
0.0
141
0.0
142
1.0
143
1.0
 70
 11952
 72
     1
 73
     1
 74
     2
  7

 75
    16
147
1.0
148
0.0
149
0.0
100
AcDbLayout
  1
Model
 70
     1
 71
     0
 10
0.0
 20
0.0
 11
297.0
 21
210.0
 12
0.0
 22
0.0
 32
0.0
 14
12.47329910140999
 24
4.096523202969568
 34
0.0
 15
286.6338193791157
 25
205.0523593466424
 35
0.0
146
0.0
 13
0.0
 23
0.0
 33
0.0
 16
1.0
 26
0.0
 36
0.0
 17
0.0
 27
1.0
 37
0.0
 76
     0
330
1F
  0
LAYOUT
  5
22F
102
{ACAD_REACTORS
330
1A
102
}
330
1A
100
AcDbPlotSettings
  1

  2
D:\ACAD2000\plotters\HP DesignJet 700(System).pc3
  4

  6

 40
0.0
 41
0.0
 42
0.0
 43
0.0
 44
0.0
 45
0.0
 46
0.0
 47
0.0
 48
0.0
 49
0.0
140
0.0
141
0.0
142
1.0
143
1.0
 70
   688
 72
     0
 73
     0
 74
     5
  7
monochrome.ctb
 75
    16
147
1.0
148
0.0
149
0.0
100
AcDbLayout
  1
ﾚｲｱｳﾄ1
 70
     1
 71
     1
 10
0.0
 20
0.0
 11
12.0
 21
9.0
 12
0.0
 22
0.0
 32
0.0
 14
0.0
 24
0.0
 34
0.0
 15
0.0
 25
0.0
 35
0.0
146
0.0
 13
0.0
 23
0.0
 33
0.0
 16
1.0
 26
0.0
 36
0.0
 17
0.0
 27
1.0
 37
0.0
 76
     0
330
73
  0
MLINESTYLE
  5
18
102
{ACAD_REACTORS
330
17
102
}
330
17
100
AcDbMlineStyle
  2
Standard
 70
     0
  3

 62
   256
 51
90.0
 52
90.0
 71
     2
 49
0.5
 62
   256
  6
BYLAYER
 49
-0.5
 62
   256
  6
BYLAYER
  0
ACDBPLACEHOLDER
  5
F
102
{ACAD_REACTORS
330
E
102
}
330
E
  0
XRECORD
  5
A56
102
{ACAD_REACTORS
330
A55
102
}
330
A55
100
AcDbXrecord
280
     1
340
6C
  0
XRECORD
  5
A57
102
{ACAD_REACTORS
330
A55
102
}
330
A55
100
AcDbXrecord
280
     1
340
6B
  0
DICTIONARYVAR
  5
A54
102
{ACAD_REACTORS
330
59
102
}
330
59
100
DictionaryVariables
280
     0
  1
1
  0
ENDSEC
  0
EOF
