  0
SECTION
  2
HEADER
  9
$ACADVER
  1
AC1015
  9
$ACADMAINTVER
 70
     6
  9
$DWGCODEPAGE
  3
ANSI_932
  9
$INSBASE
 10
0.0
 20
0.0
 30
0.0
  9
$EXTMIN
 10
12.47329910140999
 20
4.030743065046472
 30
0.0
  9
$EXTMAX
 10
286.6338193791156
 20
205.0523593466424
 30
0.0
  9
$LIMMIN
 10
0.0
 20
0.0
  9
$LIMMAX
 10
297.0
 20
210.0
  9
$ORTHOMODE
 70
     0
  9
$REGENMODE
 70
     1
  9
$FILLMODE
 70
     1
  9
$QTEXTMODE
 70
     0
  9
$MIRRTEXT
 70
     1
  9
$LTSCALE
 40
0.2
  9
$ATTMODE
 70
     1
  9
$TEXTSIZE
 40
3.2
  9
$TRACEWID
 40
1.0
  9
$TEXTSTYLE
  7
KCADTEXTSTANDARD
  9
$CLAYER
  8
0
  9
$CELTYPE
  6
Continuous
  9
$CECOLOR
 62
     4
  9
$CELTSCALE
 40
1.0
  9
$DISPSILH
 70
     0
  9
$DIMSCALE
 40
1.0
  9
$DIMASZ
 40
3.0
  9
$DIMEXO
 40
1.0
  9
$DIMDLI
 40
8.0
  9
$DIMRND
 40
0.0
  9
$DIMDLE
 40
0.0
  9
$DIMEXE
 40
1.0
  9
$DIMTP
 40
0.0
  9
$DIMTM
 40
0.0
  9
$DIMTXT
 40
3.2
  9
$DIMCEN
 40
2.5
  9
$DIMTSZ
 40
0.0
  9
$DIMTOL
 70
     0
  9
$DIMLIM
 70
     0
  9
$DIMTIH
 70
     0
  9
$DIMTOH
 70
     0
  9
$DIMSE1
 70
     0
  9
$DIMSE2
 70
     0
  9
$DIMTAD
 70
     1
  9
$DIMZIN
 70
     8
  9
$DIMBLK
  1

  9
$DIMASO
 70
     1
  9
$DIMSHO
 70
     1
  9
$DIMPOST
  1

  9
$DIMAPOST
  1

  9
$DIMALT
 70
     0
  9
$DIMALTD
 70
     2
  9
$DIMALTF
 40
25.4
  9
$DIMLFAC
 40
1.0
  9
$DIMTOFL
 70
     1
  9
$DIMTVP
 40
0.0
  9
$DIMTIX
 70
     0
  9
$DIMSOXD
 70
     0
  9
$DIMSAH
 70
     1
  9
$DIMBLK1
  1
KCAD_OPEN30
  9
$DIMBLK2
  1
KCAD_OPEN30
  9
$DIMSTYLE
  2
Standard
  9
$DIMCLRD
 70
     0
  9
$DIMCLRE
 70
     0
  9
$DIMCLRT
 70
     0
  9
$DIMTFAC
 40
0.667
  9
$DIMGAP
 40
0.5333000000000001
  9
$DIMJUST
 70
     0
  9
$DIMSD1
 70
     0
  9
$DIMSD2
 70
     0
  9
$DIMTOLJ
 70
     1
  9
$DIMTZIN
 70
     8
  9
$DIMALTZ
 70
     0
  9
$DIMALTTZ
 70
     0
  9
$DIMUPT
 70
     0
  9
$DIMDEC
 70
     3
  9
$DIMTDEC
 70
     3
  9
$DIMALTU
 70
     2
  9
$DIMALTTD
 70
     2
  9
$DIMTXSTY
  7
KCADDIMSTANDARD
  9
$DIMAUNIT
 70
     0
  9
$DIMADEC
 70
     3
  9
$DIMALTRND
 40
0.0
  9
$DIMAZIN
 70
     2
  9
$DIMDSEP
 70
    46
  9
$DIMATFIT
 70
     3
  9
$DIMFRAC
 70
     0
  9
$DIMLDRBLK
  1
KCAD_OPEN
  9
$DIMLUNIT
 70
     2
  9
$DIMLWD
 70
    -2
  9
$DIMLWE
 70
    -2
  9
$DIMTMOVE
 70
     0
  9
$LUNITS
 70
     2
  9
$LUPREC
 70
     4
  9
$SKETCHINC
 40
1.0
  9
$FILLETRAD
 40
5.0
  9
$AUNITS
 70
     0
  9
$AUPREC
 70
     0
  9
$MENU
  1
.
  9
$ELEVATION
 40
0.0
  9
$PELEVATION
 40
0.0
  9
$THICKNESS
 40
0.0
  9
$LIMCHECK
 70
     0
  9
$CHAMFERA
 40
5.0
  9
$CHAMFERB
 40
5.0
  9
$CHAMFERC
 40
5.0
  9
$CHAMFERD
 40
0.7853981633974483
  9
$SKPOLY
 70
     0
  9
$TDCREATE
 40
2453354.092125822
  9
$TDUCREATE
 40
2453353.717125822
  9
$TDUPDATE
 40
2453306.37075191
  9
$TDUUPDATE
 40
2453305.99575191
  9
$TDINDWG
 40
0.0488796528
  9
$TDUSRTIMER
 40
0.0488678704
  9
$USRTIMER
 70
     1
  9
$ANGBASE
 50
0.0
  9
$ANGDIR
 70
     0
  9
$PDMODE
 70
     0
  9
$PDSIZE
 40
0.0
  9
$PLINEWID
 40
0.0
  9
$SPLFRAME
 70
     0
  9
$SPLINETYPE
 70
     6
  9
$SPLINESEGS
 70
     8
  9
$HANDSEED
  5
B29
  9
$SURFTAB1
 70
     6
  9
$SURFTAB2
 70
     6
  9
$SURFTYPE
 70
     6
  9
$SURFU
 70
     6
  9
$SURFV
 70
     6
  9
$UCSBASE
  2

  9
$UCSNAME
  2

  9
$UCSORG
 10
0.0
 20
0.0
 30
0.0
  9
$UCSXDIR
 10
1.0
 20
0.0
 30
0.0
  9
$UCSYDIR
 10
0.0
 20
1.0
 30
0.0
  9
$UCSORTHOREF
  2

  9
$UCSORTHOVIEW
 70
     0
  9
$UCSORGTOP
 10
0.0
 20
0.0
 30
0.0
  9
$UCSORGBOTTOM
 10
0.0
 20
0.0
 30
0.0
  9
$UCSORGLEFT
 10
0.0
 20
0.0
 30
0.0
  9
$UCSORGRIGHT
 10
0.0
 20
0.0
 30
0.0
  9
$UCSORGFRONT
 10
0.0
 20
0.0
 30
0.0
  9
$UCSORGBACK
 10
0.0
 20
0.0
 30
0.0
  9
$PUCSBASE
  2

  9
$PUCSNAME
  2

  9
$PUCSORG
 10
0.0
 20
0.0
 30
0.0
  9
$PUCSXDIR
 10
1.0
 20
0.0
 30
0.0
  9
$PUCSYDIR
 10
0.0
 20
1.0
 30
0.0
  9
$PUCSORTHOREF
  2

  9
$PUCSORTHOVIEW
 70
     0
  9
$PUCSORGTOP
 10
0.0
 20
0.0
 30
0.0
  9
$PUCSORGBOTTOM
 10
0.0
 20
0.0
 30
0.0
  9
$PUCSORGLEFT
 10
0.0
 20
0.0
 30
0.0
  9
$PUCSORGRIGHT
 10
0.0
 20
0.0
 30
0.0
  9
$PUCSORGFRONT
 10
0.0
 20
0.0
 30
0.0
  9
$PUCSORGBACK
 10
0.0
 20
0.0
 30
0.0
  9
$USERI1
 70
     0
  9
$USERI2
 70
     0
  9
$USERI3
 70
     0
  9
$USERI4
 70
   257
  9
$USERI5
 70
     0
  9
$USERR1
 40
0.0
  9
$USERR2
 40
0.0
  9
$USERR3
 40
0.0
  9
$USERR4
 40
0.0
  9
$USERR5
 40
0.0
  9
$WORLDVIEW
 70
     1
  9
$SHADEDGE
 70
     3
  9
$SHADEDIF
 70
    70
  9
$TILEMODE
 70
     1
  9
$MAXACTVP
 70
    48
  9
$PINSBASE
 10
0.0
 20
0.0
 30
0.0
  9
$PLIMCHECK
 70
     0
  9
$PEXTMIN
 10
0.0
 20
0.0
 30
0.0
  9
$PEXTMAX
 10
0.0
 20
0.0
 30
0.0
  9
$PLIMMIN
 10
0.0
 20
0.0
  9
$PLIMMAX
 10
12.0
 20
9.0
  9
$UNITMODE
 70
     0
  9
$VISRETAIN
 70
     1
  9
$PLINEGEN
 70
     0
  9
$PSLTSCALE
 70
     1
  9
$TREEDEPTH
 70
  3020
  9
$CMLSTYLE
  2
Standard
  9
$CMLJUST
 70
     0
  9
$CMLSCALE
 40
20.0
  9
$PROXYGRAPHICS
 70
     1
  9
$MEASUREMENT
 70
     1
  9
$CELWEIGHT
370
    30
  9
$ENDCAPS
280
     0
  9
$JOINSTYLE
280
     0
  9
$LWDISPLAY
290
     0
  9
$INSUNITS
 70
     0
  9
$HYPERLINKBASE
  1

  9
$STYLESHEET
  1

  9
$XEDIT
290
     0
  9
$CEPSNTYPE
380
     0
  9
$PSTYLEMODE
290
     1
  9
$FINGERPRINTGUID
  2
{1989D620-E742-11D2-9219-00105A146177}
  9
$VERSIONGUID
  2
{2A98C24B-8969-41AF-8DFB-CB904C63D2DD}
  9
$EXTNAMES
290
     1
  9
$PSVPSCALE
 40
0.0
  9
$OLESTARTUP
290
     0
  0
ENDSEC
  0
SECTION
  2
CLASSES
  0
CLASS
  1
ACDBDICTIONARYWDFLT
  2
AcDbDictionaryWithDefault
  3
ObjectDBX Classes
 90
        0
280
     0
281
     0
  0
CLASS
  1
ACDBPLACEHOLDER
  2
AcDbPlaceHolder
  3
ObjectDBX Classes
 90
        0
280
     0
281
     0
  0
CLASS
  1
LAYOUT
  2
AcDbLayout
  3
ObjectDBX Classes
 90
        0
280
     0
281
     0
  0
CLASS
  1
DICTIONARYVAR
  2
AcDbDictionaryVar
  3
ObjectDBX Classes
 90
        0
280
     0
281
     0
  0
CLASS
  1
TABLESTYLE
  2
AcDbTableStyle
  3
ObjectDBX Classes
 90
     2047
280
     0
281
     0
  0
ENDSEC
  0
SECTION
  2
TABLES
  0
TABLE
  2
VPORT
  5
8
330
0
100
AcDbSymbolTable
 70
     2
  0
VPORT
  5
97
330
8
100
AcDbSymbolTableRecord
100
AcDbViewportTableRecord
  2
*Active
 70
     0
 10
0.0
 20
0.0
 11
1.0
 21
1.0
 12
149.5535592402628
 22
104.5415512058444
 13
0.0
 23
0.0
 14
10.0
 24
10.0
 15
10.0
 25
10.0
 16
0.0
 26
0.0
 36
1.0
 17
0.0
 27
0.0
 37
0.0
 40
205.0420486072278
 41
2.133561643835616
 42
50.0
 43
0.0
 44
0.0
 50
0.0
 51
0.0
 71
    16
 72
 20000
 73
     1
 74
     1
 75
     0
 76
     0
 77
     0
 78
     0
281
     0
 65
     0
110
0.0
120
0.0
130
0.0
111
1.0
121
0.0
131
0.0
112
0.0
122
1.0
132
0.0
 79
     0
146
0.0
  0
ENDTAB
  0
TABLE
  2
LTYPE
  5
5
330
0
100
AcDbSymbolTable
 70
     6
  0
LTYPE
  5
14
330
5
100
AcDbSymbolTableRecord
100
AcDbLinetypeTableRecord
  2
ByBlock
 70
     0
  3

 72
    65
 73
     0
 40
0.0
  0
LTYPE
  5
15
330
5
100
AcDbSymbolTableRecord
100
AcDbLinetypeTableRecord
  2
ByLayer
 70
     0
  3

 72
    65
 73
     0
 40
0.0
  0
LTYPE
  5
16
330
5
100
AcDbSymbolTableRecord
100
AcDbLinetypeTableRecord
  2
Continuous
 70
     0
  3
Solid line
 72
    65
 73
     0
 40
0.0
  0
LTYPE
  5
AA1
330
5
100
AcDbSymbolTableRecord
100
AcDbLinetypeTableRecord
  2
CENTER
 70
     0
  3
Center ____ _ ____ _ ____ _ ____ _ ____ _ ____
 72
    65
 73
     4
 40
50.79999999999998
 49
31.75
 74
     4
 75
     0
340
0
 46
1.0
 50
0.0
 44
0.0
 45
0.0
 49
-6.349999999999998
 74
     4
 75
     0
340
0
 46
1.0
 50
0.0
 44
0.0
 45
0.0
 49
6.349999999999998
 74
     4
 75
     0
340
0
 46
1.0
 50
0.0
 44
0.0
 45
0.0
 49
-6.349999999999998
 74
     4
 75
     0
340
0
 46
1.0
 50
0.0
 44
0.0
 45
0.0
  0
LTYPE
  5
AA2
330
5
100
AcDbSymbolTableRecord
100
AcDbLinetypeTableRecord
  2
DASHED
 70
     0
  3
Dashed __ __ __ __ __ __ __ __ __ __ __ __ __ _
 72
    65
 73
     2
 40
19.05
 49
12.7
 74
     4
 75
     0
340
0
 46
1.0
 50
0.0
 44
0.0
 45
0.0
 49
-6.349999999999998
 74
     4
 75
     0
340
0
 46
1.0
 50
0.0
 44
0.0
 45
0.0
  0
LTYPE
  5
AA3
330
5
100
AcDbSymbolTableRecord
100
AcDbLinetypeTableRecord
  2
HIDDEN
 70
     0
  3
Hidden __ __ __ __ __ __ __ __ __ __ __ __ __ _
 72
    65
 73
     2
 40
9.524999999999995
 49
6.349999999999998
 74
     4
 75
     0
340
0
 46
1.0
 50
0.0
 44
0.0
 45
0.0
 49
-3.174999999999998
 74
     4
 75
     0
340
0
 46
1.0
 50
0.0
 44
0.0
 45
0.0
  0
LTYPE
  5
AA4
330
5
100
AcDbSymbolTableRecord
100
AcDbLinetypeTableRecord
  2
PHANTOM
 70
     0
  3
Phantom ______  __  __  ______  __  __  ______
 72
    65
 73
     6
 40
63.49999999999997
 49
31.75
 74
     4
 75
     0
340
0
 46
1.0
 50
0.0
 44
0.0
 45
0.0
 49
-6.349999999999998
 74
     4
 75
     0
340
0
 46
1.0
 50
0.0
 44
0.0
 45
0.0
 49
6.349999999999998
 74
     4
 75
     0
340
0
 46
1.0
 50
0.0
 44
0.0
 45
0.0
 49
-6.349999999999998
 74
     4
 75
     0
340
0
 46
1.0
 50
0.0
 44
0.0
 45
0.0
 49
6.349999999999998
 74
     4
 75
     0
340
0
 46
1.0
 50
0.0
 44
0.0
 45
0.0
 49
-6.349999999999998
 74
     4
 75
     0
340
0
 46
1.0
 50
0.0
 44
0.0
 45
0.0
  0
LTYPE
  5
AA5
330
5
100
AcDbSymbolTableRecord
100
AcDbLinetypeTableRecord
  2
RUPTURE
 70
     0
  3
Rupture line
 72
    65
 73
     4
 40
45.72
 49
25.4
 74
     4
 75
     0
340
0
 46
1.0
 50
0.0
 44
0.0
 45
0.0
 49
-5.08
 74
     4
 75
   131
340
11
 46
5.08
 50
0.0
 44
-5.08
 45
0.0
 49
-10.16
 74
     4
 75
   131
340
11
 46
5.08
 50
180.0
 44
5.08
 45
0.0
 49
-5.08
 74
     4
 75
     0
340
0
 46
1.0
 50
0.0
 44
0.0
 45
0.0
  0
ENDTAB
  0
TABLE
  2
LAYER
  5
2
330
0
100
AcDbSymbolTable
 70
    16
  0
LAYER
  5
10
330
2
100
AcDbSymbolTableRecord
100
AcDbLayerTableRecord
  2
0
 70
     0
 62
     7
  6
Continuous
370
    -3
390
F
  0
LAYER
  5
8B1
330
2
100
AcDbSymbolTableRecord
100
AcDbLayerTableRecord
  2
KCAD_DIMS
 70
     0
 62
   134
  6
Continuous
370
    15
390
F
  0
LAYER
  5
4F
330
2
100
AcDbSymbolTableRecord
100
AcDbLayerTableRecord
  2
DEFPOINTS
 70
     0
 62
     7
  6
Continuous
290
     0
370
    -3
390
F
  0
LAYER
  5
20B
330
2
100
AcDbSymbolTableRecord
100
AcDbLayerTableRecord
  2
KCAD_ASST
 70
     0
 62
   134
  6
Continuous
370
    15
390
F
  0
LAYER
  5
20C
330
2
100
AcDbSymbolTableRecord
100
AcDbLayerTableRecord
  2
KCAD_RASTER
 70
     0
 62
     7
  6
Continuous
370
    30
390
F
  0
LAYER
  5
20D
330
2
100
AcDbSymbolTableRecord
100
AcDbLayerTableRecord
  2
SYBCENTER
 70
     0
 62
   134
  6
CENTER
370
    15
390
F
  0
LAYER
  5
20E
330
2
100
AcDbSymbolTableRecord
100
AcDbLayerTableRecord
  2
SYBHIDE
 70
     0
 62
   134
  6
HIDDEN
370
    15
390
F
  0
LAYER
  5
20F
330
2
100
AcDbSymbolTableRecord
100
AcDbLayerTableRecord
  2
SYBOUTLINE
 70
     0
 62
     7
  6
Continuous
370
    30
390
F
  0
LAYER
  5
210
330
2
100
AcDbSymbolTableRecord
100
AcDbLayerTableRecord
  2
SYBTHREAD
 70
     0
 62
   134
  6
Continuous
370
    15
390
F
  0
LAYER
  5
211
330
2
100
AcDbSymbolTableRecord
100
AcDbLayerTableRecord
  2
SYBTHRHID
 70
     0
 62
   134
  6
HIDDEN
370
    15
390
F
  0
LAYER
  5
282
330
2
100
AcDbSymbolTableRecord
100
AcDbLayerTableRecord
  2
KCAD_UIR_TMP_LAYER_
 70
     0
 62
     7
  6
Continuous
370
    -3
390
F
  0
LAYER
  5
2A8
330
2
100
AcDbSymbolTableRecord
100
AcDbLayerTableRecord
  2
KCAD_CPM_MAX_LAYER
 70
     3
 62
     7
  6
Continuous
370
    -3
390
F
  0
LAYER
  5
2EF
330
2
100
AcDbSymbolTableRecord
100
AcDbLayerTableRecord
  2
2
 70
     0
 62
     7
  6
Continuous
370
    -3
390
F
  0
LAYER
  5
2F4
330
2
100
AcDbSymbolTableRecord
100
AcDbLayerTableRecord
  2
1
 70
     0
 62
     7
  6
Continuous
370
    -3
390
F
  0
LAYER
  5
33F
330
2
100
AcDbSymbolTableRecord
100
AcDbLayerTableRecord
  2
99
 70
     0
 62
     7
  6
Continuous
370
    -3
390
F
  0
LAYER
  5
344
330
2
100
AcDbSymbolTableRecord
100
AcDbLayerTableRecord
  2
3
 70
     0
 62
     7
  6
Continuous
370
    -3
390
F
  0
ENDTAB
  0
TABLE
  2
STYLE
  5
3
330
0
100
AcDbSymbolTable
 70
     5
  0
STYLE
  5
11
330
3
100
AcDbSymbolTableRecord
100
AcDbTextStyleTableRecord
  2
Standard
 70
     0
 40
0.0
 41
1.0
 50
0.0
 71
     0
 42
3.2
  3
txt.shx
  4
bigfont.shx
  0
STYLE
  5
17F
330
3
100
AcDbSymbolTableRecord
100
AcDbTextStyleTableRecord
  2

 70
     1
 40
0.0
 41
1.0
 50
0.0
 71
     0
 42
3.2
  3
ltypeshp.shx
  4

  0
STYLE
  5
189
330
3
100
AcDbSymbolTableRecord
100
AcDbTextStyleTableRecord
  2
KCADDIMSTANDARD
 70
     0
 40
0.0
 41
1.0
 50
0.0
 71
     0
 42
3.2
  3
txt.shx
  4
bigfont.shx
  0
STYLE
  5
18A
330
3
100
AcDbSymbolTableRecord
100
AcDbTextStyleTableRecord
  2
KCADTEXTSTANDARD
 70
     0
 40
0.0
 41
1.0
 50
0.0
 71
     0
 42
3.2
  3
txt.shx
  4
bigfont.shx
  0
STYLE
  5
1AD
330
3
100
AcDbSymbolTableRecord
100
AcDbTextStyleTableRecord
  2
KCADTEXT2
 70
     0
 40
0.0
 41
1.0
 50
0.0
 71
     0
 42
3.2
  3
txt.shx
  4
extfont.shx
  0
ENDTAB
  0
TABLE
  2
VIEW
  5
6
330
0
100
AcDbSymbolTable
 70
     0
  0
ENDTAB
  0
TABLE
  2
UCS
  5
7
330
0
100
AcDbSymbolTable
 70
     0
  0
ENDTAB
  0
TABLE
  2
APPID
  5
9
330
0
100
AcDbSymbolTable
 70
     3
  0
APPID
  5
12
330
9
100
AcDbSymbolTableRecord
100
AcDbRegAppTableRecord
  2
ACAD
 70
     0
  0
APPID
  5
A9F
330
9
100
AcDbSymbolTableRecord
100
AcDbRegAppTableRecord
  2
Sigma
 70
     0
  0
APPID
  5
AA0
330
9
100
AcDbSymbolTableRecord
100
AcDbRegAppTableRecord
  2
KCAD_DIM_EXT
 70
     0
  0
ENDTAB
  0
TABLE
  2
DIMSTYLE
  5
A
330
0
100
AcDbSymbolTable
 70
     1
100
AcDbDimStyleTable
  0
DIMSTYLE
105
27
102
{ACAD_REACTORS
330
427
330
463
330
49F
330
4DB
330
517
330
55D
330
5A3
330
5E1
330
61D
330
659
330
695
330
713
330
74F
330
794
102
}
330
A
100
AcDbSymbolTableRecord
100
AcDbDimStyleTableRecord
  2
Standard
 70
     0
340
11
  0
ENDTAB
  0
TABLE
  2
BLOCK_RECORD
  5
1
330
0
100
AcDbSymbolTable
 70
    62
  0
BLOCK_RECORD
  5
1F
330
1
100
AcDbSymbolTableRecord
100
AcDbBlockTableRecord
  2
*Model_Space
340
22
  0
BLOCK_RECORD
  5
73
330
1
100
AcDbSymbolTableRecord
100
AcDbBlockTableRecord
  2
*Paper_Space
340
22F
  0
BLOCK_RECORD
  5
8B2
330
1
100
AcDbSymbolTableRecord
100
AcDbBlockTableRecord
  2
KCAD_OPEN
340
0
  0
BLOCK_RECORD
  5
3C
330
1
100
AcDbSymbolTableRecord
100
AcDbBlockTableRecord
  2
KCAD_DOTSMALL
340
0
  0
BLOCK_RECORD
  5
44
330
1
100
AcDbSymbolTableRecord
100
AcDbBlockTableRecord
  2
KCAD_NONE
340
0
  0
BLOCK_RECORD
  5
FC
330
1
100
AcDbSymbolTableRecord
100
AcDbBlockTableRecord
  2
_CLOSED
340
0
  0
BLOCK_RECORD
  5
103
330
1
100
AcDbSymbolTableRecord
100
AcDbBlockTableRecord
  2
_DOT
340
0
  0
BLOCK_RECORD
  5
10B
330
1
100
AcDbSymbolTableRecord
100
AcDbBlockTableRecord
  2
_CLOSEDBLANK
340
0
  0
BLOCK_RECORD
  5
111
330
1
100
AcDbSymbolTableRecord
100
AcDbBlockTableRecord
  2
_OBLIQUE
340
0
  0
BLOCK_RECORD
  5
115
330
1
100
AcDbSymbolTableRecord
100
AcDbBlockTableRecord
  2
_ARCHTICK
340
0
  0
BLOCK_RECORD
  5
11C
330
1
100
AcDbSymbolTableRecord
100
AcDbBlockTableRecord
  2
_OPEN
340
0
  0
BLOCK_RECORD
  5
122
330
1
100
AcDbSymbolTableRecord
100
AcDbBlockTableRecord
  2
_ORIGIN
340
0
  0
BLOCK_RECORD
  5
127
330
1
100
AcDbSymbolTableRecord
100
AcDbBlockTableRecord
  2
_OPEN90
340
0
  0
BLOCK_RECORD
  5
12D
330
1
100
AcDbSymbolTableRecord
100
AcDbBlockTableRecord
  2
_OPEN30
340
0
102
{BLKREFS
331
45C
331
45D
331
498
331
499
331
4D4
331
4D5
331
510
331
511
331
556
331
557
331
592
331
593
331
5D8
331
5D9
331
616
331
617
331
652
331
653
331
68E
331
68F
331
6D4
331
6D5
331
70D
331
748
331
749
331
784
331
785
331
7C9
331
7CA
331
59D
331
7D4
102
}
  0
BLOCK_RECORD
  5
133
330
1
100
AcDbSymbolTableRecord
100
AcDbBlockTableRecord
  2
_DOTBLANK
340
0
  0
BLOCK_RECORD
  5
138
330
1
100
AcDbSymbolTableRecord
100
AcDbBlockTableRecord
  2
_DOTSMALL
340
0
  0
BLOCK_RECORD
  5
13F
330
1
100
AcDbSymbolTableRecord
100
AcDbBlockTableRecord
  2
_BOXFILLED
340
0
  0
BLOCK_RECORD
  5
144
330
1
100
AcDbSymbolTableRecord
100
AcDbBlockTableRecord
  2
_BOXBLANK
340
0
  0
BLOCK_RECORD
  5
14C
330
1
100
AcDbSymbolTableRecord
100
AcDbBlockTableRecord
  2
_DATUMFILLED
340
0
  0
BLOCK_RECORD
  5
150
330
1
100
AcDbSymbolTableRecord
100
AcDbBlockTableRecord
  2
_DATUMBLANK
340
0
  0
BLOCK_RECORD
  5
156
330
1
100
AcDbSymbolTableRecord
100
AcDbBlockTableRecord
  2
_INTEGRAL
340
0
  0
BLOCK_RECORD
  5
1F1
330
1
100
AcDbSymbolTableRecord
100
AcDbBlockTableRecord
  2
_Origin2
340
0
  0
BLOCK_RECORD
  5
1F7
330
1
100
AcDbSymbolTableRecord
100
AcDbBlockTableRecord
  2
KCAD_OPEN30
340
0
102
{BLKREFS
331
93D
331
93E
331
95F
331
961
331
96B
331
96D
331
977
331
979
102
}
  0
BLOCK_RECORD
  5
222
330
1
100
AcDbSymbolTableRecord
100
AcDbBlockTableRecord
  2
_None
340
0
  0
BLOCK_RECORD
  5
283
330
1
100
AcDbSymbolTableRecord
100
AcDbBlockTableRecord
  2
_Small
340
0
  0
BLOCK_RECORD
  5
287
330
1
100
AcDbSymbolTableRecord
100
AcDbBlockTableRecord
  2
KCAD_OPEN_2
340
0
  0
BLOCK_RECORD
  5
28E
330
1
100
AcDbSymbolTableRecord
100
AcDbBlockTableRecord
  2
KCAD_OPEN30_2
340
0
  0
BLOCK_RECORD
  5
2AD
330
1
100
AcDbSymbolTableRecord
100
AcDbBlockTableRecord
  2
KCAD_OPEN30ANG
340
0
  0
BLOCK_RECORD
  5
2B6
330
1
100
AcDbSymbolTableRecord
100
AcDbBlockTableRecord
  2
KCAD_DOTANG
340
0
  0
BLOCK_RECORD
  5
428
330
1
100
AcDbSymbolTableRecord
100
AcDbBlockTableRecord
  2
*D27
340
0
  0
BLOCK_RECORD
  5
464
330
1
100
AcDbSymbolTableRecord
100
AcDbBlockTableRecord
  2
*D28
340
0
  0
BLOCK_RECORD
  5
4A0
330
1
100
AcDbSymbolTableRecord
100
AcDbBlockTableRecord
  2
*D29
340
0
  0
BLOCK_RECORD
  5
4DC
330
1
100
AcDbSymbolTableRecord
100
AcDbBlockTableRecord
  2
*D30
340
0
  0
BLOCK_RECORD
  5
518
330
1
100
AcDbSymbolTableRecord
100
AcDbBlockTableRecord
  2
*D31
340
0
  0
BLOCK_RECORD
  5
55E
330
1
100
AcDbSymbolTableRecord
100
AcDbBlockTableRecord
  2
*D32
340
0
  0
BLOCK_RECORD
  5
5A4
330
1
100
AcDbSymbolTableRecord
100
AcDbBlockTableRecord
  2
*D33
340
0
  0
BLOCK_RECORD
  5
5E2
330
1
100
AcDbSymbolTableRecord
100
AcDbBlockTableRecord
  2
*D34
340
0
  0
BLOCK_RECORD
  5
61E
330
1
100
AcDbSymbolTableRecord
100
AcDbBlockTableRecord
  2
*D35
340
0
  0
BLOCK_RECORD
  5
65A
330
1
100
AcDbSymbolTableRecord
100
AcDbBlockTableRecord
  2
*D36
340
0
  0
BLOCK_RECORD
  5
696
330
1
100
AcDbSymbolTableRecord
100
AcDbBlockTableRecord
  2
*D37
340
0
  0
BLOCK_RECORD
  5
6DE
330
1
100
AcDbSymbolTableRecord
100
AcDbBlockTableRecord
  2
*D38
340
0
  0
BLOCK_RECORD
  5
714
330
1
100
AcDbSymbolTableRecord
100
AcDbBlockTableRecord
  2
*D39
340
0
  0
BLOCK_RECORD
  5
750
330
1
100
AcDbSymbolTableRecord
100
AcDbBlockTableRecord
  2
*D40
340
0
  0
BLOCK_RECORD
  5
795
330
1
100
AcDbSymbolTableRecord
100
AcDbBlockTableRecord
  2
*D41
340
0
  0
BLOCK_RECORD
  5
7FF
330
1
100
AcDbSymbolTableRecord
100
AcDbBlockTableRecord
  2
*D42
340
0
  0
BLOCK_RECORD
  5
80B
330
1
100
AcDbSymbolTableRecord
100
AcDbBlockTableRecord
  2
*D43
340
0
  0
BLOCK_RECORD
  5
817
330
1
100
AcDbSymbolTableRecord
100
AcDbBlockTableRecord
  2
*D44
340
0
  0
BLOCK_RECORD
  5
823
330
1
100
AcDbSymbolTableRecord
100
AcDbBlockTableRecord
  2
*D45
340
0
  0
BLOCK_RECORD
  5
830
330
1
100
AcDbSymbolTableRecord
100
AcDbBlockTableRecord
  2
*D46
340
0
  0
BLOCK_RECORD
  5
83C
330
1
100
AcDbSymbolTableRecord
100
AcDbBlockTableRecord
  2
*D47
340
0
  0
BLOCK_RECORD
  5
848
330
1
100
AcDbSymbolTableRecord
100
AcDbBlockTableRecord
  2
*D48
340
0
  0
BLOCK_RECORD
  5
854
330
1
100
AcDbSymbolTableRecord
100
AcDbBlockTableRecord
  2
*D49
340
0
  0
BLOCK_RECORD
  5
860
330
1
100
AcDbSymbolTableRecord
100
AcDbBlockTableRecord
  2
*D50
340
0
  0
BLOCK_RECORD
  5
86C
330
1
100
AcDbSymbolTableRecord
100
AcDbBlockTableRecord
  2
*D51
340
0
  0
BLOCK_RECORD
  5
879
330
1
100
AcDbSymbolTableRecord
100
AcDbBlockTableRecord
  2
*D52
340
0
  0
BLOCK_RECORD
  5
884
330
1
100
AcDbSymbolTableRecord
100
AcDbBlockTableRecord
  2
*D53
340
0
  0
BLOCK_RECORD
  5
890
330
1
100
AcDbSymbolTableRecord
100
AcDbBlockTableRecord
  2
*D54
340
0
  0
BLOCK_RECORD
  5
89C
330
1
100
AcDbSymbolTableRecord
100
AcDbBlockTableRecord
  2
*D55
340
0
  0
BLOCK_RECORD
  5
8A8
330
1
100
AcDbSymbolTableRecord
100
AcDbBlockTableRecord
  2
*D56
340
0
  0
BLOCK_RECORD
  5
935
330
1
100
AcDbSymbolTableRecord
100
AcDbBlockTableRecord
  2
*D57
340
0
  0
BLOCK_RECORD
  5
941
330
1
100
AcDbSymbolTableRecord
100
AcDbBlockTableRecord
  2
*D58
340
0
  0
BLOCK_RECORD
  5
964
330
1
100
AcDbSymbolTableRecord
100
AcDbBlockTableRecord
  2
*D59
340
0
  0
BLOCK_RECORD
  5
971
330
1
100
AcDbSymbolTableRecord
100
AcDbBlockTableRecord
  2
*D60
340
0
  0
BLOCK_RECORD
  5
987
330
1
100
AcDbSymbolTableRecord
100
AcDbBlockTableRecord
  2
*D61
340
0
  0
ENDTAB
  0
ENDSEC
  0
SECTION
  2
BLOCKS
  0
BLOCK
  5
20
330
1F
100
AcDbEntity
  8
0
100
AcDbBlockBegin
  2
*Model_Space
 70
     0
 71
     0
 10
0.0
 20
0.0
 30
0.0
  3
*Model_Space
  1

  0
ENDBLK
  5
21
330
1F
100
AcDbEntity
  8
0
100
AcDbBlockEnd
  0
BLOCK
  5
75
330
73
100
AcDbEntity
 67
     1
  8
0
100
AcDbBlockBegin
  2
*Paper_Space
 70
     0
 71
     0
 10
0.0
 20
0.0
 30
0.0
  3
*Paper_Space
  1

  0
ENDBLK
  5
76
330
73
100
AcDbEntity
 67
     1
  8
0
100
AcDbBlockEnd
  0
BLOCK
  5
AA8
330
8B2
100
AcDbEntity
  8
KCAD_DIMS
100
AcDbBlockBegin
  2
KCAD_OPEN
 70
     0
 71
     0
 10
0.0
 20
0.0
 30
0.0
  3
KCAD_OPEN
  1

  0
LINE
  5
925
330
8B2
100
AcDbEntity
  8
0
  6
Continuous
 62
     0
370
    -2
100
AcDbLine
 10
0.0
 20
0.0
 30
0.0
 11
-1.0
 21
0.0
 31
0.0
  0
LINE
  5
23
330
8B2
100
AcDbEntity
  8
0
  6
Continuous
 62
     0
370
    -2
100
AcDbLine
 10
0.0
 20
0.0
 30
0.0
 11
-1.0
 21
0.158384
 31
0.0
  0
LINE
  5
24
330
8B2
100
AcDbEntity
  8
0
  6
Continuous
 62
     0
370
    -2
100
AcDbLine
 10
0.0
 20
0.0
 30
0.0
 11
-1.0
 21
-0.158384
 31
0.0
  0
ENDBLK
  5
AA9
330
8B2
100
AcDbEntity
  8
KCAD_DIMS
100
AcDbBlockEnd
  0
BLOCK
  5
AAA
330
3C
100
AcDbEntity
  8
KCAD_DIMS
100
AcDbBlockBegin
  2
KCAD_DOTSMALL
 70
     0
 71
     0
 10
0.0
 20
0.0
 30
0.0
  3
KCAD_DOTSMALL
  1

  0
LWPOLYLINE
  5
3D
330
3C
100
AcDbEntity
  8
KCAD_DIMS
 62
     0
100
AcDbPolyline
 90
        2
 70
     1
 43
0.5
 10
0.06252
 20
0.0
 42
1.0
 10
-0.06262
 20
0.0
 42
1.0
  0
LINE
  5
41
330
3C
100
AcDbEntity
  8
0
  6
Continuous
 62
     0
370
    -2
100
AcDbLine
 10
0.0
 20
0.0
 30
0.0
 11
-1.0
 21
0.0
 31
0.0
  0
ENDBLK
  5
AAB
330
3C
100
AcDbEntity
  8
0
100
AcDbBlockEnd
  0
BLOCK
  5
AAC
330
44
100
AcDbEntity
  8
KCAD_DIMS
100
AcDbBlockBegin
  2
KCAD_NONE
 70
     0
 71
     0
 10
0.0
 20
0.0
 30
0.0
  3
KCAD_NONE
  1

  0
LINE
  5
45
330
44
100
AcDbEntity
  8
0
  6
Continuous
 62
     0
370
    -2
100
AcDbLine
 10
0.0
 20
0.0
 30
0.0
 11
-1.0
 21
0.0
 31
0.0
  0
ENDBLK
  5
AAD
330
44
100
AcDbEntity
  8
0
100
AcDbBlockEnd
  0
BLOCK
  5
AAE
330
FC
100
AcDbEntity
  8
0
100
AcDbBlockBegin
  2
_CLOSED
 70
     0
 71
     0
 10
0.0
 20
0.0
 30
0.0
  3
_CLOSED
  1

  0
LINE
  5
FE
330
FC
100
AcDbEntity
  8
0
  6
Continuous
 62
     0
370
    -2
100
AcDbLine
 10
-1.0
 20
0.166667
 30
0.0
 11
0.0
 21
0.0
 31
0.0
  0
LINE
  5
FF
330
FC
100
AcDbEntity
  8
0
  6
Continuous
 62
     0
370
    -2
100
AcDbLine
 10
0.0
 20
0.0
 30
0.0
 11
-1.0
 21
-0.166667
 31
0.0
  0
LINE
  5
100
330
FC
100
AcDbEntity
  8
0
  6
Continuous
 62
     0
370
    -2
100
AcDbLine
 10
-1.0
 20
0.166667
 30
0.0
 11
-1.0
 21
-0.166667
 31
0.0
  0
LINE
  5
101
330
FC
100
AcDbEntity
  8
0
  6
Continuous
 62
     0
370
    -2
100
AcDbLine
 10
0.0
 20
0.0
 30
0.0
 11
-1.0
 21
0.0
 31
0.0
  0
ENDBLK
  5
AAF
330
FC
100
AcDbEntity
  8
0
100
AcDbBlockEnd
  0
BLOCK
  5
AB0
330
103
100
AcDbEntity
  8
0
100
AcDbBlockBegin
  2
_DOT
 70
     0
 71
     0
 10
0.0
 20
0.0
 30
0.0
  3
_DOT
  1

  0
LWPOLYLINE
  5
105
330
103
100
AcDbEntity
  8
0
  6
ByBlock
 62
     0
100
AcDbPolyline
 90
        2
 70
     1
 43
0.5
 10
-0.25
 20
0.0
 42
1.0
 10
0.25
 20
0.0
 42
1.0
  0
LINE
  5
109
330
103
100
AcDbEntity
  8
0
  6
Continuous
 62
     0
370
    -2
100
AcDbLine
 10
-0.5
 20
0.0
 30
0.0
 11
-1.0
 21
0.0
 31
0.0
  0
ENDBLK
  5
AB1
330
103
100
AcDbEntity
  8
0
100
AcDbBlockEnd
  0
BLOCK
  5
AB2
330
10B
100
AcDbEntity
  8
0
100
AcDbBlockBegin
  2
_CLOSEDBLANK
 70
     0
 71
     0
 10
0.0
 20
0.0
 30
0.0
  3
_CLOSEDBLANK
  1

  0
LINE
  5
10D
330
10B
100
AcDbEntity
  8
0
  6
Continuous
 62
     0
370
    -2
100
AcDbLine
 10
-1.0
 20
0.166667
 30
0.0
 11
0.0
 21
0.0
 31
0.0
  0
LINE
  5
10E
330
10B
100
AcDbEntity
  8
0
  6
Continuous
 62
     0
370
    -2
100
AcDbLine
 10
0.0
 20
0.0
 30
0.0
 11
-1.0
 21
-0.166667
 31
0.0
  0
LINE
  5
10F
330
10B
100
AcDbEntity
  8
0
  6
Continuous
 62
     0
370
    -2
100
AcDbLine
 10
-1.0
 20
0.166667
 30
0.0
 11
-1.0
 21
-0.166667
 31
0.0
  0
ENDBLK
  5
AB3
330
10B
100
AcDbEntity
  8
0
100
AcDbBlockEnd
  0
BLOCK
  5
AB4
330
111
100
AcDbEntity
  8
0
100
AcDbBlockBegin
  2
_OBLIQUE
 70
     0
 71
     0
 10
0.0
 20
0.0
 30
0.0
  3
_OBLIQUE
  1

  0
LINE
  5
113
330
111
100
AcDbEntity
  8
0
  6
Continuous
 62
     0
370
    -2
100
AcDbLine
 10
-0.5
 20
-0.5
 30
0.0
 11
0.5
 21
0.5
 31
0.0
  0
ENDBLK
  5
AB5
330
111
100
AcDbEntity
  8
0
100
AcDbBlockEnd
  0
BLOCK
  5
AB6
330
115
100
AcDbEntity
  8
0
100
AcDbBlockBegin
  2
_ARCHTICK
 70
     0
 71
     0
 10
0.0
 20
0.0
 30
0.0
  3
_ARCHTICK
  1

  0
LWPOLYLINE
  5
117
330
115
100
AcDbEntity
  8
0
  6
ByBlock
 62
     0
100
AcDbPolyline
 90
        2
 70
     0
 43
0.15
 10
-0.5
 20
-0.5
 10
0.5
 20
0.5
  0
ENDBLK
  5
AB7
330
115
100
AcDbEntity
  8
0
100
AcDbBlockEnd
  0
BLOCK
  5
AB8
330
11C
100
AcDbEntity
  8
0
100
AcDbBlockBegin
  2
_OPEN
 70
     0
 71
     0
 10
0.0
 20
0.0
 30
0.0
  3
_OPEN
  1

  0
LINE
  5
11E
330
11C
100
AcDbEntity
  8
0
  6
Continuous
 62
     0
370
    -2
100
AcDbLine
 10
-1.0
 20
0.166667
 30
0.0
 11
0.0
 21
0.0
 31
0.0
  0
LINE
  5
11F
330
11C
100
AcDbEntity
  8
0
  6
Continuous
 62
     0
370
    -2
100
AcDbLine
 10
0.0
 20
0.0
 30
0.0
 11
-1.0
 21
-0.166667
 31
0.0
  0
LINE
  5
120
330
11C
100
AcDbEntity
  8
0
  6
Continuous
 62
     0
370
    -2
100
AcDbLine
 10
0.0
 20
0.0
 30
0.0
 11
-1.0
 21
0.0
 31
0.0
  0
ENDBLK
  5
AB9
330
11C
100
AcDbEntity
  8
0
100
AcDbBlockEnd
  0
BLOCK
  5
ABA
330
122
100
AcDbEntity
  8
0
100
AcDbBlockBegin
  2
_ORIGIN
 70
     0
 71
     0
 10
0.0
 20
0.0
 30
0.0
  3
_ORIGIN
  1

  0
CIRCLE
  5
124
330
122
100
AcDbEntity
  8
0
  6
ByBlock
 62
     0
100
AcDbCircle
 10
0.0
 20
0.0
 30
0.0
 40
0.5
  0
LINE
  5
125
330
122
100
AcDbEntity
  8
0
  6
Continuous
 62
     0
370
    -2
100
AcDbLine
 10
0.0
 20
0.0
 30
0.0
 11
-1.0
 21
0.0
 31
0.0
  0
ENDBLK
  5
ABB
330
122
100
AcDbEntity
  8
0
100
AcDbBlockEnd
  0
BLOCK
  5
ABC
330
127
100
AcDbEntity
  8
0
100
AcDbBlockBegin
  2
_OPEN90
 70
     0
 71
     0
 10
0.0
 20
0.0
 30
0.0
  3
_OPEN90
  1

  0
LINE
  5
129
330
127
100
AcDbEntity
  8
0
  6
Continuous
 62
     0
370
    -2
100
AcDbLine
 10
-0.5
 20
0.5
 30
0.0
 11
0.0
 21
0.0
 31
0.0
  0
LINE
  5
12A
330
127
100
AcDbEntity
  8
0
  6
Continuous
 62
     0
370
    -2
100
AcDbLine
 10
0.0
 20
0.0
 30
0.0
 11
-0.5
 21
-0.5
 31
0.0
  0
LINE
  5
12B
330
127
100
AcDbEntity
  8
0
  6
Continuous
 62
     0
370
    -2
100
AcDbLine
 10
0.0
 20
0.0
 30
0.0
 11
-1.0
 21
0.0
 31
0.0
  0
ENDBLK
  5
ABD
330
127
100
AcDbEntity
  8
0
100
AcDbBlockEnd
  0
BLOCK
  5
ABE
330
12D
100
AcDbEntity
  8
0
100
AcDbBlockBegin
  2
_OPEN30
 70
     0
 71
     0
 10
0.0
 20
0.0
 30
0.0
  3
_OPEN30
  1

  0
LINE
  5
12F
330
12D
100
AcDbEntity
  8
0
  6
Continuous
 62
     0
370
    -2
100
AcDbLine
 10
-1.0
 20
0.267949
 30
0.0
 11
0.0
 21
0.0
 31
0.0
  0
LINE
  5
130
330
12D
100
AcDbEntity
  8
0
  6
Continuous
 62
     0
370
    -2
100
AcDbLine
 10
0.0
 20
0.0
 30
0.0
 11
-1.0
 21
-0.267949
 31
0.0
  0
LINE
  5
131
330
12D
100
AcDbEntity
  8
0
  6
Continuous
 62
     0
370
    -2
100
AcDbLine
 10
0.0
 20
0.0
 30
0.0
 11
-1.0
 21
0.0
 31
0.0
  0
ENDBLK
  5
ABF
330
12D
100
AcDbEntity
  8
0
100
AcDbBlockEnd
  0
BLOCK
  5
AC0
330
133
100
AcDbEntity
  8
0
100
AcDbBlockBegin
  2
_DOTBLANK
 70
     0
 71
     0
 10
0.0
 20
0.0
 30
0.0
  3
_DOTBLANK
  1

  0
CIRCLE
  5
135
330
133
100
AcDbEntity
  8
0
  6
ByBlock
 62
     0
100
AcDbCircle
 10
0.0
 20
0.0
 30
0.0
 40
0.5
  0
LINE
  5
136
330
133
100
AcDbEntity
  8
0
  6
Continuous
 62
     0
370
    -2
100
AcDbLine
 10
-0.5
 20
0.0
 30
0.0
 11
-1.0
 21
0.0
 31
0.0
  0
ENDBLK
  5
AC1
330
133
100
AcDbEntity
  8
0
100
AcDbBlockEnd
  0
BLOCK
  5
AC2
330
138
100
AcDbEntity
  8
0
100
AcDbBlockBegin
  2
_DOTSMALL
 70
     0
 71
     0
 10
0.0
 20
0.0
 30
0.0
  3
_DOTSMALL
  1

  0
LWPOLYLINE
  5
13A
330
138
100
AcDbEntity
  8
0
  6
ByBlock
 62
     0
100
AcDbPolyline
 90
        2
 70
     1
 43
0.5
 10
-0.0625
 20
0.0
 42
1.0
 10
0.0625
 20
0.0
 42
1.0
  0
ENDBLK
  5
AC3
330
138
100
AcDbEntity
  8
0
100
AcDbBlockEnd
  0
BLOCK
  5
AC4
330
13F
100
AcDbEntity
  8
0
100
AcDbBlockBegin
  2
_BOXFILLED
 70
     0
 71
     0
 10
0.0
 20
0.0
 30
0.0
  3
_BOXFILLED
  1

  0
SOLID
  5
141
330
13F
100
AcDbEntity
  8
0
  6
ByBlock
 62
     0
100
AcDbTrace
 10
-0.5
 20
0.5
 30
0.0
 11
0.5
 21
0.5
 31
0.0
 12
-0.5
 22
-0.5
 32
0.0
 13
0.5
 23
-0.5
 33
0.0
  0
LINE
  5
142
330
13F
100
AcDbEntity
  8
0
  6
Continuous
 62
     0
370
    -2
100
AcDbLine
 10
-0.5
 20
0.0
 30
0.0
 11
-1.0
 21
0.0
 31
0.0
  0
ENDBLK
  5
AC5
330
13F
100
AcDbEntity
  8
0
100
AcDbBlockEnd
  0
BLOCK
  5
AC6
330
144
100
AcDbEntity
  8
0
100
AcDbBlockBegin
  2
_BOXBLANK
 70
     0
 71
     0
 10
0.0
 20
0.0
 30
0.0
  3
_BOXBLANK
  1

  0
LINE
  5
146
330
144
100
AcDbEntity
  8
0
  6
Continuous
 62
     0
370
    -2
100
AcDbLine
 10
-0.5
 20
-0.5
 30
0.0
 11
0.5
 21
-0.5
 31
0.0
  0
LINE
  5
147
330
144
100
AcDbEntity
  8
0
  6
Continuous
 62
     0
370
    -2
100
AcDbLine
 10
0.5
 20
-0.5
 30
0.0
 11
0.5
 21
0.5
 31
0.0
  0
LINE
  5
148
330
144
100
AcDbEntity
  8
0
  6
Continuous
 62
     0
370
    -2
100
AcDbLine
 10
0.5
 20
0.5
 30
0.0
 11
-0.5
 21
0.5
 31
0.0
  0
LINE
  5
149
330
144
100
AcDbEntity
  8
0
  6
Continuous
 62
     0
370
    -2
100
AcDbLine
 10
-0.5
 20
0.5
 30
0.0
 11
-0.5
 21
-0.5
 31
0.0
  0
LINE
  5
14A
330
144
100
AcDbEntity
  8
0
  6
Continuous
 62
     0
370
    -2
100
AcDbLine
 10
-0.5
 20
0.0
 30
0.0
 11
-1.0
 21
0.0
 31
0.0
  0
ENDBLK
  5
AC7
330
144
100
AcDbEntity
  8
0
100
AcDbBlockEnd
  0
BLOCK
  5
AC8
330
14C
100
AcDbEntity
  8
0
100
AcDbBlockBegin
  2
_DATUMFILLED
 70
     0
 71
     0
 10
0.0
 20
0.0
 30
0.0
  3
_DATUMFILLED
  1

  0
SOLID
  5
14E
330
14C
100
AcDbEntity
  8
0
  6
ByBlock
 62
     0
100
AcDbTrace
 10
0.0
 20
0.5773500000000003
 30
0.0
 11
-1.0
 21
0.0
 31
0.0
 12
0.0
 22
-0.5773500000000003
 32
0.0
 13
0.0
 23
-0.5773500000000003
 33
0.0
  0
ENDBLK
  5
AC9
330
14C
100
AcDbEntity
  8
0
100
AcDbBlockEnd
  0
BLOCK
  5
ACA
330
150
100
AcDbEntity
  8
0
100
AcDbBlockBegin
  2
_DATUMBLANK
 70
     0
 71
     0
 10
0.0
 20
0.0
 30
0.0
  3
_DATUMBLANK
  1

  0
LINE
  5
152
330
150
100
AcDbEntity
  8
0
  6
Continuous
 62
     0
370
    -2
100
AcDbLine
 10
0.0
 20
0.5773500000000003
 30
0.0
 11
-1.0
 21
0.0
 31
0.0
  0
LINE
  5
153
330
150
100
AcDbEntity
  8
0
  6
Continuous
 62
     0
370
    -2
100
AcDbLine
 10
-1.0
 20
0.0
 30
0.0
 11
0.0
 21
-0.5773500000000003
 31
0.0
  0
LINE
  5
154
330
150
100
AcDbEntity
  8
0
  6
Continuous
 62
     0
370
    -2
100
AcDbLine
 10
0.0
 20
-0.5773500000000003
 30
0.0
 11
0.0
 21
0.5773500000000003
 31
0.0
  0
ENDBLK
  5
ACB
330
150
100
AcDbEntity
  8
0
100
AcDbBlockEnd
  0
BLOCK
  5
ACC
330
156
100
AcDbEntity
  8
0
100
AcDbBlockBegin
  2
_INTEGRAL
 70
     0
 71
     0
 10
0.0
 20
0.0
 30
0.0
  3
_INTEGRAL
  1

  0
ARC
  5
158
330
156
100
AcDbEntity
  8
0
  6
ByBlock
 62
     0
100
AcDbCircle
 10
0.444888
 20
-0.091335
 30
0.0
 40
0.454167
100
AcDbArc
 50
102.0
 51
168.0
  0
ARC
  5
159
330
156
100
AcDbEntity
  8
0
  6
ByBlock
 62
     0
100
AcDbCircle
 10
-0.444888
 20
0.091335
 30
0.0
 40
0.454167
100
AcDbArc
 50
282.0
 51
348.0
  0
ENDBLK
  5
ACD
330
156
100
AcDbEntity
  8
0
100
AcDbBlockEnd
  0
BLOCK
  5
ACE
330
1F1
100
AcDbEntity
  8
0
100
AcDbBlockBegin
  2
_Origin2
 70
     0
 71
     0
 10
0.0
 20
0.0
 30
0.0
  3
_Origin2
  1

  0
CIRCLE
  5
1F2
330
1F1
100
AcDbEntity
  8
0
  6
Continuous
 62
     0
370
    -2
100
AcDbCircle
 10
0.0
 20
0.0
 30
0.0
 40
0.5
  0
CIRCLE
  5
1F3
330
1F1
100
AcDbEntity
  8
0
  6
Continuous
 62
     0
370
    -2
100
AcDbCircle
 10
0.0
 20
0.0
 30
0.0
 40
0.25
  0
LINE
  5
1F4
330
1F1
100
AcDbEntity
  8
0
  6
Continuous
 62
     0
370
    -2
100
AcDbLine
 10
-0.5
 20
0.0
 30
0.0
 11
-1.0
 21
0.0
 31
0.0
  0
ENDBLK
  5
ACF
330
1F1
100
AcDbEntity
  8
0
100
AcDbBlockEnd
  0
BLOCK
  5
AD0
330
1F7
100
AcDbEntity
  8
0
100
AcDbBlockBegin
  2
KCAD_OPEN30
 70
     0
 71
     0
 10
0.0
 20
0.0
 30
0.0
  3
KCAD_OPEN30
  1

  0
LINE
  5
1F8
330
1F7
100
AcDbEntity
  8
0
  6
Continuous
 62
     0
370
    -2
100
AcDbLine
 10
0.0
 20
0.0
 30
0.0
 11
-1.0
 21
0.0
 31
0.0
  0
LINE
  5
1F9
330
1F7
100
AcDbEntity
  8
0
  6
Continuous
 62
     0
370
    -2
100
AcDbLine
 10
0.0
 20
0.0
 30
0.0
 11
-1.0
 21
0.2679491924311227
 31
0.0
  0
LINE
  5
1FA
330
1F7
100
AcDbEntity
  8
0
  6
Continuous
 62
     0
370
    -2
100
AcDbLine
 10
0.0
 20
0.0
 30
0.0
 11
-1.0
 21
-0.2679491924311227
 31
0.0
  0
ENDBLK
  5
AD1
330
1F7
100
AcDbEntity
  8
0
100
AcDbBlockEnd
  0
BLOCK
  5
AD2
330
222
100
AcDbEntity
  8
0
100
AcDbBlockBegin
  2
_None
 70
     0
 71
     0
 10
0.0
 20
0.0
 30
0.0
  3
_None
  1

  0
ENDBLK
  5
AD3
330
222
100
AcDbEntity
  8
0
100
AcDbBlockEnd
  0
BLOCK
  5
AD4
330
283
100
AcDbEntity
  8
0
100
AcDbBlockBegin
  2
_Small
 70
     0
 71
     0
 10
0.0
 20
0.0
 30
0.0
  3
_Small
  1

  0
CIRCLE
  5
284
330
283
100
AcDbEntity
  8
0
  6
ByBlock
 62
     0
370
    -2
100
AcDbCircle
 10
0.0
 20
0.0
 30
0.0
 40
0.25
  0
ENDBLK
  5
AD5
330
283
100
AcDbEntity
  8
0
100
AcDbBlockEnd
  0
BLOCK
  5
AD6
330
287
100
AcDbEntity
  8
0
100
AcDbBlockBegin
  2
KCAD_OPEN_2
 70
     0
 71
     0
 10
0.0
 20
0.0
 30
0.0
  3
KCAD_OPEN_2
  1

  0
LINE
  5
288
330
287
100
AcDbEntity
  8
0
  6
Continuous
 62
     0
370
    -2
100
AcDbLine
 10
0.0
 20
0.0
 30
0.0
 11
-2.0
 21
0.0
 31
0.0
  0
LINE
  5
289
330
287
100
AcDbEntity
  8
0
  6
Continuous
 62
     0
370
    -2
100
AcDbLine
 10
0.0
 20
0.0
 30
0.0
 11
-2.0
 21
0.3167688806490725
 31
0.0
  0
LINE
  5
28A
330
287
100
AcDbEntity
  8
0
  6
Continuous
 62
     0
370
    -2
100
AcDbLine
 10
0.0
 20
0.0
 30
0.0
 11
-2.0
 21
-0.3167688806490725
 31
0.0
  0
LINE
  5
28B
330
287
100
AcDbEntity
  8
0
  6
Continuous
 62
     0
370
    -2
100
AcDbLine
 10
-2.0
 20
0.0
 30
0.0
 11
-4.0
 21
0.0
 31
0.0
  0
ENDBLK
  5
AD7
330
287
100
AcDbEntity
  8
0
100
AcDbBlockEnd
  0
BLOCK
  5
AD8
330
28E
100
AcDbEntity
  8
0
100
AcDbBlockBegin
  2
KCAD_OPEN30_2
 70
     0
 71
     0
 10
0.0
 20
0.0
 30
0.0
  3
KCAD_OPEN30_2
  1

  0
LINE
  5
28F
330
28E
100
AcDbEntity
  8
0
  6
Continuous
 62
     0
370
    -2
100
AcDbLine
 10
0.0
 20
0.0
 30
0.0
 11
-2.0
 21
0.0
 31
0.0
  0
LINE
  5
290
330
28E
100
AcDbEntity
  8
0
  6
Continuous
 62
     0
370
    -2
100
AcDbLine
 10
0.0
 20
0.0
 30
0.0
 11
-2.0
 21
0.5358983848622456
 31
0.0
  0
LINE
  5
291
330
28E
100
AcDbEntity
  8
0
  6
Continuous
 62
     0
370
    -2
100
AcDbLine
 10
0.0
 20
0.0
 30
0.0
 11
-2.0
 21
-0.5358983848622456
 31
0.0
  0
LINE
  5
292
330
28E
100
AcDbEntity
  8
0
  6
Continuous
 62
     0
370
    -2
100
AcDbLine
 10
-2.0
 20
0.0
 30
0.0
 11
-4.0
 21
0.0
 31
0.0
  0
ENDBLK
  5
AD9
330
28E
100
AcDbEntity
  8
0
100
AcDbBlockEnd
  0
BLOCK
  5
ADA
330
2AD
100
AcDbEntity
  8
0
100
AcDbBlockBegin
  2
KCAD_OPEN30ANG
 70
     0
 71
     0
 10
0.0
 20
0.0
 30
0.0
  3
KCAD_OPEN30ANG
  1

  0
LINE
  5
2D7
330
2AD
100
AcDbEntity
  8
0
  6
Continuous
 62
     0
370
    -2
100
AcDbLine
 10
0.0
 20
0.0
 30
0.0
 11
-1.0
 21
-0.267949
 31
0.0
  0
LINE
  5
2D8
330
2AD
100
AcDbEntity
  8
0
  6
Continuous
 62
     0
370
    -2
100
AcDbLine
 10
-1.0
 20
0.267949
 30
0.0
 11
0.0
 21
0.0
 31
0.0
  0
ENDBLK
  5
ADB
330
2AD
100
AcDbEntity
  8
0
100
AcDbBlockEnd
  0
BLOCK
  5
ADC
330
2B6
100
AcDbEntity
  8
0
100
AcDbBlockBegin
  2
KCAD_DOTANG
 70
     0
 71
     0
 10
0.0
 20
0.0
 30
0.0
  3
KCAD_DOTANG
  1

  0
LWPOLYLINE
  5
2DD
330
2B6
100
AcDbEntity
  8
0
  6
ByBlock
 62
     0
100
AcDbPolyline
 90
        2
 70
     1
 43
0.5
 10
-0.25
 20
0.0
 42
1.0
 10
0.25
 20
0.0
 42
1.0
  0
ENDBLK
  5
ADD
330
2B6
100
AcDbEntity
  8
0
100
AcDbBlockEnd
  0
BLOCK
  5
ADE
330
428
100
AcDbEntity
  8
0
100
AcDbBlockBegin
  2
*D27
 70
     1
 71
     0
 10
0.0
 20
0.0
 30
0.0
  3
*D27
  1

  0
LINE
  5
45A
330
428
100
AcDbEntity
  8
KCAD_DIMS
 62
     0
370
    -2
100
AcDbLine
 10
111.7451215846337
 20
168.5531914893615
 30
0.0
 11
111.7451215846337
 21
140.3430851063816
 31
0.0
  0
LINE
  5
45B
330
428
100
AcDbEntity
  8
KCAD_DIMS
 62
     0
370
    -2
100
AcDbLine
 10
195.5951215846339
 20
168.5531914893615
 30
0.0
 11
195.5951215846339
 21
140.3430851063824
 31
0.0
  0
INSERT
  5
45C
330
428
100
AcDbEntity
  8
KCAD_DIMS
 62
     0
370
    -2
100
AcDbBlockReference
  2
_OPEN30
 10
111.7451215846337
 20
167.5531914893617
 30
0.0
 41
2.5
 42
2.5
 43
2.5
 50
180.0
  0
INSERT
  5
45D
330
428
100
AcDbEntity
  8
KCAD_DIMS
 62
     0
370
    -2
100
AcDbBlockReference
  2
_OPEN30
 10
195.5951215846339
 20
167.5531914893617
 30
0.0
 41
2.5
 42
2.5
 43
2.5
  0
LINE
  5
45E
330
428
100
AcDbEntity
  8
KCAD_DIMS
 62
     0
370
    -2
100
AcDbLine
 10
114.2451215846338
 20
167.5531914893617
 30
0.0
 11
193.0951215846339
 21
167.5531914893617
 31
0.0
  0
POINT
  5
45F
330
428
100
AcDbEntity
  8
DEFPOINTS
 62
     0
370
    15
100
AcDbPoint
 10
111.7451215846337
 20
139.3430851063818
 30
0.0
  0
POINT
  5
460
330
428
100
AcDbEntity
  8
DEFPOINTS
 62
     0
370
    15
100
AcDbPoint
 10
195.5951215846339
 20
139.3430851063824
 30
0.0
  0
POINT
  5
461
330
428
100
AcDbEntity
  8
DEFPOINTS
 62
     0
370
    15
100
AcDbPoint
 10
195.5951215846339
 20
167.5531914893617
 30
0.0
  0
MTEXT
  5
462
330
428
100
AcDbEntity
  8
KCAD_DIMS
 62
     0
100
AcDbMText
 10
153.6701215846339
 20
169.6865244893617
 30
0.0
 40
3.2
 41
0.0
 71
     5
 72
     1
  1
\A1;83.85
  7
KCADDIMSTANDARD
 73
     1
 44
1.0
  0
ENDBLK
  5
ADF
330
428
100
AcDbEntity
  8
0
100
AcDbBlockEnd
  0
BLOCK
  5
AE0
330
464
100
AcDbEntity
  8
0
100
AcDbBlockBegin
  2
*D28
 70
     1
 71
     0
 10
0.0
 20
0.0
 30
0.0
  3
*D28
  1

  0
LINE
  5
496
330
464
100
AcDbEntity
  8
KCAD_DIMS
 62
     0
370
    -2
100
AcDbLine
 10
159.7451215846378
 20
157.2765233145354
 30
0.0
 11
159.7451215846378
 21
124.9183713296419
 31
0.0
  0
LINE
  5
497
330
464
100
AcDbEntity
  8
KCAD_DIMS
 62
     0
370
    -2
100
AcDbLine
 10
111.7451215846337
 20
157.2765233145354
 30
0.0
 11
111.7451215846337
 21
140.3430851063816
 31
0.0
  0
INSERT
  5
498
330
464
100
AcDbEntity
  8
KCAD_DIMS
 62
     0
370
    -2
100
AcDbBlockReference
  2
_OPEN30
 10
159.7451215846378
 20
156.2765233145354
 30
0.0
 41
2.5
 42
2.5
 43
2.5
  0
INSERT
  5
499
330
464
100
AcDbEntity
  8
KCAD_DIMS
 62
     0
370
    -2
100
AcDbBlockReference
  2
_OPEN30
 10
111.7451215846337
 20
156.2765233145354
 30
0.0
 41
2.5
 42
2.5
 43
2.5
 50
180.0
  0
LINE
  5
49A
330
464
100
AcDbEntity
  8
KCAD_DIMS
 62
     0
370
    -2
100
AcDbLine
 10
157.2451215846379
 20
156.2765233145354
 30
0.0
 11
114.2451215846338
 21
156.2765233145354
 31
0.0
  0
POINT
  5
49B
330
464
100
AcDbEntity
  8
DEFPOINTS
 62
     0
370
    15
100
AcDbPoint
 10
159.7451215846378
 20
123.9183713296419
 30
0.0
  0
POINT
  5
49C
330
464
100
AcDbEntity
  8
DEFPOINTS
 62
     0
370
    15
100
AcDbPoint
 10
111.7451215846337
 20
139.3430851063818
 30
0.0
  0
POINT
  5
49D
330
464
100
AcDbEntity
  8
DEFPOINTS
 62
     0
370
    15
100
AcDbPoint
 10
111.7451215846337
 20
156.2765233145354
 30
0.0
  0
MTEXT
  5
49E
330
464
100
AcDbEntity
  8
KCAD_DIMS
 62
     0
100
AcDbMText
 10
135.7451215846358
 20
158.4098563145354
 30
0.0
 40
3.2
 41
0.0
 71
     5
 72
     1
  1
\A1;48
  7
KCADDIMSTANDARD
 73
     1
 44
1.0
  0
ENDBLK
  5
AE1
330
464
100
AcDbEntity
  8
0
100
AcDbBlockEnd
  0
BLOCK
  5
AE2
330
4A0
100
AcDbEntity
  8
0
100
AcDbBlockBegin
  2
*D29
 70
     1
 71
     0
 10
0.0
 20
0.0
 30
0.0
  3
*D29
  1

  0
LINE
  5
4D2
330
4A0
100
AcDbEntity
  8
KCAD_DIMS
 62
     0
370
    -2
100
AcDbLine
 10
127.7451215846339
 20
148.4468085106383
 30
0.0
 11
127.7451215846339
 21
140.3430851063817
 31
0.0
  0
LINE
  5
4D3
330
4A0
100
AcDbEntity
  8
KCAD_DIMS
 62
     0
370
    -2
100
AcDbLine
 10
111.7451215846338
 20
148.4468085106383
 30
0.0
 11
111.7451215846338
 21
140.3430851063816
 31
0.0
  0
INSERT
  5
4D4
330
4A0
100
AcDbEntity
  8
KCAD_DIMS
 62
     0
370
    -2
100
AcDbBlockReference
  2
_OPEN30
 10
127.7451215846339
 20
147.4468085106383
 30
0.0
 41
2.5
 42
2.5
 43
2.5
  0
INSERT
  5
4D5
330
4A0
100
AcDbEntity
  8
KCAD_DIMS
 62
     0
370
    -2
100
AcDbBlockReference
  2
_OPEN30
 10
111.7451215846338
 20
147.4468085106383
 30
0.0
 41
2.5
 42
2.5
 43
2.5
 50
180.0
  0
LINE
  5
4D6
330
4A0
100
AcDbEntity
  8
KCAD_DIMS
 62
     0
370
    -2
100
AcDbLine
 10
125.2451215846339
 20
147.4468085106383
 30
0.0
 11
114.2451215846339
 21
147.4468085106383
 31
0.0
  0
POINT
  5
4D7
330
4A0
100
AcDbEntity
  8
DEFPOINTS
 62
     0
370
    15
100
AcDbPoint
 10
127.7451215846339
 20
139.3430851063818
 30
0.0
  0
POINT
  5
4D8
330
4A0
100
AcDbEntity
  8
DEFPOINTS
 62
     0
370
    15
100
AcDbPoint
 10
111.7451215846338
 20
139.3430851063818
 30
0.0
  0
POINT
  5
4D9
330
4A0
100
AcDbEntity
  8
DEFPOINTS
 62
     0
370
    15
100
AcDbPoint
 10
111.7451215846338
 20
147.4468085106383
 30
0.0
  0
MTEXT
  5
4DA
330
4A0
100
AcDbEntity
  8
KCAD_DIMS
 62
     0
100
AcDbMText
 10
119.7451215846339
 20
149.5801415106383
 30
0.0
 40
3.2
 41
0.0
 71
     5
 72
     1
  1
\A1;16
  7
KCADDIMSTANDARD
 73
     1
 44
1.0
  0
ENDBLK
  5
AE3
330
4A0
100
AcDbEntity
  8
0
100
AcDbBlockEnd
  0
BLOCK
  5
AE4
330
4DC
100
AcDbEntity
  8
0
100
AcDbBlockBegin
  2
*D30
 70
     1
 71
     0
 10
0.0
 20
0.0
 30
0.0
  3
*D30
  1

  0
LINE
  5
50E
330
4DC
100
AcDbEntity
  8
KCAD_DIMS
 62
     0
370
    -2
100
AcDbLine
 10
207.5951215846339
 20
179.8350861795036
 30
0.0
 11
207.5951215846339
 21
146.0430851063829
 31
0.0
  0
LINE
  5
50F
330
4DC
100
AcDbEntity
  8
KCAD_DIMS
 62
     0
370
    -2
100
AcDbLine
 10
111.7451215846337
 20
179.8350861795036
 30
0.0
 11
111.7451215846337
 21
140.343085106383
 31
0.0
  0
INSERT
  5
510
330
4DC
100
AcDbEntity
  8
KCAD_DIMS
 62
     0
370
    -2
100
AcDbBlockReference
  2
_OPEN30
 10
207.5951215846339
 20
178.8350861795036
 30
0.0
 41
2.5
 42
2.5
 43
2.5
  0
INSERT
  5
511
330
4DC
100
AcDbEntity
  8
KCAD_DIMS
 62
     0
370
    -2
100
AcDbBlockReference
  2
_OPEN30
 10
111.7451215846337
 20
178.8350861795036
 30
0.0
 41
2.5
 42
2.5
 43
2.5
 50
180.0
  0
LINE
  5
512
330
4DC
100
AcDbEntity
  8
KCAD_DIMS
 62
     0
370
    -2
100
AcDbLine
 10
205.0951215846338
 20
178.8350861795036
 30
0.0
 11
114.2451215846339
 21
178.8350861795036
 31
0.0
  0
POINT
  5
513
330
4DC
100
AcDbEntity
  8
DEFPOINTS
 62
     0
370
    15
100
AcDbPoint
 10
207.5951215846339
 20
145.0430851063829
 30
0.0
  0
POINT
  5
514
330
4DC
100
AcDbEntity
  8
DEFPOINTS
 62
     0
370
    15
100
AcDbPoint
 10
111.7451215846337
 20
139.343085106383
 30
0.0
  0
POINT
  5
515
330
4DC
100
AcDbEntity
  8
DEFPOINTS
 62
     0
370
    15
100
AcDbPoint
 10
111.7451215846337
 20
178.8350861795036
 30
0.0
  0
MTEXT
  5
516
330
4DC
100
AcDbEntity
  8
KCAD_DIMS
 62
     0
100
AcDbMText
 10
159.6701215846339
 20
180.9684191795035
 30
0.0
 40
3.2
 41
0.0
 71
     5
 72
     1
  1
\A1;95.85
  7
KCADDIMSTANDARD
 73
     1
 44
1.0
  0
ENDBLK
  5
AE5
330
4DC
100
AcDbEntity
  8
0
100
AcDbBlockEnd
  0
BLOCK
  5
AE6
330
518
100
AcDbEntity
  8
0
100
AcDbBlockBegin
  2
*D31
 70
     1
 71
     0
 10
0.0
 20
0.0
 30
0.0
  3
*D31
  1

  0
LINE
  5
554
330
518
100
AcDbEntity
  8
KCAD_DIMS
 62
     0
370
    -2
100
AcDbLine
 10
127.7451215846339
 20
148.4468085106383
 30
0.0
 11
127.7451215846339
 21
140.0930851063819
 31
0.0
  0
LINE
  5
555
330
518
100
AcDbEntity
  8
KCAD_DIMS
 62
     0
370
    -2
100
AcDbLine
 10
133.7451215846338
 20
148.4468085106383
 30
0.0
 11
133.7451215846338
 21
140.0930851063819
 31
0.0
  0
INSERT
  5
556
330
518
100
AcDbEntity
  8
KCAD_DIMS
 62
     0
370
    -2
100
AcDbBlockReference
  2
_OPEN30
 10
127.7451215846339
 20
147.4468085106383
 30
0.0
 41
2.5
 42
2.5
 43
2.5
 50
180.0
  0
INSERT
  5
557
330
518
100
AcDbEntity
  8
KCAD_DIMS
 62
     0
370
    -2
100
AcDbBlockReference
  2
_OPEN30
 10
133.7451215846338
 20
147.4468085106383
 30
0.0
 41
2.5
 42
2.5
 43
2.5
  0
LINE
  5
558
330
518
100
AcDbEntity
  8
KCAD_DIMS
 62
     0
370
    -2
100
AcDbLine
 10
130.2451215846339
 20
147.4468085106383
 30
0.0
 11
131.2451215846339
 21
147.4468085106383
 31
0.0
  0
POINT
  5
559
330
518
100
AcDbEntity
  8
DEFPOINTS
 62
     0
370
    15
100
AcDbPoint
 10
127.7451215846339
 20
139.0930851063819
 30
0.0
  0
POINT
  5
55A
330
518
100
AcDbEntity
  8
DEFPOINTS
 62
     0
370
    15
100
AcDbPoint
 10
133.7451215846338
 20
139.0930851063819
 30
0.0
  0
POINT
  5
55B
330
518
100
AcDbEntity
  8
DEFPOINTS
 62
     0
370
    15
100
AcDbPoint
 10
133.7451215846338
 20
147.4468085106383
 30
0.0
  0
MTEXT
  5
55C
330
518
100
AcDbEntity
  8
KCAD_DIMS
 62
     0
100
AcDbMText
 10
130.7451215846338
 20
149.5801415106383
 30
0.0
 40
3.2
 41
0.0
 71
     5
 72
     1
  1
\A1;6
  7
KCADDIMSTANDARD
 73
     1
 44
1.0
  0
ENDBLK
  5
AE7
330
518
100
AcDbEntity
  8
0
100
AcDbBlockEnd
  0
BLOCK
  5
AE8
330
55E
100
AcDbEntity
  8
0
100
AcDbBlockBegin
  2
*D32
 70
     1
 71
     0
 10
0.0
 20
0.0
 30
0.0
  3
*D32
  1

  0
LINE
  5
590
330
55E
100
AcDbEntity
  8
KCAD_DIMS
 62
     0
370
    -2
100
AcDbLine
 10
195.5951215846339
 20
168.5531914893615
 30
0.0
 11
195.5951215846339
 21
143.5430851063829
 31
0.0
  0
LINE
  5
591
330
55E
100
AcDbEntity
  8
KCAD_DIMS
 62
     0
370
    -2
100
AcDbLine
 10
207.5951215846339
 20
168.5531914893615
 30
0.0
 11
207.5951215846339
 21
146.0430851063829
 31
0.0
  0
INSERT
  5
592
330
55E
100
AcDbEntity
  8
KCAD_DIMS
 62
     0
370
    -2
100
AcDbBlockReference
  2
_OPEN30
 10
195.5951215846339
 20
167.5531914893617
 30
0.0
 41
2.5
 42
2.5
 43
2.5
 50
180.0
  0
INSERT
  5
593
330
55E
100
AcDbEntity
  8
KCAD_DIMS
 62
     0
370
    -2
100
AcDbBlockReference
  2
_OPEN30
 10
207.5951215846339
 20
167.5531914893617
 30
0.0
 41
2.5
 42
2.5
 43
2.5
  0
LINE
  5
594
330
55E
100
AcDbEntity
  8
KCAD_DIMS
 62
     0
370
    -2
100
AcDbLine
 10
198.0951215846339
 20
167.5531914893617
 30
0.0
 11
205.0951215846338
 21
167.5531914893617
 31
0.0
  0
POINT
  5
595
330
55E
100
AcDbEntity
  8
DEFPOINTS
 62
     0
370
    15
100
AcDbPoint
 10
195.5951215846339
 20
142.5430851063829
 30
0.0
  0
POINT
  5
596
330
55E
100
AcDbEntity
  8
DEFPOINTS
 62
     0
370
    15
100
AcDbPoint
 10
207.5951215846339
 20
145.0430851063829
 30
0.0
  0
POINT
  5
597
330
55E
100
AcDbEntity
  8
DEFPOINTS
 62
     0
370
    15
100
AcDbPoint
 10
207.5951215846339
 20
167.5531914893617
 30
0.0
  0
MTEXT
  5
598
330
55E
100
AcDbEntity
  8
KCAD_DIMS
 62
     0
100
AcDbMText
 10
201.5951215846339
 20
169.6865244893617
 30
0.0
 40
3.2
 41
0.0
 71
     5
 72
     1
  1
\A1;12
  7
KCADDIMSTANDARD
 73
     1
 44
1.0
  0
ENDBLK
  5
AE9
330
55E
100
AcDbEntity
  8
0
100
AcDbBlockEnd
  0
BLOCK
  5
AEA
330
5A4
100
AcDbEntity
  8
0
100
AcDbBlockBegin
  2
*D33
 70
     1
 71
     0
 10
0.0
 20
0.0
 30
0.0
  3
*D33
  1

  0
LINE
  5
5D6
330
5A4
100
AcDbEntity
  8
KCAD_DIMS
 62
     0
370
    -2
100
AcDbLine
 10
225.1211215846339
 20
100.5599488489925
 30
0.0
 11
225.1211215846339
 21
126.3916830127499
 31
0.0
  0
LINE
  5
5D7
330
5A4
100
AcDbEntity
  8
KCAD_DIMS
 62
     0
370
    -2
100
AcDbLine
 10
207.595121584634
 20
100.5599488489925
 30
0.0
 11
207.595121584634
 21
115.343085106383
 31
0.0
  0
INSERT
  5
5D8
330
5A4
100
AcDbEntity
  8
KCAD_DIMS
 62
     0
370
    -2
100
AcDbBlockReference
  2
_OPEN30
 10
225.1211215846339
 20
101.5599488489925
 30
0.0
 41
3.0
 42
3.0
 43
3.0
 50
180.0
  0
INSERT
  5
5D9
330
5A4
100
AcDbEntity
  8
KCAD_DIMS
 62
     0
370
    -2
100
AcDbBlockReference
  2
_OPEN30
 10
207.595121584634
 20
101.5599488489925
 30
0.0
 41
3.0
 42
3.0
 43
3.0
  0
LINE
  5
5DA
330
5A4
100
AcDbEntity
  8
KCAD_DIMS
 62
     0
370
    -2
100
AcDbLine
 10
225.1211215846339
 20
101.5599488489925
 30
0.0
 11
207.595121584634
 21
101.5599488489925
 31
0.0
  0
LINE
  5
5DB
330
5A4
100
AcDbEntity
  8
KCAD_DIMS
 62
     0
370
    -2
100
AcDbLine
 10
228.121121584634
 20
101.5599488489925
 30
0.0
 11
257.1973426800313
 21
101.5599488489925
 31
0.0
  0
LINE
  5
5DC
330
5A4
100
AcDbEntity
  8
KCAD_DIMS
 62
     0
370
    -2
100
AcDbLine
 10
204.5951215846339
 20
101.5599488489925
 30
0.0
 11
202.5951215846339
 21
101.5599488489925
 31
0.0
  0
POINT
  5
5DD
330
5A4
100
AcDbEntity
  8
DEFPOINTS
 62
     0
370
    15
100
AcDbPoint
 10
225.1211215846339
 20
127.3916830127499
 30
0.0
  0
POINT
  5
5DE
330
5A4
100
AcDbEntity
  8
DEFPOINTS
 62
     0
370
    15
100
AcDbPoint
 10
207.595121584634
 20
116.343085106383
 30
0.0
  0
POINT
  5
5DF
330
5A4
100
AcDbEntity
  8
DEFPOINTS
 62
     0
370
    15
100
AcDbPoint
 10
207.595121584634
 20
101.5599488489925
 30
0.0
  0
MTEXT
  5
5E0
330
5A4
100
AcDbEntity
  8
KCAD_DIMS
 62
     0
100
AcDbMText
 10
247.7950369185939
 20
103.6932818489924
 30
0.0
 40
3.2
 41
0.0
 71
     5
 72
     1
  1
\A1;F.B.=17.526
  7
KCADDIMSTANDARD
 73
     1
 44
1.0
  0
ENDBLK
  5
AEB
330
5A4
100
AcDbEntity
  8
0
100
AcDbBlockEnd
  0
BLOCK
  5
AEC
330
5E2
100
AcDbEntity
  8
0
100
AcDbBlockBegin
  2
*D34
 70
     1
 71
     0
 10
0.0
 20
0.0
 30
0.0
  3
*D34
  1

  0
LINE
  5
614
330
5E2
100
AcDbEntity
  8
KCAD_DIMS
 62
     0
370
    -2
100
AcDbLine
 10
99.38795874352742
 20
121.343085106383
 30
0.0
 11
110.7451215846337
 21
121.343085106383
 31
0.0
  0
LINE
  5
615
330
5E2
100
AcDbEntity
  8
KCAD_DIMS
 62
     0
370
    -2
100
AcDbLine
 10
99.38795874352738
 20
139.343085106383
 30
0.0
 11
110.7451215846337
 21
139.343085106383
 31
0.0
  0
INSERT
  5
616
330
5E2
100
AcDbEntity
  8
KCAD_DIMS
 62
     0
370
    -2
100
AcDbBlockReference
  2
_OPEN30
 10
100.3879587435272
 20
121.343085106383
 30
0.0
 41
2.5
 42
2.5
 43
2.5
 50
270.0
  0
INSERT
  5
617
330
5E2
100
AcDbEntity
  8
KCAD_DIMS
 62
     0
370
    -2
100
AcDbBlockReference
  2
_OPEN30
 10
100.3879587435272
 20
139.343085106383
 30
0.0
 41
2.5
 42
2.5
 43
2.5
 50
90.00000000000006
  0
LINE
  5
618
330
5E2
100
AcDbEntity
  8
KCAD_DIMS
 62
     0
370
    -2
100
AcDbLine
 10
100.3879587435272
 20
123.8430851063831
 30
0.0
 11
100.3879587435272
 21
136.843085106383
 31
0.0
  0
POINT
  5
619
330
5E2
100
AcDbEntity
  8
DEFPOINTS
 62
     0
370
    15
100
AcDbPoint
 10
111.7451215846337
 20
121.343085106383
 30
0.0
  0
POINT
  5
61A
330
5E2
100
AcDbEntity
  8
DEFPOINTS
 62
     0
370
    15
100
AcDbPoint
 10
111.7451215846337
 20
139.343085106383
 30
0.0
  0
POINT
  5
61B
330
5E2
100
AcDbEntity
  8
DEFPOINTS
 62
     0
370
    15
100
AcDbPoint
 10
100.3879587435272
 20
139.343085106383
 30
0.0
  0
MTEXT
  5
61C
330
5E2
100
AcDbEntity
  8
KCAD_DIMS
 62
     0
100
AcDbMText
 10
98.25462574352741
 20
131.5567864675819
 30
0.0
 40
3.2
 41
0.0
 71
     5
 72
     1
  1
\A1;%%c18
  7
KCADDIMSTANDARD
 11
1.000000000000000E-16
 21
1.0
 31
0.0
 73
     1
 44
1.0
  0
ENDBLK
  5
AED
330
5E2
100
AcDbEntity
  8
0
100
AcDbBlockEnd
  0
BLOCK
  5
AEE
330
61E
100
AcDbEntity
  8
0
100
AcDbBlockBegin
  2
*D35
 70
     1
 71
     0
 10
0.0
 20
0.0
 30
0.0
  3
*D35
  1

  0
LINE
  5
650
330
61E
100
AcDbEntity
  8
KCAD_DIMS
 62
     0
370
    -2
100
AcDbLine
 10
240.8135668649461
 20
116.3430851063825
 30
0.0
 11
208.295121584634
 21
116.3430851063825
 31
0.0
  0
LINE
  5
651
330
61E
100
AcDbEntity
  8
KCAD_DIMS
 62
     0
370
    -2
100
AcDbLine
 10
240.8135668649461
 20
144.3430851063825
 30
0.0
 11
208.2951215846339
 21
144.3430851063825
 31
0.0
  0
INSERT
  5
652
330
61E
100
AcDbEntity
  8
KCAD_DIMS
 62
     0
370
    -2
100
AcDbBlockReference
  2
_OPEN30
 10
239.8135668649461
 20
116.3430851063825
 30
0.0
 41
2.5
 42
2.5
 43
2.5
 50
270.0
  0
INSERT
  5
653
330
61E
100
AcDbEntity
  8
KCAD_DIMS
 62
     0
370
    -2
100
AcDbBlockReference
  2
_OPEN30
 10
239.8135668649461
 20
144.3430851063825
 30
0.0
 41
2.5
 42
2.5
 43
2.5
 50
90.00000000000006
  0
LINE
  5
654
330
61E
100
AcDbEntity
  8
KCAD_DIMS
 62
     0
370
    -2
100
AcDbLine
 10
239.8135668649461
 20
118.8430851063825
 30
0.0
 11
239.8135668649461
 21
141.8430851063825
 31
0.0
  0
POINT
  5
655
330
61E
100
AcDbEntity
  8
DEFPOINTS
 62
     0
370
    15
100
AcDbPoint
 10
207.295121584634
 20
116.3430851063825
 30
0.0
  0
POINT
  5
656
330
61E
100
AcDbEntity
  8
DEFPOINTS
 62
     0
370
    15
100
AcDbPoint
 10
207.2951215846339
 20
144.3430851063825
 30
0.0
  0
POINT
  5
657
330
61E
100
AcDbEntity
  8
DEFPOINTS
 62
     0
370
    15
100
AcDbPoint
 10
239.8135668649461
 20
144.3430851063825
 30
0.0
  0
MTEXT
  5
658
330
61E
100
AcDbEntity
  8
KCAD_DIMS
 62
     0
100
AcDbMText
 10
237.6802338649461
 20
130.3430851063825
 30
0.0
 40
3.2
 41
0.0
 71
     5
 72
     1
  1
\A1;%%c28
  7
KCADDIMSTANDARD
 11
1.000000000000000E-16
 21
1.0
 31
0.0
 73
     1
 44
1.0
  0
ENDBLK
  5
AEF
330
61E
100
AcDbEntity
  8
0
100
AcDbBlockEnd
  0
BLOCK
  5
AF0
330
65A
100
AcDbEntity
  8
0
100
AcDbBlockBegin
  2
*D36
 70
     1
 71
     0
 10
0.0
 20
0.0
 30
0.0
  3
*D36
  1

  0
LINE
  5
68C
330
65A
100
AcDbEntity
  8
KCAD_DIMS
 62
     0
370
    -2
100
AcDbLine
 10
111.7451215846337
 20
100.5599488489925
 30
0.0
 11
111.7451215846337
 21
120.343085106383
 31
0.0
  0
LINE
  5
68D
330
65A
100
AcDbEntity
  8
KCAD_DIMS
 62
     0
370
    -2
100
AcDbLine
 10
40.64512158463318
 20
100.5599488489925
 30
0.0
 11
40.64512158463318
 21
129.3430851063818
 31
0.0
  0
INSERT
  5
68E
330
65A
100
AcDbEntity
  8
KCAD_DIMS
 62
     0
370
    -2
100
AcDbBlockReference
  2
_OPEN30
 10
111.7451215846337
 20
101.5599488489925
 30
0.0
 41
2.5
 42
2.5
 43
2.5
  0
INSERT
  5
68F
330
65A
100
AcDbEntity
  8
KCAD_DIMS
 62
     0
370
    -2
100
AcDbBlockReference
  2
_OPEN30
 10
40.64512158463318
 20
101.5599488489925
 30
0.0
 41
2.5
 42
2.5
 43
2.5
 50
180.0
  0
LINE
  5
690
330
65A
100
AcDbEntity
  8
KCAD_DIMS
 62
     0
370
    -2
100
AcDbLine
 10
109.2451215846339
 20
101.5599488489925
 30
0.0
 11
43.14512158463318
 21
101.5599488489925
 31
0.0
  0
POINT
  5
691
330
65A
100
AcDbEntity
  8
DEFPOINTS
 62
     0
370
    15
100
AcDbPoint
 10
111.7451215846337
 20
121.343085106383
 30
0.0
  0
POINT
  5
692
330
65A
100
AcDbEntity
  8
DEFPOINTS
 62
     0
370
    15
100
AcDbPoint
 10
40.64512158463318
 20
130.3430851063818
 30
0.0
  0
POINT
  5
693
330
65A
100
AcDbEntity
  8
DEFPOINTS
 62
     0
370
    15
100
AcDbPoint
 10
40.64512158463318
 20
101.5599488489925
 30
0.0
  0
MTEXT
  5
694
330
65A
100
AcDbEntity
  8
KCAD_DIMS
 62
     0
100
AcDbMText
 10
74.4558129201853
 20
103.6932818489926
 30
0.0
 40
3.2
 41
0.0
 71
     5
 72
     1
  1
\A1;W.D.=71.1
  7
KCADDIMSTANDARD
 73
     1
 44
1.0
  0
ENDBLK
  5
AF1
330
65A
100
AcDbEntity
  8
0
100
AcDbBlockEnd
  0
BLOCK
  5
AF2
330
696
100
AcDbEntity
  8
0
100
AcDbBlockBegin
  2
*D37
 70
     1
 71
     0
 10
0.0
 20
0.0
 30
0.0
  3
*D37
  1

  0
LINE
  5
6D2
330
696
100
AcDbEntity
  8
KCAD_DIMS
 62
     0
370
    -2
100
AcDbLine
 10
207.5951215846339
 20
179.8350861795036
 30
0.0
 11
207.5951215846339
 21
146.0430851063829
 31
0.0
  0
LINE
  5
6D3
330
696
100
AcDbEntity
  8
KCAD_DIMS
 62
     0
370
    -2
100
AcDbLine
 10
211.5951215846339
 20
179.8350861795036
 30
0.0
 11
211.5951215846339
 21
143.2930851063829
 31
0.0
  0
INSERT
  5
6D4
330
696
100
AcDbEntity
  8
KCAD_DIMS
 62
     0
370
    -2
100
AcDbBlockReference
  2
_OPEN30
 10
207.5951215846339
 20
178.8350861795036
 30
0.0
 41
2.5
 42
2.5
 43
2.5
  0
INSERT
  5
6D5
330
696
100
AcDbEntity
  8
KCAD_DIMS
 62
     0
370
    -2
100
AcDbBlockReference
  2
_OPEN30
 10
211.5951215846339
 20
178.8350861795036
 30
0.0
 41
2.5
 42
2.5
 43
2.5
 50
180.0
  0
LINE
  5
6D6
330
696
100
AcDbEntity
  8
KCAD_DIMS
 62
     0
370
    -2
100
AcDbLine
 10
207.5951215846339
 20
178.8350861795036
 30
0.0
 11
211.5951215846339
 21
178.8350861795036
 31
0.0
  0
LINE
  5
6D7
330
696
100
AcDbEntity
  8
KCAD_DIMS
 62
     0
370
    -2
100
AcDbLine
 10
205.0951215846338
 20
178.8350861795036
 30
0.0
 11
202.5951215846339
 21
178.8350861795036
 31
0.0
  0
LINE
  5
6D8
330
696
100
AcDbEntity
  8
KCAD_DIMS
 62
     0
370
    -2
100
AcDbLine
 10
214.095121584634
 20
178.8350861795036
 30
0.0
 11
218.3000376415863
 21
178.8350861795036
 31
0.0
  0
POINT
  5
6D9
330
696
100
AcDbEntity
  8
DEFPOINTS
 62
     0
370
    15
100
AcDbPoint
 10
207.5951215846339
 20
145.0430851063829
 30
0.0
  0
POINT
  5
6DA
330
696
100
AcDbEntity
  8
DEFPOINTS
 62
     0
370
    15
100
AcDbPoint
 10
211.5951215846339
 20
142.2930851063829
 30
0.0
  0
POINT
  5
6DB
330
696
100
AcDbEntity
  8
DEFPOINTS
 62
     0
370
    15
100
AcDbPoint
 10
211.5951215846339
 20
178.8350861795036
 30
0.0
  0
MTEXT
  5
6DC
330
696
100
AcDbEntity
  8
KCAD_DIMS
 62
     0
100
AcDbMText
 10
217.3000376655678
 20
180.9684191795035
 30
0.0
 40
3.2
 41
0.0
 71
     5
 72
     1
  1
\A1;4
  7
KCADDIMSTANDARD
 73
     1
 44
1.0
  0
ENDBLK
  5
AF3
330
696
100
AcDbEntity
  8
0
100
AcDbBlockEnd
  0
BLOCK
  5
AF4
330
6DE
100
AcDbEntity
  8
0
100
AcDbBlockBegin
  2
*D38
 70
     1
 71
     0
 10
0.0
 20
0.0
 30
0.0
  3
*D38
  1

  0
LINE
  5
70C
330
6DE
100
AcDbEntity
  8
KCAD_DIMS
 62
     0
370
    -2
100
AcDbLine
 10
132.5164922951568
 20
121.593085106384
 30
0.0
 11
128.7451215846338
 21
121.593085106384
 31
0.0
  0
INSERT
  5
70D
330
6DE
100
AcDbEntity
  8
KCAD_DIMS
 62
     0
370
    -2
100
AcDbBlockReference
  2
_OPEN30
 10
131.5164922951568
 20
121.593085106384
 30
0.0
 41
2.5
 42
2.5
 43
2.5
 50
270.0
  0
LINE
  5
70E
330
6DE
100
AcDbEntity
  8
KCAD_DIMS
 62
     0
370
    -2
100
AcDbLine
 10
131.5164922951568
 20
124.0930851063839
 30
0.0
 11
131.5164922951568
 21
139.6620509823673
 31
0.0
  0
POINT
  5
70F
330
6DE
100
AcDbEntity
  8
DEFPOINTS
 62
     0
370
    15
100
AcDbPoint
 10
127.7451215846339
 20
121.593085106384
 30
0.0
  0
POINT
  5
710
330
6DE
100
AcDbEntity
  8
DEFPOINTS
 62
     0
370
    15
100
AcDbPoint
 10
127.7451215846339
 20
130.343085106382
 30
0.0
  0
POINT
  5
711
330
6DE
100
AcDbEntity
  8
DEFPOINTS
 62
     0
370
    15
100
AcDbPoint
 10
131.5164922951568
 20
130.343085106382
 30
0.0
  0
MTEXT
  5
712
330
6DE
100
AcDbEntity
  8
KCAD_DIMS
 62
     0
100
AcDbMText
 10
129.3831592951569
 20
110.924119046022
 30
0.0
 40
3.2
 41
0.0
 71
     5
 72
     1
  1
\A1;%%c17.5
  7
KCADDIMSTANDARD
 11
1.000000000000000E-16
 21
1.0
 31
0.0
 73
     1
 44
1.0
  0
ENDBLK
  5
AF5
330
6DE
100
AcDbEntity
  8
0
100
AcDbBlockEnd
  0
BLOCK
  5
AF6
330
714
100
AcDbEntity
  8
0
100
AcDbBlockBegin
  2
*D39
 70
     1
 71
     0
 10
0.0
 20
0.0
 30
0.0
  3
*D39
  1

  0
LINE
  5
746
330
714
100
AcDbEntity
  8
KCAD_DIMS
 62
     0
370
    -2
100
AcDbLine
 10
139.3895802492673
 20
102.3430851063819
 30
0.0
 11
149.745121584638
 21
102.3430851063819
 31
0.0
  0
LINE
  5
747
330
714
100
AcDbEntity
  8
KCAD_DIMS
 62
     0
370
    -2
100
AcDbLine
 10
139.3895802492673
 20
130.3430851063822
 30
0.0
 11
143.7451215846339
 21
130.3430851063822
 31
0.0
  0
INSERT
  5
748
330
714
100
AcDbEntity
  8
KCAD_DIMS
 62
     0
370
    -2
100
AcDbBlockReference
  2
_OPEN30
 10
140.3895802492673
 20
102.3430851063819
 30
0.0
 41
2.5
 42
2.5
 43
2.5
 50
270.0
  0
INSERT
  5
749
330
714
100
AcDbEntity
  8
KCAD_DIMS
 62
     0
370
    -2
100
AcDbBlockReference
  2
_OPEN30
 10
140.3895802492673
 20
130.3430851063822
 30
0.0
 41
2.5
 42
2.5
 43
2.5
 50
90.00000000000006
  0
LINE
  5
74A
330
714
100
AcDbEntity
  8
KCAD_DIMS
 62
     0
370
    -2
100
AcDbLine
 10
140.3895802492673
 20
104.8430851063819
 30
0.0
 11
140.3895802492673
 21
127.8430851063822
 31
0.0
  0
POINT
  5
74B
330
714
100
AcDbEntity
  8
DEFPOINTS
 62
     0
370
    15
100
AcDbPoint
 10
150.745121584638
 20
102.3430851063819
 30
0.0
  0
POINT
  5
74C
330
714
100
AcDbEntity
  8
DEFPOINTS
 62
     0
370
    15
100
AcDbPoint
 10
144.7451215846338
 20
130.3430851063822
 30
0.0
  0
POINT
  5
74D
330
714
100
AcDbEntity
  8
DEFPOINTS
 62
     0
370
    15
100
AcDbPoint
 10
140.3895802492673
 20
130.3430851063822
 30
0.0
  0
MTEXT
  5
74E
330
714
100
AcDbEntity
  8
KCAD_DIMS
 62
     0
100
AcDbMText
 10
138.2562472492674
 20
116.343085106382
 30
0.0
 40
3.2
 41
0.0
 71
     5
 72
     1
  1
\A1;28
  7
KCADDIMSTANDARD
 11
1.000000000000000E-16
 21
1.0
 31
0.0
 73
     1
 44
1.0
  0
ENDBLK
  5
AF7
330
714
100
AcDbEntity
  8
0
100
AcDbBlockEnd
  0
BLOCK
  5
AF8
330
750
100
AcDbEntity
  8
0
100
AcDbBlockBegin
  2
*D40
 70
     1
 71
     0
 10
0.0
 20
0.0
 30
0.0
  3
*D40
  1

  0
LINE
  5
782
330
750
100
AcDbEntity
  8
KCAD_DIMS
 62
     0
370
    -2
100
AcDbLine
 10
168.7451215846379
 20
88.85530477285795
 30
0.0
 11
168.7451215846379
 21
101.3430851063819
 31
0.0
  0
LINE
  5
783
330
750
100
AcDbEntity
  8
KCAD_DIMS
 62
     0
370
    -2
100
AcDbLine
 10
150.745121584638
 20
88.85530477285795
 30
0.0
 11
150.745121584638
 21
101.3430851063819
 31
0.0
  0
INSERT
  5
784
330
750
100
AcDbEntity
  8
KCAD_DIMS
 62
     0
370
    -2
100
AcDbBlockReference
  2
_OPEN30
 10
168.7451215846379
 20
89.85530477285798
 30
0.0
 41
2.5
 42
2.5
 43
2.5
  0
INSERT
  5
785
330
750
100
AcDbEntity
  8
KCAD_DIMS
 62
     0
370
    -2
100
AcDbBlockReference
  2
_OPEN30
 10
150.745121584638
 20
89.85530477285798
 30
0.0
 41
2.5
 42
2.5
 43
2.5
 50
180.0
  0
LINE
  5
786
330
750
100
AcDbEntity
  8
KCAD_DIMS
 62
     0
370
    -2
100
AcDbLine
 10
166.2451215846379
 20
89.85530477285798
 30
0.0
 11
153.245121584638
 21
89.85530477285798
 31
0.0
  0
POINT
  5
787
330
750
100
AcDbEntity
  8
DEFPOINTS
 62
     0
370
    15
100
AcDbPoint
 10
168.7451215846379
 20
102.3430851063819
 30
0.0
  0
POINT
  5
788
330
750
100
AcDbEntity
  8
DEFPOINTS
 62
     0
370
    15
100
AcDbPoint
 10
150.745121584638
 20
102.3430851063819
 30
0.0
  0
POINT
  5
789
330
750
100
AcDbEntity
  8
DEFPOINTS
 62
     0
370
    15
100
AcDbPoint
 10
150.745121584638
 20
89.85530477285798
 30
0.0
  0
MTEXT
  5
78A
330
750
100
AcDbEntity
  8
KCAD_DIMS
 62
     0
100
AcDbMText
 10
159.7451215846378
 20
91.98863777285796
 30
0.0
 40
3.2
 41
0.0
 71
     5
 72
     1
  1
\A1;18
  7
KCADDIMSTANDARD
 73
     1
 44
1.0
  0
ENDBLK
  5
AF9
330
750
100
AcDbEntity
  8
0
100
AcDbBlockEnd
  0
BLOCK
  5
AFA
330
795
100
AcDbEntity
  8
0
100
AcDbBlockBegin
  2
*D41
 70
     1
 71
     0
 10
0.0
 20
0.0
 30
0.0
  3
*D41
  1

  0
LINE
  5
7C7
330
795
100
AcDbEntity
  8
KCAD_DIMS
 62
     0
370
    -2
100
AcDbLine
 10
179.0463311382878
 20
102.3430851063819
 30
0.0
 11
169.7451215846379
 21
102.3430851063819
 31
0.0
  0
LINE
  5
7C8
330
795
100
AcDbEntity
  8
KCAD_DIMS
 62
     0
370
    -2
100
AcDbLine
 10
179.0463311382878
 20
111.343085106382
 30
0.0
 11
166.7451215846378
 21
111.3430851063819
 31
0.0
  0
INSERT
  5
7C9
330
795
100
AcDbEntity
  8
KCAD_DIMS
 62
     0
370
    -2
100
AcDbBlockReference
  2
_OPEN30
 10
178.0463311382878
 20
102.3430851063819
 30
0.0
 41
2.5
 42
2.5
 43
2.5
 50
270.0
  0
INSERT
  5
7CA
330
795
100
AcDbEntity
  8
KCAD_DIMS
 62
     0
370
    -2
100
AcDbBlockReference
  2
_OPEN30
 10
178.0463311382878
 20
111.343085106382
 30
0.0
 41
2.5
 42
2.5
 43
2.5
 50
90.0
  0
LINE
  5
7CB
330
795
100
AcDbEntity
  8
KCAD_DIMS
 62
     0
370
    -2
100
AcDbLine
 10
178.0463311382878
 20
104.8430851063819
 30
0.0
 11
178.0463311382878
 21
108.8430851063818
 31
0.0
  0
POINT
  5
7CC
330
795
100
AcDbEntity
  8
DEFPOINTS
 62
     0
370
    15
100
AcDbPoint
 10
168.7451215846379
 20
102.3430851063819
 30
0.0
  0
POINT
  5
7CD
330
795
100
AcDbEntity
  8
DEFPOINTS
 62
     0
370
    15
100
AcDbPoint
 10
165.7451215846378
 20
111.3430851063819
 30
0.0
  0
POINT
  5
7CE
330
795
100
AcDbEntity
  8
DEFPOINTS
 62
     0
370
    15
100
AcDbPoint
 10
178.0463311382878
 20
111.3430851063819
 30
0.0
  0
MTEXT
  5
7CF
330
795
100
AcDbEntity
  8
KCAD_DIMS
 62
     0
100
AcDbMText
 10
175.9129981382877
 20
106.843085106382
 30
0.0
 40
3.2
 41
0.0
 71
     5
 72
     1
  1
\A1;9
  7
KCADDIMSTANDARD
 11
1.000000000000000E-16
 21
1.0
 31
0.0
 73
     1
 44
1.0
  0
ENDBLK
  5
AFB
330
795
100
AcDbEntity
  8
0
100
AcDbBlockEnd
  0
BLOCK
  5
AFC
330
7FF
100
AcDbEntity
  8
0
100
AcDbBlockBegin
  2
*D42
 70
     1
 71
     0
 10
0.0
 20
0.0
 30
0.0
  3
*D42
  1

  0
POINT
  5
7F5
330
7FF
100
AcDbEntity
  8
DEFPOINTS
  6
ByBlock
 62
     0
370
    30
100
AcDbPoint
 10
111.7451215846337
 20
139.3430851063818
 30
0.0
  0
POINT
  5
7F6
330
7FF
100
AcDbEntity
  8
DEFPOINTS
  6
ByBlock
 62
     0
370
    30
100
AcDbPoint
 10
195.5951215846339
 20
139.3430851063824
 30
0.0
  0
LINE
  5
7F7
330
7FF
100
AcDbEntity
  8
0
  6
ByBlock
 62
     0
370
    -2
100
AcDbLine
 10
111.7451215846337
 20
140.3430851063818
 30
0.0
 11
111.7451215846337
 21
168.5531914893617
 31
0.0
  0
LINE
  5
7F8
330
7FF
100
AcDbEntity
  8
0
  6
ByBlock
 62
     0
370
    -2
100
AcDbLine
 10
195.5951215846339
 20
140.3430851063824
 30
0.0
 11
195.5951215846339
 21
168.5531914893617
 31
0.0
  0
LINE
  5
7F9
330
7FF
100
AcDbEntity
  8
0
  6
ByBlock
 62
     0
370
    -2
100
AcDbLine
 10
111.7451215846337
 20
167.5531914893617
 30
0.0
 11
195.5951215846339
 21
167.5531914893617
 31
0.0
  0
SOLID
  5
7FA
330
7FF
100
AcDbEntity
  8
0
  6
ByBlock
 62
     0
370
    30
100
AcDbTrace
 10
111.7451215846337
 20
167.5531914893617
 30
0.0
 11
114.2451215846337
 21
167.136524822695
 31
0.0
 12
114.2451215846337
 22
167.9698581560284
 32
0.0
 13
114.2451215846337
 23
167.9698581560284
 33
0.0
  0
SOLID
  5
7FB
330
7FF
100
AcDbEntity
  8
0
  6
ByBlock
 62
     0
370
    30
100
AcDbTrace
 10
195.5951215846339
 20
167.5531914893617
 30
0.0
 11
193.0951215846339
 21
167.136524822695
 31
0.0
 12
193.0951215846339
 22
167.9698581560284
 32
0.0
 13
193.0951215846339
 23
167.9698581560284
 33
0.0
  0
LINE
  5
7FC
330
7FF
100
AcDbEntity
  8
0
  6
ByBlock
 62
     0
370
    -2
100
AcDbLine
 10
111.7451215846337
 20
139.3430851063818
 30
0.0
 11
111.7451215846337
 21
139.3430851063818
 31
0.0
  0
MTEXT
  5
7FD
330
7FF
100
AcDbEntity
  8
0
  6
ByBlock
 62
     0
100
AcDbMText
 10
153.6701215846339
 20
169.6865244893617
 30
0.0
 40
3.2
 41
0.0
 71
     5
 72
     1
  1
83.85
  7
KCADDIMSTANDARD
 73
     1
 44
1.0
  0
ENDBLK
  5
AFD
330
7FF
100
AcDbEntity
  8
0
100
AcDbBlockEnd
  0
BLOCK
  5
AFE
330
80B
100
AcDbEntity
  8
0
100
AcDbBlockBegin
  2
*D43
 70
     1
 71
     0
 10
0.0
 20
0.0
 30
0.0
  3
*D43
  1

  0
POINT
  5
801
330
80B
100
AcDbEntity
  8
DEFPOINTS
  6
ByBlock
 62
     0
370
    30
100
AcDbPoint
 10
159.7451215846378
 20
123.9183713296419
 30
0.0
  0
POINT
  5
802
330
80B
100
AcDbEntity
  8
DEFPOINTS
  6
ByBlock
 62
     0
370
    30
100
AcDbPoint
 10
111.7451215846337
 20
139.3430851063818
 30
0.0
  0
LINE
  5
803
330
80B
100
AcDbEntity
  8
0
  6
ByBlock
 62
     0
370
    -2
100
AcDbLine
 10
159.7451215846378
 20
124.9183713296419
 30
0.0
 11
159.7451215846378
 21
157.2765233145354
 31
0.0
  0
LINE
  5
804
330
80B
100
AcDbEntity
  8
0
  6
ByBlock
 62
     0
370
    -2
100
AcDbLine
 10
111.7451215846337
 20
140.3430851063818
 30
0.0
 11
111.7451215846337
 21
157.2765233145354
 31
0.0
  0
LINE
  5
805
330
80B
100
AcDbEntity
  8
0
  6
ByBlock
 62
     0
370
    -2
100
AcDbLine
 10
159.7451215846378
 20
156.2765233145354
 30
0.0
 11
111.7451215846337
 21
156.2765233145354
 31
0.0
  0
SOLID
  5
806
330
80B
100
AcDbEntity
  8
0
  6
ByBlock
 62
     0
370
    30
100
AcDbTrace
 10
159.7451215846378
 20
156.2765233145354
 30
0.0
 11
157.2451215846378
 21
156.6931899812022
 31
0.0
 12
157.2451215846378
 22
155.8598566478687
 32
0.0
 13
157.2451215846378
 23
155.8598566478687
 33
0.0
  0
SOLID
  5
807
330
80B
100
AcDbEntity
  8
0
  6
ByBlock
 62
     0
370
    30
100
AcDbTrace
 10
111.7451215846337
 20
156.2765233145354
 30
0.0
 11
114.2451215846337
 21
156.6931899812022
 31
0.0
 12
114.2451215846337
 22
155.8598566478687
 32
0.0
 13
114.2451215846337
 23
155.8598566478687
 33
0.0
  0
LINE
  5
808
330
80B
100
AcDbEntity
  8
0
  6
ByBlock
 62
     0
370
    -2
100
AcDbLine
 10
159.7451215846378
 20
123.9183713296419
 30
0.0
 11
159.7451215846378
 21
123.9183713296419
 31
0.0
  0
MTEXT
  5
809
330
80B
100
AcDbEntity
  8
0
  6
ByBlock
 62
     0
100
AcDbMText
 10
135.7451215846358
 20
158.4098563145354
 30
0.0
 40
3.2
 41
0.0
 71
     5
 72
     1
  1
48
  7
KCADDIMSTANDARD
 73
     1
 44
1.0
  0
ENDBLK
  5
AFF
330
80B
100
AcDbEntity
  8
0
100
AcDbBlockEnd
  0
BLOCK
  5
B00
330
817
100
AcDbEntity
  8
0
100
AcDbBlockBegin
  2
*D44
 70
     1
 71
     0
 10
0.0
 20
0.0
 30
0.0
  3
*D44
  1

  0
POINT
  5
80D
330
817
100
AcDbEntity
  8
DEFPOINTS
  6
ByBlock
 62
     0
370
    30
100
AcDbPoint
 10
127.7451215846339
 20
139.3430851063818
 30
0.0
  0
POINT
  5
80E
330
817
100
AcDbEntity
  8
DEFPOINTS
  6
ByBlock
 62
     0
370
    30
100
AcDbPoint
 10
111.7451215846338
 20
139.3430851063818
 30
0.0
  0
LINE
  5
80F
330
817
100
AcDbEntity
  8
0
  6
ByBlock
 62
     0
370
    -2
100
AcDbLine
 10
127.7451215846339
 20
140.3430851063818
 30
0.0
 11
127.7451215846339
 21
148.4468085106383
 31
0.0
  0
LINE
  5
810
330
817
100
AcDbEntity
  8
0
  6
ByBlock
 62
     0
370
    -2
100
AcDbLine
 10
111.7451215846338
 20
140.3430851063818
 30
0.0
 11
111.7451215846338
 21
148.4468085106383
 31
0.0
  0
LINE
  5
811
330
817
100
AcDbEntity
  8
0
  6
ByBlock
 62
     0
370
    -2
100
AcDbLine
 10
127.7451215846339
 20
147.4468085106383
 30
0.0
 11
111.7451215846338
 21
147.4468085106383
 31
0.0
  0
SOLID
  5
812
330
817
100
AcDbEntity
  8
0
  6
ByBlock
 62
     0
370
    30
100
AcDbTrace
 10
127.7451215846339
 20
147.4468085106383
 30
0.0
 11
125.2451215846339
 21
147.863475177305
 31
0.0
 12
125.2451215846339
 22
147.0301418439716
 32
0.0
 13
125.2451215846339
 23
147.0301418439716
 33
0.0
  0
SOLID
  5
813
330
817
100
AcDbEntity
  8
0
  6
ByBlock
 62
     0
370
    30
100
AcDbTrace
 10
111.7451215846338
 20
147.4468085106383
 30
0.0
 11
114.2451215846338
 21
147.863475177305
 31
0.0
 12
114.2451215846338
 22
147.0301418439716
 32
0.0
 13
114.2451215846338
 23
147.0301418439716
 33
0.0
  0
LINE
  5
814
330
817
100
AcDbEntity
  8
0
  6
ByBlock
 62
     0
370
    -2
100
AcDbLine
 10
127.7451215846339
 20
139.3430851063818
 30
0.0
 11
127.7451215846339
 21
139.3430851063818
 31
0.0
  0
MTEXT
  5
815
330
817
100
AcDbEntity
  8
0
  6
ByBlock
 62
     0
100
AcDbMText
 10
119.7451215846339
 20
149.5801415106383
 30
0.0
 40
3.2
 41
0.0
 71
     5
 72
     1
  1
16
  7
KCADDIMSTANDARD
 73
     1
 44
1.0
  0
ENDBLK
  5
B01
330
817
100
AcDbEntity
  8
0
100
AcDbBlockEnd
  0
BLOCK
  5
B02
330
823
100
AcDbEntity
  8
0
100
AcDbBlockBegin
  2
*D45
 70
     1
 71
     0
 10
0.0
 20
0.0
 30
0.0
  3
*D45
  1

  0
POINT
  5
819
330
823
100
AcDbEntity
  8
DEFPOINTS
  6
ByBlock
 62
     0
370
    30
100
AcDbPoint
 10
207.5951215846339
 20
145.0430851063829
 30
0.0
  0
POINT
  5
81A
330
823
100
AcDbEntity
  8
DEFPOINTS
  6
ByBlock
 62
     0
370
    30
100
AcDbPoint
 10
111.7451215846337
 20
139.343085106383
 30
0.0
  0
LINE
  5
81B
330
823
100
AcDbEntity
  8
0
  6
ByBlock
 62
     0
370
    -2
100
AcDbLine
 10
207.5951215846339
 20
146.0430851063829
 30
0.0
 11
207.5951215846339
 21
179.8350861795036
 31
0.0
  0
LINE
  5
81C
330
823
100
AcDbEntity
  8
0
  6
ByBlock
 62
     0
370
    -2
100
AcDbLine
 10
111.7451215846337
 20
140.343085106383
 30
0.0
 11
111.7451215846337
 21
179.8350861795036
 31
0.0
  0
LINE
  5
81D
330
823
100
AcDbEntity
  8
0
  6
ByBlock
 62
     0
370
    -2
100
AcDbLine
 10
207.5951215846339
 20
178.8350861795036
 30
0.0
 11
111.7451215846337
 21
178.8350861795036
 31
0.0
  0
SOLID
  5
81E
330
823
100
AcDbEntity
  8
0
  6
ByBlock
 62
     0
370
    30
100
AcDbTrace
 10
207.5951215846339
 20
178.8350861795036
 30
0.0
 11
205.0951215846339
 21
179.2517528461703
 31
0.0
 12
205.0951215846339
 22
178.4184195128369
 32
0.0
 13
205.0951215846339
 23
178.4184195128369
 33
0.0
  0
SOLID
  5
81F
330
823
100
AcDbEntity
  8
0
  6
ByBlock
 62
     0
370
    30
100
AcDbTrace
 10
111.7451215846337
 20
178.8350861795036
 30
0.0
 11
114.2451215846337
 21
179.2517528461703
 31
0.0
 12
114.2451215846337
 22
178.4184195128369
 32
0.0
 13
114.2451215846337
 23
178.4184195128369
 33
0.0
  0
LINE
  5
820
330
823
100
AcDbEntity
  8
0
  6
ByBlock
 62
     0
370
    -2
100
AcDbLine
 10
207.5951215846339
 20
145.0430851063829
 30
0.0
 11
207.5951215846339
 21
145.0430851063829
 31
0.0
  0
MTEXT
  5
821
330
823
100
AcDbEntity
  8
0
  6
ByBlock
 62
     0
100
AcDbMText
 10
159.6701215846339
 20
180.9684191795035
 30
0.0
 40
3.2
 41
0.0
 71
     5
 72
     1
  1
95.85
  7
KCADDIMSTANDARD
 73
     1
 44
1.0
  0
ENDBLK
  5
B03
330
823
100
AcDbEntity
  8
0
100
AcDbBlockEnd
  0
BLOCK
  5
B04
330
830
100
AcDbEntity
  8
0
100
AcDbBlockBegin
  2
*D46
 70
     1
 71
     0
 10
0.0
 20
0.0
 30
0.0
  3
*D46
  1

  0
POINT
  5
825
330
830
100
AcDbEntity
  8
DEFPOINTS
  6
ByBlock
 62
     0
370
    30
100
AcDbPoint
 10
127.7451215846339
 20
139.0930851063819
 30
0.0
  0
POINT
  5
826
330
830
100
AcDbEntity
  8
DEFPOINTS
  6
ByBlock
 62
     0
370
    30
100
AcDbPoint
 10
133.7451215846338
 20
139.0930851063819
 30
0.0
  0
LINE
  5
827
330
830
100
AcDbEntity
  8
0
  6
ByBlock
 62
     0
370
    -2
100
AcDbLine
 10
127.7451215846339
 20
140.0930851063819
 30
0.0
 11
127.7451215846339
 21
148.4468085106383
 31
0.0
  0
LINE
  5
828
330
830
100
AcDbEntity
  8
0
  6
ByBlock
 62
     0
370
    -2
100
AcDbLine
 10
133.7451215846338
 20
140.0930851063819
 30
0.0
 11
133.7451215846338
 21
148.4468085106383
 31
0.0
  0
LINE
  5
829
330
830
100
AcDbEntity
  8
0
  6
ByBlock
 62
     0
370
    -2
100
AcDbLine
 10
125.2451215846339
 20
147.4468085106383
 30
0.0
 11
122.7451215846339
 21
147.4468085106383
 31
0.0
  0
SOLID
  5
82A
330
830
100
AcDbEntity
  8
0
  6
ByBlock
 62
     0
370
    30
100
AcDbTrace
 10
127.7451215846339
 20
147.4468085106383
 30
0.0
 11
125.2451215846339
 21
147.0301418439716
 31
0.0
 12
125.2451215846339
 22
147.863475177305
 32
0.0
 13
125.2451215846339
 23
147.863475177305
 33
0.0
  0
LINE
  5
82B
330
830
100
AcDbEntity
  8
0
  6
ByBlock
 62
     0
370
    -2
100
AcDbLine
 10
136.2451215846338
 20
147.4468085106383
 30
0.0
 11
138.7451215846338
 21
147.4468085106383
 31
0.0
  0
SOLID
  5
82C
330
830
100
AcDbEntity
  8
0
  6
ByBlock
 62
     0
370
    30
100
AcDbTrace
 10
133.7451215846338
 20
147.4468085106383
 30
0.0
 11
136.2451215846338
 21
147.0301418439716
 31
0.0
 12
136.2451215846338
 22
147.863475177305
 32
0.0
 13
136.2451215846338
 23
147.863475177305
 33
0.0
  0
LINE
  5
82D
330
830
100
AcDbEntity
  8
0
  6
ByBlock
 62
     0
370
    -2
100
AcDbLine
 10
127.7451215846339
 20
147.4468085106383
 30
0.0
 11
133.7451215846338
 21
147.4468085106383
 31
0.0
  0
MTEXT
  5
82E
330
830
100
AcDbEntity
  8
0
  6
ByBlock
 62
     0
100
AcDbMText
 10
130.7451215846338
 20
149.5801415106383
 30
0.0
 40
3.2
 41
0.0
 71
     5
 72
     1
  1
6
  7
KCADDIMSTANDARD
 73
     1
 44
1.0
  0
ENDBLK
  5
B05
330
830
100
AcDbEntity
  8
0
100
AcDbBlockEnd
  0
BLOCK
  5
B06
330
83C
100
AcDbEntity
  8
0
100
AcDbBlockBegin
  2
*D47
 70
     1
 71
     0
 10
0.0
 20
0.0
 30
0.0
  3
*D47
  1

  0
POINT
  5
832
330
83C
100
AcDbEntity
  8
DEFPOINTS
  6
ByBlock
 62
     0
370
    30
100
AcDbPoint
 10
195.5951215846339
 20
142.5430851063829
 30
0.0
  0
POINT
  5
833
330
83C
100
AcDbEntity
  8
DEFPOINTS
  6
ByBlock
 62
     0
370
    30
100
AcDbPoint
 10
207.5951215846339
 20
145.0430851063829
 30
0.0
  0
LINE
  5
834
330
83C
100
AcDbEntity
  8
0
  6
ByBlock
 62
     0
370
    -2
100
AcDbLine
 10
195.5951215846339
 20
143.5430851063829
 30
0.0
 11
195.5951215846339
 21
168.5531914893617
 31
0.0
  0
LINE
  5
835
330
83C
100
AcDbEntity
  8
0
  6
ByBlock
 62
     0
370
    -2
100
AcDbLine
 10
207.5951215846339
 20
146.0430851063829
 30
0.0
 11
207.5951215846339
 21
168.5531914893617
 31
0.0
  0
LINE
  5
836
330
83C
100
AcDbEntity
  8
0
  6
ByBlock
 62
     0
370
    -2
100
AcDbLine
 10
195.5951215846339
 20
167.5531914893617
 30
0.0
 11
207.5951215846339
 21
167.5531914893617
 31
0.0
  0
SOLID
  5
837
330
83C
100
AcDbEntity
  8
0
  6
ByBlock
 62
     0
370
    30
100
AcDbTrace
 10
195.5951215846339
 20
167.5531914893617
 30
0.0
 11
198.0951215846339
 21
167.136524822695
 31
0.0
 12
198.0951215846339
 22
167.9698581560284
 32
0.0
 13
198.0951215846339
 23
167.9698581560284
 33
0.0
  0
SOLID
  5
838
330
83C
100
AcDbEntity
  8
0
  6
ByBlock
 62
     0
370
    30
100
AcDbTrace
 10
207.5951215846339
 20
167.5531914893617
 30
0.0
 11
205.0951215846339
 21
167.136524822695
 31
0.0
 12
205.0951215846339
 22
167.9698581560284
 32
0.0
 13
205.0951215846339
 23
167.9698581560284
 33
0.0
  0
LINE
  5
839
330
83C
100
AcDbEntity
  8
0
  6
ByBlock
 62
     0
370
    -2
100
AcDbLine
 10
195.5951215846339
 20
142.5430851063829
 30
0.0
 11
195.5951215846339
 21
142.5430851063829
 31
0.0
  0
MTEXT
  5
83A
330
83C
100
AcDbEntity
  8
0
  6
ByBlock
 62
     0
100
AcDbMText
 10
201.5951215846339
 20
169.6865244893617
 30
0.0
 40
3.2
 41
0.0
 71
     5
 72
     1
  1
12
  7
KCADDIMSTANDARD
 73
     1
 44
1.0
  0
ENDBLK
  5
B07
330
83C
100
AcDbEntity
  8
0
100
AcDbBlockEnd
  0
BLOCK
  5
B08
330
848
100
AcDbEntity
  8
0
100
AcDbBlockBegin
  2
*D48
 70
     1
 71
     0
 10
0.0
 20
0.0
 30
0.0
  3
*D48
  1

  0
POINT
  5
83E
330
848
100
AcDbEntity
  8
DEFPOINTS
  6
ByBlock
 62
     0
370
    30
100
AcDbPoint
 10
225.1211215846339
 20
127.3916830127499
 30
0.0
  0
POINT
  5
83F
330
848
100
AcDbEntity
  8
DEFPOINTS
  6
ByBlock
 62
     0
370
    30
100
AcDbPoint
 10
207.595121584634
 20
116.343085106383
 30
0.0
  0
LINE
  5
840
330
848
100
AcDbEntity
  8
0
  6
ByBlock
 62
     0
370
    -2
100
AcDbLine
 10
225.1211215846339
 20
126.3916830127499
 30
0.0
 11
225.1211215846339
 21
100.5599488489925
 31
0.0
  0
LINE
  5
841
330
848
100
AcDbEntity
  8
0
  6
ByBlock
 62
     0
370
    -2
100
AcDbLine
 10
207.595121584634
 20
115.343085106383
 30
0.0
 11
207.595121584634
 21
100.5599488489925
 31
0.0
  0
LINE
  5
842
330
848
100
AcDbEntity
  8
0
  6
ByBlock
 62
     0
370
    -2
100
AcDbLine
 10
225.1211215846339
 20
101.5599488489925
 30
0.0
 11
207.595121584634
 21
101.5599488489925
 31
0.0
  0
SOLID
  5
843
330
848
100
AcDbEntity
  8
0
  6
ByBlock
 62
     0
370
    30
100
AcDbTrace
 10
225.1211215846339
 20
101.5599488489925
 30
0.0
 11
222.1211215846339
 21
102.0599488489926
 31
0.0
 12
222.1211215846339
 22
101.0599488489924
 32
0.0
 13
222.1211215846339
 23
101.0599488489924
 33
0.0
  0
SOLID
  5
844
330
848
100
AcDbEntity
  8
0
  6
ByBlock
 62
     0
370
    30
100
AcDbTrace
 10
207.595121584634
 20
101.5599488489925
 30
0.0
 11
210.595121584634
 21
102.0599488489926
 31
0.0
 12
210.595121584634
 22
101.0599488489924
 32
0.0
 13
210.595121584634
 23
101.0599488489924
 33
0.0
  0
LINE
  5
845
330
848
100
AcDbEntity
  8
0
  6
ByBlock
 62
     0
370
    -2
100
AcDbLine
 10
225.1211215846339
 20
127.3916830127499
 30
0.0
 11
225.1211215846339
 21
127.3916830127499
 31
0.0
  0
MTEXT
  5
846
330
848
100
AcDbEntity
  8
0
  6
ByBlock
 62
     0
100
AcDbMText
 10
247.7950369185939
 20
103.6932818489924
 30
0.0
 40
3.2
 41
0.0
 71
     5
 72
     1
  1
\A1;F.B.=17.526
  7
KCADDIMSTANDARD
 73
     1
 44
1.0
  0
ENDBLK
  5
B09
330
848
100
AcDbEntity
  8
0
100
AcDbBlockEnd
  0
BLOCK
  5
B0A
330
854
100
AcDbEntity
  8
0
100
AcDbBlockBegin
  2
*D49
 70
     1
 71
     0
 10
0.0
 20
0.0
 30
0.0
  3
*D49
  1

  0
POINT
  5
84A
330
854
100
AcDbEntity
  8
DEFPOINTS
  6
ByBlock
 62
     0
370
    30
100
AcDbPoint
 10
111.7451215846337
 20
121.343085106383
 30
0.0
  0
POINT
  5
84B
330
854
100
AcDbEntity
  8
DEFPOINTS
  6
ByBlock
 62
     0
370
    30
100
AcDbPoint
 10
111.7451215846337
 20
139.343085106383
 30
0.0
  0
LINE
  5
84C
330
854
100
AcDbEntity
  8
0
  6
ByBlock
 62
     0
370
    -2
100
AcDbLine
 10
110.7451215846337
 20
121.343085106383
 30
0.0
 11
99.3879587435272
 21
121.343085106383
 31
0.0
  0
LINE
  5
84D
330
854
100
AcDbEntity
  8
0
  6
ByBlock
 62
     0
370
    -2
100
AcDbLine
 10
110.7451215846337
 20
139.343085106383
 30
0.0
 11
99.3879587435272
 21
139.343085106383
 31
0.0
  0
LINE
  5
84E
330
854
100
AcDbEntity
  8
0
  6
ByBlock
 62
     0
370
    -2
100
AcDbLine
 10
100.3879587435272
 20
121.343085106383
 30
0.0
 11
100.3879587435272
 21
139.343085106383
 31
0.0
  0
SOLID
  5
84F
330
854
100
AcDbEntity
  8
0
  6
ByBlock
 62
     0
370
    30
100
AcDbTrace
 10
100.3879587435272
 20
121.343085106383
 30
0.0
 11
100.8046254101939
 21
123.843085106383
 31
0.0
 12
99.97129207686044
 22
123.843085106383
 32
0.0
 13
99.97129207686044
 23
123.843085106383
 33
0.0
  0
SOLID
  5
850
330
854
100
AcDbEntity
  8
0
  6
ByBlock
 62
     0
370
    30
100
AcDbTrace
 10
100.3879587435272
 20
139.343085106383
 30
0.0
 11
100.8046254101939
 21
136.843085106383
 31
0.0
 12
99.97129207686044
 22
136.843085106383
 32
0.0
 13
99.97129207686044
 23
136.843085106383
 33
0.0
  0
LINE
  5
851
330
854
100
AcDbEntity
  8
0
  6
ByBlock
 62
     0
370
    -2
100
AcDbLine
 10
111.7451215846337
 20
121.343085106383
 30
0.0
 11
111.7451215846337
 21
121.343085106383
 31
0.0
  0
MTEXT
  5
852
330
854
100
AcDbEntity
  8
0
  6
ByBlock
 62
     0
100
AcDbMText
 10
98.25462574352741
 20
131.5567864675819
 30
0.0
 40
3.2
 41
0.0
 71
     5
 72
     1
  1
\A1;%%c18
  7
KCADDIMSTANDARD
 11
-1.048992706934038E-15
 21
1.0
 31
0.0
 73
     1
 44
1.0
  0
ENDBLK
  5
B0B
330
854
100
AcDbEntity
  8
0
100
AcDbBlockEnd
  0
BLOCK
  5
B0C
330
860
100
AcDbEntity
  8
0
100
AcDbBlockBegin
  2
*D50
 70
     1
 71
     0
 10
0.0
 20
0.0
 30
0.0
  3
*D50
  1

  0
POINT
  5
856
330
860
100
AcDbEntity
  8
DEFPOINTS
  6
ByBlock
 62
     0
370
    30
100
AcDbPoint
 10
207.295121584634
 20
116.3430851063825
 30
0.0
  0
POINT
  5
857
330
860
100
AcDbEntity
  8
DEFPOINTS
  6
ByBlock
 62
     0
370
    30
100
AcDbPoint
 10
207.2951215846339
 20
144.3430851063825
 30
0.0
  0
LINE
  5
858
330
860
100
AcDbEntity
  8
0
  6
ByBlock
 62
     0
370
    -2
100
AcDbLine
 10
208.295121584634
 20
116.3430851063825
 30
0.0
 11
240.8135668649461
 21
116.3430851063825
 31
0.0
  0
LINE
  5
859
330
860
100
AcDbEntity
  8
0
  6
ByBlock
 62
     0
370
    -2
100
AcDbLine
 10
208.2951215846339
 20
144.3430851063825
 30
0.0
 11
240.8135668649461
 21
144.3430851063825
 31
0.0
  0
LINE
  5
85A
330
860
100
AcDbEntity
  8
0
  6
ByBlock
 62
     0
370
    -2
100
AcDbLine
 10
239.8135668649461
 20
116.3430851063825
 30
0.0
 11
239.8135668649461
 21
144.3430851063825
 31
0.0
  0
SOLID
  5
85B
330
860
100
AcDbEntity
  8
0
  6
ByBlock
 62
     0
370
    30
100
AcDbTrace
 10
239.8135668649461
 20
116.3430851063825
 30
0.0
 11
240.2302335316128
 21
118.8430851063825
 31
0.0
 12
239.3969001982794
 22
118.8430851063825
 32
0.0
 13
239.3969001982794
 23
118.8430851063825
 33
0.0
  0
SOLID
  5
85C
330
860
100
AcDbEntity
  8
0
  6
ByBlock
 62
     0
370
    30
100
AcDbTrace
 10
239.8135668649461
 20
144.3430851063825
 30
0.0
 11
240.2302335316128
 21
141.8430851063825
 31
0.0
 12
239.3969001982794
 22
141.8430851063825
 32
0.0
 13
239.3969001982794
 23
141.8430851063825
 33
0.0
  0
LINE
  5
85D
330
860
100
AcDbEntity
  8
0
  6
ByBlock
 62
     0
370
    -2
100
AcDbLine
 10
207.295121584634
 20
116.3430851063825
 30
0.0
 11
207.295121584634
 21
116.3430851063825
 31
0.0
  0
MTEXT
  5
85E
330
860
100
AcDbEntity
  8
0
  6
ByBlock
 62
     0
100
AcDbMText
 10
237.6802338649461
 20
130.3430851063825
 30
0.0
 40
3.2
 41
0.0
 71
     5
 72
     1
  1
\A1;%%c28
  7
KCADDIMSTANDARD
 11
-1.048992706934038E-15
 21
1.0
 31
0.0
 73
     1
 44
1.0
  0
ENDBLK
  5
B0D
330
860
100
AcDbEntity
  8
0
100
AcDbBlockEnd
  0
BLOCK
  5
B0E
330
86C
100
AcDbEntity
  8
0
100
AcDbBlockBegin
  2
*D51
 70
     1
 71
     0
 10
0.0
 20
0.0
 30
0.0
  3
*D51
  1

  0
POINT
  5
862
330
86C
100
AcDbEntity
  8
DEFPOINTS
  6
ByBlock
 62
     0
370
    30
100
AcDbPoint
 10
111.7451215846337
 20
121.343085106383
 30
0.0
  0
POINT
  5
863
330
86C
100
AcDbEntity
  8
DEFPOINTS
  6
ByBlock
 62
     0
370
    30
100
AcDbPoint
 10
40.64512158463318
 20
130.3430851063818
 30
0.0
  0
LINE
  5
864
330
86C
100
AcDbEntity
  8
0
  6
ByBlock
 62
     0
370
    -2
100
AcDbLine
 10
111.7451215846337
 20
120.343085106383
 30
0.0
 11
111.7451215846337
 21
100.5599488489925
 31
0.0
  0
LINE
  5
865
330
86C
100
AcDbEntity
  8
0
  6
ByBlock
 62
     0
370
    -2
100
AcDbLine
 10
40.64512158463319
 20
129.3430851063818
 30
0.0
 11
40.64512158463319
 21
100.5599488489925
 31
0.0
  0
LINE
  5
866
330
86C
100
AcDbEntity
  8
0
  6
ByBlock
 62
     0
370
    -2
100
AcDbLine
 10
111.7451215846337
 20
101.5599488489925
 30
0.0
 11
40.64512158463319
 21
101.5599488489925
 31
0.0
  0
SOLID
  5
867
330
86C
100
AcDbEntity
  8
0
  6
ByBlock
 62
     0
370
    30
100
AcDbTrace
 10
111.7451215846337
 20
101.5599488489925
 30
0.0
 11
109.2451215846337
 21
101.9766155156593
 31
0.0
 12
109.2451215846337
 22
101.1432821823257
 32
0.0
 13
109.2451215846337
 23
101.1432821823257
 33
0.0
  0
SOLID
  5
868
330
86C
100
AcDbEntity
  8
0
  6
ByBlock
 62
     0
370
    30
100
AcDbTrace
 10
40.64512158463319
 20
101.5599488489925
 30
0.0
 11
43.14512158463319
 21
101.9766155156593
 31
0.0
 12
43.14512158463319
 22
101.1432821823257
 32
0.0
 13
43.14512158463319
 23
101.1432821823257
 33
0.0
  0
LINE
  5
869
330
86C
100
AcDbEntity
  8
0
  6
ByBlock
 62
     0
370
    -2
100
AcDbLine
 10
111.7451215846337
 20
121.343085106383
 30
0.0
 11
111.7451215846337
 21
121.343085106383
 31
0.0
  0
MTEXT
  5
86A
330
86C
100
AcDbEntity
  8
0
  6
ByBlock
 62
     0
100
AcDbMText
 10
74.4558129201853
 20
103.6932818489926
 30
0.0
 40
3.2
 41
0.0
 71
     5
 72
     1
  1
\A1;W.D.=71.1
  7
KCADDIMSTANDARD
 73
     1
 44
1.0
  0
ENDBLK
  5
B0F
330
86C
100
AcDbEntity
  8
0
100
AcDbBlockEnd
  0
BLOCK
  5
B10
330
879
100
AcDbEntity
  8
0
100
AcDbBlockBegin
  2
*D52
 70
     1
 71
     0
 10
0.0
 20
0.0
 30
0.0
  3
*D52
  1

  0
POINT
  5
86E
330
879
100
AcDbEntity
  8
DEFPOINTS
  6
ByBlock
 62
     0
370
    30
100
AcDbPoint
 10
207.5951215846339
 20
145.0430851063829
 30
0.0
  0
POINT
  5
86F
330
879
100
AcDbEntity
  8
DEFPOINTS
  6
ByBlock
 62
     0
370
    30
100
AcDbPoint
 10
211.5951215846339
 20
142.2930851063829
 30
0.0
  0
LINE
  5
870
330
879
100
AcDbEntity
  8
0
  6
ByBlock
 62
     0
370
    -2
100
AcDbLine
 10
207.5951215846339
 20
146.0430851063829
 30
0.0
 11
207.5951215846339
 21
179.8350861795036
 31
0.0
  0
LINE
  5
871
330
879
100
AcDbEntity
  8
0
  6
ByBlock
 62
     0
370
    -2
100
AcDbLine
 10
211.5951215846339
 20
143.2930851063829
 30
0.0
 11
211.5951215846339
 21
179.8350861795036
 31
0.0
  0
LINE
  5
872
330
879
100
AcDbEntity
  8
0
  6
ByBlock
 62
     0
370
    -2
100
AcDbLine
 10
205.0951215846339
 20
178.8350861795036
 30
0.0
 11
202.5951215846339
 21
178.8350861795036
 31
0.0
  0
SOLID
  5
873
330
879
100
AcDbEntity
  8
0
  6
ByBlock
 62
     0
370
    30
100
AcDbTrace
 10
207.5951215846339
 20
178.8350861795036
 30
0.0
 11
205.0951215846339
 21
178.4184195128369
 31
0.0
 12
205.0951215846339
 22
179.2517528461703
 32
0.0
 13
205.0951215846339
 23
179.2517528461703
 33
0.0
  0
LINE
  5
874
330
879
100
AcDbEntity
  8
0
  6
ByBlock
 62
     0
370
    -2
100
AcDbLine
 10
214.0951215846339
 20
178.8350861795036
 30
0.0
 11
216.5951215846339
 21
178.8350861795036
 31
0.0
  0
SOLID
  5
875
330
879
100
AcDbEntity
  8
0
  6
ByBlock
 62
     0
370
    30
100
AcDbTrace
 10
211.5951215846339
 20
178.8350861795036
 30
0.0
 11
214.0951215846339
 21
178.4184195128369
 31
0.0
 12
214.0951215846339
 22
179.2517528461703
 32
0.0
 13
214.0951215846339
 23
179.2517528461703
 33
0.0
  0
LINE
  5
876
330
879
100
AcDbEntity
  8
0
  6
ByBlock
 62
     0
370
    -2
100
AcDbLine
 10
207.5951215846339
 20
178.8350861795036
 30
0.0
 11
211.5951215846339
 21
178.8350861795036
 31
0.0
  0
MTEXT
  5
877
330
879
100
AcDbEntity
  8
0
  6
ByBlock
 62
     0
100
AcDbMText
 10
217.3000376655678
 20
180.9684191795035
 30
0.0
 40
3.2
 41
0.0
 71
     5
 72
     1
  1
4
  7
KCADDIMSTANDARD
 73
     1
 44
1.0
  0
ENDBLK
  5
B11
330
879
100
AcDbEntity
  8
0
100
AcDbBlockEnd
  0
BLOCK
  5
B12
330
884
100
AcDbEntity
  8
0
100
AcDbBlockBegin
  2
*D53
 70
     1
 71
     0
 10
0.0
 20
0.0
 30
0.0
  3
*D53
  1

  0
POINT
  5
87B
330
884
100
AcDbEntity
  8
DEFPOINTS
  6
ByBlock
 62
     0
370
    30
100
AcDbPoint
 10
127.7451215846339
 20
121.593085106384
 30
0.0
  0
POINT
  5
87C
330
884
100
AcDbEntity
  8
DEFPOINTS
  6
ByBlock
 62
     0
370
    30
100
AcDbPoint
 10
127.7451215846339
 20
130.343085106382
 30
0.0
  0
LINE
  5
87D
330
884
100
AcDbEntity
  8
0
  6
ByBlock
 62
     0
370
    -2
100
AcDbLine
 10
128.7451215846339
 20
121.593085106384
 30
0.0
 11
132.5164922951568
 21
121.593085106384
 31
0.0
  0
LINE
  5
87E
330
884
100
AcDbEntity
  8
0
  6
ByBlock
 62
     0
370
    -2
100
AcDbLine
 10
131.5164922951568
 20
121.593085106384
 30
0.0
 11
131.5164922951568
 21
130.343085106382
 31
0.0
  0
SOLID
  5
87F
330
884
100
AcDbEntity
  8
0
  6
ByBlock
 62
     0
370
    30
100
AcDbTrace
 10
131.5164922951568
 20
121.593085106384
 30
0.0
 11
131.9331589618236
 21
124.093085106384
 31
0.0
 12
131.0998256284901
 22
124.093085106384
 32
0.0
 13
131.0998256284901
 23
124.093085106384
 33
0.0
  0
SOLID
  5
880
330
884
100
AcDbEntity
  8
0
  6
ByBlock
 62
     0
370
    30
100
AcDbTrace
 10
131.5164922951568
 20
130.343085106382
 30
0.0
 11
131.9331589618236
 21
127.843085106382
 31
0.0
 12
131.0998256284901
 22
127.843085106382
 32
0.0
 13
131.0998256284901
 23
127.843085106382
 33
0.0
  0
LINE
  5
881
330
884
100
AcDbEntity
  8
0
  6
ByBlock
 62
     0
370
    -2
100
AcDbLine
 10
127.7451215846339
 20
121.593085106384
 30
0.0
 11
127.7451215846339
 21
121.593085106384
 31
0.0
  0
MTEXT
  5
882
330
884
100
AcDbEntity
  8
0
  6
ByBlock
 62
     0
100
AcDbMText
 10
129.3831592951569
 20
110.924119046022
 30
0.0
 40
3.2
 41
0.0
 71
     5
 72
     1
  1
\A1;%%c17.5
  7
KCADDIMSTANDARD
 11
-1.048992706934038E-15
 21
1.0
 31
0.0
 73
     1
 44
1.0
  0
ENDBLK
  5
B13
330
884
100
AcDbEntity
  8
0
100
AcDbBlockEnd
  0
BLOCK
  5
B14
330
890
100
AcDbEntity
  8
0
100
AcDbBlockBegin
  2
*D54
 70
     1
 71
     0
 10
0.0
 20
0.0
 30
0.0
  3
*D54
  1

  0
POINT
  5
886
330
890
100
AcDbEntity
  8
DEFPOINTS
  6
ByBlock
 62
     0
370
    30
100
AcDbPoint
 10
150.745121584638
 20
102.3430851063819
 30
0.0
  0
POINT
  5
887
330
890
100
AcDbEntity
  8
DEFPOINTS
  6
ByBlock
 62
     0
370
    30
100
AcDbPoint
 10
144.7451215846338
 20
130.3430851063822
 30
0.0
  0
LINE
  5
888
330
890
100
AcDbEntity
  8
0
  6
ByBlock
 62
     0
370
    -2
100
AcDbLine
 10
149.745121584638
 20
102.3430851063819
 30
0.0
 11
139.3895802492673
 21
102.3430851063819
 31
0.0
  0
LINE
  5
889
330
890
100
AcDbEntity
  8
0
  6
ByBlock
 62
     0
370
    -2
100
AcDbLine
 10
143.7451215846338
 20
130.3430851063822
 30
0.0
 11
139.3895802492673
 21
130.3430851063822
 31
0.0
  0
LINE
  5
88A
330
890
100
AcDbEntity
  8
0
  6
ByBlock
 62
     0
370
    -2
100
AcDbLine
 10
140.3895802492673
 20
102.3430851063819
 30
0.0
 11
140.3895802492673
 21
130.3430851063822
 31
0.0
  0
SOLID
  5
88B
330
890
100
AcDbEntity
  8
0
  6
ByBlock
 62
     0
370
    30
100
AcDbTrace
 10
140.3895802492673
 20
102.3430851063819
 30
0.0
 11
140.8062469159341
 21
104.8430851063819
 31
0.0
 12
139.9729135826006
 22
104.8430851063819
 32
0.0
 13
139.9729135826006
 23
104.8430851063819
 33
0.0
  0
SOLID
  5
88C
330
890
100
AcDbEntity
  8
0
  6
ByBlock
 62
     0
370
    30
100
AcDbTrace
 10
140.3895802492673
 20
130.3430851063822
 30
0.0
 11
140.8062469159341
 21
127.8430851063822
 31
0.0
 12
139.9729135826006
 22
127.8430851063822
 32
0.0
 13
139.9729135826006
 23
127.8430851063822
 33
0.0
  0
LINE
  5
88D
330
890
100
AcDbEntity
  8
0
  6
ByBlock
 62
     0
370
    -2
100
AcDbLine
 10
150.745121584638
 20
102.3430851063819
 30
0.0
 11
150.745121584638
 21
102.3430851063819
 31
0.0
  0
MTEXT
  5
88E
330
890
100
AcDbEntity
  8
0
  6
ByBlock
 62
     0
100
AcDbMText
 10
138.2562472492674
 20
116.343085106382
 30
0.0
 40
3.2
 41
0.0
 71
     5
 72
     1
  1
28
  7
KCADDIMSTANDARD
 11
-1.048992706934038E-15
 21
1.0
 31
0.0
 73
     1
 44
1.0
  0
ENDBLK
  5
B15
330
890
100
AcDbEntity
  8
0
100
AcDbBlockEnd
  0
BLOCK
  5
B16
330
89C
100
AcDbEntity
  8
0
100
AcDbBlockBegin
  2
*D55
 70
     1
 71
     0
 10
0.0
 20
0.0
 30
0.0
  3
*D55
  1

  0
POINT
  5
892
330
89C
100
AcDbEntity
  8
DEFPOINTS
  6
ByBlock
 62
     0
370
    30
100
AcDbPoint
 10
168.7451215846379
 20
102.3430851063819
 30
0.0
  0
POINT
  5
893
330
89C
100
AcDbEntity
  8
DEFPOINTS
  6
ByBlock
 62
     0
370
    30
100
AcDbPoint
 10
150.745121584638
 20
102.3430851063819
 30
0.0
  0
LINE
  5
894
330
89C
100
AcDbEntity
  8
0
  6
ByBlock
 62
     0
370
    -2
100
AcDbLine
 10
168.7451215846379
 20
101.3430851063819
 30
0.0
 11
168.7451215846379
 21
88.85530477285798
 31
0.0
  0
LINE
  5
895
330
89C
100
AcDbEntity
  8
0
  6
ByBlock
 62
     0
370
    -2
100
AcDbLine
 10
150.745121584638
 20
101.3430851063819
 30
0.0
 11
150.745121584638
 21
88.85530477285798
 31
0.0
  0
LINE
  5
896
330
89C
100
AcDbEntity
  8
0
  6
ByBlock
 62
     0
370
    -2
100
AcDbLine
 10
168.7451215846379
 20
89.85530477285798
 30
0.0
 11
150.745121584638
 21
89.85530477285798
 31
0.0
  0
SOLID
  5
897
330
89C
100
AcDbEntity
  8
0
  6
ByBlock
 62
     0
370
    30
100
AcDbTrace
 10
168.7451215846379
 20
89.85530477285798
 30
0.0
 11
166.2451215846379
 21
90.27197143952472
 31
0.0
 12
166.2451215846379
 22
89.43863810619123
 32
0.0
 13
166.2451215846379
 23
89.43863810619123
 33
0.0
  0
SOLID
  5
898
330
89C
100
AcDbEntity
  8
0
  6
ByBlock
 62
     0
370
    30
100
AcDbTrace
 10
150.745121584638
 20
89.85530477285798
 30
0.0
 11
153.245121584638
 21
90.27197143952472
 31
0.0
 12
153.245121584638
 22
89.43863810619123
 32
0.0
 13
153.245121584638
 23
89.43863810619123
 33
0.0
  0
LINE
  5
899
330
89C
100
AcDbEntity
  8
0
  6
ByBlock
 62
     0
370
    -2
100
AcDbLine
 10
168.7451215846379
 20
102.3430851063819
 30
0.0
 11
168.7451215846379
 21
102.3430851063819
 31
0.0
  0
MTEXT
  5
89A
330
89C
100
AcDbEntity
  8
0
  6
ByBlock
 62
     0
100
AcDbMText
 10
159.7451215846378
 20
91.98863777285796
 30
0.0
 40
3.2
 41
0.0
 71
     5
 72
     1
  1
18
  7
KCADDIMSTANDARD
 73
     1
 44
1.0
  0
ENDBLK
  5
B17
330
89C
100
AcDbEntity
  8
0
100
AcDbBlockEnd
  0
BLOCK
  5
B18
330
8A8
100
AcDbEntity
  8
0
100
AcDbBlockBegin
  2
*D56
 70
     1
 71
     0
 10
0.0
 20
0.0
 30
0.0
  3
*D56
  1

  0
POINT
  5
89E
330
8A8
100
AcDbEntity
  8
DEFPOINTS
  6
ByBlock
 62
     0
370
    30
100
AcDbPoint
 10
168.7451215846379
 20
102.3430851063819
 30
0.0
  0
POINT
  5
89F
330
8A8
100
AcDbEntity
  8
DEFPOINTS
  6
ByBlock
 62
     0
370
    30
100
AcDbPoint
 10
165.7451215846378
 20
111.3430851063819
 30
0.0
  0
LINE
  5
8A0
330
8A8
100
AcDbEntity
  8
0
  6
ByBlock
 62
     0
370
    -2
100
AcDbLine
 10
169.7451215846379
 20
102.3430851063819
 30
0.0
 11
179.0463311382878
 21
102.3430851063819
 31
0.0
  0
LINE
  5
8A1
330
8A8
100
AcDbEntity
  8
0
  6
ByBlock
 62
     0
370
    -2
100
AcDbLine
 10
166.7451215846378
 20
111.3430851063819
 30
0.0
 11
179.0463311382878
 21
111.3430851063819
 31
0.0
  0
LINE
  5
8A2
330
8A8
100
AcDbEntity
  8
0
  6
ByBlock
 62
     0
370
    -2
100
AcDbLine
 10
178.0463311382878
 20
102.3430851063819
 30
0.0
 11
178.0463311382878
 21
111.3430851063819
 31
0.0
  0
SOLID
  5
8A3
330
8A8
100
AcDbEntity
  8
0
  6
ByBlock
 62
     0
370
    30
100
AcDbTrace
 10
178.0463311382878
 20
102.3430851063819
 30
0.0
 11
178.4629978049545
 21
104.8430851063819
 31
0.0
 12
177.6296644716211
 22
104.8430851063819
 32
0.0
 13
177.6296644716211
 23
104.8430851063819
 33
0.0
  0
SOLID
  5
8A4
330
8A8
100
AcDbEntity
  8
0
  6
ByBlock
 62
     0
370
    30
100
AcDbTrace
 10
178.0463311382878
 20
111.3430851063819
 30
0.0
 11
178.4629978049545
 21
108.8430851063819
 31
0.0
 12
177.6296644716211
 22
108.8430851063819
 32
0.0
 13
177.6296644716211
 23
108.8430851063819
 33
0.0
  0
LINE
  5
8A5
330
8A8
100
AcDbEntity
  8
0
  6
ByBlock
 62
     0
370
    -2
100
AcDbLine
 10
168.7451215846379
 20
102.3430851063819
 30
0.0
 11
168.7451215846379
 21
102.3430851063819
 31
0.0
  0
MTEXT
  5
8A6
330
8A8
100
AcDbEntity
  8
0
  6
ByBlock
 62
     0
100
AcDbMText
 10
175.9129981382877
 20
106.843085106382
 30
0.0
 40
3.2
 41
0.0
 71
     5
 72
     1
  1
9
  7
KCADDIMSTANDARD
 11
-1.048992706934038E-15
 21
1.0
 31
0.0
 73
     1
 44
1.0
  0
ENDBLK
  5
B19
330
8A8
100
AcDbEntity
  8
0
100
AcDbBlockEnd
  0
BLOCK
  5
B1A
330
935
100
AcDbEntity
  8
0
100
AcDbBlockBegin
  2
*D57
 70
     1
 71
     0
 10
0.0
 20
0.0
 30
0.0
  3
*D57
  1

  0
POINT
  5
92C
330
935
100
AcDbEntity
  8
DEFPOINTS
  6
ByBlock
 62
     0
370
    30
100
AcDbPoint
 10
116.8458818812432
 20
122.5839250794195
 30
0.0
  0
POINT
  5
92D
330
935
100
AcDbEntity
  8
DEFPOINTS
  6
ByBlock
 62
     0
370
    30
100
AcDbPoint
 10
116.8458818812432
 20
131.3339250794175
 30
0.0
  0
LINE
  5
92E
330
935
100
AcDbEntity
  8
0
  6
ByBlock
 62
     0
370
    -2
100
AcDbLine
 10
117.8458818812432
 20
122.5839250794195
 30
0.0
 11
121.6172525917661
 21
122.5839250794195
 31
0.0
  0
LINE
  5
92F
330
935
100
AcDbEntity
  8
0
  6
ByBlock
 62
     0
370
    -2
100
AcDbLine
 10
120.6172525917661
 20
122.5839250794195
 30
0.0
 11
120.6172525917661
 21
131.3339250794175
 31
0.0
  0
SOLID
  5
930
330
935
100
AcDbEntity
  8
0
  6
ByBlock
 62
     0
370
    30
100
AcDbTrace
 10
120.6172525917661
 20
122.5839250794195
 30
0.0
 11
121.0339192584328
 21
125.0839250794195
 31
0.0
 12
120.2005859250993
 22
125.0839250794195
 32
0.0
 13
120.2005859250993
 23
125.0839250794195
 33
0.0
  0
SOLID
  5
931
330
935
100
AcDbEntity
  8
0
  6
ByBlock
 62
     0
370
    30
100
AcDbTrace
 10
120.6172525917661
 20
131.3339250794175
 30
0.0
 11
121.0339192584328
 21
128.8339250794175
 31
0.0
 12
120.2005859250993
 22
128.8339250794175
 32
0.0
 13
120.2005859250993
 23
128.8339250794175
 33
0.0
  0
LINE
  5
932
330
935
100
AcDbEntity
  8
0
  6
ByBlock
 62
     0
370
    -2
100
AcDbLine
 10
116.8458818812432
 20
122.5839250794195
 30
0.0
 11
116.8458818812432
 21
122.5839250794195
 31
0.0
  0
MTEXT
  5
933
330
935
100
AcDbEntity
  8
0
  6
ByBlock
 62
     0
100
AcDbMText
 10
118.4839195917662
 20
111.9149590190575
 30
0.0
 40
3.2
 41
0.0
 71
     5
 72
     1
  1
\A1;%%c17.5
  7
KCADDIMSTANDARD
 11
-1.048992706934038E-15
 21
1.0
 31
0.0
 73
     1
 44
1.0
  0
ENDBLK
  5
B1B
330
935
100
AcDbEntity
  8
0
100
AcDbBlockEnd
  0
BLOCK
  5
B1C
330
941
100
AcDbEntity
  8
0
100
AcDbBlockBegin
  2
*D58
 70
     1
 71
     0
 10
0.0
 20
0.0
 30
0.0
  3
*D58
  1

  0
POINT
  5
938
330
941
100
AcDbEntity
  8
DEFPOINTS
  6
ByBlock
 62
     0
370
    30
100
AcDbPoint
 10
133.7451215846338
 20
139.0930851063819
 30
0.0
  0
POINT
  5
939
330
941
100
AcDbEntity
  8
DEFPOINTS
  6
ByBlock
 62
     0
370
    30
100
AcDbPoint
 10
133.7451215846338
 20
121.593085106384
 30
0.0
  0
LINE
  5
93A
330
941
100
AcDbEntity
  8
0
  6
ByBlock
 62
     0
370
    -2
100
AcDbLine
 10
132.7451215846338
 20
139.0930851063819
 30
0.0
 11
130.3592805728359
 21
139.0930851063819
 31
0.0
  0
LINE
  5
93B
330
941
100
AcDbEntity
  8
0
  6
ByBlock
 62
     0
370
    -2
100
AcDbLine
 10
132.7451215846338
 20
121.593085106384
 30
0.0
 11
130.3592805728359
 21
121.593085106384
 31
0.0
  0
LINE
  5
93C
330
941
100
AcDbEntity
  8
0
  6
ByBlock
 62
     0
370
    -2
100
AcDbLine
 10
131.3592805728359
 20
136.0930851063819
 30
0.0
 11
131.3592805728359
 21
124.593085106384
 31
0.0
  0
INSERT
  5
93D
330
941
100
AcDbEntity
  8
0
  6
ByBlock
 62
     4
370
    -2
100
AcDbBlockReference
  2
KCAD_OPEN30
 10
131.3592805728359
 20
139.0930851063819
 30
0.0
 41
3.0
 42
3.0
 43
3.0
 50
90.0
  0
INSERT
  5
93E
330
941
100
AcDbEntity
  8
0
  6
ByBlock
 62
     4
370
    -2
100
AcDbBlockReference
  2
KCAD_OPEN30
 10
131.3592805728359
 20
121.593085106384
 30
0.0
 41
3.0
 42
3.0
 43
3.0
 50
270.0
  0
MTEXT
  5
93F
330
941
100
AcDbEntity
  8
0
  6
ByBlock
 62
     0
370
    30
100
AcDbMText
 10
129.2259805728359
 20
130.3430851063829
 30
0.0
 40
3.2
 41
0.0
 71
     5
 72
     1
  1
17.5
  7
KCADDIMSTANDARD
 11
6.123031769111886E-17
 21
1.0
 31
0.0
 73
     1
 44
1.0
  0
ENDBLK
  5
B1D
330
941
100
AcDbEntity
  8
0
100
AcDbBlockEnd
  0
BLOCK
  5
B1E
330
964
100
AcDbEntity
  8
0
100
AcDbBlockBegin
  2
*D59
 70
     1
 71
     0
 10
0.0
 20
0.0
 30
0.0
  3
*D59
  1

  0
POINT
  5
95A
330
964
100
AcDbEntity
  8
DEFPOINTS
  6
ByBlock
 62
     0
370
    30
100
AcDbPoint
 10
133.7451215846338
 20
139.0930851063819
 30
0.0
  0
POINT
  5
95B
330
964
100
AcDbEntity
  8
DEFPOINTS
  6
ByBlock
 62
     0
370
    30
100
AcDbPoint
 10
133.7451215846338
 20
121.593085106384
 30
0.0
  0
LINE
  5
95C
330
964
100
AcDbEntity
  8
0
  6
ByBlock
 62
     0
370
    -2
100
AcDbLine
 10
132.7451215846338
 20
139.0930851063819
 30
0.0
 11
130.3592805728359
 21
139.0930851063819
 31
0.0
  0
LINE
  5
95D
330
964
100
AcDbEntity
  8
0
  6
ByBlock
 62
     0
370
    -2
100
AcDbLine
 10
132.7451215846338
 20
121.593085106384
 30
0.0
 11
130.3592805728359
 21
121.593085106384
 31
0.0
  0
LINE
  5
95E
330
964
100
AcDbEntity
  8
0
  6
ByBlock
 62
     0
370
    -2
100
AcDbLine
 10
131.3592805728359
 20
142.0930851063819
 30
0.0
 11
131.3592805728359
 21
145.0930851063819
 31
0.0
  0
INSERT
  5
95F
330
964
100
AcDbEntity
  8
0
  6
ByBlock
 62
     4
370
    -2
100
AcDbBlockReference
  2
KCAD_OPEN30
 10
131.3592805728359
 20
139.0930851063819
 30
0.0
 41
3.0
 42
3.0
 43
3.0
 50
270.0
  0
LINE
  5
960
330
964
100
AcDbEntity
  8
0
  6
ByBlock
 62
     0
370
    -2
100
AcDbLine
 10
131.3592805728359
 20
118.593085106384
 30
0.0
 11
131.3592805728359
 21
115.593085106384
 31
0.0
  0
INSERT
  5
961
330
964
100
AcDbEntity
  8
0
  6
ByBlock
 62
     4
370
    -2
100
AcDbBlockReference
  2
KCAD_OPEN30
 10
131.3592805728359
 20
121.593085106384
 30
0.0
 41
3.0
 42
3.0
 43
3.0
 50
90.0
  0
MTEXT
  5
962
330
964
100
AcDbEntity
  8
0
  6
ByBlock
 62
     0
370
    30
100
AcDbMText
 10
129.2259805728359
 20
130.3430851063829
 30
0.0
 40
3.2
 41
0.0
 71
     5
 72
     1
  1
\A1;%%c17.5
  7
KCADDIMSTANDARD
 11
6.123031769111886E-17
 21
1.0
 31
0.0
 73
     1
 44
1.0
  0
ENDBLK
  5
B1F
330
964
100
AcDbEntity
  8
0
100
AcDbBlockEnd
  0
BLOCK
  5
B20
330
971
100
AcDbEntity
  8
0
100
AcDbBlockBegin
  2
*D60
 70
     1
 71
     0
 10
0.0
 20
0.0
 30
0.0
  3
*D60
  1

  0
POINT
  5
966
330
971
100
AcDbEntity
  8
DEFPOINTS
  6
ByBlock
 62
     0
370
    30
100
AcDbPoint
 10
133.7451215846338
 20
139.0930851063819
 30
0.0
  0
POINT
  5
967
330
971
100
AcDbEntity
  8
DEFPOINTS
  6
ByBlock
 62
     0
370
    30
100
AcDbPoint
 10
133.7451215846338
 20
121.593085106384
 30
0.0
  0
LINE
  5
968
330
971
100
AcDbEntity
  8
0
  6
ByBlock
 62
     0
370
    -2
100
AcDbLine
 10
132.7451215846338
 20
139.0930851063819
 30
0.0
 11
130.2767105750829
 21
139.0930851063819
 31
0.0
  0
LINE
  5
969
330
971
100
AcDbEntity
  8
0
  6
ByBlock
 62
     0
370
    -2
100
AcDbLine
 10
132.7451215846338
 20
121.593085106384
 30
0.0
 11
130.2767105750829
 21
121.593085106384
 31
0.0
  0
LINE
  5
96A
330
971
100
AcDbEntity
  8
0
  6
ByBlock
 62
     0
370
    -2
100
AcDbLine
 10
131.2767105750829
 20
142.0930851063819
 30
0.0
 11
131.2767105750829
 21
145.0930851063819
 31
0.0
  0
INSERT
  5
96B
330
971
100
AcDbEntity
  8
0
  6
ByBlock
 62
     4
370
    -2
100
AcDbBlockReference
  2
KCAD_OPEN30
 10
131.2767105750829
 20
139.0930851063819
 30
0.0
 41
3.0
 42
3.0
 43
3.0
 50
270.0
  0
LINE
  5
96C
330
971
100
AcDbEntity
  8
0
  6
ByBlock
 62
     0
370
    -2
100
AcDbLine
 10
131.2767105750829
 20
118.593085106384
 30
0.0
 11
131.2767105750829
 21
106.9638372887664
 31
0.0
  0
INSERT
  5
96D
330
971
100
AcDbEntity
  8
0
  6
ByBlock
 62
     4
370
    -2
100
AcDbBlockReference
  2
KCAD_OPEN30
 10
131.2767105750829
 20
121.593085106384
 30
0.0
 41
3.0
 42
3.0
 43
3.0
 50
90.0
  0
LINE
  5
96E
330
971
100
AcDbEntity
  8
0
  6
ByBlock
 62
     0
370
    -2
100
AcDbLine
 10
131.2767105750829
 20
139.0930851063819
 30
0.0
 11
131.2767105750829
 21
121.593085106384
 31
0.0
  0
MTEXT
  5
96F
330
971
100
AcDbEntity
  8
0
  6
ByBlock
 62
     0
370
    30
100
AcDbMText
 10
129.143410575083
 20
109.0971372887663
 30
0.0
 40
3.2
 41
0.0
 71
     5
 72
     1
  1
\A1;%%c17.5
  7
KCADDIMSTANDARD
 11
6.123031769111886E-17
 21
1.0
 31
0.0
 73
     1
 44
1.0
  0
ENDBLK
  5
B21
330
971
100
AcDbEntity
  8
0
100
AcDbBlockEnd
  0
BLOCK
  5
B22
330
987
100
AcDbEntity
  8
0
100
AcDbBlockBegin
  2
*D61
 70
     1
 71
     0
 10
0.0
 20
0.0
 30
0.0
  3
*D61
  1

  0
POINT
  5
97D
330
987
100
AcDbEntity
  8
DEFPOINTS
  6
ByBlock
 62
     0
370
    30
100
AcDbPoint
 10
225.1211215846339
 20
127.3916830127499
 30
0.0
  0
POINT
  5
97E
330
987
100
AcDbEntity
  8
DEFPOINTS
  6
ByBlock
 62
     0
370
    30
100
AcDbPoint
 10
207.595121584634
 20
116.343085106383
 30
0.0
  0
LINE
  5
97F
330
987
100
AcDbEntity
  8
0
  6
ByBlock
 62
     0
370
    -2
100
AcDbLine
 10
225.1211215846339
 20
126.3916830127499
 30
0.0
 11
225.1211215846339
 21
100.5599488489925
 31
0.0
  0
LINE
  5
980
330
987
100
AcDbEntity
  8
0
  6
ByBlock
 62
     0
370
    -2
100
AcDbLine
 10
207.595121584634
 20
115.343085106383
 30
0.0
 11
207.595121584634
 21
100.5599488489925
 31
0.0
  0
LINE
  5
981
330
987
100
AcDbEntity
  8
0
  6
ByBlock
 62
     0
370
    -2
100
AcDbLine
 10
225.1211215846339
 20
101.5599488489925
 30
0.0
 11
207.595121584634
 21
101.5599488489925
 31
0.0
  0
SOLID
  5
982
330
987
100
AcDbEntity
  8
0
  6
ByBlock
 62
     0
370
    30
100
AcDbTrace
 10
225.1211215846339
 20
101.5599488489925
 30
0.0
 11
222.1211215846339
 21
102.0599488489926
 31
0.0
 12
222.1211215846339
 22
101.0599488489924
 32
0.0
 13
222.1211215846339
 23
101.0599488489924
 33
0.0
  0
SOLID
  5
983
330
987
100
AcDbEntity
  8
0
  6
ByBlock
 62
     0
370
    30
100
AcDbTrace
 10
207.595121584634
 20
101.5599488489925
 30
0.0
 11
210.595121584634
 21
102.0599488489926
 31
0.0
 12
210.595121584634
 22
101.0599488489924
 32
0.0
 13
210.595121584634
 23
101.0599488489924
 33
0.0
  0
LINE
  5
984
330
987
100
AcDbEntity
  8
0
  6
ByBlock
 62
     0
370
    -2
100
AcDbLine
 10
225.1211215846339
 20
127.3916830127499
 30
0.0
 11
225.1211215846339
 21
127.3916830127499
 31
0.0
  0
MTEXT
  5
985
330
987
100
AcDbEntity
  8
0
  6
ByBlock
 62
     0
100
AcDbMText
 10
240.811710451367
 20
102.2312182637912
 30
0.0
 40
3.2
 41
0.0
 71
     5
 72
     1
  1
\A1;F.B.=17.526
  7
KCADDIMSTANDARD
 73
     1
 44
1.0
  0
ENDBLK
  5
B23
330
987
100
AcDbEntity
  8
0
100
AcDbBlockEnd
  0
ENDSEC
  0
SECTION
  2
ENTITIES
  0
LINE
  5
2F0
330
1F
100
AcDbEntity
  8
2
  6
Continuous
 62
     7
370
    30
100
AcDbLine
 10
13.87329910140997
 20
201.5523593466425
 30
0.0
 11
284.8838193791154
 21
201.5523593466425
 31
0.0
1001
Sigma
1000

  0
LINE
  5
2F2
330
1F
100
AcDbEntity
  8
2
  6
Continuous
 62
     7
370
    30
100
AcDbLine
 10
13.87329910140997
 20
201.5523593466425
 30
0.0
 11
13.87329910140997
 21
11.75235934666
 31
0.0
1001
Sigma
1000

  0
LINE
  5
2F5
330
1F
100
AcDbEntity
  8
1
  6
Continuous
 62
     7
370
    30
100
AcDbLine
 10
111.7451215846337
 20
139.3430851063818
 30
0.0
 11
111.7451215846338
 21
121.3430851063817
 31
0.0
1001
Sigma
1000

  0
LINE
  5
2F7
330
1F
100
AcDbEntity
  8
1
  6
Continuous
 62
     7
370
    30
100
AcDbLine
 10
111.7451215846338
 20
121.3430851063817
 30
0.0
 11
127.7451215846339
 21
121.3430851063817
 31
0.0
1001
Sigma
1000

  0
LINE
  5
2F9
330
1F
100
AcDbEntity
  8
1
  6
Continuous
 62
     7
370
    30
100
AcDbLine
 10
127.7451215846339
 20
121.3430851063817
 30
0.0
 11
127.7451215846339
 21
139.3430851063818
 31
0.0
1001
Sigma
1000

  0
LINE
  5
2FB
330
1F
100
AcDbEntity
  8
1
  6
Continuous
 62
     7
370
    30
100
AcDbLine
 10
127.7451215846339
 20
139.3430851063818
 30
0.0
 11
111.7451215846338
 21
139.3430851063818
 31
0.0
1001
Sigma
1000

  0
LINE
  5
2FD
330
1F
100
AcDbEntity
  8
1
  6
Continuous
 62
     7
370
    30
100
AcDbLine
 10
127.7451215846339
 20
139.0930851063819
 30
0.0
 11
133.7451215846338
 21
139.0930851063819
 31
0.0
1001
Sigma
1000

  0
LINE
  5
2FF
330
1F
100
AcDbEntity
  8
1
  6
Continuous
 62
     7
370
    30
100
AcDbLine
 10
127.7451215846339
 20
121.593085106384
 30
0.0
 11
133.7451215846338
 21
121.593085106384
 31
0.0
1001
Sigma
1000

  0
LINE
  5
301
330
1F
100
AcDbEntity
  8
1
  6
Continuous
 62
     7
370
    30
100
AcDbLine
 10
133.7451215846337
 20
139.343085106383
 30
0.0
 11
133.7451215846338
 21
121.3430851063828
 31
0.0
1001
Sigma
1000

  0
LINE
  5
303
330
1F
100
AcDbEntity
  8
1
  6
Continuous
 62
     7
370
    30
100
AcDbLine
 10
133.7451215846338
 20
121.3430851063828
 30
0.0
 11
144.7451215846338
 21
121.343085106383
 31
0.0
1001
Sigma
1000

  0
LINE
  5
305
330
1F
100
AcDbEntity
  8
1
  6
Continuous
 62
     7
370
    30
100
AcDbLine
 10
144.7451215846338
 20
139.343085106383
 30
0.0
 11
133.7451215846338
 21
139.343085106383
 31
0.0
1001
Sigma
1000

  0
LINE
  5
307
330
1F
100
AcDbEntity
  8
1
  6
Continuous
 62
     7
370
    30
100
AcDbLine
 10
174.7451215846338
 20
121.3430851063822
 30
0.0
 11
195.5951215846339
 21
121.3430851063824
 31
0.0
1001
Sigma
1000

  0
LINE
  5
309
330
1F
100
AcDbEntity
  8
1
  6
Continuous
 62
     7
370
    30
100
AcDbLine
 10
195.5951215846339
 20
144.0430851063824
 30
0.0
 11
195.595121584634
 21
116.6430851063824
 31
0.0
1001
Sigma
1000

  0
LINE
  5
30B
330
1F
100
AcDbEntity
  8
1
  6
Continuous
 62
     7
370
    30
100
AcDbLine
 10
195.5951215846339
 20
139.3430851063824
 30
0.0
 11
174.7451215846338
 21
139.3430851063824
 31
0.0
1001
Sigma
1000

  0
LINE
  5
30D
330
1F
100
AcDbEntity
  8
1
  6
Continuous
 62
     7
370
    30
100
AcDbLine
 10
195.595121584634
 20
116.6430851063824
 30
0.0
 11
195.895121584634
 21
116.3430851063824
 31
0.0
1001
Sigma
1000

  0
LINE
  5
30F
330
1F
100
AcDbEntity
  8
1
  6
Continuous
 62
     7
370
    30
100
AcDbLine
 10
195.895121584634
 20
116.3430851063824
 30
0.0
 11
207.295121584634
 21
116.3430851063825
 31
0.0
1001
Sigma
1000

  0
LINE
  5
311
330
1F
100
AcDbEntity
  8
1
  6
Continuous
 62
     7
370
    30
100
AcDbLine
 10
207.295121584634
 20
116.3430851063825
 30
0.0
 11
207.595121584634
 21
116.6430851063825
 31
0.0
1001
Sigma
1000

  0
LINE
  5
313
330
1F
100
AcDbEntity
  8
1
  6
Continuous
 62
     7
370
    30
100
AcDbLine
 10
207.595121584634
 20
116.6430851063825
 30
0.0
 11
207.5951215846339
 21
144.0430851063825
 31
0.0
1001
Sigma
1000

  0
LINE
  5
315
330
1F
100
AcDbEntity
  8
1
  6
Continuous
 62
     7
370
    30
100
AcDbLine
 10
207.5951215846339
 20
144.0430851063825
 30
0.0
 11
207.2951215846339
 21
144.3430851063825
 31
0.0
1001
Sigma
1000

  0
LINE
  5
317
330
1F
100
AcDbEntity
  8
1
  6
Continuous
 62
     7
370
    30
100
AcDbLine
 10
207.2951215846339
 20
144.3430851063825
 30
0.0
 11
195.8951215846339
 21
144.3430851063824
 31
0.0
1001
Sigma
1000

  0
LINE
  5
319
330
1F
100
AcDbEntity
  8
1
  6
Continuous
 62
     7
370
    30
100
AcDbLine
 10
195.8951215846339
 20
144.3430851063824
 30
0.0
 11
195.5951215846339
 21
144.0430851063824
 31
0.0
1001
Sigma
1000

  0
LINE
  5
31B
330
1F
100
AcDbEntity
  8
1
  6
Continuous
 62
     7
370
    30
100
AcDbLine
 10
144.7451215846338
 20
139.343085106383
 30
0.0
 11
144.7451215846338
 21
121.3430851063822
 31
0.0
1001
Sigma
1000

  0
LINE
  5
31D
330
1F
100
AcDbEntity
  8
1
  6
Continuous
 62
     7
370
    30
100
AcDbLine
 10
174.7451215846338
 20
139.3430851063824
 30
0.0
 11
174.7451215846338
 21
121.3430851063822
 31
0.0
1001
Sigma
1000

  0
LINE
  5
31F
330
1F
100
AcDbEntity
  8
2
  6
Continuous
 62
     7
370
    15
100
AcDbLine
 10
147.0999999999999
 20
205.0523593466424
 30
0.0
 11
147.0999999999999
 21
201.5523593466425
 31
0.0
1001
Sigma
1000

  0
LINE
  5
321
330
1F
100
AcDbEntity
  8
2
  6
Continuous
 62
     7
370
    15
100
AcDbLine
 10
14.22329910140999
 20
105.0
 30
0.0
 11
12.47329910140999
 21
105.0
 31
0.0
1001
Sigma
1000

  0
LINE
  5
323
330
1F
100
AcDbEntity
  8
2
  6
Continuous
 62
     7
370
    15
100
AcDbLine
 10
284.8838193791156
 20
105.0
 30
0.0
 11
286.6338193791156
 21
105.0
 31
0.0
1001
Sigma
1000

  0
LINE
  5
325
330
1F
100
AcDbEntity
  8
2
  6
Continuous
 62
     7
370
    30
100
AcDbLine
 10
284.8838193791156
 20
11.75235934666
 30
0.0
 11
284.8838193791154
 21
201.5523593466425
 31
0.0
1001
Sigma
1000

  0
LINE
  5
327
330
1F
100
AcDbEntity
  8
2
  6
CENTER
 62
     7
370
    15
100
AcDbLine
 10
228.2180164913619
 20
130.3430851063827
 30
0.0
 11
39.23090802226065
 21
130.3430851063814
 31
0.0
1001
Sigma
1000

  0
LINE
  5
329
330
1F
100
AcDbEntity
  8
2
  6
Continuous
 62
     7
370
    30
100
AcDbLine
 10
111.7451215846338
 20
130.343085106383
 30
0.0
 11
111.7451215846337
 21
121.343085106383
 31
0.0
1001
Sigma
1000

  0
LINE
  5
32B
330
1F
100
AcDbEntity
  8
2
  6
Continuous
 62
     7
370
    30
100
AcDbLine
 10
208.345121584634
 20
117.6430851063829
 30
0.0
 11
210.8451215846339
 21
117.6430851063829
 31
0.0
1001
Sigma
1000

  0
LINE
  5
32D
330
1F
100
AcDbEntity
  8
2
  6
Continuous
 62
     7
370
    30
100
AcDbLine
 10
210.8451215846339
 20
117.6430851063829
 30
0.0
 11
211.5951215846339
 21
118.393085106383
 31
0.0
1001
Sigma
1000

  0
LINE
  5
32F
330
1F
100
AcDbEntity
  8
2
  6
Continuous
 62
     7
370
    30
100
AcDbLine
 10
211.5951215846339
 20
118.393085106383
 30
0.0
 11
211.5951215846339
 21
142.2930851063829
 31
0.0
1001
Sigma
1000

  0
LINE
  5
331
330
1F
100
AcDbEntity
  8
2
  6
Continuous
 62
     7
370
    30
100
AcDbLine
 10
211.5951215846339
 20
142.2930851063829
 30
0.0
 11
210.8451215846339
 21
143.0430851063831
 31
0.0
1001
Sigma
1000

  0
LINE
  5
333
330
1F
100
AcDbEntity
  8
2
  6
Continuous
 62
     7
370
    30
100
AcDbLine
 10
210.8451215846339
 20
143.0430851063831
 30
0.0
 11
208.345121584634
 21
143.0430851063831
 31
0.0
1001
Sigma
1000

  0
LINE
  5
335
330
1F
100
AcDbEntity
  8
2
  6
Continuous
 62
     7
370
    30
100
AcDbLine
 10
210.8451215846339
 20
143.0430851063831
 30
0.0
 11
210.8451215846339
 21
117.6430851063829
 31
0.0
1001
Sigma
1000

  0
LINE
  5
337
330
1F
100
AcDbEntity
  8
2
  6
Continuous
 62
     7
370
    30
100
AcDbLine
 10
208.345121584634
 20
117.6430851063829
 30
0.0
 11
208.345121584634
 21
143.0430851063831
 31
0.0
1001
Sigma
1000

  0
LINE
  5
339
330
1F
100
AcDbEntity
  8
2
  6
Continuous
 62
     7
370
    30
100
AcDbLine
 10
211.5951215846339
 20
142.2930851063829
 30
0.0
 11
207.595121584634
 21
142.2930851063829
 31
0.0
1001
Sigma
1000

  0
LINE
  5
33B
330
1F
100
AcDbEntity
  8
2
  6
Continuous
 62
     7
370
    30
100
AcDbLine
 10
211.5951215846339
 20
118.393085106383
 30
0.0
 11
207.595121584634
 21
118.393085106383
 31
0.0
1001
Sigma
1000

  0
LINE
  5
33D
330
1F
100
AcDbEntity
  8
2
  6
CENTER
 62
     7
370
    15
100
AcDbLine
 10
225.1211215846339
 20
127.3916830127499
 30
0.0
 11
225.1211215846339
 21
133.120751686315
 31
0.0
1001
Sigma
1000

  0
LINE
  5
340
330
1F
100
AcDbEntity
  8
99
  6
Continuous
 62
     7
370
    30
100
AcDbLine
 10
94.88381937911574
 20
59.25235934666003
 30
0.0
 11
284.8838193791156
 21
59.25235934666003
 31
0.0
1001
Sigma
1000

  0
LINE
  5
342
330
1F
100
AcDbEntity
  8
99
  6
Continuous
 62
     7
370
    30
100
AcDbLine
 10
223.8838193791156
 20
11.75235934666001
 30
0.0
 11
223.8838193791156
 21
59.25235934666003
 31
0.0
1001
Sigma
1000

  0
LINE
  5
345
330
1F
100
AcDbEntity
  8
3
  6
Continuous
 62
     7
370
    15
100
AcDbLine
 10
40.64512158463386
 20
130.3430851063815
 30
0.0
 11
42.05933514700697
 21
131.7572986687546
 31
0.0
1001
Sigma
1000

  0
LINE
  5
347
330
1F
100
AcDbEntity
  8
3
  6
Continuous
 62
     7
370
    15
100
AcDbLine
 10
40.64512158463386
 20
130.3430851063815
 30
0.0
 11
40.64512158463386
 21
132.3430851063814
 31
0.0
1001
Sigma
1000

  0
LINE
  5
349
330
1F
100
AcDbEntity
  8
3
  6
Continuous
 62
     7
370
    15
100
AcDbLine
 10
40.64512158463386
 20
130.3430851063824
 30
0.0
 11
42.05933514700697
 21
128.9288715440092
 31
0.0
1001
Sigma
1000

  0
LINE
  5
34B
330
1F
100
AcDbEntity
  8
3
  6
Continuous
 62
     7
370
    15
100
AcDbLine
 10
40.64512158463374
 20
130.3430851063815
 30
0.0
 11
39.23090802226065
 21
131.7572986687546
 31
0.0
1001
Sigma
1000

  0
LINE
  5
34D
330
1F
100
AcDbEntity
  8
3
  6
Continuous
 62
     7
370
    15
100
AcDbLine
 10
40.64512158463374
 20
130.3430851063815
 30
0.0
 11
40.64512158463374
 21
132.3430851063814
 31
0.0
1001
Sigma
1000

  0
LINE
  5
34F
330
1F
100
AcDbEntity
  8
3
  6
Continuous
 62
     7
370
    15
100
AcDbLine
 10
40.64512158463374
 20
130.3430851063824
 30
0.0
 11
39.23090802226065
 21
128.9288715440092
 31
0.0
1001
Sigma
1000

  0
LINE
  5
351
330
1F
100
AcDbEntity
  8
99
  6
Continuous
 62
     7
370
    30
100
AcDbLine
 10
163.8838193791156
 20
31.75235934666001
 30
0.0
 11
284.8838193791156
 21
31.75235934666001
 31
0.0
1001
Sigma
1000

  0
LINE
  5
353
330
1F
100
AcDbEntity
  8
99
  6
Continuous
 62
     7
370
    30
100
AcDbLine
 10
208.8838193791156
 20
11.75235934666001
 30
0.0
 11
208.8838193791156
 21
31.75235934666001
 31
0.0
1001
Sigma
1000

  0
LINE
  5
355
330
1F
100
AcDbEntity
  8
99
  6
Continuous
 62
     7
370
    30
100
AcDbLine
 10
193.8838193791156
 20
11.75235934666001
 30
0.0
 11
193.8838193791156
 21
31.75235934666001
 31
0.0
1001
Sigma
1000

  0
LINE
  5
357
330
1F
100
AcDbEntity
  8
99
  6
Continuous
 62
     7
370
    30
100
AcDbLine
 10
178.8838193791156
 20
11.75235934666001
 30
0.0
 11
178.8838193791156
 21
59.25235934666003
 31
0.0
1001
Sigma
1000

  0
LINE
  5
359
330
1F
100
AcDbEntity
  8
99
  6
Continuous
 62
     7
370
    30
100
AcDbLine
 10
163.8838193791156
 20
11.75235934666001
 30
0.0
 11
163.8838193791156
 21
59.25235934666003
 31
0.0
1001
Sigma
1000

  0
LINE
  5
35B
330
1F
100
AcDbEntity
  8
99
  6
Continuous
 62
     7
370
    15
100
AcDbLine
 10
94.88381937911574
 20
16.75235934666003
 30
0.0
 11
163.8838193791156
 21
16.75235934666003
 31
0.0
1001
Sigma
1000

  0
LINE
  5
35D
330
1F
100
AcDbEntity
  8
99
  6
Continuous
 62
     7
370
    15
100
AcDbLine
 10
94.88381937911574
 20
21.75235934666003
 30
0.0
 11
163.8838193791156
 21
21.75235934666003
 31
0.0
1001
Sigma
1000

  0
TEXT
  5
35F
330
1F
100
AcDbEntity
  8
3
  6
Continuous
 62
     7
370
    30
100
AcDbText
 10
105.5668066075752
 20
70.53647892004267
 30
0.0
 40
2.879999828338623
  1
ＫＣＭ－０７Ｄ :　倍率＝０．７倍　　Ｗ．Ｄ．（作動距離)＝７１ｍｍ
 41
0.835179319409385
  7
KCADTEXTSTANDARD
100
AcDbText
1001
Sigma
1000

  0
LINE
  5
361
330
1F
100
AcDbEntity
  8
99
  6
Continuous
 62
     7
370
    15
100
AcDbLine
 10
94.88381937911574
 20
26.75235934666003
 30
0.0
 11
223.8838193791156
 21
26.75235934666003
 31
0.0
1001
Sigma
1000

  0
LINE
  5
363
330
1F
100
AcDbEntity
  8
2
  6
Continuous
 62
     7
370
    30
100
AcDbLine
 10
13.87329910140997
 20
11.75235934666
 30
0.0
 11
284.8838193791156
 21
11.75235934666
 31
0.0
1001
Sigma
1000

  0
LINE
  5
365
330
1F
100
AcDbEntity
  8
99
  6
Continuous
 62
     7
370
    15
100
AcDbLine
 10
94.88381937911574
 20
31.75235934666001
 30
0.0
 11
163.8838193791156
 21
31.75235934666001
 31
0.0
1001
Sigma
1000

  0
LINE
  5
367
330
1F
100
AcDbEntity
  8
99
  6
Continuous
 62
     7
370
    15
100
AcDbLine
 10
94.88381937911574
 20
36.75235934666003
 30
0.0
 11
163.8838193791156
 21
36.75235934666003
 31
0.0
1001
Sigma
1000

  0
LINE
  5
369
330
1F
100
AcDbEntity
  8
99
  6
Continuous
 62
     7
370
    30
100
AcDbLine
 10
178.8838193791156
 20
39.25235934666003
 30
0.0
 11
284.8838193791156
 21
39.25235934666003
 31
0.0
1001
Sigma
1000

  0
LINE
  5
36B
330
1F
100
AcDbEntity
  8
99
  6
Continuous
 62
     7
370
    15
100
AcDbLine
 10
115.8838193791156
 20
11.75235934666001
 30
0.0
 11
115.8838193791156
 21
46.75235934666003
 31
0.0
1001
Sigma
1000

  0
LINE
  5
36D
330
1F
100
AcDbEntity
  8
99
  6
Continuous
 62
     7
370
    15
100
AcDbLine
 10
126.8838193791157
 20
11.75235934666001
 30
0.0
 11
126.8838193791157
 21
46.75235934666003
 31
0.0
1001
Sigma
1000

  0
LINE
  5
36F
330
1F
100
AcDbEntity
  8
99
  6
Continuous
 62
     7
370
    15
100
AcDbLine
 10
228.8838193791156
 20
11.75235934666001
 30
0.0
 11
228.8838193791156
 21
46.75235934666003
 31
0.0
1001
Sigma
1000

  0
LINE
  5
371
330
1F
100
AcDbEntity
  8
99
  6
Continuous
 62
     7
370
    30
100
AcDbLine
 10
223.8838193791156
 20
21.75235934666003
 30
0.0
 11
284.8838193791156
 21
21.75235934666003
 31
0.0
1001
Sigma
1000

  0
TEXT
  5
373
330
1F
100
AcDbEntity
  8
99
  6
Continuous
 62
     7
370
    30
100
AcDbText
 10
224.6137336406258
 20
28.63791118426004
 30
0.0
 40
2.7
  1
製
 41
1.266666666666665
  7
KCADTEXTSTANDARD
100
AcDbText
1001
Sigma
1000

  0
TEXT
  5
375
330
1F
100
AcDbEntity
  8
99
  6
Continuous
 62
     7
370
    30
100
AcDbText
 10
178.1088193791156
 20
40.97735934666003
 30
0.0
 40
4.049999999999998
  1
 三角法
 41
0.791666663520866
  7
KCADTEXTSTANDARD
100
AcDbText
1001
Sigma
1000

  0
TEXT
  5
377
330
1F
100
AcDbEntity
  8
99
  6
Continuous
 62
     7
370
    30
100
AcDbText
 10
224.6137336406258
 20
25.53791118426004
 30
0.0
 40
2.7
  1
品
 41
1.266666666666665
  7
KCADTEXTSTANDARD
100
AcDbText
1001
Sigma
1000

  0
LINE
  5
379
330
1F
100
AcDbEntity
  8
99
  6
Continuous
 62
     7
370
    15
100
AcDbLine
 10
99.01601353182573
 20
17.45283220116003
 30
0.0
 11
95.81601353182577
 21
17.45283220116003
 31
0.0
1001
Sigma
1000

  0
TEXT
  5
37B
330
1F
100
AcDbEntity
  8
99
  6
Continuous
 62
     7
370
    30
100
AcDbText
 10
224.6137336406258
 20
22.43791118426002
 30
0.0
 40
2.7
  1
名
 41
1.266666666666665
  7
KCADTEXTSTANDARD
100
AcDbText
1001
Sigma
1000

  0
TEXT
  5
37D
330
1F
100
AcDbEntity
  8
99
  6
Continuous
 62
     7
370
    30
100
AcDbText
 10
163.7316875961657
 20
27.55342558986002
 30
0.0
 40
3.6
  1
 設計  製図  検図  承認
 41
1.147916666666666
  7
KCADTEXTSTANDARD
100
AcDbText
1001
Sigma
1000

  0
TEXT
  5
37F
330
1F
100
AcDbEntity
  8
99
  6
Continuous
 62
     7
370
    30
100
AcDbText
 10
99.39110830122075
 20
12.55571478696
 30
0.0
 40
3.6
  1
 年月日   担当       訂 正 記 事
 41
0.8102941176470586
  7
KCADTEXTSTANDARD
100
AcDbText
1001
Sigma
1000

  0
TEXT
  5
381
330
1F
100
AcDbEntity
  8
99
  6
Continuous
 62
     7
370
    30
100
AcDbText
 10
95.58772562911577
 20
12.72211478386001
 30
0.0
 40
3.6
  1
符号
 41
0.4987499985843897
  7
KCADTEXTSTANDARD
100
AcDbText
1001
Sigma
1000

  0
LINE
  5
383
330
1F
100
AcDbEntity
  8
99
  6
Continuous
 62
     7
370
    15
100
AcDbLine
 10
99.01601353182573
 20
37.45283220116002
 30
0.0
 11
95.81601353182577
 21
37.45283220116002
 31
0.0
1001
Sigma
1000

  0
LINE
  5
385
330
1F
100
AcDbEntity
  8
99
  6
Continuous
 62
     7
370
    15
100
AcDbLine
 10
97.41601353182574
 20
40.91693381636003
 30
0.0
 11
99.01601353182573
 21
37.45283220116002
 31
0.0
1001
Sigma
1000

  0
TEXT
  5
387
330
1F
100
AcDbEntity
  8
99
  6
Continuous
 62
     7
370
    15
100
AcDbText
 10
97.01792291655323
 20
38.03913712138717
 30
0.0
 40
2.082815953445433
  1
5
 41
0.577433628318584
  7
KCADTEXTSTANDARD
100
AcDbText
1001
Sigma
1000

  0
LINE
  5
389
330
1F
100
AcDbEntity
  8
99
  6
Continuous
 62
     7
370
    15
100
AcDbLine
 10
95.81601353182577
 20
37.45283220116002
 30
0.0
 11
97.41601353182574
 21
40.91693381636003
 31
0.0
1001
Sigma
1000

  0
LINE
  5
38B
330
1F
100
AcDbEntity
  8
99
  6
Continuous
 62
     7
370
    15
100
AcDbLine
 10
99.01601353182573
 20
32.45283220116002
 30
0.0
 11
95.81601353182577
 21
32.45283220116002
 31
0.0
1001
Sigma
1000

  0
LINE
  5
38D
330
1F
100
AcDbEntity
  8
99
  6
Continuous
 62
     7
370
    15
100
AcDbLine
 10
97.41601353182574
 20
35.91693381636003
 30
0.0
 11
99.01601353182573
 21
32.45283220116002
 31
0.0
1001
Sigma
1000

  0
TEXT
  5
38F
330
1F
100
AcDbEntity
  8
99
  6
Continuous
 62
     7
370
    15
100
AcDbText
 10
97.01792291655323
 20
33.0391371213872
 30
0.0
 40
2.082815953445433
  1
4
 41
0.577433628318584
  7
KCADTEXTSTANDARD
100
AcDbText
1001
Sigma
1000

  0
LINE
  5
391
330
1F
100
AcDbEntity
  8
99
  6
Continuous
 62
     7
370
    15
100
AcDbLine
 10
95.81601353182577
 20
32.45283220116002
 30
0.0
 11
97.41601353182574
 21
35.91693381636003
 31
0.0
1001
Sigma
1000

  0
LINE
  5
393
330
1F
100
AcDbEntity
  8
99
  6
Continuous
 62
     7
370
    15
100
AcDbLine
 10
99.01601353182573
 20
27.45283220116005
 30
0.0
 11
95.81601353182577
 21
27.45283220116005
 31
0.0
1001
Sigma
1000

  0
LINE
  5
395
330
1F
100
AcDbEntity
  8
99
  6
Continuous
 62
     7
370
    15
100
AcDbLine
 10
97.41601353182574
 20
30.91693381636001
 30
0.0
 11
99.01601353182573
 21
27.45283220116005
 31
0.0
1001
Sigma
1000

  0
TEXT
  5
397
330
1F
100
AcDbEntity
  8
99
  6
Continuous
 62
     7
370
    15
100
AcDbText
 10
97.01792291655323
 20
28.03913712138719
 30
0.0
 40
2.082815953445433
  1
3
 41
0.577433628318584
  7
KCADTEXTSTANDARD
100
AcDbText
1001
Sigma
1000

  0
LINE
  5
399
330
1F
100
AcDbEntity
  8
99
  6
Continuous
 62
     7
370
    15
100
AcDbLine
 10
97.41601353182574
 20
20.91693381636003
 30
0.0
 11
99.01601353182573
 21
17.45283220116003
 31
0.0
1001
Sigma
1000

  0
LINE
  5
39B
330
1F
100
AcDbEntity
  8
99
  6
Continuous
 62
     7
370
    15
100
AcDbLine
 10
95.81601353182577
 20
17.45283220116003
 30
0.0
 11
97.41601353182574
 21
20.91693381636003
 31
0.0
1001
Sigma
1000

  0
LINE
  5
39D
330
1F
100
AcDbEntity
  8
99
  6
Continuous
 62
     7
370
    15
100
AcDbLine
 10
95.81601353182577
 20
27.45283220116005
 30
0.0
 11
97.41601353182574
 21
30.91693381636001
 31
0.0
1001
Sigma
1000

  0
TEXT
  5
39F
330
1F
100
AcDbEntity
  8
99
  6
Continuous
 62
     7
370
    15
100
AcDbText
 10
97.01792291655323
 20
23.03913712138718
 30
0.0
 40
2.082815953445433
  1
2
 41
0.577433628318584
  7
KCADTEXTSTANDARD
100
AcDbText
1001
Sigma
1000

  0
LINE
  5
3A1
330
1F
100
AcDbEntity
  8
99
  6
Continuous
 62
     7
370
    15
100
AcDbLine
 10
99.01601353182573
 20
22.45283220116003
 30
0.0
 11
95.81601353182577
 21
22.45283220116003
 31
0.0
1001
Sigma
1000

  0
LINE
  5
3A3
330
1F
100
AcDbEntity
  8
99
  6
Continuous
 62
     7
370
    15
100
AcDbLine
 10
97.41601353182574
 20
25.91693381636003
 30
0.0
 11
99.01601353182573
 21
22.45283220116003
 31
0.0
1001
Sigma
1000

  0
LINE
  5
3A5
330
1F
100
AcDbEntity
  8
99
  6
Continuous
 62
     7
370
    15
100
AcDbLine
 10
95.81601353182577
 20
22.45283220116003
 30
0.0
 11
97.41601353182574
 21
25.91693381636003
 31
0.0
1001
Sigma
1000

  0
TEXT
  5
3A7
330
1F
100
AcDbEntity
  8
99
  6
Continuous
 62
     7
370
    15
100
AcDbText
 10
97.01792291655323
 20
18.03913712138719
 30
0.0
 40
2.082815953445433
  1
1
 41
0.577433628318584
  7
KCADTEXTSTANDARD
100
AcDbText
1001
Sigma
1000

  0
TEXT
  5
3A9
330
1F
100
AcDbEntity
  8
99
  6
Continuous
 62
     7
370
    30
100
AcDbText
 10
224.6017334387456
 20
32.51422980946002
 30
0.0
 40
2.7
  1
差
 41
1.266666666666665
  7
KCADTEXTSTANDARD
100
AcDbText
1001
Sigma
1000

  0
TEXT
  5
3AB
330
1F
100
AcDbEntity
  8
99
  6
Continuous
 62
     7
370
    30
100
AcDbText
 10
224.6017334387456
 20
36.01422980946002
 30
0.0
 40
2.7
  1
公
 41
1.266666666666665
  7
KCADTEXTSTANDARD
100
AcDbText
1001
Sigma
1000

  0
TEXT
  5
3AD
330
1F
100
AcDbEntity
  8
99
  6
Continuous
 62
     7
370
    30
100
AcDbText
 10
194.7017334625875
 20
43.51422980946002
 30
0.0
 40
2.7
  1
面
 41
1.203333318233488
  7
KCADTEXTSTANDARD
100
AcDbText
1001
Sigma
1000

  0
TEXT
  5
3AF
330
1F
100
AcDbEntity
  8
99
  6
Continuous
 62
     7
370
    30
100
AcDbText
 10
194.7017334625875
 20
40.01422980946002
 30
0.0
 40
2.7
  1
取
 41
1.203333318233488
  7
KCADTEXTSTANDARD
100
AcDbText
1001
Sigma
1000

  0
TEXT
  5
3B1
330
1F
100
AcDbEntity
  8
99
  6
Continuous
 62
     7
370
    30
100
AcDbText
 10
224.6017334387456
 20
40.01422980946002
 30
0.0
 40
2.7
  1
上
 41
1.266666666666665
  7
KCADTEXTSTANDARD
100
AcDbText
1001
Sigma
1000

  0
TEXT
  5
3B3
330
1F
100
AcDbEntity
  8
99
  6
Continuous
 62
     7
370
    30
100
AcDbText
 10
224.6017334387456
 20
43.51422980946002
 30
0.0
 40
2.7
  1
仕
 41
1.266666666666665
  7
KCADTEXTSTANDARD
100
AcDbText
1001
Sigma
1000

  0
LINE
  5
3B5
330
1F
100
AcDbEntity
  8
99
  6
Continuous
 62
     7
370
    30
100
AcDbLine
 10
115.8838193791156
 20
46.75235934666003
 30
0.0
 11
115.8838193791156
 21
59.25235934666003
 31
0.0
1001
Sigma
1000

  0
TEXT
  5
3B7
330
1F
100
AcDbEntity
  8
99
  6
Continuous
 62
     7
370
    30
100
AcDbText
 10
224.5338193791158
 20
17.90235934666003
 30
0.0
 40
2.7
  1
図
 41
1.266666666666665
  7
KCADTEXTSTANDARD
100
AcDbText
1001
Sigma
1000

  0
TEXT
  5
3B9
330
1F
100
AcDbEntity
  8
99
  6
Continuous
 62
     7
370
    30
100
AcDbText
 10
224.5338193791158
 20
13.40235934666003
 30
0.0
 40
2.7
  1
番
 41
1.266666666666665
  7
KCADTEXTSTANDARD
100
AcDbText
1001
Sigma
1000

  0
LINE
  5
3BB
330
1F
100
AcDbEntity
  8
99
  6
Continuous
 62
     7
370
    15
100
AcDbLine
 10
94.88381937911574
 20
51.75235934666003
 30
0.0
 11
284.8838193791156
 21
51.75235934666003
 31
0.0
1001
Sigma
1000

  0
LINE
  5
3BD
330
1F
100
AcDbEntity
  8
99
  6
Continuous
 62
     7
370
    15
100
AcDbLine
 10
198.8838193791156
 20
46.75235934666003
 30
0.0
 11
198.8838193791156
 21
39.25235934666003
 31
0.0
1001
Sigma
1000

  0
TEXT
  5
3BF
330
1F
100
AcDbEntity
  8
99
  6
Continuous
 62
     7
370
    30
100
AcDbText
 10
166.2757112710056
 20
42.65449183306002
 30
0.0
 40
3.6
  1
尺度
 41
1.1875
  7
KCADTEXTSTANDARD
100
AcDbText
1001
Sigma
1000

  0
LINE
  5
3C1
330
1F
100
AcDbEntity
  8
99
  6
Continuous
 62
     7
370
    15
100
AcDbLine
 10
95.81601353182577
 20
42.45283220116004
 30
0.0
 11
97.41601353182574
 21
45.91693381633002
 31
0.0
1001
Sigma
1000

  0
TEXT
  5
3C3
330
1F
100
AcDbEntity
  8
99
  6
Continuous
 62
     7
370
    15
100
AcDbText
 10
97.01792291655323
 20
43.03913712138718
 30
0.0
 40
2.082815953445433
  1
6
 41
0.577433628318584
  7
KCADTEXTSTANDARD
100
AcDbText
1001
Sigma
1000

  0
LINE
  5
3C5
330
1F
100
AcDbEntity
  8
99
  6
Continuous
 62
     7
370
    15
100
AcDbLine
 10
97.41601353182574
 20
45.91693381633002
 30
0.0
 11
99.01601353182573
 21
42.45283220116004
 31
0.0
1001
Sigma
1000

  0
LINE
  5
3C7
330
1F
100
AcDbEntity
  8
99
  6
Continuous
 62
     7
370
    15
100
AcDbLine
 10
99.01601353182573
 20
42.45283220116004
 30
0.0
 11
95.81601353182577
 21
42.45283220116004
 31
0.0
1001
Sigma
1000

  0
LINE
  5
3C9
330
1F
100
AcDbEntity
  8
99
  6
Continuous
 62
     7
370
    30
100
AcDbLine
 10
193.8838193791156
 20
39.25235934666003
 30
0.0
 11
193.8838193791156
 21
46.75235934666003
 31
0.0
1001
Sigma
1000

  0
LINE
  5
3CB
330
1F
100
AcDbEntity
  8
99
  6
Continuous
 62
     7
370
    30
100
AcDbLine
 10
94.88381937911574
 20
46.75235934666003
 30
0.0
 11
284.8838193791156
 21
46.75235934666003
 31
0.0
1001
Sigma
1000

  0
LINE
  5
3CD
330
1F
100
AcDbEntity
  8
99
  6
Continuous
 62
     7
370
    15
100
AcDbLine
 10
94.88381937911574
 20
41.75235934666003
 30
0.0
 11
178.8838193791156
 21
41.75235934666003
 31
0.0
1001
Sigma
1000

  0
LINE
  5
3CF
330
1F
100
AcDbEntity
  8
99
  6
Continuous
 62
     7
370
    15
100
AcDbLine
 10
99.88381937911578
 20
11.75235934666001
 30
0.0
 11
99.88381937911578
 21
46.75235934666003
 31
0.0
1001
Sigma
1000

  0
TEXT
  5
3D1
330
1F
100
AcDbEntity
  8
99
  6
Continuous
 62
     7
370
    30
100
AcDbText
 10
96.71851732335277
 20
47.45709445156004
 30
0.0
 40
3.6
  1
部品番号     部   品   名
 41
0.7659374981911647
  7
KCADTEXTSTANDARD
100
AcDbText
1001
Sigma
1000

  0
TEXT
  5
3D3
330
1F
100
AcDbEntity
  8
99
  6
Continuous
 62
     7
370
    30
100
AcDbText
 10
166.2757112710056
 20
47.75449183305002
 30
0.0
 40
3.6
  1
個数
 41
1.1875
  7
KCADTEXTSTANDARD
100
AcDbText
1001
Sigma
1000

  0
TEXT
  5
3D5
330
1F
100
AcDbEntity
  8
99
  6
Continuous
 62
     7
370
    30
100
AcDbText
 10
187.7316875961757
 20
47.75342558985003
 30
0.0
 40
3.6
  1
材       質                 表  面  処  理
 41
0.6678663776994779
  7
KCADTEXTSTANDARD
100
AcDbText
1001
Sigma
1000

  0
LINE
  5
3D7
330
1F
100
AcDbEntity
  8
99
  6
Continuous
 62
     7
370
    30
100
AcDbLine
 10
94.88381937911574
 20
59.25235934666003
 30
0.0
 11
94.88381937911574
 21
11.75235934666001
 31
0.0
1001
Sigma
1000

  0
TEXT
  5
3D9
330
1F
100
AcDbEntity
  8
99
  6
Continuous
 62
     7
370
    30
100
AcDbText
 10
166.5182429569458
 20
35.02214114806003
 30
0.0
 40
4.067999999999998
  1
1/1
 41
1.22295977326152
  7
KCADTEXTSTANDARD
100
AcDbText
1001
Sigma
1000

  0
TEXT
  5
3DB
330
1F
100
AcDbEntity
  8
99
  6
Continuous
 62
     7
370
    30
100
AcDbText
 10
237.2295497058427
 20
13.74196043536702
 30
0.0
 40
5.69520038795471
  1
TSTM-070
 41
0.9100394675336987
  7
KCADTEXTSTANDARD
100
AcDbText
1001
Sigma
1000

  0
TEXT
  5
3DD
330
1F
100
AcDbEntity
  8
2
  6
Continuous
 62
     7
370
    30
100
AcDbText
 10
133.1770631327917
 20
53.9643316494228
 30
0.0
 40
3.307500171661376
  1
外観図
 41
0.9771428555286851
  7
KCADTEXTSTANDARD
100
AcDbText
1001
Sigma
1000

  0
TEXT
  5
3E7
330
1F
100
AcDbEntity
  8
2
  6
Continuous
 62
     7
370
    30
100
AcDbText
 10
100.7707024073819
 20
54.47125080008699
 30
0.0
 40
2.362499999999999
  1
１００
 41
1.007904774991292
  7
KCADTEXTSTANDARD
100
AcDbText
1001
Sigma
1000

  0
TEXT
  5
3E9
330
1F
100
AcDbEntity
  8
99
  6
Continuous
 62
     7
370
    30
100
AcDbText
 10
239.6045497058427
 20
23.74196043536702
 30
0.0
 40
5.69520038795471
  1
KCM-07D
 41
0.8517293308279446
  7
KCADTEXTSTANDARD
100
AcDbText
1001
Sigma
1000

  0
TEXT
  5
3EB
330
1F
100
AcDbEntity
  8
99
  6
Continuous
 62
     7
370
    30
100
AcDbText
 10
240.8592251145456
 20
52.78485806228004
 30
0.0
 40
4.5
  1
梨地黒アルマイト
 41
0.653125
  7
KCADTEXTSTANDARD
100
AcDbText
1001
Sigma
1000

  0
LINE
  5
3ED
330
1F
100
AcDbEntity
  8
1
  6
Continuous
 62
     7
370
    30
100
AcDbLine
 10
144.745121584638
 20
121.3430851063818
 30
0.0
 11
144.745121584638
 21
139.343085106382
 31
0.0
1001
Sigma
1000

  0
LINE
  5
3EF
330
1F
100
AcDbEntity
  8
1
  6
Continuous
 62
     7
370
    30
100
AcDbLine
 10
174.7451215846379
 20
121.3430851063818
 30
0.0
 11
174.7451215846379
 21
139.343085106382
 31
0.0
1001
Sigma
1000

  0
LINE
  5
3F1
330
1F
100
AcDbEntity
  8
1
  6
Continuous
 62
     7
370
    30
100
AcDbLine
 10
144.745121584638
 20
139.343085106382
 30
0.0
 11
144.745121584638
 21
121.3430851063818
 31
0.0
1001
Sigma
1000

  0
LINE
  5
3F3
330
1F
100
AcDbEntity
  8
1
  6
Continuous
 62
     7
370
    30
100
AcDbLine
 10
144.745121584638
 20
118.3430851063819
 30
0.0
 11
144.7451215846383
 21
140.3430851063819
 31
0.0
1001
Sigma
1000

  0
LINE
  5
3F5
330
1F
100
AcDbEntity
  8
1
  6
Continuous
 62
     7
370
    30
100
AcDbLine
 10
144.7451215846383
 20
140.3430851063819
 30
0.0
 11
174.7451215846379
 21
140.3430851063819
 31
0.0
1001
Sigma
1000

  0
LINE
  5
3F7
330
1F
100
AcDbEntity
  8
1
  6
Continuous
 62
     7
370
    30
100
AcDbLine
 10
174.7451215846379
 20
140.3430851063819
 30
0.0
 11
174.7451215846379
 21
118.3430851063819
 31
0.0
1001
Sigma
1000

  0
LINE
  5
3F9
330
1F
100
AcDbEntity
  8
1
  6
Continuous
 62
     7
370
    30
100
AcDbLine
 10
174.7451215846379
 20
118.3430851063819
 30
0.0
 11
144.745121584638
 21
118.3430851063819
 31
0.0
1001
Sigma
1000

  0
LINE
  5
3FB
330
1F
100
AcDbEntity
  8
1
  6
Continuous
 62
     7
370
    30
100
AcDbLine
 10
174.7451215846379
 20
121.3430851063818
 30
0.0
 11
174.7451215846379
 21
139.343085106382
 31
0.0
1001
Sigma
1000

  0
LINE
  5
3FD
330
1F
100
AcDbEntity
  8
1
  6
CENTER
 62
     7
370
    15
100
AcDbLine
 10
159.7451215846378
 20
123.9183713296419
 30
0.0
 11
159.7451215846378
 21
103.941419307082
 31
0.0
1001
Sigma
1000

  0
LINE
  5
3FF
330
1F
100
AcDbEntity
  8
1
  6
Continuous
 62
     7
370
    30
100
AcDbLine
 10
166.7451215846378
 20
118.3430851063819
 30
0.0
 11
152.745121584638
 21
118.3430851063819
 31
0.0
1001
Sigma
1000

  0
LINE
  5
401
330
1F
100
AcDbEntity
  8
1
  6
Continuous
 62
     7
370
    30
100
AcDbLine
 10
152.745121584638
 20
115.343085106382
 30
0.0
 11
166.7451215846378
 21
115.343085106382
 31
0.0
1001
Sigma
1000

  0
LINE
  5
403
330
1F
100
AcDbEntity
  8
1
  6
Continuous
 62
     7
370
    30
100
AcDbLine
 10
166.7451215846378
 20
115.343085106382
 30
0.0
 11
166.7451215846378
 21
112.343085106382
 31
0.0
1001
Sigma
1000

  0
LINE
  5
405
330
1F
100
AcDbEntity
  8
1
  6
Continuous
 62
     7
370
    30
100
AcDbLine
 10
165.7451215846379
 20
102.3430851063819
 30
0.0
 11
153.7451215846379
 21
102.3430851063819
 31
0.0
1001
Sigma
1000

  0
LINE
  5
407
330
1F
100
AcDbEntity
  8
1
  6
Continuous
 62
     7
370
    30
100
AcDbLine
 10
149.745121584638
 20
118.3430851063819
 30
0.0
 11
169.7451215846379
 21
118.3430851063819
 31
0.0
1001
Sigma
1000

  0
LINE
  5
409
330
1F
100
AcDbEntity
  8
1
  6
Continuous
 62
     7
370
    30
100
AcDbLine
 10
169.7451215846379
 20
118.3430851063819
 30
0.0
 11
169.7451215846379
 21
115.343085106382
 31
0.0
1001
Sigma
1000

  0
LINE
  5
40B
330
1F
100
AcDbEntity
  8
1
  6
Continuous
 62
     7
370
    30
100
AcDbLine
 10
169.7451215846379
 20
115.343085106382
 30
0.0
 11
149.745121584638
 21
115.343085106382
 31
0.0
1001
Sigma
1000

  0
LINE
  5
40D
330
1F
100
AcDbEntity
  8
1
  6
Continuous
 62
     7
370
    30
100
AcDbLine
 10
149.745121584638
 20
115.343085106382
 30
0.0
 11
149.745121584638
 21
118.3430851063819
 31
0.0
1001
Sigma
1000

  0
LINE
  5
40F
330
1F
100
AcDbEntity
  8
1
  6
Continuous
 62
     7
370
    30
100
AcDbLine
 10
166.7451215846378
 20
112.343085106382
 30
0.0
 11
152.745121584638
 21
112.343085106382
 31
0.0
1001
Sigma
1000

  0
LINE
  5
411
330
1F
100
AcDbEntity
  8
1
  6
Continuous
 62
     7
370
    30
100
AcDbLine
 10
152.745121584638
 20
112.343085106382
 30
0.0
 11
152.745121584638
 21
115.343085106382
 31
0.0
1001
Sigma
1000

  0
LINE
  5
413
330
1F
100
AcDbEntity
  8
1
  6
Continuous
 62
     7
370
    30
100
AcDbLine
 10
150.7451215846383
 20
112.343085106382
 30
0.0
 11
168.7451215846379
 21
112.343085106382
 31
0.0
1001
Sigma
1000

  0
LINE
  5
415
330
1F
100
AcDbEntity
  8
1
  6
Continuous
 62
     7
370
    30
100
AcDbLine
 10
168.7451215846379
 20
112.343085106382
 30
0.0
 11
168.7451215846379
 21
102.3430851063819
 31
0.0
1001
Sigma
1000

  0
LINE
  5
417
330
1F
100
AcDbEntity
  8
1
  6
Continuous
 62
     7
370
    30
100
AcDbLine
 10
168.7451215846379
 20
102.3430851063819
 30
0.0
 11
150.745121584638
 21
102.3430851063819
 31
0.0
1001
Sigma
1000

  0
LINE
  5
419
330
1F
100
AcDbEntity
  8
1
  6
Continuous
 62
     7
370
    30
100
AcDbLine
 10
150.745121584638
 20
102.3430851063819
 30
0.0
 11
150.7451215846383
 21
112.343085106382
 31
0.0
1001
Sigma
1000

  0
LINE
  5
41B
330
1F
100
AcDbEntity
  8
1
  6
Continuous
 62
     7
370
    30
100
AcDbLine
 10
165.7451215846379
 20
102.3430851063819
 30
0.0
 11
153.7451215846379
 21
102.3430851063819
 31
0.0
1001
Sigma
1000

  0
LINE
  5
41D
330
1F
100
AcDbEntity
  8
1
  6
HIDDEN
 62
     7
370
    30
100
AcDbLine
 10
153.7451215846379
 20
102.3430851063819
 30
0.0
 11
165.7451215846379
 21
102.3430851063819
 31
0.0
1001
Sigma
1000

  0
LINE
  5
41F
330
1F
100
AcDbEntity
  8
1
  6
HIDDEN
 62
     7
370
    30
100
AcDbLine
 10
165.7451215846379
 20
102.3430851063819
 30
0.0
 11
165.7451215846378
 21
111.3430851063819
 31
0.0
1001
Sigma
1000

  0
LINE
  5
421
330
1F
100
AcDbEntity
  8
1
  6
HIDDEN
 62
     7
370
    30
100
AcDbLine
 10
165.7451215846378
 20
111.3430851063819
 30
0.0
 11
153.7451215846378
 21
111.3430851063819
 31
0.0
1001
Sigma
1000

  0
LINE
  5
423
330
1F
100
AcDbEntity
  8
1
  6
HIDDEN
 62
     7
370
    30
100
AcDbLine
 10
153.7451215846378
 20
111.3430851063819
 30
0.0
 11
153.7451215846379
 21
102.3430851063819
 31
0.0
1001
Sigma
1000

  0
TEXT
  5
425
330
1F
100
AcDbEntity
  8
1
  6
Continuous
 62
     7
370
    15
100
AcDbText
 10
178.5057036017976
 20
83.85363804155205
 30
0.0
 40
2.7
  1
ライトガイド差込
 50
0.0000000000001
 41
0.95
  7
KCADTEXTSTANDARD
100
AcDbText
1001
Sigma
1000

  0
DIMENSION
  5
427
330
1F
100
AcDbEntity
  8
KCAD_DIMS
 62
     7
100
AcDbDimension
  2
*D42
 10
195.5951215846339
 20
167.5531914893617
 30
0.0
 11
153.6701215846339
 21
169.6865244893617
 31
0.0
 70
    32
 71
     5
 42
-1.0
  3
Standard
100
AcDbAlignedDimension
 13
111.7451215846337
 23
139.3430851063818
 33
0.0
 14
195.5951215846339
 24
139.3430851063824
 34
0.0
100
AcDbRotatedDimension
1001
Sigma
1000
DIM_TPHO
1001
KCAD_DIM_EXT
1002
{
1071
 20001212
1070
     0
1070
     2
1070
     2
1040
2.5
1040
0.0
1040
0.0
1040
0.0
1040
0.0
1040
0.0
1040
0.0
1040
0.0
1070
     0
1040
50.0
1040
-1.0
1013
1.0
1023
0.0
1033
0.0
1040
0.0
1013
1.0
1023
0.0
1033
0.0
1000
_None
1040
1.0
1040
83.8500000000001
1070
     0
1070
     0
1070
     0
1012
1.0
1022
0.0
1032
0.0
1013
1.0
1023
0.0
1033
0.0
1002
}
1001
ACAD
1000
DSTYLE
1002
{
1070
    41
1040
2.5
1070
    42
1040
1.0
1070
    43
1040
8.0
1070
    44
1040
1.0
1070
    45
1040
0.0
1070
    73
1070
     0
1070
    74
1070
     0
1070
    77
1070
     1
1070
    78
1070
     8
1070
    79
1070
     2
1070
   140
1040
3.2
1070
   141
1040
2.5
1070
   145
1040
0.0001
1070
   146
1040
0.667
1070
   147
1040
0.5333000000000001
1070
   172
1070
     1
1070
   173
1070
     1
1070
   179
1070
     3
1070
   271
1070
     3
1070
   272
1070
     3
1070
   279
1070
     2
1070
   284
1070
     8
1070
   289
1070
     2
1070
   340
1005
189
1070
   341
1005
21
1070
   343
1005
12D
1070
   344
1005
12D
1002
}
  0
DIMENSION
  5
463
330
1F
100
AcDbEntity
  8
KCAD_DIMS
 62
     7
100
AcDbDimension
  2
*D43
 10
111.7451215846337
 20
156.2765233145354
 30
0.0
 11
135.7451215846358
 21
158.4098563145354
 31
0.0
 70
    32
 71
     5
 42
-1.0
  3
Standard
100
AcDbAlignedDimension
 13
159.7451215846378
 23
123.9183713296419
 33
0.0
 14
111.7451215846337
 24
139.3430851063818
 34
0.0
100
AcDbRotatedDimension
1001
Sigma
1000
DIM_TPHO
1001
KCAD_DIM_EXT
1002
{
1071
 20001212
1070
     0
1070
     2
1070
     2
1040
2.5
1040
0.0
1040
0.0
1040
0.0
1040
0.0
1040
0.0
1040
0.0
1040
0.0
1070
     0
1040
50.0
1040
-1.0
1013
1.0
1023
0.0
1033
0.0
1040
0.0
1013
1.0
1023
0.0
1033
0.0
1000
_None
1040
1.0
1040
48.00000000000402
1070
     0
1070
     0
1070
     0
1012
1.0
1022
0.0
1032
0.0
1013
1.0
1023
0.0
1033
0.0
1002
}
1001
ACAD
1000
DSTYLE
1002
{
1070
    41
1040
2.5
1070
    42
1040
1.0
1070
    43
1040
8.0
1070
    44
1040
1.0
1070
    45
1040
0.0
1070
    73
1070
     0
1070
    74
1070
     0
1070
    77
1070
     1
1070
    78
1070
     8
1070
    79
1070
     2
1070
   140
1040
3.2
1070
   141
1040
2.5
1070
   145
1040
0.0001
1070
   146
1040
0.667
1070
   147
1040
0.5333000000000001
1070
   172
1070
     1
1070
   173
1070
     1
1070
   179
1070
     3
1070
   271
1070
     3
1070
   272
1070
     3
1070
   279
1070
     2
1070
   284
1070
     8
1070
   289
1070
     2
1070
   340
1005
189
1070
   341
1005
21
1070
   343
1005
12D
1070
   344
1005
12D
1002
}
  0
DIMENSION
  5
49F
330
1F
100
AcDbEntity
  8
KCAD_DIMS
 62
     7
100
AcDbDimension
  2
*D44
 10
111.7451215846338
 20
147.4468085106383
 30
0.0
 11
119.7451215846339
 21
149.5801415106383
 31
0.0
 70
    32
 71
     5
 42
-1.0
  3
Standard
100
AcDbAlignedDimension
 13
127.7451215846339
 23
139.3430851063818
 33
0.0
 14
111.7451215846338
 24
139.3430851063818
 34
0.0
100
AcDbRotatedDimension
1001
Sigma
1000
DIM_TPHO
1001
KCAD_DIM_EXT
1002
{
1071
 20001212
1070
     0
1070
     2
1070
     2
1040
2.5
1040
0.0
1040
0.0
1040
0.0
1040
0.0
1040
0.0
1040
0.0
1040
0.0
1070
     0
1040
50.0
1040
-1.0
1013
1.0
1023
0.0
1033
0.0
1040
0.0
1013
1.0
1023
0.0
1033
0.0
1000
_None
1040
1.0
1040
16.0
1070
     0
1070
     0
1070
     0
1012
1.0
1022
0.0
1032
0.0
1013
1.0
1023
0.0
1033
0.0
1002
}
1001
ACAD
1000
DSTYLE
1002
{
1070
    41
1040
2.5
1070
    42
1040
1.0
1070
    43
1040
8.0
1070
    44
1040
1.0
1070
    45
1040
0.0
1070
    73
1070
     0
1070
    74
1070
     0
1070
    77
1070
     1
1070
    78
1070
     8
1070
    79
1070
     2
1070
   140
1040
3.2
1070
   141
1040
2.5
1070
   145
1040
0.0001
1070
   146
1040
0.667
1070
   147
1040
0.5333000000000001
1070
   172
1070
     1
1070
   173
1070
     1
1070
   179
1070
     3
1070
   271
1070
     3
1070
   272
1070
     3
1070
   279
1070
     2
1070
   284
1070
     8
1070
   289
1070
     2
1070
   340
1005
189
1070
   341
1005
21
1070
   343
1005
12D
1070
   344
1005
12D
1002
}
  0
DIMENSION
  5
4DB
330
1F
100
AcDbEntity
  8
KCAD_DIMS
 62
     7
100
AcDbDimension
  2
*D45
 10
111.7451215846337
 20
178.8350861795036
 30
0.0
 11
159.6701215846339
 21
180.9684191795035
 31
0.0
 70
    32
 71
     5
 42
-1.0
  3
Standard
100
AcDbAlignedDimension
 13
207.5951215846339
 23
145.0430851063829
 33
0.0
 14
111.7451215846337
 24
139.343085106383
 34
0.0
100
AcDbRotatedDimension
1001
Sigma
1000
DIM_TPHO
1001
KCAD_DIM_EXT
1002
{
1071
 20001212
1070
     0
1070
     2
1070
     2
1040
2.5
1040
0.0
1040
0.0
1040
0.0
1040
0.0
1040
0.0
1040
0.0
1040
0.0
1070
     0
1040
50.0
1040
-1.0
1013
1.0
1023
0.0
1033
0.0
1040
0.0
1013
1.0
1023
0.0
1033
0.0
1000
_None
1040
1.0
1040
95.85000000000007
1070
     0
1070
     0
1070
     0
1012
1.0
1022
0.0
1032
0.0
1013
1.0
1023
0.0
1033
0.0
1002
}
1001
ACAD
1000
DSTYLE
1002
{
1070
    41
1040
2.5
1070
    42
1040
1.0
1070
    43
1040
8.0
1070
    44
1040
1.0
1070
    45
1040
0.0
1070
    73
1070
     0
1070
    74
1070
     0
1070
    77
1070
     1
1070
    78
1070
     8
1070
    79
1070
     2
1070
   140
1040
3.2
1070
   141
1040
2.5
1070
   145
1040
0.0001
1070
   146
1040
0.667
1070
   147
1040
0.5333000000000001
1070
   172
1070
     1
1070
   173
1070
     1
1070
   179
1070
     3
1070
   271
1070
     3
1070
   272
1070
     3
1070
   279
1070
     2
1070
   284
1070
     8
1070
   289
1070
     2
1070
   340
1005
189
1070
   341
1005
21
1070
   343
1005
12D
1070
   344
1005
12D
1002
}
  0
DIMENSION
  5
517
330
1F
100
AcDbEntity
  8
KCAD_DIMS
 62
     7
100
AcDbDimension
  2
*D46
 10
133.7451215846338
 20
147.4468085106383
 30
0.0
 11
130.7451215846338
 21
149.5801415106383
 31
0.0
 70
    32
 71
     5
 42
-1.0
  3
Standard
100
AcDbAlignedDimension
 13
127.7451215846339
 23
139.0930851063819
 33
0.0
 14
133.7451215846338
 24
139.0930851063819
 34
0.0
100
AcDbRotatedDimension
1001
Sigma
1000
DIM_TPHO
1001
KCAD_DIM_EXT
1002
{
1071
 20001212
1070
     0
1070
     2
1070
     2
1040
2.5
1040
0.0
1040
0.0
1040
0.0
1040
0.0
1040
0.0
1040
0.0
1040
0.0
1070
     0
1040
50.0
1040
-1.0
1013
1.0
1023
0.0
1033
0.0
1040
0.0
1013
1.0
1023
0.0
1033
0.0
1000
_None
1040
1.0
1040
5.999999999999999
1070
     0
1070
     0
1070
     0
1012
1.0
1022
0.0
1032
0.0
1013
1.0
1023
0.0
1033
0.0
1002
}
1001
ACAD
1000
DSTYLE
1002
{
1070
    41
1040
2.5
1070
    42
1040
1.0
1070
    43
1040
8.0
1070
    44
1040
1.0
1070
    45
1040
0.0
1070
    73
1070
     0
1070
    74
1070
     0
1070
    77
1070
     1
1070
    78
1070
     8
1070
    79
1070
     2
1070
   140
1040
3.2
1070
   141
1040
2.5
1070
   145
1040
0.0001
1070
   146
1040
0.667
1070
   147
1040
0.5333000000000001
1070
   172
1070
     1
1070
   173
1070
     1
1070
   179
1070
     3
1070
   271
1070
     3
1070
   272
1070
     3
1070
   279
1070
     2
1070
   284
1070
     8
1070
   289
1070
     2
1070
   340
1005
189
1070
   341
1005
21
1070
   343
1005
12D
1070
   344
1005
12D
1002
}
  0
DIMENSION
  5
55D
330
1F
100
AcDbEntity
  8
KCAD_DIMS
 62
     7
100
AcDbDimension
  2
*D47
 10
207.5951215846339
 20
167.5531914893617
 30
0.0
 11
201.5951215846339
 21
169.6865244893617
 31
0.0
 70
    32
 71
     5
 42
-1.0
  3
Standard
100
AcDbAlignedDimension
 13
195.5951215846339
 23
142.5430851063829
 33
0.0
 14
207.5951215846339
 24
145.0430851063829
 34
0.0
100
AcDbRotatedDimension
1001
Sigma
1000
DIM_TPHO
1001
KCAD_DIM_EXT
1002
{
1071
 20001212
1070
     0
1070
     2
1070
     2
1040
2.5
1040
0.0
1040
0.0
1040
0.0
1040
0.0
1040
0.0
1040
0.0
1040
0.0
1070
     0
1040
50.0
1040
-1.0
1013
1.0
1023
0.0
1033
0.0
1040
0.0
1013
1.0
1023
0.0
1033
0.0
1000
_None
1040
1.0
1040
12.0
1070
     0
1070
     0
1070
     0
1012
1.0
1022
0.0
1032
0.0
1013
1.0
1023
0.0
1033
0.0
1002
}
1001
ACAD
1000
DSTYLE
1002
{
1070
    41
1040
2.5
1070
    42
1040
1.0
1070
    43
1040
8.0
1070
    44
1040
1.0
1070
    45
1040
0.0
1070
    73
1070
     0
1070
    74
1070
     0
1070
    77
1070
     1
1070
    78
1070
     8
1070
    79
1070
     2
1070
   140
1040
3.2
1070
   141
1040
2.5
1070
   145
1040
0.0001
1070
   146
1040
0.667
1070
   147
1040
0.5333000000000001
1070
   172
1070
     1
1070
   173
1070
     1
1070
   179
1070
     3
1070
   271
1070
     3
1070
   272
1070
     3
1070
   279
1070
     2
1070
   284
1070
     8
1070
   289
1070
     2
1070
   340
1005
189
1070
   341
1005
21
1070
   343
1005
12D
1070
   344
1005
12D
1002
}
  0
LINE
  5
59B
102
{ACAD_REACTORS
330
599
330
59A
102
}
330
1F
100
AcDbEntity
  8
2
  6
Continuous
 62
     7
370
    15
100
AcDbLine
 10
210.7521257567791
 20
142.8972909613774
 30
0.0
 11
216.6136027087991
 21
154.1610434715405
 31
0.0
1001
Sigma
1000

  0
INSERT
  5
59D
102
{ACAD_REACTORS
330
599
330
59A
102
}
330
1F
100
AcDbEntity
  8
2
  6
Continuous
 62
     7
370
    15
100
AcDbBlockReference
  2
_OPEN30
 10
210.7521257567791
 20
142.8972909613774
 30
0.0
 41
3.0
 42
3.0
 43
3.0
 50
242.5082510083087
1001
Sigma
1000
_BRRS
  0
TEXT
  5
59F
102
{ACAD_REACTORS
330
599
102
}
330
1F
100
AcDbEntity
  8
2
  6
Continuous
 62
     7
370
    15
100
AcDbText
 10
220.2580466777196
 20
154.8543734620039
 30
0.0
 40
2.879999828338623
  1
Ｃマウント
 41
0.8507590152775655
  7
KCADTEXTSTANDARD
100
AcDbText
1001
Sigma
1000

  0
LINE
  5
5A1
102
{ACAD_REACTORS
330
599
102
}
330
1F
100
AcDbEntity
  8
2
  6
Continuous
 62
     7
370
    15
100
AcDbLine
 10
216.6136027087991
 20
154.1610434715405
 30
0.0
 11
235.165773950457
 21
154.1610434715405
 31
0.0
1001
Sigma
1000

  0
DIMENSION
  5
5A3
330
1F
100
AcDbEntity
  8
KCAD_DIMS
 62
     7
100
AcDbDimension
  2
*D61
 10
207.595121584634
 20
101.5599488489925
 30
0.0
 11
240.811710451367
 21
102.2312182637912
 31
0.0
 70
    32
 71
     5
 42
-1.0
  3
Standard
100
AcDbAlignedDimension
 13
225.1211215846339
 23
127.3916830127499
 33
0.0
 14
207.595121584634
 24
116.343085106383
 34
0.0
100
AcDbRotatedDimension
1001
Sigma
1000
DIM_TPHO
1001
KCAD_DIM_EXT
1002
{
1071
 20001212
1070
     0
1070
     1
1070
     1
1040
3.0
1040
32.0762210953973
1040
5.0
1040
0.0
1040
0.0
1040
0.0
1040
0.0
1040
0.0
1070
     0
1040
50.0
1040
-1.0
1013
1.0
1023
0.0
1033
0.0
1040
0.0
1013
1.0
1023
0.0
1033
0.0
1000
_None
1040
1.0
1040
17.52600000000002
1070
     0
1070
     0
1070
     0
1012
1.0
1022
0.0
1032
0.0
1013
1.0
1023
0.0
1033
0.0
1002
}
1001
ACAD
1000
DSTYLE
1002
{
1070
     3
1000
F.B.=<>
1070
    41
1040
3.0
1070
    42
1040
1.0
1070
    43
1040
8.0
1070
    44
1040
1.0
1070
    45
1040
0.0
1070
    73
1070
     0
1070
    74
1070
     0
1070
    77
1070
     1
1070
    78
1070
     8
1070
    79
1070
     2
1070
   140
1040
3.2
1070
   141
1040
2.5
1070
   145
1040
0.0001
1070
   146
1040
0.667
1070
   147
1040
0.5333000000000001
1070
   172
1070
     1
1070
   173
1070
     1
1070
   179
1070
     3
1070
   271
1070
     3
1070
   272
1070
     3
1070
   279
1070
     2
1070
   284
1070
     8
1070
   289
1070
     2
1070
   340
1005
189
1070
   341
1005
21
1070
   343
1005
12D
1070
   344
1005
12D
1002
}
  0
DIMENSION
  5
5E1
330
1F
100
AcDbEntity
  8
KCAD_DIMS
 62
     7
100
AcDbDimension
  2
*D49
 10
100.3879587435272
 20
139.343085106383
 30
0.0
 11
98.25462574352741
 21
131.5567864675819
 31
0.0
 70
    32
 71
     5
 42
-1.0
 53
90.00000000000006
  3
Standard
100
AcDbAlignedDimension
 13
111.7451215846337
 23
121.343085106383
 33
0.0
 14
111.7451215846337
 24
139.343085106383
 34
0.0
 50
90.00000000000006
100
AcDbRotatedDimension
1001
Sigma
1000
DIM_TPVO
1001
KCAD_DIM_EXT
1002
{
1071
 20001212
1070
     0
1070
     2
1070
     2
1040
2.5
1040
0.0
1040
0.0
1040
0.0
1040
0.0
1040
0.0
1040
0.0
1040
0.0
1070
     0
1040
50.0
1040
-1.0
1013
1.0
1023
0.0
1033
0.0
1040
0.0
1013
1.0
1023
0.0
1033
0.0
1000
_None
1040
1.0
1040
17.99999999999998
1070
     0
1070
     0
1070
     0
1012
1.0
1022
0.0
1032
0.0
1013
1.0
1023
0.0
1033
0.0
1002
}
1001
ACAD
1000
DSTYLE
1002
{
1070
     3
1000
%%c<>
1070
    41
1040
2.5
1070
    42
1040
1.0
1070
    43
1040
8.0
1070
    44
1040
1.0
1070
    45
1040
0.0
1070
    73
1070
     0
1070
    74
1070
     0
1070
    77
1070
     1
1070
    78
1070
     8
1070
    79
1070
     2
1070
   140
1040
3.2
1070
   141
1040
2.5
1070
   145
1040
0.0001
1070
   146
1040
0.667
1070
   147
1040
0.5333000000000001
1070
   172
1070
     1
1070
   173
1070
     1
1070
   179
1070
     3
1070
   271
1070
     3
1070
   272
1070
     3
1070
   279
1070
     2
1070
   284
1070
     8
1070
   289
1070
     2
1070
   340
1005
189
1070
   341
1005
21
1070
   343
1005
12D
1070
   344
1005
12D
1002
}
  0
DIMENSION
  5
61D
330
1F
100
AcDbEntity
  8
KCAD_DIMS
 62
     7
100
AcDbDimension
  2
*D50
 10
239.8135668649461
 20
144.3430851063825
 30
0.0
 11
237.6802338649461
 21
130.3430851063825
 31
0.0
 70
    32
 71
     5
 42
-1.0
 53
90.00000000000006
  3
Standard
100
AcDbAlignedDimension
 13
207.295121584634
 23
116.3430851063825
 33
0.0
 14
207.2951215846339
 24
144.3430851063825
 34
0.0
 50
90.00000000000006
100
AcDbRotatedDimension
1001
Sigma
1000
DIM_TPVO
1001
KCAD_DIM_EXT
1002
{
1071
 20001212
1070
     0
1070
     2
1070
     2
1040
2.5
1040
0.0
1040
0.0
1040
0.0
1040
0.0
1040
0.0
1040
0.0
1040
0.0
1070
     0
1040
50.0
1040
-1.0
1013
1.0
1023
0.0
1033
0.0
1040
0.0
1013
1.0
1023
0.0
1033
0.0
1000
_None
1040
1.0
1040
27.99999999999998
1070
     0
1070
     0
1070
     0
1012
1.0
1022
0.0
1032
0.0
1013
1.0
1023
0.0
1033
0.0
1002
}
1001
ACAD
1000
DSTYLE
1002
{
1070
     3
1000
%%c<>
1070
    41
1040
2.5
1070
    42
1040
1.0
1070
    43
1040
8.0
1070
    44
1040
1.0
1070
    45
1040
0.0
1070
    73
1070
     0
1070
    74
1070
     0
1070
    77
1070
     1
1070
    78
1070
     8
1070
    79
1070
     2
1070
   140
1040
3.2
1070
   141
1040
2.5
1070
   145
1040
0.0001
1070
   146
1040
0.667
1070
   147
1040
0.5333000000000001
1070
   172
1070
     1
1070
   173
1070
     1
1070
   179
1070
     3
1070
   271
1070
     3
1070
   272
1070
     3
1070
   279
1070
     2
1070
   284
1070
     8
1070
   289
1070
     2
1070
   340
1005
189
1070
   341
1005
21
1070
   343
1005
12D
1070
   344
1005
12D
1002
}
  0
DIMENSION
  5
659
330
1F
100
AcDbEntity
  8
KCAD_DIMS
 62
     7
100
AcDbDimension
  2
*D51
 10
40.64512158463319
 20
101.5599488489925
 30
0.0
 11
74.4558129201853
 21
103.6932818489926
 31
0.0
 70
    32
 71
     5
 42
-1.0
  3
Standard
100
AcDbAlignedDimension
 13
111.7451215846337
 23
121.343085106383
 33
0.0
 14
40.64512158463318
 24
130.3430851063818
 34
0.0
100
AcDbRotatedDimension
1001
Sigma
1000
DIM_TPHO
1001
KCAD_DIM_EXT
1002
{
1071
 20001212
1070
     0
1070
     2
1070
     2
1040
2.5
1040
0.0
1040
0.0
1040
0.0
1040
0.0
1040
0.0
1040
0.0
1040
0.0
1070
     0
1040
50.0
1040
-1.0
1013
1.0
1023
0.0
1033
0.0
1040
0.0
1013
1.0
1023
0.0
1033
0.0
1000
_None
1040
1.0
1040
71.10000000000072
1070
     0
1070
     0
1070
     0
1012
1.0
1022
0.0
1032
0.0
1013
1.0
1023
0.0
1033
0.0
1002
}
1001
ACAD
1000
DSTYLE
1002
{
1070
     3
1000
W.D.=<>
1070
    41
1040
2.5
1070
    42
1040
1.0
1070
    43
1040
8.0
1070
    44
1040
1.0
1070
    45
1040
0.0
1070
    73
1070
     0
1070
    74
1070
     0
1070
    77
1070
     1
1070
    78
1070
     8
1070
    79
1070
     2
1070
   140
1040
3.2
1070
   141
1040
2.5
1070
   145
1040
0.0001
1070
   146
1040
0.667
1070
   147
1040
0.5333000000000001
1070
   172
1070
     1
1070
   173
1070
     1
1070
   179
1070
     3
1070
   271
1070
     3
1070
   272
1070
     3
1070
   279
1070
     2
1070
   284
1070
     8
1070
   289
1070
     2
1070
   340
1005
189
1070
   341
1005
21
1070
   343
1005
12D
1070
   344
1005
12D
1002
}
  0
DIMENSION
  5
695
330
1F
100
AcDbEntity
  8
KCAD_DIMS
 62
     7
100
AcDbDimension
  2
*D52
 10
211.5951215846339
 20
178.8350861795036
 30
0.0
 11
217.3000376655678
 21
180.9684191795035
 31
0.0
 70
    32
 71
     5
 42
-1.0
  3
Standard
100
AcDbAlignedDimension
 13
207.5951215846339
 23
145.0430851063829
 33
0.0
 14
211.5951215846339
 24
142.2930851063829
 34
0.0
100
AcDbRotatedDimension
1001
Sigma
1000
DIM_TPHO
1001
KCAD_DIM_EXT
1002
{
1071
 20001212
1070
     0
1070
     1
1070
     1
1040
2.5
1040
5.0
1040
6.704916056952312
1040
0.0
1040
0.0
1040
0.0
1040
0.0
1040
0.0
1070
     0
1040
50.0
1040
-1.0
1013
1.0
1023
0.0
1033
0.0
1040
0.0
1013
1.0
1023
0.0
1033
0.0
1000
_None
1040
1.0
1040
4.000000000000039
1070
     0
1070
     0
1070
     0
1012
1.0
1022
0.0
1032
0.0
1013
1.0
1023
0.0
1033
0.0
1002
}
1001
ACAD
1000
DSTYLE
1002
{
1070
    41
1040
2.5
1070
    42
1040
1.0
1070
    43
1040
8.0
1070
    44
1040
1.0
1070
    45
1040
0.0
1070
    73
1070
     0
1070
    74
1070
     0
1070
    77
1070
     1
1070
    78
1070
     8
1070
    79
1070
     2
1070
   140
1040
3.2
1070
   141
1040
2.5
1070
   145
1040
0.0001
1070
   146
1040
0.667
1070
   147
1040
0.5333000000000001
1070
   172
1070
     1
1070
   173
1070
     1
1070
   179
1070
     3
1070
   271
1070
     3
1070
   272
1070
     3
1070
   279
1070
     2
1070
   284
1070
     8
1070
   289
1070
     2
1070
   340
1005
189
1070
   341
1005
21
1070
   343
1005
12D
1070
   344
1005
12D
1002
}
  0
DIMENSION
  5
713
330
1F
100
AcDbEntity
  8
KCAD_DIMS
 62
     7
100
AcDbDimension
  2
*D54
 10
140.3895802492673
 20
130.3430851063822
 30
0.0
 11
138.2562472492674
 21
116.343085106382
 31
0.0
 70
    32
 71
     5
 42
-1.0
 53
90.00000000000006
  3
Standard
100
AcDbAlignedDimension
 13
150.745121584638
 23
102.3430851063819
 33
0.0
 14
144.7451215846338
 24
130.3430851063822
 34
0.0
 50
90.00000000000006
100
AcDbRotatedDimension
1001
Sigma
1000
DIM_TPVO
1001
KCAD_DIM_EXT
1002
{
1071
 20001212
1070
     0
1070
     2
1070
     2
1040
2.5
1040
0.0
1040
0.0
1040
0.0
1040
0.0
1040
0.0
1040
0.0
1040
0.0
1070
     0
1040
50.0
1040
-1.0
1013
1.0
1023
0.0
1033
0.0
1040
0.0
1013
1.0
1023
0.0
1033
0.0
1000
_None
1040
1.0
1040
28.00000000000026
1070
     0
1070
     0
1070
     0
1012
1.0
1022
0.0
1032
0.0
1013
1.0
1023
0.0
1033
0.0
1002
}
1001
ACAD
1000
DSTYLE
1002
{
1070
    41
1040
2.5
1070
    42
1040
1.0
1070
    43
1040
8.0
1070
    44
1040
1.0
1070
    45
1040
0.0
1070
    73
1070
     0
1070
    74
1070
     0
1070
    77
1070
     1
1070
    78
1070
     8
1070
    79
1070
     2
1070
   140
1040
3.2
1070
   141
1040
2.5
1070
   145
1040
0.0001
1070
   146
1040
0.667
1070
   147
1040
0.5333000000000001
1070
   172
1070
     1
1070
   173
1070
     1
1070
   179
1070
     3
1070
   271
1070
     3
1070
   272
1070
     3
1070
   279
1070
     2
1070
   284
1070
     8
1070
   289
1070
     2
1070
   340
1005
189
1070
   341
1005
21
1070
   343
1005
12D
1070
   344
1005
12D
1002
}
  0
DIMENSION
  5
74F
330
1F
100
AcDbEntity
  8
KCAD_DIMS
 62
     7
100
AcDbDimension
  2
*D55
 10
150.745121584638
 20
89.85530477285798
 30
0.0
 11
159.7451215846378
 21
91.98863777285796
 31
0.0
 70
    32
 71
     5
 42
-1.0
  3
Standard
100
AcDbAlignedDimension
 13
168.7451215846379
 23
102.3430851063819
 33
0.0
 14
150.745121584638
 24
102.3430851063819
 34
0.0
100
AcDbRotatedDimension
1001
Sigma
1000
DIM_TPHO
1001
KCAD_DIM_EXT
1002
{
1071
 20001212
1070
     0
1070
     2
1070
     2
1040
2.5
1040
0.0
1040
0.0
1040
0.0
1040
0.0
1040
0.0
1040
0.0
1040
0.0
1070
     0
1040
50.0
1040
-1.0
1013
1.0
1023
0.0
1033
0.0
1040
0.0
1013
1.0
1023
0.0
1033
0.0
1000
_None
1040
1.0
1040
17.99999999999989
1070
     0
1070
     0
1070
     0
1012
1.0
1022
0.0
1032
0.0
1013
1.0
1023
0.0
1033
0.0
1002
}
1001
ACAD
1000
DSTYLE
1002
{
1070
    41
1040
2.5
1070
    42
1040
1.0
1070
    43
1040
8.0
1070
    44
1040
1.0
1070
    45
1040
0.0
1070
    73
1070
     0
1070
    74
1070
     0
1070
    77
1070
     1
1070
    78
1070
     8
1070
    79
1070
     2
1070
   140
1040
3.2
1070
   141
1040
2.5
1070
   145
1040
0.0001
1070
   146
1040
0.667
1070
   147
1040
0.5333000000000001
1070
   172
1070
     1
1070
   173
1070
     1
1070
   179
1070
     3
1070
   271
1070
     3
1070
   272
1070
     3
1070
   279
1070
     2
1070
   284
1070
     8
1070
   289
1070
     2
1070
   340
1005
189
1070
   341
1005
21
1070
   343
1005
12D
1070
   344
1005
12D
1002
}
  0
CIRCLE
  5
78C
102
{ACAD_REACTORS
330
78B
102
}
330
1F
100
AcDbEntity
  8
1
  6
Continuous
 62
     7
370
    15
100
AcDbCircle
 10
159.7451215846378
 20
105.3430851063819
 30
0.0
 40
1.499999999999999
1001
Sigma
1000

  0
CIRCLE
  5
78E
102
{ACAD_REACTORS
330
78B
102
}
330
1F
100
AcDbEntity
  8
1
  6
Continuous
 62
     7
370
    30
100
AcDbCircle
 10
159.7451215846378
 20
105.3430851063819
 30
0.0
 40
1.229366999999998
1001
Sigma
1000

  0
LINE
  5
790
102
{ACAD_REACTORS
330
78B
102
}
330
1F
100
AcDbEntity
  8
1
  6
CENTER
 62
     7
370
    15
100
AcDbLine
 10
155.2451215846379
 20
105.3430851063819
 30
0.0
 11
164.2451215846379
 21
105.3430851063819
 31
0.0
1001
Sigma
1000

  0
LINE
  5
792
102
{ACAD_REACTORS
330
78B
102
}
330
1F
100
AcDbEntity
  8
1
  6
CENTER
 62
     7
370
    15
100
AcDbLine
 10
159.7451215846378
 20
100.8430851063819
 30
0.0
 11
159.7451215846378
 21
109.8430851063818
 31
0.0
1001
Sigma
1000

  0
DIMENSION
  5
794
330
1F
100
AcDbEntity
  8
KCAD_DIMS
 62
     7
100
AcDbDimension
  2
*D56
 10
178.0463311382878
 20
111.3430851063819
 30
0.0
 11
175.9129981382877
 21
106.843085106382
 31
0.0
 70
    32
 71
     5
 42
-1.0
 53
90.00000000000006
  3
Standard
100
AcDbAlignedDimension
 13
168.7451215846379
 23
102.3430851063819
 33
0.0
 14
165.7451215846378
 24
111.3430851063819
 34
0.0
 50
90.00000000000006
100
AcDbRotatedDimension
1001
Sigma
1000
DIM_TPVO
1001
KCAD_DIM_EXT
1002
{
1071
 20001212
1070
     0
1070
     2
1070
     2
1040
2.5
1040
0.0
1040
0.0
1040
0.0
1040
0.0
1040
0.0
1040
0.0
1040
0.0
1070
     0
1040
50.0
1040
-1.0
1013
1.0
1023
0.0
1033
0.0
1040
0.0
1013
1.0
1023
0.0
1033
0.0
1000
_None
1040
1.0
1040
9.0
1070
     0
1070
     0
1070
     0
1012
1.0
1022
0.0
1032
0.0
1013
1.0
1023
0.0
1033
0.0
1002
}
1001
ACAD
1000
DSTYLE
1002
{
1070
    41
1040
2.5
1070
    42
1040
1.0
1070
    43
1040
8.0
1070
    44
1040
1.0
1070
    45
1040
0.0
1070
    73
1070
     0
1070
    74
1070
     0
1070
    77
1070
     1
1070
    78
1070
     8
1070
    79
1070
     2
1070
   140
1040
3.2
1070
   141
1040
2.5
1070
   145
1040
0.0001
1070
   146
1040
0.667
1070
   147
1040
0.5333000000000001
1070
   172
1070
     1
1070
   173
1070
     1
1070
   179
1070
     3
1070
   271
1070
     3
1070
   272
1070
     3
1070
   279
1070
     2
1070
   284
1070
     8
1070
   289
1070
     2
1070
   340
1005
189
1070
   341
1005
21
1070
   343
1005
12D
1070
   344
1005
12D
1002
}
  0
LINE
  5
7D2
102
{ACAD_REACTORS
330
7D0
330
7D1
102
}
330
1F
100
AcDbEntity
  8
1
  6
Continuous
 62
     7
370
    15
100
AcDbLine
 10
165.7451215846379
 20
102.3430851063819
 30
0.0
 11
176.3078402875083
 21
87.72111274143838
 31
0.0
1001
Sigma
1000

  0
INSERT
  5
7D4
102
{ACAD_REACTORS
330
7D0
330
7D1
102
}
330
1F
100
AcDbEntity
  8
1
  6
Continuous
 62
     7
370
    15
100
AcDbBlockReference
  2
_OPEN30
 10
165.7451215846379
 20
102.3430851063819
 30
0.0
 41
3.0
 42
3.0
 43
3.0
 50
125.8438467260105
1001
Sigma
1000
_BRRS
  0
TEXT
  5
7D6
102
{ACAD_REACTORS
330
7D0
102
}
330
1F
100
AcDbEntity
  8
1
  6
Continuous
 62
     7
370
    15
100
AcDbText
 10
177.5260047234548
 20
88.42111274143836
 30
0.0
 40
3.6
  1
    φ１２
 41
0.5089285714285714
  7
KCADTEXTSTANDARD
100
AcDbText
1001
Sigma
1000

  0
LINE
  5
7D8
102
{ACAD_REACTORS
330
7D0
102
}
330
1F
100
AcDbEntity
  8
1
  6
Continuous
 62
     7
370
    15
100
AcDbLine
 10
176.3078402875083
 20
87.72111274143838
 30
0.0
 11
202.6333490122294
 21
87.72111274143838
 31
0.0
1001
Sigma
1000

  0
TEXT
  5
7ED
330
1F
100
AcDbEntity
  8
0
  6
Continuous
 62
     7
370
    30
100
AcDbText
 10
179.5456241230077
 20
33.91530001053004
 30
0.0
 40
3.2
  1
１９９２年０６月２３日
  7
KCADTEXTSTANDARD
 11
179.5456241230077
 21
35.51530001053004
 31
0.0
100
AcDbText
 73
     2
  0
OLE2FRAME
  5
7F1
330
1F
100
AcDbEntity
  8
0
  6
Continuous
 62
     4
370
    30
100
AcDbOle2Frame
 70
     2
 10
134.7128461803321
 20
9.808488225329146
 30
0.0
 11
172.2681897221695
 21
4.030743065046472
 31
0.0
 72
     0
 73
   205
 90
     9344
310
00555DF3CAA2CFD66040C2FA2D2BF29D23400000000000000000EDBA9C029588
310
6540C2FA2D2BF29D23400000000000000000EDBA9C029588654048D02B1C7B1F
310
104000000000000000005DF3CAA2CFD6604048D02B1C7B1F1040000000000000
310
0000000000000100000000010000010000000100000000000100000000240000
310
D0CF11E0A1B11AE1000000000000000000000000000000003E000300FEFF0900
310
0600000000000000000000000100000001000000000000000010000002000000
310
01000000FEFFFFFF0000000000000000FFFFFFFFFFFFFFFFFFFFFFFFFFFFFFFF
310
FFFFFFFFFFFFFFFFFFFFFFFFFFFFFFFFFFFFFFFFFFFFFFFFFFFFFFFFFFFFFFFF
310
FFFFFFFFFFFFFFFFFFFFFFFFFFFFFFFFFFFFFFFFFFFFFFFFFFFFFFFFFFFFFFFF
310
FFFFFFFFFFFFFFFFFFFFFFFFFFFFFFFFFFFFFFFFFFFFFFFFFFFFFFFFFFFFFFFF
310
FFFFFFFFFFFFFFFFFFFFFFFFFFFFFFFFFFFFFFFFFFFFFFFFFFFFFFFFFFFFFFFF
310
FFFFFFFFFFFFFFFFFFFFFFFFFFFFFFFFFFFFFFFFFFFFFFFFFFFFFFFFFFFFFFFF
310
FFFFFFFFFFFFFFFFFFFFFFFFFFFFFFFFFFFFFFFFFFFFFFFFFFFFFFFFFFFFFFFF
310
FFFFFFFFFFFFFFFFFFFFFFFFFFFFFFFFFFFFFFFFFFFFFFFFFFFFFFFFFFFFFFFF
310
FFFFFFFFFFFFFFFFFFFFFFFFFFFFFFFFFFFFFFFFFFFFFFFFFFFFFFFFFFFFFFFF
310
FFFFFFFFFFFFFFFFFFFFFFFFFFFFFFFFFFFFFFFFFFFFFFFFFFFFFFFFFFFFFFFF
310
FFFFFFFFFFFFFFFFFFFFFFFFFFFFFFFFFFFFFFFFFFFFFFFFFFFFFFFFFFFFFFFF
310
FFFFFFFFFFFFFFFFFFFFFFFFFFFFFFFFFFFFFFFFFFFFFFFFFFFFFFFFFFFFFFFF
310
FFFFFFFFFFFFFFFFFFFFFFFFFFFFFFFFFFFFFFFFFFFFFFFFFFFFFFFFFFFFFFFF
310
FFFFFFFFFFFFFFFFFFFFFFFFFFFFFFFFFFFFFFFFFFFFFFFFFFFFFFFFFFFFFFFF
310
FDFFFFFFFEFFFFFFFEFFFFFFFEFFFFFF05000000060000000700000008000000
310
090000000A0000000B0000000C0000000D0000000E0000000F00000010000000
310
FEFFFFFFFFFFFFFFFFFFFFFFFFFFFFFFFFFFFFFFFFFFFFFFFFFFFFFFFFFFFFFF
310
FFFFFFFFFFFFFFFFFFFFFFFFFFFFFFFFFFFFFFFFFFFFFFFFFFFFFFFFFFFFFFFF
310
FFFFFFFFFFFFFFFFFFFFFFFFFFFFFFFFFFFFFFFFFFFFFFFFFFFFFFFFFFFFFFFF
310
FFFFFFFFFFFFFFFFFFFFFFFFFFFFFFFFFFFFFFFFFFFFFFFFFFFFFFFFFFFFFFFF
310
FFFFFFFFFFFFFFFFFFFFFFFFFFFFFFFFFFFFFFFFFFFFFFFFFFFFFFFFFFFFFFFF
310
FFFFFFFFFFFFFFFFFFFFFFFFFFFFFFFFFFFFFFFFFFFFFFFFFFFFFFFFFFFFFFFF
310
FFFFFFFFFFFFFFFFFFFFFFFFFFFFFFFFFFFFFFFFFFFFFFFFFFFFFFFFFFFFFFFF
310
FFFFFFFFFFFFFFFFFFFFFFFFFFFFFFFFFFFFFFFFFFFFFFFFFFFFFFFFFFFFFFFF
310
FFFFFFFFFFFFFFFFFFFFFFFFFFFFFFFFFFFFFFFFFFFFFFFFFFFFFFFFFFFFFFFF
310
FFFFFFFFFFFFFFFFFFFFFFFFFFFFFFFFFFFFFFFFFFFFFFFFFFFFFFFFFFFFFFFF
310
FFFFFFFFFFFFFFFFFFFFFFFFFFFFFFFFFFFFFFFFFFFFFFFFFFFFFFFFFFFFFFFF
310
FFFFFFFFFFFFFFFFFFFFFFFFFFFFFFFFFFFFFFFFFFFFFFFFFFFFFFFFFFFFFFFF
310
FFFFFFFFFFFFFFFFFFFFFFFFFFFFFFFFFFFFFFFFFFFFFFFFFFFFFFFFFFFFFFFF
310
FFFFFFFFFFFFFFFFFFFFFFFFFFFFFFFFFFFFFFFFFFFFFFFFFFFFFFFFFFFFFFFF
310
52006F006F007400200045006E00740072007900000000000000000000000000
310
0000000000000000000000000000000000000000000000000000000000000000
310
16000500FFFFFFFFFFFFFFFF020000000A00030000000000C000000000000046
310
00000000000000000000000080B555760D9AC80103000000C000000000000000
310
01004F006C006500000000000000000000000000000000000000000000000000
310
0000000000000000000000000000000000000000000000000000000000000000
310
0A000200FFFFFFFFFFFFFFFFFFFFFFFF00000000000000000000000000000000
310
0000000000000000000000000000000000000000000000001400000000000000
310
010043006F006D0070004F0062006A0000000000000000000000000000000000
310
0000000000000000000000000000000000000000000000000000000000000000
310
120002010100000003000000FFFFFFFF00000000000000000000000000000000
310
0000000000000000000000000000000000000000010000004D00000000000000
310
01004F006C006500310030004E00610074006900760065000000000000000000
310
0000000000000000000000000000000000000000000000000000000000000000
310
1A000200FFFFFFFFFFFFFFFFFFFFFFFF00000000000000000000000000000000
310
0000000000000000000000000000000000000000040000000419000000000000
310
FEFFFFFF02000000FEFFFFFFFFFFFFFFFFFFFFFFFFFFFFFFFFFFFFFFFFFFFFFF
310
FFFFFFFFFFFFFFFFFFFFFFFFFFFFFFFFFFFFFFFFFFFFFFFFFFFFFFFFFFFFFFFF
310
FFFFFFFFFFFFFFFFFFFFFFFFFFFFFFFFFFFFFFFFFFFFFFFFFFFFFFFFFFFFFFFF
310
FFFFFFFFFFFFFFFFFFFFFFFFFFFFFFFFFFFFFFFFFFFFFFFFFFFFFFFFFFFFFFFF
310
FFFFFFFFFFFFFFFFFFFFFFFFFFFFFFFFFFFFFFFFFFFFFFFFFFFFFFFFFFFFFFFF
310
FFFFFFFFFFFFFFFFFFFFFFFFFFFFFFFFFFFFFFFFFFFFFFFFFFFFFFFFFFFFFFFF
310
FFFFFFFFFFFFFFFFFFFFFFFFFFFFFFFFFFFFFFFFFFFFFFFFFFFFFFFFFFFFFFFF
310
FFFFFFFFFFFFFFFFFFFFFFFFFFFFFFFFFFFFFFFFFFFFFFFFFFFFFFFFFFFFFFFF
310
FFFFFFFFFFFFFFFFFFFFFFFFFFFFFFFFFFFFFFFFFFFFFFFFFFFFFFFFFFFFFFFF
310
FFFFFFFFFFFFFFFFFFFFFFFFFFFFFFFFFFFFFFFFFFFFFFFFFFFFFFFFFFFFFFFF
310
FFFFFFFFFFFFFFFFFFFFFFFFFFFFFFFFFFFFFFFFFFFFFFFFFFFFFFFFFFFFFFFF
310
FFFFFFFFFFFFFFFFFFFFFFFFFFFFFFFFFFFFFFFFFFFFFFFFFFFFFFFFFFFFFFFF
310
FFFFFFFFFFFFFFFFFFFFFFFFFFFFFFFFFFFFFFFFFFFFFFFFFFFFFFFFFFFFFFFF
310
FFFFFFFFFFFFFFFFFFFFFFFFFFFFFFFFFFFFFFFFFFFFFFFFFFFFFFFFFFFFFFFF
310
FFFFFFFFFFFFFFFFFFFFFFFFFFFFFFFFFFFFFFFFFFFFFFFFFFFFFFFFFFFFFFFF
310
FFFFFFFFFFFFFFFFFFFFFFFFFFFFFFFFFFFFFFFFFFFFFFFFFFFFFFFFFFFFFFFF
310
0100000200000000000000000000000000000000000000000000000000000000
310
0000000000000000000000000000000000000000000000000000000000000000
310
0100FEFF030A0000FFFFFFFF0A00030000000000C00000000000004607000000
310
5042727573680007000000504272757368000700000050427275736800F439B2
310
7100000000000000000000000000000000000000000000000000000000000000
310
0000000000000000000000000000000000000000000000000000000000000000
310
0000000000000000000000000000000000000000000000000000000000000000
310
0000000000000000000000000000000000000000000000000000000000000000
310
0000000000000000000000000000000000000000000000000000000000000000
310
0000000000000000000000000000000000000000000000000000000000000000
310
0000000000000000000000000000000000000000000000000000000000000000
310
0000000000000000000000000000000000000000000000000000000000000000
310
0000000000000000000000000000000000000000000000000000000000000000
310
0000000000000000000000000000000000000000000000000000000000000000
310
0000000000000000000000000000000000000000000000000000000000000000
310
0000000000000000000000000000000000000000000000000000000000000000
310
00190000424DF618000000000000360000002800000075000000120000000100
310
180000000000C018000000000000000000000000000000000000FFFFFFFFFFFF
310
FFFFFFFFFFFFFFFFFFFFFFFFFFFFFFFFFFFF6666660808081212120C0C0C3535
310
35FFFFFFFFFFFFFFFFFFFFFFFFFFFFFFFFFFFFFFFFFFFFFFFFFFFFFFC0C0C045
310
4545151515121212121212121212131313141414151515151515161616181818
310
1818181919191919191E1E1E484848B0B0B0FFFFFFFFFFFFFFFFFFD4D4D42424
310
242424242424242E2E2EF1F1F1FFFFFFFFFFFFFFFFFFFFFFFFFFFFFFFFFFFFFF
310
FFFFDEDEDE4B4B4B3333333838383A3A3A3838382C2C2C5E5E5EEBEBEBFFFFFF
310
F1F1F14949494242424444444D4D4DF5F5F5FFFFFFA5A5A54343435050504848
310
48999999FFFFFFFFFFFFFFFFFFFFFFFFFFFFFFFFFFFFFFFFFFFFFFFFFFFFFFFF
310
FFFFFFFFFFBCBCBC6666667171716C6C6C9A9A9AFFFFFFFFFFFFFFFFFFE9E9E9
310
9393938181818080808282828484848484848585858888888888888989898B8B
310
8B8C8C8C8D8D8D8F8F8F90909090909092929291919199999900FFFFFFFFFFFF
310
FFFFFFFFFFFFFFFFFFFFFFFFFFFFFFFFFFFF5D5D5D0000000202020000002727
310
27FFFFFFFFFFFFFFFFFFFFFFFFFFFFFFFFFFFFFFFFFFFFFFFFA6A6A600000000
310
0000020202030303020202030303020202020202020202020202020202020202
310
0202020202020101010000000000000000006B6B6BFFFFFFFFFFFFCECECE0000
310
00000000000000080808EDEDEDFFFFFFFFFFFFFFFFFFFFFFFFFFFFFFFFFFFF9B
310
9B9B000000000000000000000000000000000000838383FFFFFFFFFFFFFFFFFF
310
ECECEC060606000000000000050505EEEEEEFFFFFF7B7B7B0000000000000000
310
00656565FFFFFFFFFFFFFFFFFFFFFFFFFFFFFFFFFFFFFFFFFFFFFFFFFFFFFFFF
310
FFFFFFFFFF8888880000000000000000003F3F3FFFFFFFFFFFFFC1C1C1000000
310
0000000000000000000000000000000000000000000000000000000000000000
310
0000000000000000000000000000000000000000000003030300FFFFFFFFFFFF
310
FFFFFFFFFFFFFFFFFFFFFFFFFFFFFFFFFFFF5E5E5E0000000404040000002525
310
25FFFFFFFFFFFFFFFFFFFFFFFFFFFFFFFFFFFFFFFFFFFEFEFE13131300000005
310
0505030303000000000000000000000000000000000000000000000000000000
310
000000000000000000000000050505010101000000CDCDCDFFFFFFCECECE0303
310
030202020101010B0B0BEDEDEDFFFFFFFFFFFFFFFFFFFFFFFFF7F7F759595900
310
0000000000050505000000000000383838D8D8D8FFFFFFFFFFFFFFFFFFFFFFFF
310
EDEDED0B0B0B0101010101010B0B0BEFEFEFFFFFFF7F7F7F0000000505050000
310
00686868FFFFFFFFFFFFFFFFFFFFFFFFFFFFFFFFFFFFFFFFFFFFFFFFFFFFFFFF
310
FFFFFFFFFF8D8D8D000000040404000000464646FFFFFFFFFFFF2E2E2E000000
310
0404040404040000000000000000000000000000000000000000000000000000
310
0000000000000000000000000003030305050503030312121200FFFFFFFFFFFF
310
FFFFFFFFFFFFFFFFFFFFFFFFFFFFFFFFFFFF5F5F5F0000000505050000002424
310
24FFFFFFFFFFFFFFFFFFFFFFFFFFFFFFFFFFFFFFFFFFD9D9D900000003030304
310
04040000007070709D9D9D9797979797979696969393939292928F8F8F8C8C8C
310
8A8A8A8B8B8B7E7E7E131313010101040404000000858585FFFFFFCECECE0404
310
040202020101010C0C0CEDEDEDFFFFFFFFFFFFFFFFFFCBCBCB23232300000003
310
03030404040000000606068D8D8DFFFFFFFFFFFFFFFFFFFFFFFFFFFFFFFFFFFF
310
EDEDED0C0C0C0101010101010B0B0BEFEFEFFFFFFF7F7F7F0000000505050000
310
00686868FFFFFFFFFFFFFFFFFFFFFFFFFFFFFFFFFFFFFFFFFFFFFFFFFFFFFFFF
310
FFFFFFFFFF8D8D8D000000050505000000444444FFFFFFFEFEFE050505010101
310
0404040101015A5A5A6666666464646464646464646464646363636262626262
310
626060606060606060605E5E5E00000004040403030312121200FFFFFFFFFFFF
310
FFFFFFFFFFFFFFFFFFFFFFFFFFFFFFFFFFFF5F5F5F0000000404040000002323
310
23FFFFFFFFFFFFFFFFFFFFFFFFFFFFFFFFFFFFFFFFFFD2D2D200000003030302
310
0202060606FFFFFFFFFFFFFFFFFFFFFFFFFFFFFFFFFFFFFFFFFFFFFFFFFFFFFF
310
FFFFFFFFFFFFFFFFFF666666000000040404000000808080FFFFFFCECECE0404
310
040202020101010B0B0BEDEDEDFFFFFFFFFFFF8C8C8C03030300000003030300
310
00000000003E3E3ED9D9D9FFFFFFFFFFFFFFFFFFFFFFFFFFFFFFFFFFFFFFFFFF
310
EDEDED0C0C0C0101010101010B0B0BEFEFEFFFFFFF7F7F7F0000000505050000
310
00676767FFFFFFFFFFFFFFFFFFFFFFFFFFFFFFFFFFFFFFFFFFFFFFFFFFFFFFFF
310
FFFFFFFFFF8D8D8D000000040404000000444444FFFFFFFFFFFF070707010101
310
030303000000F7F7F7FFFFFFFFFFFFFFFFFFFFFFFFFFFFFFFFFFFFFFFFFFFFFF
310
FFFFFFFFFFFFFFFFFFFFFFFFFF00000003030303030311111100FFFFFFFFFFFF
310
FFFFFFFFFFFFFFFFFFFFFFFFFFFFFFFFFFFF6161610000000404040000002222
310
22FFFFFFFFFFFFFFFFFFFFFFFFFFFFFFFFFFFFFFFFFFD3D3D300000002020202
310
0202070707FCFCFCFFFFFFFFFFFFFFFFFFFFFFFFFFFFFFFFFFFFFFFFFFFFFFFF
310
FFFFFFFFFFFFFFFFFF696969000000040404000000818181FFFFFFCECECE0404
310
040202020101010D0D0DFAFAFAEEEEEE4D4D4D0000000000000303030000000D
310
0D0D949494FFFFFFFFFFFFFFFFFFFFFFFFFFFFFFFFFFFFFFFFFFFFFFFFFFFFFF
310
EDEDED0C0C0C0101010101010B0B0BEFEFEFFFFFFF7F7F7F0000000505050000
310
00676767FFFFFFFFFFFFFFFFFFFFFFFFFFFFFFFFFFFFFFFFFFFFFFFFFFFFFFFF
310
FFFFFFFFFF8D8D8D000000040404000000434343FFFFFFFEFEFE050505010101
310
030303010101A9A9A9C1C1C1BEBEBEC1C1C1C1C1C1C2C2C2C3C3C3C4C4C4C5C5
310
C5C5C5C5C8C8C8CACACACCCCCC00000003030303030311111100FFFFFFFFFFFF
310
FFFFFFFFFFFFFFFFFFFFFFFFFFFFFFFFFFFF6161610000000404040000002121
310
21FFFFFFFFFFFFFFFFFFFFFFFFFFFFFFFFFFFFFFFFFFD5D5D500000002020202
310
0202060606FCFCFCFFFFFFFFFFFFFFFFFFFFFFFFFFFFFFFFFFFFFFFFFFFFFFFF
310
FFFFFFFFFFFFFFFFFF686868000000050505000000818181FFFFFFCCCCCC0303
310
030202020202020D0D0D9898981D1D1D000000030303040404010101545454E1
310
E1E1FFFFFFFFFFFFFFFFFFFFFFFFFFFFFFFFFFFFFFFFFFFFFFFFFFFFFFFFFFFF
310
EDEDED0C0C0C0101010101010B0B0BEFEFEFFFFFFF7F7F7F0000000505050000
310
00666666FFFFFFFFFFFFFFFFFFFFFFFFFFFFFFFFFFFFFFFFFFFFFFFFFFFFFFFF
310
FFFFFFFFFF8D8D8D000000040404000000424242FFFFFFFFFFFF1E1E1E000000
310
0505050303030000000000000000000000000000000101010101010101010202
310
0202020203030304040405050502020204040403030311111100FFFFFFFFFFFF
310
FFFFFFFFFFFFFFFFFFFFFFFFFFFFFFFFFFFF6363630000000505050000001F1F
310
1FFFFFFFFFFFFFFFFFFFFFFFFFFFFFFFFEFEFEFFFFFFD5D5D500000003030302
310
0202050505FCFCFCFFFFFFFFFFFFFFFFFFFFFFFFFFFFFFFFFFFFFFFFFFFFFFFF
310
FFFFFFFFFFFFFFFFFF686868000000040404000000818181FFFFFFCDCDCD0303
310
030202020303030707074545450000000000000404040303030303039E9E9EFF
310
FFFFFFFFFFFFFFFFFFFFFFFFFFFFFFFFFFFFFFFFFFFFFFFFFFFFFFFFFFFFFFFF
310
EDEDED0C0C0C0101010101010B0B0BEEEEEEFFFFFF7F7F7F0000000505050000
310
00666666FFFFFFFFFFFFFFFFFFFFFFFFFFFFFFFFFFFFFFFFFFFFFFFFFFFFFFFF
310
FFFFFFFFFF8D8D8D000000040404000000434343FFFFFFFFFFFF9C9C9C000000
310
0000000000000000000000000000000000000000000000000000000000000000
310
0000000000000000000000000004040405050503030311111100FFFFFFFFFFFF
310
FFFFFFFFFFFFFFFFFFFFFFFFFFFFFFFFFFFF6262620000000505050000002121
310
21FFFFFFFFFFFFFFFFFFFFFFFFFFFFFFFEFEFEFFFFFFD5D5D500000002020201
310
0101070707FDFDFDFFFFFFFFFFFFFFFFFFFFFFFFFFFFFFFFFFFFFFFFFFFFFFFF
310
FFFFFFFFFFFFFFFFFF696969000000050505000000818181FFFFFFCCCCCC0303
310
030202020101010D0D0DF6F6F6B3B3B319191900000003030302020200000057
310
5757E8E8E8FFFFFFFFFFFFFFFFFFFFFFFFFFFFFFFFFFFFFFFFFFFFFFFFFFFFFF
310
EDEDED0C0C0C0101010101010C0C0CEDEDEDFFFFFF7F7F7F0000000505050000
310
00666666FFFFFFFFFFFFFFFFFFFFFFFFFFFFFFFFFFFFFFFFFFFFFFFFFFFFFFFF
310
FFFFFFFFFF8D8D8D000000040404000000434343FFFFFFFFFFFFFFFFFFA8A8A8
310
3C3C3C2E2E2E2C2C2C2B2B2B2A2A2A2A2A2A2929292828282727272727272626
310
2626262625252525252524242400000004040403030311111100FFFFFFFFFFFF
310
FFFFFFFFFFFFFFFFFFFFFFFFFFFFFFFFFFFF6161610000000505050000002121
310
21FFFFFFFFFFFFFFFFFFFFFFFFFFFFFFFFFFFFFFFFFFD2D2D200000003030302
310
0202060606FFFFFFFFFFFFFFFFFFFFFFFFFFFFFFFFFFFFFFFFFFFFFFFFFFFFFF
310
FFFFFFFFFFFFFFFFFF666666000000050505000000808080FFFFFFCCCCCC0202
310
020202020101010B0B0BECECECFFFFFFE5E5E54D4D4D00000000000003030300
310
00001B1B1BABABABFFFFFFFFFFFFFFFFFFFFFFFFFFFFFFFFFFFFFFFFFFFFFFFF
310
EDEDED0C0C0C0101010101010B0B0BEEEEEEFFFFFF7F7F7F0000000505050000
310
00696969FFFFFFFFFFFFFFFFFFFFFFFFFFFFFFFFFFFFFFFFFFFFFFFFFFFFFFFF
310
FFFFFFFFFF909090000000040404000000414141FFFFFFFFFFFFFFFFFFFFFFFF
310
FFFFFFFDFDFDFAFAFAF9F9F9F9F9F9F7F7F7F7F7F7F7F7F7F5F5F5F5F5F5F4F4
310
F4F4F4F4F2F2F2F4F4F4F7F7F700000004040403030311111100FFFFFFFFFFFF
310
FFFFFFFFFFFFFFFFFFFFFFFFFFFFFFFFFFFF5F5F5F0000000505050000002222
310
22FFFFFFFFFFFFFFFFFFFFFFFFFFFFFFFFFFFFFFFFFFDBDBDB00000003030304
310
04040000005858588585858383838585858686868989898989898D8D8D8E8E8E
310
919191949494898989161616010101040404000000828282FFFFFFCCCCCC0303
310
030202020101010B0B0BECECECFFFFFFFFFFFFFFFFFF8F8F8F0A0A0A00000003
310
0303000000000000636363EDEDEDFFFFFFFFFFFFFFFFFFFFFFFFFFFFFFFFFFFF
310
ECECEC0C0C0C0101010101010B0B0BEFEFEFFFFFFF7F7F7F0000000505050000
310
00555555D8D8D8D1D1D1D1D1D1D2D2D2D2D2D2D2D2D2D4D4D4D4D4D4D4D4D4D5
310
D5D5DCDCDC565656000000050505000000424242FFFFFFFFFFFFFFFFFFFFFFFF
310
FFFFFFFFFFFFFFFFFFFFFFFFFFFFFFFFFFFFFFFFFFFFFFFFFFFFFFFFFFFFFFFF
310
FFFFFFFFFFFFFFFFFFFFFDFDFD00000003030303030310101000FFFFFFFFFFFF
310
FFFFFFFFFFFFFFFFFFFFFFFFFFFFFFFFFFFF5F5F5F0000000505050000002121
310
21FFFFFFFFFFFFFFFFFFFFFFFFFFFFFFFFFFFFFFFFFFFFFFFF1D1D1D00000004
310
0404040404000000000000000000000000000000000000000000000000000000
310
000000000000000000000000050505020202000000BFBFBFFFFFFFCBCBCB0202
310
020202020101010C0C0CECECECFFFFFFFFFFFFFFFFFFFFFFFFD2D2D235353500
310
00000101010202020000001F1F1FB5B5B5FFFFFFFFFFFFFFFFFFFFFFFFFFFFFF
310
ECECEC0C0C0C0101010101010B0B0BEFEFEFFFFFFF7F7F7F0000000505050404
310
0400000000000000000000000000000000000000000000000000000000000000
310
00000000000000000404040404040000006E6E6EFFFFFFFFFFFF7C7C7C464646
310
4D4D4D4D4D4D4D4D4D4D4D4D4D4D4D4D4D4D4D4D4D4D4D4D4C4C4C4D4D4D4E4E
310
4E4F4F4F50505055555530303000000004040401010115151500FFFFFFFFFFFF
310
FFFFFFFFFFFFFFFFFFFFFFFFFFFFFFFFFFFF6060600000000505050000001F1F
310
1FFFFFFFFFFFFFFFFFFFFFFFFFFFFFFFFFFFFFFFFFFFFFFFFFB3B3B300000000
310
0000000000000000000000000000000000000000000000000000000000000000
310
000000000000000000000000000000000000585858FFFFFFFFFFFFCCCCCC0303
310
030202020101010B0B0BEAEAEAFFFFFFFFFFFFFFFFFFFFFFFFFFFFFFFEFEFE77
310
7777010101000000010101000000000000656565F0F0F0FFFFFFFFFFFFFFFFFF
310
EDEDED0A0A0A0000000000000A0A0AEDEDEDFFFFFF7E7E7E0000000303030303
310
0303030302020202020202020202020202020202020202020202020202020202
310
0202020202030303020202000000040404DADADAFFFFFFFFFFFF3F3F3F000000
310
0000000000000000000000000000000000000000000000000000000000000000
310
0000000000000000000000000004040402020200000082828200F1F1F1F1F1F1
310
F1F1F1F1F1F1F2F2F2F2F2F2F3F3F3FFFFFF5F5F5F0000000505050000001E1E
310
1EFFFFFFFCFCFCFCFCFCFBFBFBFDFDFDFDFDFDFEFEFEFEFEFEFFFFFFC6C6C646
310
4646131313131313131313131313121212121212121212111111111111111111
310
1010101010101010100F0F0F1C1C1C848484FEFEFEFFFFFFFFFFFFCDCDCD0404
310
040202020101010B0B0BEBEBEBFFFFFFFFFFFFFFFFFFFFFFFFFFFFFFFFFFFFFF
310
FFFFC0C0C0222222030303060606030303000000222222BCBCBCFFFFFFFFFFFF
310
ECECEC0D0D0D0000000000000B0B0BECECECFFFFFF7E7E7E0000000000000000
310
0000000000000000000000000000000000000000000000000000000000000000
310
00000000000000000000001C1C1CBBBBBBFFFFFFFFFFFFFFFFFF3F3F3F000000
310
0000000000000000000000000000000000000000000000000000000000000000
310
000000000000000000000000000000000000004F4F4FFFFFFF00111111101010
310
1010101111111313131313131515151919190909090303030505050404040404
310
043030302E2E2E2F2F2F3131313333333333333636362F2F2F7F7F7FFFFFFFFF
310
FFFFFFFFFFFDFDFDFCFCFCFBFBFBFAFAFAF8F8F8F7F7F7F7F7F7F6F6F6F5F5F5
310
F3F3F3F3F3F3F0F0F0F4F4F4FFFFFFFFFFFFFFFFFFFFFFFFFFFFFFCECECE0404
310
040303030000000B0B0BEBEBEBFFFFFFFFFFFFFFFFFFFFFFFFFFFFFFFFFFFFFF
310
FFFFFFFFFFF5F5F5D3D3D3D5D5D5D3D3D3D1D1D1C6C6C6C9C9C9FCFCFCFFFFFF
310
FFFFFFD5D5D5D4D4D4D4D4D4D1D1D1FDFDFDFFFFFFDFDFDFBBBBBBBDBDBDBDBD
310
BDBBBBBBB9B9B9B8B8B8B5B5B5B4B4B4B3B3B3B1B1B1AFAFAFAEAEAEADADADAB
310
ABABA9A9A9A9A9A9C4C4C4FDFDFDFFFFFFFFFFFFFFFFFFFFFFFFB8B8B89B9B9B
310
9D9D9D9B9B9B9B9B9B9999999999999999999999999999999999999999999999
310
999A9A9A989898979797979797989898CCCCCCFFFFFFFFFFFF00010101000000
310
0000000000000000000000000000000000000303030505050505050404040404
310
04000000000000000000000000000000000000000000000000555555FFFFFFFF
310
FFFFFFFFFFFFFFFFFFFFFFFFFFFFFFFFFFFFFFFFFFFFFFFFFFFFFFFFFFFFFFFF
310
FFFFFFFFFFFFFFFFFFFFFFFFFFFFFFFFFFFFFFFFFFFFFFFFFFFFFFCECECE0404
310
040101010101010B0B0BEBEBEBFFFFFFFFFFFFFFFFFFFFFFFFFFFFFFFFFFFFFF
310
FFFFFFFFFFFFFFFFFFFFFFFFFFFFFFFFFFFFFFFFFFFFFFFFFFFFFFFFFFFFFFFF
310
F5F5F57979797272727373737A7A7AF6F6F6FFFFFFFFFFFFFFFFFFFFFFFFFFFF
310
FFFFFFFFFFFFFFFFFFFFFFFFFFFFFFFFFFFFFFFFFFFFFFFFFFFFFFFFFFFFFFFF
310
FFFFFFFFFFFFFFFFFFFFFFFFFFFFFFFFFFFFFFFFFFFFFFFFFFFFFFFFFFFFFFFF
310
FFFFFFFFFFFFFFFFFFFFFFFFFFFFFFFFFFFFFFFFFFFFFFFFFFFFFFFFFFFFFFFF
310
FFFFFFFFFFFFFFFFFFFFFFFFFFFFFFFFFFFFFFFFFFFFFFFFFF00030303020202
310
0303030202020303030303030303030303030303030303030303030303030303
310
030303030303030303030303030303030303030303030000005A5A5AFFFFFFFF
310
FFFFFFFFFFFFFFFFFFFFFFFFFFFFFFFFFFFFFFFFFFFFFFFFFFFFFFFFFFFFFFFF
310
FFFFFFFFFFFFFFFFFFFFFFFFFFFFFFFFFFFFFFFFFFFFFFFFFFFFFFCECECE0303
310
030202020101010A0A0AEBEBEBFFFFFFFFFFFFFFFFFFFFFFFFFFFFFFFFFFFFFF
310
FFFFFFFFFFFFFFFFFFFFFFFFFFFFFFFFFFFFFFFFFFFFFFFFFFFFFFFFFFFFFFFF
310
EDEDED000000000000000000000000EDEDEDFFFFFFFFFFFFFFFFFFFFFFFFFFFF
310
FFFFFFFFFFFFFFFFFFFFFFFFFFFFFFFFFFFFFFFFFFFFFFFFFFFFFFFFFFFFFFFF
310
FFFFFFFFFFFFFFFFFFFFFFFFFFFFFFFFFFFFFFFFFFFFFFFFFFFFFFFFFFFFFFFF
310
FFFFFFFFFFFFFFFFFFFFFFFFFFFFFFFFFFFFFFFFFFFFFFFFFFFFFFFFFFFFFFFF
310
FFFFFFFFFFFFFFFFFFFFFFFFFFFFFFFFFFFFFFFFFFFFFFFFFF00141414121212
310
1212121212121111111212121111111111111111111111111111111010101010
310
101010100F0F0F1010101010100F0F0F0F0F0F0F0F0F030303646464FFFFFFFF
310
FFFFFFFFFFFFFFFFFFFFFFFFFFFFFFFFFFFFFFFFFFFFFFFFFFFFFFFFFFFFFFFF
310
FFFFFFFFFFFFFFFFFFFFFFFFFFFFFFFFFFFFFFFFFFFFFFFFFFFFFFD0D0D00A0A
310
0A070707060606111111ECECECFFFFFFFFFFFFFFFFFFFFFFFFFFFFFFFFFFFFFF
310
FFFFFFFFFFFFFFFFFFFFFFFFFFFFFFFFFFFFFFFFFFFFFFFFFFFFFFFFFFFFFFFF
310
F0F0F00E0E0E0000000101010C0C0CEFEFEFFFFFFFFFFFFFFFFFFFFFFFFFFFFF
310
FFFFFFFFFFFFFFFFFFFFFFFFFFFFFFFFFFFFFFFFFFFFFFFFFFFFFFFFFFFFFFFF
310
FFFFFFFFFFFFFFFFFFFFFFFFFFFFFFFFFFFFFFFFFFFFFFFFFFFFFFFFFFFFFFFF
310
FFFFFFFFFFFFFFFFFFFFFFFFFFFFFFFFFFFFFFFFFFFFFFFFFFFFFFFFFFFFFFFF
310
FFFFFFFFFFFFFFFFFFFFFFFFFFFFFFFFFFFFFFFFFFFFFFFFFF00000000000000
310
0000000000000000000000000000000000000000000000000000000000000000
310
0000000000000000000000000000000000000000000000000000000000000000
310
0000000000000000000000000000000000000000000000000000000000000000
310
0000000000000000000000000000000000000000000000000000000000000000
310
0000000000000000000000000000000000000000000000000000000000000000
310
0000000000000000000000000000000000000000000000000000000000000000
310
0000000000000000000000000000000000000000000000000000000000000000
310
0000000000000000000000000000000000000000000000000000000000000000
  1
OLE
  0
TEXT
  5
7F2
330
1F
100
AcDbEntity
  8
99
  6
Continuous
 62
     7
370
    30
100
AcDbText
 10
201.7988872080587
 20
4.993700591760252
 30
0.0
 40
4.0
  1
株式会社トキナー
  7
KCADTEXTSTANDARD
100
AcDbText
1001
Sigma
1000

  0
TEXT
  5
7F3
330
1F
100
AcDbEntity
  8
99
  6
Continuous
 62
     7
370
    30
100
AcDbText
 10
249.9467635437477
 20
5.673700591760252
 30
0.0
 40
4.0
  1
Tokina Co.,Ltd.
 41
0.7000000000000001
  7
KCADTEXTSTANDARD
100
AcDbText
1001
Sigma
1000

  0
POINT
  5
972
330
1F
100
AcDbEntity
  8
0
  6
Continuous
 62
     7
370
    30
100
AcDbPoint
 10
133.7451215846338
 20
139.0930851063819
 30
0.0
  0
POINT
  5
973
330
1F
100
AcDbEntity
  8
0
  6
Continuous
 62
     7
370
    30
100
AcDbPoint
 10
133.7451215846338
 20
121.593085106384
 30
0.0
  0
LINE
  5
974
330
1F
100
AcDbEntity
  8
0
  6
Continuous
 62
     7
370
    -2
100
AcDbLine
 10
132.7451215846338
 20
139.0930851063819
 30
0.0
 11
130.2767105750829
 21
139.0930851063819
 31
0.0
  0
LINE
  5
975
330
1F
100
AcDbEntity
  8
0
  6
Continuous
 62
     7
370
    -2
100
AcDbLine
 10
132.7451215846338
 20
121.593085106384
 30
0.0
 11
130.2767105750829
 21
121.593085106384
 31
0.0
  0
LINE
  5
976
330
1F
100
AcDbEntity
  8
0
  6
Continuous
 62
     7
370
    -2
100
AcDbLine
 10
131.2767105750829
 20
142.0930851063819
 30
0.0
 11
131.2767105750829
 21
145.0930851063819
 31
0.0
  0
INSERT
  5
977
330
1F
100
AcDbEntity
  8
0
  6
Continuous
 62
     7
370
    -2
100
AcDbBlockReference
  2
KCAD_OPEN30
 10
131.2767105750829
 20
139.0930851063819
 30
0.0
 41
3.0
 42
3.0
 43
3.0
 50
270.0
  0
LINE
  5
978
330
1F
100
AcDbEntity
  8
0
  6
Continuous
 62
     7
370
    -2
100
AcDbLine
 10
131.2767105750829
 20
118.593085106384
 30
0.0
 11
131.2767105750829
 21
102.3263974730236
 31
0.0
  0
INSERT
  5
979
330
1F
100
AcDbEntity
  8
0
  6
Continuous
 62
     7
370
    -2
100
AcDbBlockReference
  2
KCAD_OPEN30
 10
131.2767105750829
 20
121.593085106384
 30
0.0
 41
3.0
 42
3.0
 43
3.0
 50
90.0
  0
LINE
  5
97A
330
1F
100
AcDbEntity
  8
0
  6
Continuous
 62
     7
370
    -2
100
AcDbLine
 10
131.2767105750829
 20
139.0930851063819
 30
0.0
 11
131.2767105750829
 21
121.593085106384
 31
0.0
  0
MTEXT
  5
97B
330
1F
100
AcDbEntity
  8
0
  6
Continuous
 62
     7
370
    30
100
AcDbMText
 10
129.143410575083
 20
109.0971372887663
 30
0.0
 40
3.2
 41
0.0
 71
     5
 72
     1
  1
\A1;%%c17.5
  7
KCADDIMSTANDARD
 11
6.123031769111886E-17
 21
1.0
 31
0.0
 73
     1
 44
1.0
  0
TEXT
  5
A13
330
1F
100
AcDbEntity
  8
99
  6
Continuous
 62
     7
370
    30
100
AcDbText
 10
182.4648907818492
 20
18.41889153415114
 30
0.0
 40
2.5
  1
図番登録
 41
0.7000000000000001
  7
KCADTEXTSTANDARD
100
AcDbText
1001
Sigma
1000

  0
TEXT
  5
A14
330
1F
100
AcDbEntity
  8
99
  6
Continuous
 62
     7
370
    30
100
AcDbText
 10
182.0084397150755
 20
13.24324258043676
 30
0.0
 40
2.0
  1
2008.5.15
 41
0.7000000000000001
  7
KCADTEXTSTANDARD
100
AcDbText
1001
Sigma
1000

  0
ENDSEC
  0
SECTION
  2
OBJECTS
  0
DICTIONARY
  5
C
330
0
100
AcDbDictionary
281
     1
  3
ACAD_COLOR
350
6C
  3
ACAD_GROUP
350
D
  3
ACAD_LAYOUT
350
1A
  3
ACAD_MATERIAL
350
6B
  3
ACAD_MLINESTYLE
350
17
  3
ACAD_PLOTSETTINGS
350
19
  3
ACAD_PLOTSTYLENAME
350
E
  3
ACAD_TABLESTYLE
350
92
  3
ACDBHEADERROUNDTRIPXREC
350
B25
  3
AcDbVariableDictionary
350
59
  3
DWGPROPS
350
B28
  3
KCADFRAMEINFO
350
2A7
  0
DICTIONARY
  5
6C
102
{ACAD_REACTORS
330
C
102
}
330
C
100
AcDbDictionary
281
     1
  0
DICTIONARY
  5
D
102
{ACAD_REACTORS
330
C
102
}
330
C
100
AcDbDictionary
281
     1
  3
*A1
350
599
  3
*A2
350
59A
  3
*A3
350
78B
  3
*A4
350
7D0
  3
*A5
350
7D1
  0
DICTIONARY
  5
1A
102
{ACAD_REACTORS
330
C
102
}
330
C
100
AcDbDictionary
281
     1
  3
Model
350
22
  3
ﾚｲｱｳﾄ1
350
22F
  0
DICTIONARY
  5
6B
102
{ACAD_REACTORS
330
C
102
}
330
C
100
AcDbDictionary
281
     1
  0
DICTIONARY
  5
17
102
{ACAD_REACTORS
330
C
102
}
330
C
100
AcDbDictionary
281
     1
  3
Standard
350
18
  0
DICTIONARY
  5
19
102
{ACAD_REACTORS
330
C
102
}
330
C
100
AcDbDictionary
281
     1
  0
ACDBDICTIONARYWDFLT
  5
E
102
{ACAD_REACTORS
330
C
102
}
330
C
100
AcDbDictionary
281
     1
  3
Normal
350
F
100
AcDbDictionaryWithDefault
340
F
  0
DICTIONARY
  5
92
102
{ACAD_REACTORS
330
C
102
}
330
C
100
AcDbDictionary
281
     1
  0
DICTIONARY
  5
B25
102
{ACAD_REACTORS
330
C
102
}
330
C
100
AcDbDictionary
281
     1
  3
COLORDICT
350
B26
  3
MATERIALDICT
350
B27
  0
DICTIONARY
  5
59
102
{ACAD_REACTORS
330
C
102
}
330
C
100
AcDbDictionary
281
     1
  3
DIMASSOC
350
B24
  0
XRECORD
  5
B28
102
{ACAD_REACTORS
330
C
102
}
330
C
100
AcDbXrecord
280
     1
  1
DWGPROPS COOKIE
  2

  3

  4

  6

  7

  8
fottrem
  9

300
=
301
=
302
=
303
=
304
=
305
=
306
=
307
=
308
=
309
=
 40
0.0
 41
2453353.717125822
 42
2453305.99575191
  1

 90
        0
  0
XRECORD
  5
2A7
102
{ACAD_REACTORS
330
C
102
}
330
C
100
AcDbXrecord
280
     1
  1
A4
 40
297.0
 40
210.0
 90
        1
 90
        1
  0
GROUP
  5
599
102
{ACAD_REACTORS
330
D
102
}
330
D
100
AcDbGroup
300
group from kcad family
 70
     1
 71
     1
340
59B
340
59D
340
59F
340
5A1
  0
GROUP
  5
59A
102
{ACAD_REACTORS
330
D
102
}
330
D
100
AcDbGroup
300
line with arrowBlockRef from kcad family
 70
     1
 71
     1
340
59B
340
59D
  0
GROUP
  5
78B
102
{ACAD_REACTORS
330
D
102
}
330
D
100
AcDbGroup
300
group from kcad family
 70
     1
 71
     1
340
78C
340
78E
340
790
340
792
  0
GROUP
  5
7D0
102
{ACAD_REACTORS
330
D
102
}
330
D
100
AcDbGroup
300
group from kcad family
 70
     1
 71
     1
340
7D2
340
7D4
340
7D6
340
7D8
  0
GROUP
  5
7D1
102
{ACAD_REACTORS
330
D
102
}
330
D
100
AcDbGroup
300
line with arrowBlockRef from kcad family
 70
     1
 71
     1
340
7D2
340
7D4
  0
LAYOUT
  5
22
102
{ACAD_REACTORS
330
1A
102
}
330
1A
100
AcDbPlotSettings
  1

  2
DWF ePlot.pc3
  4
ISO_A3_(297.00_x_420.00_MM)
  6

 40
5.793749809265136
 41
17.79375076293945
 42
5.79376220703125
 43
17.79376220703125
 44
297.0
 45
420.0
 46
0.0
 47
0.0
 48
0.0
 49
0.0
140
0.0
141
0.0
142
1.0
143
1.0
 70
 11952
 72
     1
 73
     1
 74
     2
  7

 75
    16
147
1.0
148
0.0
149
0.0
100
AcDbLayout
  1
Model
 70
     1
 71
     0
 10
0.0
 20
0.0
 11
297.0
 21
210.0
 12
0.0
 22
0.0
 32
0.0
 14
12.47329910140999
 24
4.030743065046472
 34
0.0
 15
286.6338193791156
 25
205.0523593466424
 35
0.0
146
0.0
 13
0.0
 23
0.0
 33
0.0
 16
1.0
 26
0.0
 36
0.0
 17
0.0
 27
1.0
 37
0.0
 76
     0
330
1F
  0
LAYOUT
  5
22F
102
{ACAD_REACTORS
330
1A
102
}
330
1A
100
AcDbPlotSettings
  1

  2
D:\ACAD2000\plotters\HP DesignJet 700(System).pc3
  4

  6

 40
0.0
 41
0.0
 42
0.0
 43
0.0
 44
0.0
 45
0.0
 46
0.0
 47
0.0
 48
0.0
 49
0.0
140
0.0
141
0.0
142
1.0
143
1.0
 70
   688
 72
     0
 73
     0
 74
     5
  7
monochrome.ctb
 75
    16
147
1.0
148
0.0
149
0.0
100
AcDbLayout
  1
ﾚｲｱｳﾄ1
 70
     1
 71
     1
 10
0.0
 20
0.0
 11
12.0
 21
9.0
 12
0.0
 22
0.0
 32
0.0
 14
0.0
 24
0.0
 34
0.0
 15
0.0
 25
0.0
 35
0.0
146
0.0
 13
0.0
 23
0.0
 33
0.0
 16
1.0
 26
0.0
 36
0.0
 17
0.0
 27
1.0
 37
0.0
 76
     0
330
73
  0
MLINESTYLE
  5
18
102
{ACAD_REACTORS
330
17
102
}
330
17
100
AcDbMlineStyle
  2
Standard
 70
     0
  3

 62
   256
 51
90.0
 52
90.0
 71
     2
 49
0.5
 62
   256
  6
BYLAYER
 49
-0.5
 62
   256
  6
BYLAYER
  0
ACDBPLACEHOLDER
  5
F
102
{ACAD_REACTORS
330
E
102
}
330
E
  0
XRECORD
  5
B26
102
{ACAD_REACTORS
330
B25
102
}
330
B25
100
AcDbXrecord
280
     1
340
6C
  0
XRECORD
  5
B27
102
{ACAD_REACTORS
330
B25
102
}
330
B25
100
AcDbXrecord
280
     1
340
6B
  0
DICTIONARYVAR
  5
B24
102
{ACAD_REACTORS
330
59
102
}
330
59
100
DictionaryVariables
280
     0
  1
1
  0
ENDSEC
  0
EOF
