  0
SECTION
  2
HEADER
  9
$ACADVER
  1
AC1015
  9
$ACADMAINTVER
 70
     6
  9
$DWGCODEPAGE
  3
ANSI_932
  9
$INSBASE
 10
0.0
 20
0.0
 30
0.0
  9
$EXTMIN
 10
21.598695984704
 20
12.73940722175909
 30
0.0
  9
$EXTMAX
 10
403.3326959847
 20
280.9459459459499
 30
0.0
  9
$LIMMIN
 10
0.0
 20
0.0
  9
$LIMMAX
 10
420.0
 20
297.0
  9
$ORTHOMODE
 70
     0
  9
$REGENMODE
 70
     1
  9
$FILLMODE
 70
     1
  9
$QTEXTMODE
 70
     0
  9
$MIRRTEXT
 70
     1
  9
$LTSCALE
 40
0.2
  9
$ATTMODE
 70
     1
  9
$TEXTSIZE
 40
3.2
  9
$TRACEWID
 40
1.0
  9
$TEXTSTYLE
  7
KCADTEXTSTANDARD
  9
$CLAYER
  8
0
  9
$CELTYPE
  6
Continuous
  9
$CECOLOR
 62
   134
  9
$CELTSCALE
 40
1.0
  9
$DISPSILH
 70
     0
  9
$DIMSCALE
 40
1.0
  9
$DIMASZ
 40
3.0
  9
$DIMEXO
 40
1.0
  9
$DIMDLI
 40
8.0
  9
$DIMRND
 40
0.0
  9
$DIMDLE
 40
0.0
  9
$DIMEXE
 40
1.0
  9
$DIMTP
 40
0.0
  9
$DIMTM
 40
0.0
  9
$DIMTXT
 40
3.2
  9
$DIMCEN
 40
2.5
  9
$DIMTSZ
 40
0.0
  9
$DIMTOL
 70
     0
  9
$DIMLIM
 70
     0
  9
$DIMTIH
 70
     0
  9
$DIMTOH
 70
     0
  9
$DIMSE1
 70
     0
  9
$DIMSE2
 70
     0
  9
$DIMTAD
 70
     1
  9
$DIMZIN
 70
     8
  9
$DIMBLK
  1

  9
$DIMASO
 70
     1
  9
$DIMSHO
 70
     1
  9
$DIMPOST
  1

  9
$DIMAPOST
  1

  9
$DIMALT
 70
     0
  9
$DIMALTD
 70
     2
  9
$DIMALTF
 40
25.4
  9
$DIMLFAC
 40
1.0
  9
$DIMTOFL
 70
     1
  9
$DIMTVP
 40
0.0
  9
$DIMTIX
 70
     0
  9
$DIMSOXD
 70
     0
  9
$DIMSAH
 70
     1
  9
$DIMBLK1
  1
KCAD_OPEN30
  9
$DIMBLK2
  1
KCAD_OPEN30
  9
$DIMSTYLE
  2
Standard
  9
$DIMCLRD
 70
     0
  9
$DIMCLRE
 70
     0
  9
$DIMCLRT
 70
     0
  9
$DIMTFAC
 40
0.667
  9
$DIMGAP
 40
0.5333000000000001
  9
$DIMJUST
 70
     0
  9
$DIMSD1
 70
     0
  9
$DIMSD2
 70
     0
  9
$DIMTOLJ
 70
     1
  9
$DIMTZIN
 70
     8
  9
$DIMALTZ
 70
     0
  9
$DIMALTTZ
 70
     0
  9
$DIMUPT
 70
     0
  9
$DIMDEC
 70
     3
  9
$DIMTDEC
 70
     3
  9
$DIMALTU
 70
     2
  9
$DIMALTTD
 70
     2
  9
$DIMTXSTY
  7
KCADDIMSTANDARD
  9
$DIMAUNIT
 70
     0
  9
$DIMADEC
 70
     3
  9
$DIMALTRND
 40
0.0
  9
$DIMAZIN
 70
     2
  9
$DIMDSEP
 70
    46
  9
$DIMATFIT
 70
     3
  9
$DIMFRAC
 70
     0
  9
$DIMLDRBLK
  1
KCAD_OPEN
  9
$DIMLUNIT
 70
     2
  9
$DIMLWD
 70
    -2
  9
$DIMLWE
 70
    -2
  9
$DIMTMOVE
 70
     0
  9
$LUNITS
 70
     2
  9
$LUPREC
 70
     4
  9
$SKETCHINC
 40
1.0
  9
$FILLETRAD
 40
5.0
  9
$AUNITS
 70
     0
  9
$AUPREC
 70
     0
  9
$MENU
  1
.
  9
$ELEVATION
 40
0.0
  9
$PELEVATION
 40
0.0
  9
$THICKNESS
 40
0.0
  9
$LIMCHECK
 70
     0
  9
$CHAMFERA
 40
5.0
  9
$CHAMFERB
 40
5.0
  9
$CHAMFERC
 40
5.0
  9
$CHAMFERD
 40
0.7853981633974483
  9
$SKPOLY
 70
     0
  9
$TDCREATE
 40
2453354.092125822
  9
$TDUCREATE
 40
2453353.717125822
  9
$TDUPDATE
 40
2453298.728506759
  9
$TDUUPDATE
 40
2453298.353506759
  9
$TDINDWG
 40
0.0512035995
  9
$TDUSRTIMER
 40
0.0511920255
  9
$USRTIMER
 70
     1
  9
$ANGBASE
 50
0.0
  9
$ANGDIR
 70
     0
  9
$PDMODE
 70
     0
  9
$PDSIZE
 40
0.0
  9
$PLINEWID
 40
0.0
  9
$SPLFRAME
 70
     0
  9
$SPLINETYPE
 70
     6
  9
$SPLINESEGS
 70
     8
  9
$HANDSEED
  5
BC4
  9
$SURFTAB1
 70
     6
  9
$SURFTAB2
 70
     6
  9
$SURFTYPE
 70
     6
  9
$SURFU
 70
     6
  9
$SURFV
 70
     6
  9
$UCSBASE
  2

  9
$UCSNAME
  2

  9
$UCSORG
 10
0.0
 20
0.0
 30
0.0
  9
$UCSXDIR
 10
1.0
 20
0.0
 30
0.0
  9
$UCSYDIR
 10
0.0
 20
1.0
 30
0.0
  9
$UCSORTHOREF
  2

  9
$UCSORTHOVIEW
 70
     0
  9
$UCSORGTOP
 10
0.0
 20
0.0
 30
0.0
  9
$UCSORGBOTTOM
 10
0.0
 20
0.0
 30
0.0
  9
$UCSORGLEFT
 10
0.0
 20
0.0
 30
0.0
  9
$UCSORGRIGHT
 10
0.0
 20
0.0
 30
0.0
  9
$UCSORGFRONT
 10
0.0
 20
0.0
 30
0.0
  9
$UCSORGBACK
 10
0.0
 20
0.0
 30
0.0
  9
$PUCSBASE
  2

  9
$PUCSNAME
  2

  9
$PUCSORG
 10
0.0
 20
0.0
 30
0.0
  9
$PUCSXDIR
 10
1.0
 20
0.0
 30
0.0
  9
$PUCSYDIR
 10
0.0
 20
1.0
 30
0.0
  9
$PUCSORTHOREF
  2

  9
$PUCSORTHOVIEW
 70
     0
  9
$PUCSORGTOP
 10
0.0
 20
0.0
 30
0.0
  9
$PUCSORGBOTTOM
 10
0.0
 20
0.0
 30
0.0
  9
$PUCSORGLEFT
 10
0.0
 20
0.0
 30
0.0
  9
$PUCSORGRIGHT
 10
0.0
 20
0.0
 30
0.0
  9
$PUCSORGFRONT
 10
0.0
 20
0.0
 30
0.0
  9
$PUCSORGBACK
 10
0.0
 20
0.0
 30
0.0
  9
$USERI1
 70
     0
  9
$USERI2
 70
     0
  9
$USERI3
 70
     0
  9
$USERI4
 70
   257
  9
$USERI5
 70
     0
  9
$USERR1
 40
0.0
  9
$USERR2
 40
0.0
  9
$USERR3
 40
0.0
  9
$USERR4
 40
0.0
  9
$USERR5
 40
0.0
  9
$WORLDVIEW
 70
     1
  9
$SHADEDGE
 70
     3
  9
$SHADEDIF
 70
    70
  9
$TILEMODE
 70
     1
  9
$MAXACTVP
 70
    48
  9
$PINSBASE
 10
0.0
 20
0.0
 30
0.0
  9
$PLIMCHECK
 70
     0
  9
$PEXTMIN
 10
0.0
 20
0.0
 30
0.0
  9
$PEXTMAX
 10
0.0
 20
0.0
 30
0.0
  9
$PLIMMIN
 10
0.0
 20
0.0
  9
$PLIMMAX
 10
12.0
 20
9.0
  9
$UNITMODE
 70
     0
  9
$VISRETAIN
 70
     1
  9
$PLINEGEN
 70
     0
  9
$PSLTSCALE
 70
     1
  9
$TREEDEPTH
 70
  3020
  9
$CMLSTYLE
  2
Standard
  9
$CMLJUST
 70
     0
  9
$CMLSCALE
 40
20.0
  9
$PROXYGRAPHICS
 70
     1
  9
$MEASUREMENT
 70
     1
  9
$CELWEIGHT
370
    15
  9
$ENDCAPS
280
     0
  9
$JOINSTYLE
280
     0
  9
$LWDISPLAY
290
     0
  9
$INSUNITS
 70
     0
  9
$HYPERLINKBASE
  1

  9
$STYLESHEET
  1

  9
$XEDIT
290
     0
  9
$CEPSNTYPE
380
     0
  9
$PSTYLEMODE
290
     1
  9
$FINGERPRINTGUID
  2
{1989D620-E742-11D2-9219-00105A146177}
  9
$VERSIONGUID
  2
{F6E7F05A-C280-43EE-8B23-599DF874D680}
  9
$EXTNAMES
290
     1
  9
$PSVPSCALE
 40
0.0
  9
$OLESTARTUP
290
     0
  0
ENDSEC
  0
SECTION
  2
CLASSES
  0
CLASS
  1
ACDBDICTIONARYWDFLT
  2
AcDbDictionaryWithDefault
  3
ObjectDBX Classes
 90
        0
280
     0
281
     0
  0
CLASS
  1
ACDBPLACEHOLDER
  2
AcDbPlaceHolder
  3
ObjectDBX Classes
 90
        0
280
     0
281
     0
  0
CLASS
  1
LAYOUT
  2
AcDbLayout
  3
ObjectDBX Classes
 90
        0
280
     0
281
     0
  0
CLASS
  1
DICTIONARYVAR
  2
AcDbDictionaryVar
  3
ObjectDBX Classes
 90
        0
280
     0
281
     0
  0
CLASS
  1
TABLESTYLE
  2
AcDbTableStyle
  3
ObjectDBX Classes
 90
     2047
280
     0
281
     0
  0
ENDSEC
  0
SECTION
  2
TABLES
  0
TABLE
  2
VPORT
  5
8
330
0
100
AcDbSymbolTable
 70
     2
  0
VPORT
  5
97
330
8
100
AcDbSymbolTableRecord
100
AcDbViewportTableRecord
  2
*Active
 70
     0
 10
0.0
 20
0.0
 11
1.0
 21
1.0
 12
229.9573700717729
 22
146.8426765838545
 13
0.0
 23
0.0
 14
10.0
 24
10.0
 15
10.0
 25
10.0
 16
0.0
 26
0.0
 36
1.0
 17
0.0
 27
0.0
 37
0.0
 40
273.5706694986746
 41
2.101010101010101
 42
50.0
 43
0.0
 44
0.0
 50
0.0
 51
0.0
 71
    16
 72
 20000
 73
     1
 74
     1
 75
     0
 76
     0
 77
     0
 78
     0
281
     0
 65
     0
110
0.0
120
0.0
130
0.0
111
1.0
121
0.0
131
0.0
112
0.0
122
1.0
132
0.0
 79
     0
146
0.0
  0
ENDTAB
  0
TABLE
  2
LTYPE
  5
5
330
0
100
AcDbSymbolTable
 70
     6
  0
LTYPE
  5
14
330
5
100
AcDbSymbolTableRecord
100
AcDbLinetypeTableRecord
  2
ByBlock
 70
     0
  3

 72
    65
 73
     0
 40
0.0
  0
LTYPE
  5
15
330
5
100
AcDbSymbolTableRecord
100
AcDbLinetypeTableRecord
  2
ByLayer
 70
     0
  3

 72
    65
 73
     0
 40
0.0
  0
LTYPE
  5
16
330
5
100
AcDbSymbolTableRecord
100
AcDbLinetypeTableRecord
  2
Continuous
 70
     0
  3
Solid line
 72
    65
 73
     0
 40
0.0
  0
LTYPE
  5
B66
330
5
100
AcDbSymbolTableRecord
100
AcDbLinetypeTableRecord
  2
CENTER
 70
     0
  3
Center ____ _ ____ _ ____ _ ____ _ ____ _ ____
 72
    65
 73
     4
 40
50.8
 49
31.75
 74
     4
 75
     0
340
0
 46
1.0
 50
0.0
 44
0.0
 45
0.0
 49
-6.349999999999999
 74
     4
 75
     0
340
0
 46
1.0
 50
0.0
 44
0.0
 45
0.0
 49
6.349999999999999
 74
     4
 75
     0
340
0
 46
1.0
 50
0.0
 44
0.0
 45
0.0
 49
-6.349999999999999
 74
     4
 75
     0
340
0
 46
1.0
 50
0.0
 44
0.0
 45
0.0
  0
LTYPE
  5
B67
330
5
100
AcDbSymbolTableRecord
100
AcDbLinetypeTableRecord
  2
DASHED
 70
     0
  3
Dashed __ __ __ __ __ __ __ __ __ __ __ __ __ _
 72
    65
 73
     2
 40
19.05
 49
12.7
 74
     4
 75
     0
340
0
 46
1.0
 50
0.0
 44
0.0
 45
0.0
 49
-6.349999999999999
 74
     4
 75
     0
340
0
 46
1.0
 50
0.0
 44
0.0
 45
0.0
  0
LTYPE
  5
B68
330
5
100
AcDbSymbolTableRecord
100
AcDbLinetypeTableRecord
  2
HIDDEN
 70
     0
  3
Hidden __ __ __ __ __ __ __ __ __ __ __ __ __ _
 72
    65
 73
     2
 40
9.524999999999999
 49
6.349999999999999
 74
     4
 75
     0
340
0
 46
1.0
 50
0.0
 44
0.0
 45
0.0
 49
-3.174999999999999
 74
     4
 75
     0
340
0
 46
1.0
 50
0.0
 44
0.0
 45
0.0
  0
LTYPE
  5
B69
330
5
100
AcDbSymbolTableRecord
100
AcDbLinetypeTableRecord
  2
PHANTOM
 70
     0
  3
Phantom ______  __  __  ______  __  __  ______
 72
    65
 73
     6
 40
63.50000000000001
 49
31.75
 74
     4
 75
     0
340
0
 46
1.0
 50
0.0
 44
0.0
 45
0.0
 49
-6.349999999999999
 74
     4
 75
     0
340
0
 46
1.0
 50
0.0
 44
0.0
 45
0.0
 49
6.349999999999999
 74
     4
 75
     0
340
0
 46
1.0
 50
0.0
 44
0.0
 45
0.0
 49
-6.349999999999999
 74
     4
 75
     0
340
0
 46
1.0
 50
0.0
 44
0.0
 45
0.0
 49
6.349999999999999
 74
     4
 75
     0
340
0
 46
1.0
 50
0.0
 44
0.0
 45
0.0
 49
-6.349999999999999
 74
     4
 75
     0
340
0
 46
1.0
 50
0.0
 44
0.0
 45
0.0
  0
LTYPE
  5
B6A
330
5
100
AcDbSymbolTableRecord
100
AcDbLinetypeTableRecord
  2
RUPTURE
 70
     0
  3
Rupture line
 72
    65
 73
     4
 40
45.72
 49
25.4
 74
     4
 75
     0
340
0
 46
1.0
 50
0.0
 44
0.0
 45
0.0
 49
-5.08
 74
     4
 75
   131
340
11
 46
5.08
 50
0.0
 44
-5.08
 45
0.0
 49
-10.16
 74
     4
 75
   131
340
11
 46
5.08
 50
180.0
 44
5.08
 45
0.0
 49
-5.08
 74
     4
 75
     0
340
0
 46
1.0
 50
0.0
 44
0.0
 45
0.0
  0
ENDTAB
  0
TABLE
  2
LAYER
  5
2
330
0
100
AcDbSymbolTable
 70
    15
  0
LAYER
  5
10
330
2
100
AcDbSymbolTableRecord
100
AcDbLayerTableRecord
  2
0
 70
     0
 62
     7
  6
Continuous
370
    -3
390
F
  0
LAYER
  5
A1E
330
2
100
AcDbSymbolTableRecord
100
AcDbLayerTableRecord
  2
KCAD_DIMS
 70
     0
 62
   134
  6
Continuous
370
    15
390
F
  0
LAYER
  5
4F
330
2
100
AcDbSymbolTableRecord
100
AcDbLayerTableRecord
  2
DEFPOINTS
 70
     0
 62
     7
  6
Continuous
290
     0
370
    -3
390
F
  0
LAYER
  5
20B
330
2
100
AcDbSymbolTableRecord
100
AcDbLayerTableRecord
  2
KCAD_ASST
 70
     0
 62
   134
  6
Continuous
370
    15
390
F
  0
LAYER
  5
20C
330
2
100
AcDbSymbolTableRecord
100
AcDbLayerTableRecord
  2
KCAD_RASTER
 70
     0
 62
     7
  6
Continuous
370
    30
390
F
  0
LAYER
  5
20D
330
2
100
AcDbSymbolTableRecord
100
AcDbLayerTableRecord
  2
SYBCENTER
 70
     0
 62
   134
  6
CENTER
370
    15
390
F
  0
LAYER
  5
20E
330
2
100
AcDbSymbolTableRecord
100
AcDbLayerTableRecord
  2
SYBHIDE
 70
     0
 62
   134
  6
HIDDEN
370
    15
390
F
  0
LAYER
  5
20F
330
2
100
AcDbSymbolTableRecord
100
AcDbLayerTableRecord
  2
SYBOUTLINE
 70
     0
 62
     7
  6
Continuous
370
    30
390
F
  0
LAYER
  5
210
330
2
100
AcDbSymbolTableRecord
100
AcDbLayerTableRecord
  2
SYBTHREAD
 70
     0
 62
   134
  6
Continuous
370
    15
390
F
  0
LAYER
  5
211
330
2
100
AcDbSymbolTableRecord
100
AcDbLayerTableRecord
  2
SYBTHRHID
 70
     0
 62
   134
  6
HIDDEN
370
    15
390
F
  0
LAYER
  5
282
330
2
100
AcDbSymbolTableRecord
100
AcDbLayerTableRecord
  2
KCAD_UIR_TMP_LAYER_
 70
     0
 62
     7
  6
Continuous
370
    -3
390
F
  0
LAYER
  5
2A8
330
2
100
AcDbSymbolTableRecord
100
AcDbLayerTableRecord
  2
KCAD_CPM_MAX_LAYER
 70
     3
 62
     7
  6
Continuous
370
    -3
390
F
  0
LAYER
  5
7A2
330
2
100
AcDbSymbolTableRecord
100
AcDbLayerTableRecord
  2
1
 70
     0
 62
     7
  6
Continuous
370
    -3
390
F
  0
LAYER
  5
7AB
330
2
100
AcDbSymbolTableRecord
100
AcDbLayerTableRecord
  2
99
 70
     0
 62
     7
  6
Continuous
370
    -3
390
F
  0
LAYER
  5
834
330
2
100
AcDbSymbolTableRecord
100
AcDbLayerTableRecord
  2
2
 70
     0
 62
     7
  6
Continuous
370
    -3
390
F
  0
ENDTAB
  0
TABLE
  2
STYLE
  5
3
330
0
100
AcDbSymbolTable
 70
     5
  0
STYLE
  5
11
330
3
100
AcDbSymbolTableRecord
100
AcDbTextStyleTableRecord
  2
Standard
 70
     0
 40
0.0
 41
1.0
 50
0.0
 71
     0
 42
3.2
  3
txt.shx
  4
bigfont.shx
  0
STYLE
  5
17F
330
3
100
AcDbSymbolTableRecord
100
AcDbTextStyleTableRecord
  2

 70
     1
 40
0.0
 41
1.0
 50
0.0
 71
     0
 42
3.2
  3
ltypeshp.shx
  4

  0
STYLE
  5
189
330
3
100
AcDbSymbolTableRecord
100
AcDbTextStyleTableRecord
  2
KCADDIMSTANDARD
 70
     0
 40
0.0
 41
1.0
 50
0.0
 71
     0
 42
3.2
  3
txt.shx
  4
bigfont.shx
  0
STYLE
  5
18A
330
3
100
AcDbSymbolTableRecord
100
AcDbTextStyleTableRecord
  2
KCADTEXTSTANDARD
 70
     0
 40
0.0
 41
1.0
 50
0.0
 71
     0
 42
3.2
  3
txt.shx
  4
bigfont.shx
  0
STYLE
  5
1AD
330
3
100
AcDbSymbolTableRecord
100
AcDbTextStyleTableRecord
  2
KCADTEXT2
 70
     0
 40
0.0
 41
1.0
 50
0.0
 71
     0
 42
3.2
  3
txt.shx
  4
extfont.shx
  0
ENDTAB
  0
TABLE
  2
VIEW
  5
6
330
0
100
AcDbSymbolTable
 70
     0
  0
ENDTAB
  0
TABLE
  2
UCS
  5
7
330
0
100
AcDbSymbolTable
 70
     0
  0
ENDTAB
  0
TABLE
  2
APPID
  5
9
330
0
100
AcDbSymbolTable
 70
     3
  0
APPID
  5
12
330
9
100
AcDbSymbolTableRecord
100
AcDbRegAppTableRecord
  2
ACAD
 70
     0
  0
APPID
  5
B64
330
9
100
AcDbSymbolTableRecord
100
AcDbRegAppTableRecord
  2
Sigma
 70
     0
  0
APPID
  5
B65
330
9
100
AcDbSymbolTableRecord
100
AcDbRegAppTableRecord
  2
KCAD_DIM_EXT
 70
     0
  0
ENDTAB
  0
TABLE
  2
DIMSTYLE
  5
A
330
0
100
AcDbSymbolTable
 70
     1
100
AcDbDimStyleTable
  0
DIMSTYLE
105
27
102
{ACAD_REACTORS
330
849
330
891
330
910
330
951
330
98F
102
}
330
A
100
AcDbSymbolTableRecord
100
AcDbDimStyleTableRecord
  2
Standard
 70
     0
340
11
  0
ENDTAB
  0
TABLE
  2
BLOCK_RECORD
  5
1
330
0
100
AcDbSymbolTable
 70
    41
  0
BLOCK_RECORD
  5
1F
330
1
100
AcDbSymbolTableRecord
100
AcDbBlockTableRecord
  2
*Model_Space
340
22
  0
BLOCK_RECORD
  5
73
330
1
100
AcDbSymbolTableRecord
100
AcDbBlockTableRecord
  2
*Paper_Space
340
22F
  0
BLOCK_RECORD
  5
A1F
330
1
100
AcDbSymbolTableRecord
100
AcDbBlockTableRecord
  2
KCAD_OPEN
340
0
  0
BLOCK_RECORD
  5
3C
330
1
100
AcDbSymbolTableRecord
100
AcDbBlockTableRecord
  2
KCAD_DOTSMALL
340
0
  0
BLOCK_RECORD
  5
44
330
1
100
AcDbSymbolTableRecord
100
AcDbBlockTableRecord
  2
KCAD_NONE
340
0
  0
BLOCK_RECORD
  5
FC
330
1
100
AcDbSymbolTableRecord
100
AcDbBlockTableRecord
  2
_CLOSED
340
0
  0
BLOCK_RECORD
  5
103
330
1
100
AcDbSymbolTableRecord
100
AcDbBlockTableRecord
  2
_DOT
340
0
  0
BLOCK_RECORD
  5
10B
330
1
100
AcDbSymbolTableRecord
100
AcDbBlockTableRecord
  2
_CLOSEDBLANK
340
0
  0
BLOCK_RECORD
  5
111
330
1
100
AcDbSymbolTableRecord
100
AcDbBlockTableRecord
  2
_OBLIQUE
340
0
  0
BLOCK_RECORD
  5
115
330
1
100
AcDbSymbolTableRecord
100
AcDbBlockTableRecord
  2
_ARCHTICK
340
0
  0
BLOCK_RECORD
  5
11C
330
1
100
AcDbSymbolTableRecord
100
AcDbBlockTableRecord
  2
_OPEN
340
0
  0
BLOCK_RECORD
  5
122
330
1
100
AcDbSymbolTableRecord
100
AcDbBlockTableRecord
  2
_ORIGIN
340
0
  0
BLOCK_RECORD
  5
127
330
1
100
AcDbSymbolTableRecord
100
AcDbBlockTableRecord
  2
_OPEN90
340
0
  0
BLOCK_RECORD
  5
12D
330
1
100
AcDbSymbolTableRecord
100
AcDbBlockTableRecord
  2
_OPEN30
340
0
102
{BLKREFS
331
888
331
889
331
8C6
331
8C7
331
945
331
946
331
986
331
987
331
9C4
331
9C5
102
}
  0
BLOCK_RECORD
  5
133
330
1
100
AcDbSymbolTableRecord
100
AcDbBlockTableRecord
  2
_DOTBLANK
340
0
  0
BLOCK_RECORD
  5
138
330
1
100
AcDbSymbolTableRecord
100
AcDbBlockTableRecord
  2
_DOTSMALL
340
0
  0
BLOCK_RECORD
  5
13F
330
1
100
AcDbSymbolTableRecord
100
AcDbBlockTableRecord
  2
_BOXFILLED
340
0
  0
BLOCK_RECORD
  5
144
330
1
100
AcDbSymbolTableRecord
100
AcDbBlockTableRecord
  2
_BOXBLANK
340
0
  0
BLOCK_RECORD
  5
14C
330
1
100
AcDbSymbolTableRecord
100
AcDbBlockTableRecord
  2
_DATUMFILLED
340
0
  0
BLOCK_RECORD
  5
150
330
1
100
AcDbSymbolTableRecord
100
AcDbBlockTableRecord
  2
_DATUMBLANK
340
0
  0
BLOCK_RECORD
  5
156
330
1
100
AcDbSymbolTableRecord
100
AcDbBlockTableRecord
  2
_INTEGRAL
340
0
  0
BLOCK_RECORD
  5
1F1
330
1
100
AcDbSymbolTableRecord
100
AcDbBlockTableRecord
  2
_Origin2
340
0
  0
BLOCK_RECORD
  5
1F7
330
1
100
AcDbSymbolTableRecord
100
AcDbBlockTableRecord
  2
KCAD_OPEN30
340
0
  0
BLOCK_RECORD
  5
222
330
1
100
AcDbSymbolTableRecord
100
AcDbBlockTableRecord
  2
_None
340
0
  0
BLOCK_RECORD
  5
283
330
1
100
AcDbSymbolTableRecord
100
AcDbBlockTableRecord
  2
_Small
340
0
  0
BLOCK_RECORD
  5
287
330
1
100
AcDbSymbolTableRecord
100
AcDbBlockTableRecord
  2
KCAD_OPEN_2
340
0
  0
BLOCK_RECORD
  5
28E
330
1
100
AcDbSymbolTableRecord
100
AcDbBlockTableRecord
  2
KCAD_OPEN30_2
340
0
  0
BLOCK_RECORD
  5
2AD
330
1
100
AcDbSymbolTableRecord
100
AcDbBlockTableRecord
  2
KCAD_OPEN30ANG
340
0
  0
BLOCK_RECORD
  5
2B6
330
1
100
AcDbSymbolTableRecord
100
AcDbBlockTableRecord
  2
KCAD_DOTANG
340
0
  0
BLOCK_RECORD
  5
84A
330
1
100
AcDbSymbolTableRecord
100
AcDbBlockTableRecord
  2
*D27
340
0
  0
BLOCK_RECORD
  5
892
330
1
100
AcDbSymbolTableRecord
100
AcDbBlockTableRecord
  2
*D28
340
0
  0
BLOCK_RECORD
  5
911
330
1
100
AcDbSymbolTableRecord
100
AcDbBlockTableRecord
  2
*D29
340
0
  0
BLOCK_RECORD
  5
952
330
1
100
AcDbSymbolTableRecord
100
AcDbBlockTableRecord
  2
*D30
340
0
  0
BLOCK_RECORD
  5
990
330
1
100
AcDbSymbolTableRecord
100
AcDbBlockTableRecord
  2
*D31
340
0
  0
BLOCK_RECORD
  5
9E5
330
1
100
AcDbSymbolTableRecord
100
AcDbBlockTableRecord
  2
*D32
340
0
  0
BLOCK_RECORD
  5
9F1
330
1
100
AcDbSymbolTableRecord
100
AcDbBlockTableRecord
  2
*D33
340
0
  0
BLOCK_RECORD
  5
9FD
330
1
100
AcDbSymbolTableRecord
100
AcDbBlockTableRecord
  2
*D34
340
0
  0
BLOCK_RECORD
  5
A09
330
1
100
AcDbSymbolTableRecord
100
AcDbBlockTableRecord
  2
*D35
340
0
  0
BLOCK_RECORD
  5
A15
330
1
100
AcDbSymbolTableRecord
100
AcDbBlockTableRecord
  2
*D36
340
0
  0
BLOCK_RECORD
  5
A7B
330
1
100
AcDbSymbolTableRecord
100
AcDbBlockTableRecord
  2
*D37
340
0
  0
BLOCK_RECORD
  5
A87
330
1
100
AcDbSymbolTableRecord
100
AcDbBlockTableRecord
  2
*D38
340
0
  0
BLOCK_RECORD
  5
A93
330
1
100
AcDbSymbolTableRecord
100
AcDbBlockTableRecord
  2
*D39
340
0
  0
BLOCK_RECORD
  5
A9F
330
1
100
AcDbSymbolTableRecord
100
AcDbBlockTableRecord
  2
*D40
340
0
  0
ENDTAB
  0
ENDSEC
  0
SECTION
  2
BLOCKS
  0
BLOCK
  5
20
330
1F
100
AcDbEntity
  8
0
100
AcDbBlockBegin
  2
*Model_Space
 70
     0
 71
     0
 10
0.0
 20
0.0
 30
0.0
  3
*Model_Space
  1

  0
ENDBLK
  5
21
330
1F
100
AcDbEntity
  8
0
100
AcDbBlockEnd
  0
BLOCK
  5
75
330
73
100
AcDbEntity
 67
     1
  8
0
100
AcDbBlockBegin
  2
*Paper_Space
 70
     0
 71
     0
 10
0.0
 20
0.0
 30
0.0
  3
*Paper_Space
  1

  0
ENDBLK
  5
76
330
73
100
AcDbEntity
 67
     1
  8
0
100
AcDbBlockEnd
  0
BLOCK
  5
B6D
330
A1F
100
AcDbEntity
  8
KCAD_DIMS
100
AcDbBlockBegin
  2
KCAD_OPEN
 70
     0
 71
     0
 10
0.0
 20
0.0
 30
0.0
  3
KCAD_OPEN
  1

  0
LINE
  5
A6A
330
A1F
100
AcDbEntity
  8
0
  6
Continuous
 62
     0
370
    -2
100
AcDbLine
 10
0.0
 20
0.0
 30
0.0
 11
-1.0
 21
0.0
 31
0.0
  0
LINE
  5
23
330
A1F
100
AcDbEntity
  8
0
  6
Continuous
 62
     0
370
    -2
100
AcDbLine
 10
0.0
 20
0.0
 30
0.0
 11
-1.0
 21
0.158384
 31
0.0
  0
LINE
  5
24
330
A1F
100
AcDbEntity
  8
0
  6
Continuous
 62
     0
370
    -2
100
AcDbLine
 10
0.0
 20
0.0
 30
0.0
 11
-1.0
 21
-0.158384
 31
0.0
  0
ENDBLK
  5
B6E
330
A1F
100
AcDbEntity
  8
KCAD_DIMS
100
AcDbBlockEnd
  0
BLOCK
  5
B6F
330
3C
100
AcDbEntity
  8
KCAD_DIMS
100
AcDbBlockBegin
  2
KCAD_DOTSMALL
 70
     0
 71
     0
 10
0.0
 20
0.0
 30
0.0
  3
KCAD_DOTSMALL
  1

  0
LWPOLYLINE
  5
3D
330
3C
100
AcDbEntity
  8
KCAD_DIMS
 62
     0
100
AcDbPolyline
 90
        2
 70
     1
 43
0.5
 10
0.06252
 20
0.0
 42
1.0
 10
-0.06262
 20
0.0
 42
1.0
  0
LINE
  5
41
330
3C
100
AcDbEntity
  8
0
  6
Continuous
 62
     0
370
    -2
100
AcDbLine
 10
0.0
 20
0.0
 30
0.0
 11
-1.0
 21
0.0
 31
0.0
  0
ENDBLK
  5
B70
330
3C
100
AcDbEntity
  8
0
100
AcDbBlockEnd
  0
BLOCK
  5
B71
330
44
100
AcDbEntity
  8
KCAD_DIMS
100
AcDbBlockBegin
  2
KCAD_NONE
 70
     0
 71
     0
 10
0.0
 20
0.0
 30
0.0
  3
KCAD_NONE
  1

  0
LINE
  5
45
330
44
100
AcDbEntity
  8
0
  6
Continuous
 62
     0
370
    -2
100
AcDbLine
 10
0.0
 20
0.0
 30
0.0
 11
-1.0
 21
0.0
 31
0.0
  0
ENDBLK
  5
B72
330
44
100
AcDbEntity
  8
0
100
AcDbBlockEnd
  0
BLOCK
  5
B73
330
FC
100
AcDbEntity
  8
0
100
AcDbBlockBegin
  2
_CLOSED
 70
     0
 71
     0
 10
0.0
 20
0.0
 30
0.0
  3
_CLOSED
  1

  0
LINE
  5
FE
330
FC
100
AcDbEntity
  8
0
  6
Continuous
 62
     0
370
    -2
100
AcDbLine
 10
-1.0
 20
0.166667
 30
0.0
 11
0.0
 21
0.0
 31
0.0
  0
LINE
  5
FF
330
FC
100
AcDbEntity
  8
0
  6
Continuous
 62
     0
370
    -2
100
AcDbLine
 10
0.0
 20
0.0
 30
0.0
 11
-1.0
 21
-0.166667
 31
0.0
  0
LINE
  5
100
330
FC
100
AcDbEntity
  8
0
  6
Continuous
 62
     0
370
    -2
100
AcDbLine
 10
-1.0
 20
0.166667
 30
0.0
 11
-1.0
 21
-0.166667
 31
0.0
  0
LINE
  5
101
330
FC
100
AcDbEntity
  8
0
  6
Continuous
 62
     0
370
    -2
100
AcDbLine
 10
0.0
 20
0.0
 30
0.0
 11
-1.0
 21
0.0
 31
0.0
  0
ENDBLK
  5
B74
330
FC
100
AcDbEntity
  8
0
100
AcDbBlockEnd
  0
BLOCK
  5
B75
330
103
100
AcDbEntity
  8
0
100
AcDbBlockBegin
  2
_DOT
 70
     0
 71
     0
 10
0.0
 20
0.0
 30
0.0
  3
_DOT
  1

  0
LWPOLYLINE
  5
105
330
103
100
AcDbEntity
  8
0
  6
ByBlock
 62
     0
100
AcDbPolyline
 90
        2
 70
     1
 43
0.5
 10
-0.25
 20
0.0
 42
1.0
 10
0.25
 20
0.0
 42
1.0
  0
LINE
  5
109
330
103
100
AcDbEntity
  8
0
  6
Continuous
 62
     0
370
    -2
100
AcDbLine
 10
-0.5
 20
0.0
 30
0.0
 11
-1.0
 21
0.0
 31
0.0
  0
ENDBLK
  5
B76
330
103
100
AcDbEntity
  8
0
100
AcDbBlockEnd
  0
BLOCK
  5
B77
330
10B
100
AcDbEntity
  8
0
100
AcDbBlockBegin
  2
_CLOSEDBLANK
 70
     0
 71
     0
 10
0.0
 20
0.0
 30
0.0
  3
_CLOSEDBLANK
  1

  0
LINE
  5
10D
330
10B
100
AcDbEntity
  8
0
  6
Continuous
 62
     0
370
    -2
100
AcDbLine
 10
-1.0
 20
0.166667
 30
0.0
 11
0.0
 21
0.0
 31
0.0
  0
LINE
  5
10E
330
10B
100
AcDbEntity
  8
0
  6
Continuous
 62
     0
370
    -2
100
AcDbLine
 10
0.0
 20
0.0
 30
0.0
 11
-1.0
 21
-0.166667
 31
0.0
  0
LINE
  5
10F
330
10B
100
AcDbEntity
  8
0
  6
Continuous
 62
     0
370
    -2
100
AcDbLine
 10
-1.0
 20
0.166667
 30
0.0
 11
-1.0
 21
-0.166667
 31
0.0
  0
ENDBLK
  5
B78
330
10B
100
AcDbEntity
  8
0
100
AcDbBlockEnd
  0
BLOCK
  5
B79
330
111
100
AcDbEntity
  8
0
100
AcDbBlockBegin
  2
_OBLIQUE
 70
     0
 71
     0
 10
0.0
 20
0.0
 30
0.0
  3
_OBLIQUE
  1

  0
LINE
  5
113
330
111
100
AcDbEntity
  8
0
  6
Continuous
 62
     0
370
    -2
100
AcDbLine
 10
-0.5
 20
-0.5
 30
0.0
 11
0.5
 21
0.5
 31
0.0
  0
ENDBLK
  5
B7A
330
111
100
AcDbEntity
  8
0
100
AcDbBlockEnd
  0
BLOCK
  5
B7B
330
115
100
AcDbEntity
  8
0
100
AcDbBlockBegin
  2
_ARCHTICK
 70
     0
 71
     0
 10
0.0
 20
0.0
 30
0.0
  3
_ARCHTICK
  1

  0
LWPOLYLINE
  5
117
330
115
100
AcDbEntity
  8
0
  6
ByBlock
 62
     0
100
AcDbPolyline
 90
        2
 70
     0
 43
0.15
 10
-0.5
 20
-0.5
 10
0.5
 20
0.5
  0
ENDBLK
  5
B7C
330
115
100
AcDbEntity
  8
0
100
AcDbBlockEnd
  0
BLOCK
  5
B7D
330
11C
100
AcDbEntity
  8
0
100
AcDbBlockBegin
  2
_OPEN
 70
     0
 71
     0
 10
0.0
 20
0.0
 30
0.0
  3
_OPEN
  1

  0
LINE
  5
11E
330
11C
100
AcDbEntity
  8
0
  6
Continuous
 62
     0
370
    -2
100
AcDbLine
 10
-1.0
 20
0.166667
 30
0.0
 11
0.0
 21
0.0
 31
0.0
  0
LINE
  5
11F
330
11C
100
AcDbEntity
  8
0
  6
Continuous
 62
     0
370
    -2
100
AcDbLine
 10
0.0
 20
0.0
 30
0.0
 11
-1.0
 21
-0.166667
 31
0.0
  0
LINE
  5
120
330
11C
100
AcDbEntity
  8
0
  6
Continuous
 62
     0
370
    -2
100
AcDbLine
 10
0.0
 20
0.0
 30
0.0
 11
-1.0
 21
0.0
 31
0.0
  0
ENDBLK
  5
B7E
330
11C
100
AcDbEntity
  8
0
100
AcDbBlockEnd
  0
BLOCK
  5
B7F
330
122
100
AcDbEntity
  8
0
100
AcDbBlockBegin
  2
_ORIGIN
 70
     0
 71
     0
 10
0.0
 20
0.0
 30
0.0
  3
_ORIGIN
  1

  0
CIRCLE
  5
124
330
122
100
AcDbEntity
  8
0
  6
ByBlock
 62
     0
100
AcDbCircle
 10
0.0
 20
0.0
 30
0.0
 40
0.5
  0
LINE
  5
125
330
122
100
AcDbEntity
  8
0
  6
Continuous
 62
     0
370
    -2
100
AcDbLine
 10
0.0
 20
0.0
 30
0.0
 11
-1.0
 21
0.0
 31
0.0
  0
ENDBLK
  5
B80
330
122
100
AcDbEntity
  8
0
100
AcDbBlockEnd
  0
BLOCK
  5
B81
330
127
100
AcDbEntity
  8
0
100
AcDbBlockBegin
  2
_OPEN90
 70
     0
 71
     0
 10
0.0
 20
0.0
 30
0.0
  3
_OPEN90
  1

  0
LINE
  5
129
330
127
100
AcDbEntity
  8
0
  6
Continuous
 62
     0
370
    -2
100
AcDbLine
 10
-0.5
 20
0.5
 30
0.0
 11
0.0
 21
0.0
 31
0.0
  0
LINE
  5
12A
330
127
100
AcDbEntity
  8
0
  6
Continuous
 62
     0
370
    -2
100
AcDbLine
 10
0.0
 20
0.0
 30
0.0
 11
-0.5
 21
-0.5
 31
0.0
  0
LINE
  5
12B
330
127
100
AcDbEntity
  8
0
  6
Continuous
 62
     0
370
    -2
100
AcDbLine
 10
0.0
 20
0.0
 30
0.0
 11
-1.0
 21
0.0
 31
0.0
  0
ENDBLK
  5
B82
330
127
100
AcDbEntity
  8
0
100
AcDbBlockEnd
  0
BLOCK
  5
B83
330
12D
100
AcDbEntity
  8
0
100
AcDbBlockBegin
  2
_OPEN30
 70
     0
 71
     0
 10
0.0
 20
0.0
 30
0.0
  3
_OPEN30
  1

  0
LINE
  5
12F
330
12D
100
AcDbEntity
  8
0
  6
Continuous
 62
     0
370
    -2
100
AcDbLine
 10
-1.0
 20
0.267949
 30
0.0
 11
0.0
 21
0.0
 31
0.0
  0
LINE
  5
130
330
12D
100
AcDbEntity
  8
0
  6
Continuous
 62
     0
370
    -2
100
AcDbLine
 10
0.0
 20
0.0
 30
0.0
 11
-1.0
 21
-0.267949
 31
0.0
  0
LINE
  5
131
330
12D
100
AcDbEntity
  8
0
  6
Continuous
 62
     0
370
    -2
100
AcDbLine
 10
0.0
 20
0.0
 30
0.0
 11
-1.0
 21
0.0
 31
0.0
  0
ENDBLK
  5
B84
330
12D
100
AcDbEntity
  8
0
100
AcDbBlockEnd
  0
BLOCK
  5
B85
330
133
100
AcDbEntity
  8
0
100
AcDbBlockBegin
  2
_DOTBLANK
 70
     0
 71
     0
 10
0.0
 20
0.0
 30
0.0
  3
_DOTBLANK
  1

  0
CIRCLE
  5
135
330
133
100
AcDbEntity
  8
0
  6
ByBlock
 62
     0
100
AcDbCircle
 10
0.0
 20
0.0
 30
0.0
 40
0.5
  0
LINE
  5
136
330
133
100
AcDbEntity
  8
0
  6
Continuous
 62
     0
370
    -2
100
AcDbLine
 10
-0.5
 20
0.0
 30
0.0
 11
-1.0
 21
0.0
 31
0.0
  0
ENDBLK
  5
B86
330
133
100
AcDbEntity
  8
0
100
AcDbBlockEnd
  0
BLOCK
  5
B87
330
138
100
AcDbEntity
  8
0
100
AcDbBlockBegin
  2
_DOTSMALL
 70
     0
 71
     0
 10
0.0
 20
0.0
 30
0.0
  3
_DOTSMALL
  1

  0
LWPOLYLINE
  5
13A
330
138
100
AcDbEntity
  8
0
  6
ByBlock
 62
     0
100
AcDbPolyline
 90
        2
 70
     1
 43
0.5
 10
-0.0625
 20
0.0
 42
1.0
 10
0.0625
 20
0.0
 42
1.0
  0
ENDBLK
  5
B88
330
138
100
AcDbEntity
  8
0
100
AcDbBlockEnd
  0
BLOCK
  5
B89
330
13F
100
AcDbEntity
  8
0
100
AcDbBlockBegin
  2
_BOXFILLED
 70
     0
 71
     0
 10
0.0
 20
0.0
 30
0.0
  3
_BOXFILLED
  1

  0
SOLID
  5
141
330
13F
100
AcDbEntity
  8
0
  6
ByBlock
 62
     0
100
AcDbTrace
 10
-0.5
 20
0.5
 30
0.0
 11
0.5
 21
0.5
 31
0.0
 12
-0.5
 22
-0.5
 32
0.0
 13
0.5
 23
-0.5
 33
0.0
  0
LINE
  5
142
330
13F
100
AcDbEntity
  8
0
  6
Continuous
 62
     0
370
    -2
100
AcDbLine
 10
-0.5
 20
0.0
 30
0.0
 11
-1.0
 21
0.0
 31
0.0
  0
ENDBLK
  5
B8A
330
13F
100
AcDbEntity
  8
0
100
AcDbBlockEnd
  0
BLOCK
  5
B8B
330
144
100
AcDbEntity
  8
0
100
AcDbBlockBegin
  2
_BOXBLANK
 70
     0
 71
     0
 10
0.0
 20
0.0
 30
0.0
  3
_BOXBLANK
  1

  0
LINE
  5
146
330
144
100
AcDbEntity
  8
0
  6
Continuous
 62
     0
370
    -2
100
AcDbLine
 10
-0.5
 20
-0.5
 30
0.0
 11
0.5
 21
-0.5
 31
0.0
  0
LINE
  5
147
330
144
100
AcDbEntity
  8
0
  6
Continuous
 62
     0
370
    -2
100
AcDbLine
 10
0.5
 20
-0.5
 30
0.0
 11
0.5
 21
0.5
 31
0.0
  0
LINE
  5
148
330
144
100
AcDbEntity
  8
0
  6
Continuous
 62
     0
370
    -2
100
AcDbLine
 10
0.5
 20
0.5
 30
0.0
 11
-0.5
 21
0.5
 31
0.0
  0
LINE
  5
149
330
144
100
AcDbEntity
  8
0
  6
Continuous
 62
     0
370
    -2
100
AcDbLine
 10
-0.5
 20
0.5
 30
0.0
 11
-0.5
 21
-0.5
 31
0.0
  0
LINE
  5
14A
330
144
100
AcDbEntity
  8
0
  6
Continuous
 62
     0
370
    -2
100
AcDbLine
 10
-0.5
 20
0.0
 30
0.0
 11
-1.0
 21
0.0
 31
0.0
  0
ENDBLK
  5
B8C
330
144
100
AcDbEntity
  8
0
100
AcDbBlockEnd
  0
BLOCK
  5
B8D
330
14C
100
AcDbEntity
  8
0
100
AcDbBlockBegin
  2
_DATUMFILLED
 70
     0
 71
     0
 10
0.0
 20
0.0
 30
0.0
  3
_DATUMFILLED
  1

  0
SOLID
  5
14E
330
14C
100
AcDbEntity
  8
0
  6
ByBlock
 62
     0
100
AcDbTrace
 10
0.0
 20
0.5773500000000001
 30
0.0
 11
-1.0
 21
0.0
 31
0.0
 12
0.0
 22
-0.5773500000000001
 32
0.0
 13
0.0
 23
-0.5773500000000001
 33
0.0
  0
ENDBLK
  5
B8E
330
14C
100
AcDbEntity
  8
0
100
AcDbBlockEnd
  0
BLOCK
  5
B8F
330
150
100
AcDbEntity
  8
0
100
AcDbBlockBegin
  2
_DATUMBLANK
 70
     0
 71
     0
 10
0.0
 20
0.0
 30
0.0
  3
_DATUMBLANK
  1

  0
LINE
  5
152
330
150
100
AcDbEntity
  8
0
  6
Continuous
 62
     0
370
    -2
100
AcDbLine
 10
0.0
 20
0.5773500000000001
 30
0.0
 11
-1.0
 21
0.0
 31
0.0
  0
LINE
  5
153
330
150
100
AcDbEntity
  8
0
  6
Continuous
 62
     0
370
    -2
100
AcDbLine
 10
-1.0
 20
0.0
 30
0.0
 11
0.0
 21
-0.5773500000000001
 31
0.0
  0
LINE
  5
154
330
150
100
AcDbEntity
  8
0
  6
Continuous
 62
     0
370
    -2
100
AcDbLine
 10
0.0
 20
-0.5773500000000001
 30
0.0
 11
0.0
 21
0.5773500000000001
 31
0.0
  0
ENDBLK
  5
B90
330
150
100
AcDbEntity
  8
0
100
AcDbBlockEnd
  0
BLOCK
  5
B91
330
156
100
AcDbEntity
  8
0
100
AcDbBlockBegin
  2
_INTEGRAL
 70
     0
 71
     0
 10
0.0
 20
0.0
 30
0.0
  3
_INTEGRAL
  1

  0
ARC
  5
158
330
156
100
AcDbEntity
  8
0
  6
ByBlock
 62
     0
100
AcDbCircle
 10
0.444888
 20
-0.091335
 30
0.0
 40
0.454167
100
AcDbArc
 50
102.0
 51
168.0
  0
ARC
  5
159
330
156
100
AcDbEntity
  8
0
  6
ByBlock
 62
     0
100
AcDbCircle
 10
-0.444888
 20
0.091335
 30
0.0
 40
0.454167
100
AcDbArc
 50
282.0
 51
348.0
  0
ENDBLK
  5
B92
330
156
100
AcDbEntity
  8
0
100
AcDbBlockEnd
  0
BLOCK
  5
B93
330
1F1
100
AcDbEntity
  8
0
100
AcDbBlockBegin
  2
_Origin2
 70
     0
 71
     0
 10
0.0
 20
0.0
 30
0.0
  3
_Origin2
  1

  0
CIRCLE
  5
1F2
330
1F1
100
AcDbEntity
  8
0
  6
Continuous
 62
     0
370
    -2
100
AcDbCircle
 10
0.0
 20
0.0
 30
0.0
 40
0.5
  0
CIRCLE
  5
1F3
330
1F1
100
AcDbEntity
  8
0
  6
Continuous
 62
     0
370
    -2
100
AcDbCircle
 10
0.0
 20
0.0
 30
0.0
 40
0.25
  0
LINE
  5
1F4
330
1F1
100
AcDbEntity
  8
0
  6
Continuous
 62
     0
370
    -2
100
AcDbLine
 10
-0.5
 20
0.0
 30
0.0
 11
-1.0
 21
0.0
 31
0.0
  0
ENDBLK
  5
B94
330
1F1
100
AcDbEntity
  8
0
100
AcDbBlockEnd
  0
BLOCK
  5
B95
330
1F7
100
AcDbEntity
  8
0
100
AcDbBlockBegin
  2
KCAD_OPEN30
 70
     0
 71
     0
 10
0.0
 20
0.0
 30
0.0
  3
KCAD_OPEN30
  1

  0
LINE
  5
1F8
330
1F7
100
AcDbEntity
  8
0
  6
Continuous
 62
     0
370
    -2
100
AcDbLine
 10
0.0
 20
0.0
 30
0.0
 11
-1.0
 21
0.0
 31
0.0
  0
LINE
  5
1F9
330
1F7
100
AcDbEntity
  8
0
  6
Continuous
 62
     0
370
    -2
100
AcDbLine
 10
0.0
 20
0.0
 30
0.0
 11
-1.0
 21
0.2679491924311227
 31
0.0
  0
LINE
  5
1FA
330
1F7
100
AcDbEntity
  8
0
  6
Continuous
 62
     0
370
    -2
100
AcDbLine
 10
0.0
 20
0.0
 30
0.0
 11
-1.0
 21
-0.2679491924311227
 31
0.0
  0
ENDBLK
  5
B96
330
1F7
100
AcDbEntity
  8
0
100
AcDbBlockEnd
  0
BLOCK
  5
B97
330
222
100
AcDbEntity
  8
0
100
AcDbBlockBegin
  2
_None
 70
     0
 71
     0
 10
0.0
 20
0.0
 30
0.0
  3
_None
  1

  0
ENDBLK
  5
B98
330
222
100
AcDbEntity
  8
0
100
AcDbBlockEnd
  0
BLOCK
  5
B99
330
283
100
AcDbEntity
  8
0
100
AcDbBlockBegin
  2
_Small
 70
     0
 71
     0
 10
0.0
 20
0.0
 30
0.0
  3
_Small
  1

  0
CIRCLE
  5
284
330
283
100
AcDbEntity
  8
0
  6
ByBlock
 62
     0
370
    -2
100
AcDbCircle
 10
0.0
 20
0.0
 30
0.0
 40
0.25
  0
ENDBLK
  5
B9A
330
283
100
AcDbEntity
  8
0
100
AcDbBlockEnd
  0
BLOCK
  5
B9B
330
287
100
AcDbEntity
  8
0
100
AcDbBlockBegin
  2
KCAD_OPEN_2
 70
     0
 71
     0
 10
0.0
 20
0.0
 30
0.0
  3
KCAD_OPEN_2
  1

  0
LINE
  5
288
330
287
100
AcDbEntity
  8
0
  6
Continuous
 62
     0
370
    -2
100
AcDbLine
 10
0.0
 20
0.0
 30
0.0
 11
-2.0
 21
0.0
 31
0.0
  0
LINE
  5
289
330
287
100
AcDbEntity
  8
0
  6
Continuous
 62
     0
370
    -2
100
AcDbLine
 10
0.0
 20
0.0
 30
0.0
 11
-2.0
 21
0.3167688806490725
 31
0.0
  0
LINE
  5
28A
330
287
100
AcDbEntity
  8
0
  6
Continuous
 62
     0
370
    -2
100
AcDbLine
 10
0.0
 20
0.0
 30
0.0
 11
-2.0
 21
-0.3167688806490725
 31
0.0
  0
LINE
  5
28B
330
287
100
AcDbEntity
  8
0
  6
Continuous
 62
     0
370
    -2
100
AcDbLine
 10
-2.0
 20
0.0
 30
0.0
 11
-4.0
 21
0.0
 31
0.0
  0
ENDBLK
  5
B9C
330
287
100
AcDbEntity
  8
0
100
AcDbBlockEnd
  0
BLOCK
  5
B9D
330
28E
100
AcDbEntity
  8
0
100
AcDbBlockBegin
  2
KCAD_OPEN30_2
 70
     0
 71
     0
 10
0.0
 20
0.0
 30
0.0
  3
KCAD_OPEN30_2
  1

  0
LINE
  5
28F
330
28E
100
AcDbEntity
  8
0
  6
Continuous
 62
     0
370
    -2
100
AcDbLine
 10
0.0
 20
0.0
 30
0.0
 11
-2.0
 21
0.0
 31
0.0
  0
LINE
  5
290
330
28E
100
AcDbEntity
  8
0
  6
Continuous
 62
     0
370
    -2
100
AcDbLine
 10
0.0
 20
0.0
 30
0.0
 11
-2.0
 21
0.5358983848622455
 31
0.0
  0
LINE
  5
291
330
28E
100
AcDbEntity
  8
0
  6
Continuous
 62
     0
370
    -2
100
AcDbLine
 10
0.0
 20
0.0
 30
0.0
 11
-2.0
 21
-0.5358983848622455
 31
0.0
  0
LINE
  5
292
330
28E
100
AcDbEntity
  8
0
  6
Continuous
 62
     0
370
    -2
100
AcDbLine
 10
-2.0
 20
0.0
 30
0.0
 11
-4.0
 21
0.0
 31
0.0
  0
ENDBLK
  5
B9E
330
28E
100
AcDbEntity
  8
0
100
AcDbBlockEnd
  0
BLOCK
  5
B9F
330
2AD
100
AcDbEntity
  8
0
100
AcDbBlockBegin
  2
KCAD_OPEN30ANG
 70
     0
 71
     0
 10
0.0
 20
0.0
 30
0.0
  3
KCAD_OPEN30ANG
  1

  0
LINE
  5
2D7
330
2AD
100
AcDbEntity
  8
0
  6
Continuous
 62
     0
370
    -2
100
AcDbLine
 10
0.0
 20
0.0
 30
0.0
 11
-1.0
 21
-0.267949
 31
0.0
  0
LINE
  5
2D8
330
2AD
100
AcDbEntity
  8
0
  6
Continuous
 62
     0
370
    -2
100
AcDbLine
 10
-1.0
 20
0.267949
 30
0.0
 11
0.0
 21
0.0
 31
0.0
  0
ENDBLK
  5
BA0
330
2AD
100
AcDbEntity
  8
0
100
AcDbBlockEnd
  0
BLOCK
  5
BA1
330
2B6
100
AcDbEntity
  8
0
100
AcDbBlockBegin
  2
KCAD_DOTANG
 70
     0
 71
     0
 10
0.0
 20
0.0
 30
0.0
  3
KCAD_DOTANG
  1

  0
LWPOLYLINE
  5
2DD
330
2B6
100
AcDbEntity
  8
0
  6
ByBlock
 62
     0
100
AcDbPolyline
 90
        2
 70
     1
 43
0.5
 10
-0.25
 20
0.0
 42
1.0
 10
0.25
 20
0.0
 42
1.0
  0
ENDBLK
  5
BA2
330
2B6
100
AcDbEntity
  8
0
100
AcDbBlockEnd
  0
BLOCK
  5
BA3
330
84A
100
AcDbEntity
  8
0
100
AcDbBlockBegin
  2
*D27
 70
     1
 71
     0
 10
0.0
 20
0.0
 30
0.0
  3
*D27
  1

  0
LINE
  5
886
330
84A
100
AcDbEntity
  8
KCAD_DIMS
 62
     0
370
    -2
100
AcDbLine
 10
309.9010959847
 20
107.63406331939
 30
0.0
 11
309.9010959847
 21
123.3979459459499
 31
0.0
  0
LINE
  5
887
330
84A
100
AcDbEntity
  8
KCAD_DIMS
 62
     0
370
    -2
100
AcDbLine
 10
313.9009959846999
 20
107.63406331939
 30
0.0
 11
313.9009959846999
 21
125.5979459459499
 31
0.0
  0
INSERT
  5
888
330
84A
100
AcDbEntity
  8
KCAD_DIMS
 62
     0
370
    -2
100
AcDbBlockReference
  2
_OPEN30
 10
309.9010959847
 20
107.63406331939
 30
0.0
 41
2.5
 42
2.5
 43
2.5
  0
INSERT
  5
889
330
84A
100
AcDbEntity
  8
KCAD_DIMS
 62
     0
370
    -2
100
AcDbBlockReference
  2
_OPEN30
 10
313.9009959846999
 20
107.63406331939
 30
0.0
 41
2.5
 42
2.5
 43
2.5
 50
180.0
  0
LINE
  5
88A
330
84A
100
AcDbEntity
  8
KCAD_DIMS
 62
     0
370
    -2
100
AcDbLine
 10
309.9010959847
 20
107.63406331939
 30
0.0
 11
313.9009959846999
 21
107.63406331939
 31
0.0
  0
LINE
  5
88B
330
84A
100
AcDbEntity
  8
KCAD_DIMS
 62
     0
370
    -2
100
AcDbLine
 10
307.4010959847
 20
107.63406331939
 30
0.0
 11
290.426734213525
 21
107.63406331939
 31
0.0
  0
LINE
  5
88C
330
84A
100
AcDbEntity
  8
KCAD_DIMS
 62
     0
370
    -2
100
AcDbLine
 10
316.4009959847
 20
107.63406331939
 30
0.0
 11
318.9009959847
 21
107.63406331939
 31
0.0
  0
POINT
  5
88D
330
84A
100
AcDbEntity
  8
DEFPOINTS
 62
     0
370
    15
100
AcDbPoint
 10
309.9010959847
 20
123.3979459459499
 30
0.0
  0
POINT
  5
88E
330
84A
100
AcDbEntity
  8
DEFPOINTS
 62
     0
370
    15
100
AcDbPoint
 10
313.9009959846999
 20
125.5979459459499
 30
0.0
  0
POINT
  5
88F
330
84A
100
AcDbEntity
  8
DEFPOINTS
 62
     0
370
    15
100
AcDbPoint
 10
313.9009959846999
 20
107.63406331939
 30
0.0
  0
MTEXT
  5
890
330
84A
100
AcDbEntity
  8
KCAD_DIMS
 62
     0
100
AcDbMText
 10
299.26975540922
 20
110.56844631939
 30
0.0
 40
3.2
 41
0.0
 71
     5
 72
     1
  1
\A1;4{\H2.134400;\S 0^ -0.1;}
  7
KCADDIMSTANDARD
 73
     1
 44
1.0
  0
ENDBLK
  5
BA4
330
84A
100
AcDbEntity
  8
0
100
AcDbBlockEnd
  0
BLOCK
  5
BA5
330
892
100
AcDbEntity
  8
0
100
AcDbBlockBegin
  2
*D28
 70
     1
 71
     0
 10
0.0
 20
0.0
 30
0.0
  3
*D28
  1

  0
LINE
  5
8C4
330
892
100
AcDbEntity
  8
KCAD_DIMS
 62
     0
370
    -2
100
AcDbLine
 10
350.8498941674499
 20
151.8980459459499
 30
0.0
 11
309.4012959847
 21
151.8980459459499
 31
0.0
  0
LINE
  5
8C5
330
892
100
AcDbEntity
  8
KCAD_DIMS
 62
     0
370
    -2
100
AcDbLine
 10
350.8498941674499
 20
122.89794594595
 30
0.0
 11
309.4012959847
 21
122.89794594595
 31
0.0
  0
INSERT
  5
8C6
330
892
100
AcDbEntity
  8
KCAD_DIMS
 62
     0
370
    -2
100
AcDbBlockReference
  2
_OPEN30
 10
350.8498941674499
 20
151.8980459459499
 30
0.0
 41
2.5
 42
2.5
 43
2.5
 50
90.0
  0
INSERT
  5
8C7
330
892
100
AcDbEntity
  8
KCAD_DIMS
 62
     0
370
    -2
100
AcDbBlockReference
  2
_OPEN30
 10
350.8498941674499
 20
122.89794594595
 30
0.0
 41
2.5
 42
2.5
 43
2.5
 50
270.0
  0
LINE
  5
8C8
330
892
100
AcDbEntity
  8
KCAD_DIMS
 62
     0
370
    -2
100
AcDbLine
 10
350.8498941674499
 20
149.39804594595
 30
0.0
 11
350.8498941674499
 21
125.3979459459499
 31
0.0
  0
POINT
  5
8C9
330
892
100
AcDbEntity
  8
DEFPOINTS
 62
     0
370
    15
100
AcDbPoint
 10
309.4012959847
 20
151.8980459459499
 30
0.0
  0
POINT
  5
8CA
330
892
100
AcDbEntity
  8
DEFPOINTS
 62
     0
370
    15
100
AcDbPoint
 10
309.4012959847
 20
122.89794594595
 30
0.0
  0
POINT
  5
8CB
330
892
100
AcDbEntity
  8
DEFPOINTS
 62
     0
370
    15
100
AcDbPoint
 10
350.8498941674499
 20
122.89794594595
 30
0.0
  0
MTEXT
  5
8CC
330
892
100
AcDbEntity
  8
KCAD_DIMS
 62
     0
100
AcDbMText
 10
348.71656116745
 20
137.3979959459499
 30
0.0
 40
3.2
 41
0.0
 71
     5
 72
     1
  1
\A1;φ29
  7
KCADDIMSTANDARD
 11
1.000000000000000E-16
 21
1.0
 31
0.0
 73
     1
 44
1.0
  0
ENDBLK
  5
BA6
330
892
100
AcDbEntity
  8
0
100
AcDbBlockEnd
  0
BLOCK
  5
BA7
330
911
100
AcDbEntity
  8
0
100
AcDbBlockBegin
  2
*D29
 70
     1
 71
     0
 10
0.0
 20
0.0
 30
0.0
  3
*D29
  1

  0
LINE
  5
943
330
911
100
AcDbEntity
  8
KCAD_DIMS
 62
     0
370
    -2
100
AcDbLine
 10
102.0632959847
 20
188.3226454134199
 30
0.0
 11
102.0632959847
 21
166.5679459459499
 31
0.0
  0
LINE
  5
944
330
911
100
AcDbEntity
  8
KCAD_DIMS
 62
     0
370
    -2
100
AcDbLine
 10
114.0632959846999
 20
188.3226454134199
 30
0.0
 11
114.0632959846999
 21
166.56802928011
 31
0.0
  0
INSERT
  5
945
330
911
100
AcDbEntity
  8
KCAD_DIMS
 62
     0
370
    -2
100
AcDbBlockReference
  2
_OPEN30
 10
102.0632959847
 20
188.3226454134199
 30
0.0
 41
2.5
 42
2.5
 43
2.5
  0
INSERT
  5
946
330
911
100
AcDbEntity
  8
KCAD_DIMS
 62
     0
370
    -2
100
AcDbBlockReference
  2
_OPEN30
 10
114.0632959846999
 20
188.3226454134199
 30
0.0
 41
2.5
 42
2.5
 43
2.5
 50
180.0
  0
LINE
  5
947
330
911
100
AcDbEntity
  8
KCAD_DIMS
 62
     0
370
    -2
100
AcDbLine
 10
102.0632959847
 20
188.3226454134199
 30
0.0
 11
114.0632959846999
 21
188.3226454134199
 31
0.0
  0
LINE
  5
948
330
911
100
AcDbEntity
  8
KCAD_DIMS
 62
     0
370
    -2
100
AcDbLine
 10
99.5632959847
 20
188.3226454134199
 30
0.0
 11
97.0632959847
 21
188.3226454134199
 31
0.0
  0
LINE
  5
949
330
911
100
AcDbEntity
  8
KCAD_DIMS
 62
     0
370
    -2
100
AcDbLine
 10
116.5632959847
 20
188.3226454134199
 30
0.0
 11
141.7351425103059
 21
188.3226454134199
 31
0.0
  0
POINT
  5
94A
330
911
100
AcDbEntity
  8
DEFPOINTS
 62
     0
370
    15
100
AcDbPoint
 10
102.0632959847
 20
166.5679459459499
 30
0.0
  0
POINT
  5
94B
330
911
100
AcDbEntity
  8
DEFPOINTS
 62
     0
370
    15
100
AcDbPoint
 10
114.0632959846999
 20
166.56802928011
 30
0.0
  0
POINT
  5
94C
330
911
100
AcDbEntity
  8
DEFPOINTS
 62
     0
370
    15
100
AcDbPoint
 10
114.0632959846999
 20
188.3226454134199
 30
0.0
  0
MTEXT
  5
94D
330
911
100
AcDbEntity
  8
KCAD_DIMS
 62
     0
100
AcDbMText
 10
129.8671213546599
 20
191.2570284134199
 30
0.0
 40
3.2
 41
0.0
 71
     5
 72
     1
  1
\A1;φ12{\H2.134400;\S+0.05^  0;}
  7
KCADDIMSTANDARD
 73
     1
 44
1.0
  0
ENDBLK
  5
BA8
330
911
100
AcDbEntity
  8
0
100
AcDbBlockEnd
  0
BLOCK
  5
BA9
330
952
100
AcDbEntity
  8
0
100
AcDbBlockBegin
  2
*D30
 70
     1
 71
     0
 10
0.0
 20
0.0
 30
0.0
  3
*D30
  1

  0
LINE
  5
984
330
952
100
AcDbEntity
  8
KCAD_DIMS
 62
     0
370
    -2
100
AcDbLine
 10
100.5631959847
 20
212.20716033506
 30
0.0
 11
100.5631959847
 21
166.5679542783099
 31
0.0
  0
LINE
  5
985
330
952
100
AcDbEntity
  8
KCAD_DIMS
 62
     0
370
    -2
100
AcDbLine
 10
115.5631959846999
 20
212.20716033506
 30
0.0
 11
115.5631959846999
 21
166.5680459459499
 31
0.0
  0
INSERT
  5
986
330
952
100
AcDbEntity
  8
KCAD_DIMS
 62
     0
370
    -2
100
AcDbBlockReference
  2
_OPEN30
 10
100.5631959847
 20
212.20716033506
 30
0.0
 41
2.5
 42
2.5
 43
2.5
  0
INSERT
  5
987
330
952
100
AcDbEntity
  8
KCAD_DIMS
 62
     0
370
    -2
100
AcDbBlockReference
  2
_OPEN30
 10
115.5631959846999
 20
212.20716033506
 30
0.0
 41
2.5
 42
2.5
 43
2.5
 50
180.0
  0
LINE
  5
988
330
952
100
AcDbEntity
  8
KCAD_DIMS
 62
     0
370
    -2
100
AcDbLine
 10
100.5631959847
 20
212.20716033506
 30
0.0
 11
115.5631959846999
 21
212.20716033506
 31
0.0
  0
LINE
  5
989
330
952
100
AcDbEntity
  8
KCAD_DIMS
 62
     0
370
    -2
100
AcDbLine
 10
98.0631959847
 20
212.20716033506
 30
0.0
 11
95.5631959847
 21
212.20716033506
 31
0.0
  0
LINE
  5
98A
330
952
100
AcDbEntity
  8
KCAD_DIMS
 62
     0
370
    -2
100
AcDbLine
 10
118.0631959847
 20
212.20716033506
 30
0.0
 11
133.513509823011
 21
212.20716033506
 31
0.0
  0
POINT
  5
98B
330
952
100
AcDbEntity
  8
DEFPOINTS
 62
     0
370
    15
100
AcDbPoint
 10
100.5631959847
 20
166.5679542783099
 30
0.0
  0
POINT
  5
98C
330
952
100
AcDbEntity
  8
DEFPOINTS
 62
     0
370
    15
100
AcDbPoint
 10
115.5631959846999
 20
166.5680459459499
 30
0.0
  0
POINT
  5
98D
330
952
100
AcDbEntity
  8
DEFPOINTS
 62
     0
370
    15
100
AcDbPoint
 10
115.5631959846999
 20
212.20716033506
 30
0.0
  0
MTEXT
  5
98E
330
952
100
AcDbEntity
  8
KCAD_DIMS
 62
     0
100
AcDbMText
 10
127.81749764817
 20
214.3404933350599
 30
0.0
 40
3.2
 41
0.0
 71
     5
 72
     1
  1
\A1;φ15
  7
KCADDIMSTANDARD
 73
     1
 44
1.0
  0
ENDBLK
  5
BAA
330
952
100
AcDbEntity
  8
0
100
AcDbBlockEnd
  0
BLOCK
  5
BAB
330
990
100
AcDbEntity
  8
0
100
AcDbBlockBegin
  2
*D31
 70
     1
 71
     0
 10
0.0
 20
0.0
 30
0.0
  3
*D31
  1

  0
LINE
  5
9C2
330
990
100
AcDbEntity
  8
KCAD_DIMS
 62
     0
370
    -2
100
AcDbLine
 10
99.06339598470402
 20
220.39794594595
 30
0.0
 11
99.06339598470402
 21
166.5679459459499
 31
0.0
  0
LINE
  5
9C3
330
990
100
AcDbEntity
  8
KCAD_DIMS
 62
     0
370
    -2
100
AcDbLine
 10
117.0630959846999
 20
220.39794594595
 30
0.0
 11
117.0630959846999
 21
166.5680459459499
 31
0.0
  0
INSERT
  5
9C4
330
990
100
AcDbEntity
  8
KCAD_DIMS
 62
     0
370
    -2
100
AcDbBlockReference
  2
_OPEN30
 10
99.06339598470402
 20
220.39794594595
 30
0.0
 41
2.5
 42
2.5
 43
2.5
  0
INSERT
  5
9C5
330
990
100
AcDbEntity
  8
KCAD_DIMS
 62
     0
370
    -2
100
AcDbBlockReference
  2
_OPEN30
 10
117.0630959846999
 20
220.39794594595
 30
0.0
 41
2.5
 42
2.5
 43
2.5
 50
180.0
  0
LINE
  5
9C6
330
990
100
AcDbEntity
  8
KCAD_DIMS
 62
     0
370
    -2
100
AcDbLine
 10
99.06339598470402
 20
220.39794594595
 30
0.0
 11
117.0630959846999
 21
220.39794594595
 31
0.0
  0
LINE
  5
9C7
330
990
100
AcDbEntity
  8
KCAD_DIMS
 62
     0
370
    -2
100
AcDbLine
 10
96.56339598470402
 20
220.39794594595
 30
0.0
 11
94.06339598470402
 21
220.39794594595
 31
0.0
  0
LINE
  5
9C8
330
990
100
AcDbEntity
  8
KCAD_DIMS
 62
     0
370
    -2
100
AcDbLine
 10
119.5630959847
 20
220.39794594595
 30
0.0
 11
133.217178684723
 21
220.39794594595
 31
0.0
  0
POINT
  5
9C9
330
990
100
AcDbEntity
  8
DEFPOINTS
 62
     0
370
    15
100
AcDbPoint
 10
99.06339598470402
 20
166.5679459459499
 30
0.0
  0
POINT
  5
9CA
330
990
100
AcDbEntity
  8
DEFPOINTS
 62
     0
370
    15
100
AcDbPoint
 10
117.0630959846999
 20
166.5680459459499
 30
0.0
  0
POINT
  5
9CB
330
990
100
AcDbEntity
  8
DEFPOINTS
 62
     0
370
    15
100
AcDbPoint
 10
117.0630959846999
 20
220.39794594595
 30
0.0
  0
MTEXT
  5
9CC
330
990
100
AcDbEntity
  8
KCAD_DIMS
 62
     0
100
AcDbMText
 10
127.52116650988
 20
222.53127894595
 30
0.0
 40
3.2
 41
0.0
 71
     5
 72
     1
  1
\A1;φ18
  7
KCADDIMSTANDARD
 73
     1
 44
1.0
  0
ENDBLK
  5
BAC
330
990
100
AcDbEntity
  8
0
100
AcDbBlockEnd
  0
BLOCK
  5
BAD
330
9E5
100
AcDbEntity
  8
0
100
AcDbBlockBegin
  2
*D32
 70
     1
 71
     0
 10
0.0
 20
0.0
 30
0.0
  3
*D32
  1

  0
POINT
  5
9DA
330
9E5
100
AcDbEntity
  8
DEFPOINTS
  6
ByBlock
 62
     0
370
    15
100
AcDbPoint
 10
309.9010959847
 20
123.3979459459499
 30
0.0
  0
POINT
  5
9DB
330
9E5
100
AcDbEntity
  8
DEFPOINTS
  6
ByBlock
 62
     0
370
    15
100
AcDbPoint
 10
313.9009959846999
 20
125.5979459459499
 30
0.0
  0
LINE
  5
9DC
330
9E5
100
AcDbEntity
  8
0
  6
ByBlock
 62
     0
370
    -2
100
AcDbLine
 10
309.9010959847
 20
123.3979459459499
 30
0.0
 11
309.9010959847
 21
107.63406331939
 31
0.0
  0
LINE
  5
9DD
330
9E5
100
AcDbEntity
  8
0
  6
ByBlock
 62
     0
370
    -2
100
AcDbLine
 10
313.9009959846999
 20
125.5979459459499
 30
0.0
 11
313.9009959846999
 21
107.63406331939
 31
0.0
  0
LINE
  5
9DE
330
9E5
100
AcDbEntity
  8
0
  6
ByBlock
 62
     0
370
    -2
100
AcDbLine
 10
307.4010959847
 20
107.63406331939
 30
0.0
 11
304.9010959847
 21
107.63406331939
 31
0.0
  0
SOLID
  5
9DF
330
9E5
100
AcDbEntity
  8
0
  6
ByBlock
 62
     0
370
    15
100
AcDbTrace
 10
309.9010959847
 20
107.63406331939
 30
0.0
 11
307.4010959847
 21
107.2173966527232
 31
0.0
 12
307.4010959847
 22
108.0507299860568
 32
0.0
 13
307.4010959847
 23
108.0507299860568
 33
0.0
  0
LINE
  5
9E0
330
9E5
100
AcDbEntity
  8
0
  6
ByBlock
 62
     0
370
    -2
100
AcDbLine
 10
316.4009959846999
 20
107.63406331939
 30
0.0
 11
318.9009959846999
 21
107.63406331939
 31
0.0
  0
SOLID
  5
9E1
330
9E5
100
AcDbEntity
  8
0
  6
ByBlock
 62
     0
370
    15
100
AcDbTrace
 10
313.9009959846999
 20
107.63406331939
 30
0.0
 11
316.4009959846999
 21
107.2173966527232
 31
0.0
 12
316.4009959846999
 22
108.0507299860568
 32
0.0
 13
316.4009959846999
 23
108.0507299860568
 33
0.0
  0
LINE
  5
9E2
330
9E5
100
AcDbEntity
  8
0
  6
ByBlock
 62
     0
370
    -2
100
AcDbLine
 10
309.9010959847
 20
107.63406331939
 30
0.0
 11
313.9009959846999
 21
107.63406331939
 31
0.0
  0
MTEXT
  5
9E3
330
9E5
100
AcDbEntity
  8
0
  6
ByBlock
 62
     0
100
AcDbMText
 10
299.26975540922
 20
110.56844631939
 30
0.0
 40
3.2
 41
0.0
 71
     5
 72
     1
  1
4{\H2.134400;\S+0^ -0.1;}
  7
KCADDIMSTANDARD
 73
     1
 44
1.0
  0
ENDBLK
  5
BAE
330
9E5
100
AcDbEntity
  8
0
100
AcDbBlockEnd
  0
BLOCK
  5
BAF
330
9F1
100
AcDbEntity
  8
0
100
AcDbBlockBegin
  2
*D33
 70
     1
 71
     0
 10
0.0
 20
0.0
 30
0.0
  3
*D33
  1

  0
POINT
  5
9E7
330
9F1
100
AcDbEntity
  8
DEFPOINTS
  6
ByBlock
 62
     0
370
    15
100
AcDbPoint
 10
309.4012959847
 20
151.8980459459499
 30
0.0
  0
POINT
  5
9E8
330
9F1
100
AcDbEntity
  8
DEFPOINTS
  6
ByBlock
 62
     0
370
    15
100
AcDbPoint
 10
309.4012959847
 20
122.89794594595
 30
0.0
  0
LINE
  5
9E9
330
9F1
100
AcDbEntity
  8
0
  6
ByBlock
 62
     0
370
    -2
100
AcDbLine
 10
309.4012959847
 20
151.8980459459499
 30
0.0
 11
350.8498941674499
 21
151.8980459459499
 31
0.0
  0
LINE
  5
9EA
330
9F1
100
AcDbEntity
  8
0
  6
ByBlock
 62
     0
370
    -2
100
AcDbLine
 10
309.4012959847
 20
122.89794594595
 30
0.0
 11
350.8498941674499
 21
122.89794594595
 31
0.0
  0
LINE
  5
9EB
330
9F1
100
AcDbEntity
  8
0
  6
ByBlock
 62
     0
370
    -2
100
AcDbLine
 10
350.8498941674499
 20
151.8980459459499
 30
0.0
 11
350.8498941674499
 21
122.89794594595
 31
0.0
  0
SOLID
  5
9EC
330
9F1
100
AcDbEntity
  8
0
  6
ByBlock
 62
     0
370
    15
100
AcDbTrace
 10
350.8498941674499
 20
151.8980459459499
 30
0.0
 11
350.4332275007832
 21
149.3980459459499
 31
0.0
 12
351.2665608341167
 22
149.3980459459499
 32
0.0
 13
351.2665608341167
 23
149.3980459459499
 33
0.0
  0
SOLID
  5
9ED
330
9F1
100
AcDbEntity
  8
0
  6
ByBlock
 62
     0
370
    15
100
AcDbTrace
 10
350.8498941674499
 20
122.89794594595
 30
0.0
 11
350.4332275007832
 21
125.39794594595
 31
0.0
 12
351.2665608341167
 22
125.39794594595
 32
0.0
 13
351.2665608341167
 23
125.39794594595
 33
0.0
  0
LINE
  5
9EE
330
9F1
100
AcDbEntity
  8
0
  6
ByBlock
 62
     0
370
    -2
100
AcDbLine
 10
309.4012959847
 20
151.8980459459499
 30
0.0
 11
309.4012959847
 21
151.8980459459499
 31
0.0
  0
MTEXT
  5
9EF
330
9F1
100
AcDbEntity
  8
0
  6
ByBlock
 62
     0
100
AcDbMText
 10
348.71656116745
 20
137.3979959459499
 30
0.0
 40
3.2
 41
0.0
 71
     5
 72
     1
  1
\A1;φ29
  7
KCADDIMSTANDARD
 11
6.123031769111886E-17
 21
1.0
 31
0.0
 73
     1
 44
1.0
  0
ENDBLK
  5
BB0
330
9F1
100
AcDbEntity
  8
0
100
AcDbBlockEnd
  0
BLOCK
  5
BB1
330
9FD
100
AcDbEntity
  8
0
100
AcDbBlockBegin
  2
*D34
 70
     1
 71
     0
 10
0.0
 20
0.0
 30
0.0
  3
*D34
  1

  0
POINT
  5
9F3
330
9FD
100
AcDbEntity
  8
DEFPOINTS
  6
ByBlock
 62
     0
370
    15
100
AcDbPoint
 10
102.0632959847
 20
166.5679459459499
 30
0.0
  0
POINT
  5
9F4
330
9FD
100
AcDbEntity
  8
DEFPOINTS
  6
ByBlock
 62
     0
370
    15
100
AcDbPoint
 10
114.0632959846999
 20
166.56802928011
 30
0.0
  0
LINE
  5
9F5
330
9FD
100
AcDbEntity
  8
0
  6
ByBlock
 62
     0
370
    -2
100
AcDbLine
 10
102.0632959847
 20
166.5679459459499
 30
0.0
 11
102.0632959847
 21
188.3226454134199
 31
0.0
  0
LINE
  5
9F6
330
9FD
100
AcDbEntity
  8
0
  6
ByBlock
 62
     0
370
    -2
100
AcDbLine
 10
114.0632959846999
 20
166.56802928011
 30
0.0
 11
114.0632959846999
 21
188.3226454134199
 31
0.0
  0
LINE
  5
9F7
330
9FD
100
AcDbEntity
  8
0
  6
ByBlock
 62
     0
370
    -2
100
AcDbLine
 10
102.0632959847
 20
188.3226454134199
 30
0.0
 11
114.0632959846999
 21
188.3226454134199
 31
0.0
  0
SOLID
  5
9F8
330
9FD
100
AcDbEntity
  8
0
  6
ByBlock
 62
     0
370
    15
100
AcDbTrace
 10
102.0632959847
 20
188.3226454134199
 30
0.0
 11
104.5632959847
 21
187.9059787467532
 31
0.0
 12
104.5632959847
 22
188.7393120800866
 32
0.0
 13
104.5632959847
 23
188.7393120800866
 33
0.0
  0
SOLID
  5
9F9
330
9FD
100
AcDbEntity
  8
0
  6
ByBlock
 62
     0
370
    15
100
AcDbTrace
 10
114.0632959846999
 20
188.3226454134199
 30
0.0
 11
111.5632959846999
 21
187.9059787467532
 31
0.0
 12
111.5632959846999
 22
188.7393120800866
 32
0.0
 13
111.5632959846999
 23
188.7393120800866
 33
0.0
  0
LINE
  5
9FA
330
9FD
100
AcDbEntity
  8
0
  6
ByBlock
 62
     0
370
    -2
100
AcDbLine
 10
102.0632959847
 20
166.5679459459499
 30
0.0
 11
102.0632959847
 21
166.5679459459499
 31
0.0
  0
MTEXT
  5
9FB
330
9FD
100
AcDbEntity
  8
0
  6
ByBlock
 62
     0
100
AcDbMText
 10
129.8671213546599
 20
191.2570284134199
 30
0.0
 40
3.2
 41
0.0
 71
     5
 72
     1
  1
\A1;φ12{\H2.134400;\S+0.05^ -0;}
  7
KCADDIMSTANDARD
 73
     1
 44
1.0
  0
ENDBLK
  5
BB2
330
9FD
100
AcDbEntity
  8
0
100
AcDbBlockEnd
  0
BLOCK
  5
BB3
330
A09
100
AcDbEntity
  8
0
100
AcDbBlockBegin
  2
*D35
 70
     1
 71
     0
 10
0.0
 20
0.0
 30
0.0
  3
*D35
  1

  0
POINT
  5
9FF
330
A09
100
AcDbEntity
  8
DEFPOINTS
  6
ByBlock
 62
     0
370
    15
100
AcDbPoint
 10
100.5631959847
 20
166.5679542783099
 30
0.0
  0
POINT
  5
A00
330
A09
100
AcDbEntity
  8
DEFPOINTS
  6
ByBlock
 62
     0
370
    15
100
AcDbPoint
 10
115.5631959846999
 20
166.5680459459499
 30
0.0
  0
LINE
  5
A01
330
A09
100
AcDbEntity
  8
0
  6
ByBlock
 62
     0
370
    -2
100
AcDbLine
 10
100.5631959847
 20
166.5679542783099
 30
0.0
 11
100.5631959847
 21
212.20716033506
 31
0.0
  0
LINE
  5
A02
330
A09
100
AcDbEntity
  8
0
  6
ByBlock
 62
     0
370
    -2
100
AcDbLine
 10
115.5631959846999
 20
166.5680459459499
 30
0.0
 11
115.5631959846999
 21
212.20716033506
 31
0.0
  0
LINE
  5
A03
330
A09
100
AcDbEntity
  8
0
  6
ByBlock
 62
     0
370
    -2
100
AcDbLine
 10
100.5631959847
 20
212.20716033506
 30
0.0
 11
115.5631959846999
 21
212.20716033506
 31
0.0
  0
SOLID
  5
A04
330
A09
100
AcDbEntity
  8
0
  6
ByBlock
 62
     0
370
    15
100
AcDbTrace
 10
100.5631959847
 20
212.20716033506
 30
0.0
 11
103.0631959847
 21
211.7904936683933
 31
0.0
 12
103.0631959847
 22
212.6238270017267
 32
0.0
 13
103.0631959847
 23
212.6238270017267
 33
0.0
  0
SOLID
  5
A05
330
A09
100
AcDbEntity
  8
0
  6
ByBlock
 62
     0
370
    15
100
AcDbTrace
 10
115.5631959846999
 20
212.20716033506
 30
0.0
 11
113.0631959846999
 21
211.7904936683933
 31
0.0
 12
113.0631959846999
 22
212.6238270017267
 32
0.0
 13
113.0631959846999
 23
212.6238270017267
 33
0.0
  0
LINE
  5
A06
330
A09
100
AcDbEntity
  8
0
  6
ByBlock
 62
     0
370
    -2
100
AcDbLine
 10
100.5631959847
 20
166.5679542783099
 30
0.0
 11
100.5631959847
 21
166.5679542783099
 31
0.0
  0
MTEXT
  5
A07
330
A09
100
AcDbEntity
  8
0
  6
ByBlock
 62
     0
100
AcDbMText
 10
127.81749764817
 20
214.3404933350599
 30
0.0
 40
3.2
 41
0.0
 71
     5
 72
     1
  1
\A1;φ15
  7
KCADDIMSTANDARD
 73
     1
 44
1.0
  0
ENDBLK
  5
BB4
330
A09
100
AcDbEntity
  8
0
100
AcDbBlockEnd
  0
BLOCK
  5
BB5
330
A15
100
AcDbEntity
  8
0
100
AcDbBlockBegin
  2
*D36
 70
     1
 71
     0
 10
0.0
 20
0.0
 30
0.0
  3
*D36
  1

  0
POINT
  5
A0B
330
A15
100
AcDbEntity
  8
DEFPOINTS
  6
ByBlock
 62
     0
370
    15
100
AcDbPoint
 10
99.06339598470402
 20
166.5679459459499
 30
0.0
  0
POINT
  5
A0C
330
A15
100
AcDbEntity
  8
DEFPOINTS
  6
ByBlock
 62
     0
370
    15
100
AcDbPoint
 10
117.0630959846999
 20
166.5680459459499
 30
0.0
  0
LINE
  5
A0D
330
A15
100
AcDbEntity
  8
0
  6
ByBlock
 62
     0
370
    -2
100
AcDbLine
 10
99.06339598470402
 20
166.5679459459499
 30
0.0
 11
99.06339598470402
 21
220.39794594595
 31
0.0
  0
LINE
  5
A0E
330
A15
100
AcDbEntity
  8
0
  6
ByBlock
 62
     0
370
    -2
100
AcDbLine
 10
117.0630959846999
 20
166.5680459459499
 30
0.0
 11
117.0630959846999
 21
220.39794594595
 31
0.0
  0
LINE
  5
A0F
330
A15
100
AcDbEntity
  8
0
  6
ByBlock
 62
     0
370
    -2
100
AcDbLine
 10
99.06339598470402
 20
220.39794594595
 30
0.0
 11
117.0630959846999
 21
220.39794594595
 31
0.0
  0
SOLID
  5
A10
330
A15
100
AcDbEntity
  8
0
  6
ByBlock
 62
     0
370
    15
100
AcDbTrace
 10
99.06339598470402
 20
220.39794594595
 30
0.0
 11
101.563395984704
 21
219.9812792792833
 31
0.0
 12
101.563395984704
 22
220.8146126126167
 32
0.0
 13
101.563395984704
 23
220.8146126126167
 33
0.0
  0
SOLID
  5
A11
330
A15
100
AcDbEntity
  8
0
  6
ByBlock
 62
     0
370
    15
100
AcDbTrace
 10
117.0630959846999
 20
220.39794594595
 30
0.0
 11
114.5630959846999
 21
219.9812792792833
 31
0.0
 12
114.5630959846999
 22
220.8146126126167
 32
0.0
 13
114.5630959846999
 23
220.8146126126167
 33
0.0
  0
LINE
  5
A12
330
A15
100
AcDbEntity
  8
0
  6
ByBlock
 62
     0
370
    -2
100
AcDbLine
 10
99.06339598470402
 20
166.5679459459499
 30
0.0
 11
99.06339598470402
 21
166.5679459459499
 31
0.0
  0
MTEXT
  5
A13
330
A15
100
AcDbEntity
  8
0
  6
ByBlock
 62
     0
100
AcDbMText
 10
127.52116650988
 20
222.53127894595
 30
0.0
 40
3.2
 41
0.0
 71
     5
 72
     1
  1
\A1;φ18
  7
KCADDIMSTANDARD
 73
     1
 44
1.0
  0
ENDBLK
  5
BB6
330
A15
100
AcDbEntity
  8
0
100
AcDbBlockEnd
  0
BLOCK
  5
BB7
330
A7B
100
AcDbEntity
  8
0
100
AcDbBlockBegin
  2
*D37
 70
     1
 71
     0
 10
0.0
 20
0.0
 30
0.0
  3
*D37
  1

  0
POINT
  5
A71
330
A7B
100
AcDbEntity
  8
DEFPOINTS
  6
ByBlock
 62
     0
370
    15
100
AcDbPoint
 10
99.06339598470402
 20
166.5679459459499
 30
0.0
  0
POINT
  5
A72
330
A7B
100
AcDbEntity
  8
DEFPOINTS
  6
ByBlock
 62
     0
370
    15
100
AcDbPoint
 10
117.0630959846999
 20
166.5680459459499
 30
0.0
  0
LINE
  5
A73
330
A7B
100
AcDbEntity
  8
0
  6
ByBlock
 62
     0
370
    -2
100
AcDbLine
 10
99.06339598470402
 20
166.5679459459499
 30
0.0
 11
99.06339598470402
 21
220.39794594595
 31
0.0
  0
LINE
  5
A74
330
A7B
100
AcDbEntity
  8
0
  6
ByBlock
 62
     0
370
    -2
100
AcDbLine
 10
117.0630959846999
 20
166.5680459459499
 30
0.0
 11
117.0630959846999
 21
220.39794594595
 31
0.0
  0
LINE
  5
A75
330
A7B
100
AcDbEntity
  8
0
  6
ByBlock
 62
     0
370
    -2
100
AcDbLine
 10
99.06339598470402
 20
220.39794594595
 30
0.0
 11
117.0630959846999
 21
220.39794594595
 31
0.0
  0
SOLID
  5
A76
330
A7B
100
AcDbEntity
  8
0
  6
ByBlock
 62
     0
370
    15
100
AcDbTrace
 10
99.06339598470402
 20
220.39794594595
 30
0.0
 11
101.563395984704
 21
219.9812792792833
 31
0.0
 12
101.563395984704
 22
220.8146126126167
 32
0.0
 13
101.563395984704
 23
220.8146126126167
 33
0.0
  0
SOLID
  5
A77
330
A7B
100
AcDbEntity
  8
0
  6
ByBlock
 62
     0
370
    15
100
AcDbTrace
 10
117.0630959846999
 20
220.39794594595
 30
0.0
 11
114.5630959846999
 21
219.9812792792833
 31
0.0
 12
114.5630959846999
 22
220.8146126126167
 32
0.0
 13
114.5630959846999
 23
220.8146126126167
 33
0.0
  0
LINE
  5
A78
330
A7B
100
AcDbEntity
  8
0
  6
ByBlock
 62
     0
370
    -2
100
AcDbLine
 10
99.06339598470402
 20
166.5679459459499
 30
0.0
 11
99.06339598470402
 21
166.5679459459499
 31
0.0
  0
MTEXT
  5
A79
330
A7B
100
AcDbEntity
  8
0
  6
ByBlock
 62
     0
100
AcDbMText
 10
108.2293555708577
 20
223.0180794698909
 30
0.0
 40
3.2
 41
0.0
 71
     5
 72
     1
  1
\A1;φ18
  7
KCADDIMSTANDARD
 73
     1
 44
1.0
  0
ENDBLK
  5
BB8
330
A7B
100
AcDbEntity
  8
0
100
AcDbBlockEnd
  0
BLOCK
  5
BB9
330
A87
100
AcDbEntity
  8
0
100
AcDbBlockBegin
  2
*D38
 70
     1
 71
     0
 10
0.0
 20
0.0
 30
0.0
  3
*D38
  1

  0
POINT
  5
A7D
330
A87
100
AcDbEntity
  8
DEFPOINTS
  6
ByBlock
 62
     0
370
    15
100
AcDbPoint
 10
100.5631959847
 20
166.5679542783099
 30
0.0
  0
POINT
  5
A7E
330
A87
100
AcDbEntity
  8
DEFPOINTS
  6
ByBlock
 62
     0
370
    15
100
AcDbPoint
 10
115.5631959846999
 20
166.5680459459499
 30
0.0
  0
LINE
  5
A7F
330
A87
100
AcDbEntity
  8
0
  6
ByBlock
 62
     0
370
    -2
100
AcDbLine
 10
100.5631959847
 20
166.5679542783099
 30
0.0
 11
100.5631959847
 21
212.20716033506
 31
0.0
  0
LINE
  5
A80
330
A87
100
AcDbEntity
  8
0
  6
ByBlock
 62
     0
370
    -2
100
AcDbLine
 10
115.5631959846999
 20
166.5680459459499
 30
0.0
 11
115.5631959846999
 21
212.20716033506
 31
0.0
  0
LINE
  5
A81
330
A87
100
AcDbEntity
  8
0
  6
ByBlock
 62
     0
370
    -2
100
AcDbLine
 10
100.5631959847
 20
212.20716033506
 30
0.0
 11
115.5631959846999
 21
212.20716033506
 31
0.0
  0
SOLID
  5
A82
330
A87
100
AcDbEntity
  8
0
  6
ByBlock
 62
     0
370
    15
100
AcDbTrace
 10
100.5631959847
 20
212.20716033506
 30
0.0
 11
103.0631959847
 21
211.7904936683933
 31
0.0
 12
103.0631959847
 22
212.6238270017267
 32
0.0
 13
103.0631959847
 23
212.6238270017267
 33
0.0
  0
SOLID
  5
A83
330
A87
100
AcDbEntity
  8
0
  6
ByBlock
 62
     0
370
    15
100
AcDbTrace
 10
115.5631959846999
 20
212.20716033506
 30
0.0
 11
113.0631959846999
 21
211.7904936683933
 31
0.0
 12
113.0631959846999
 22
212.6238270017267
 32
0.0
 13
113.0631959846999
 23
212.6238270017267
 33
0.0
  0
LINE
  5
A84
330
A87
100
AcDbEntity
  8
0
  6
ByBlock
 62
     0
370
    -2
100
AcDbLine
 10
100.5631959847
 20
166.5679542783099
 30
0.0
 11
100.5631959847
 21
166.5679542783099
 31
0.0
  0
MTEXT
  5
A85
330
A87
100
AcDbEntity
  8
0
  6
ByBlock
 62
     0
100
AcDbMText
 10
107.9976263983206
 20
214.6758292585566
 30
0.0
 40
3.2
 41
0.0
 71
     5
 72
     1
  1
\A1;φ15
  7
KCADDIMSTANDARD
 73
     1
 44
1.0
  0
ENDBLK
  5
BBA
330
A87
100
AcDbEntity
  8
0
100
AcDbBlockEnd
  0
BLOCK
  5
BBB
330
A93
100
AcDbEntity
  8
0
100
AcDbBlockBegin
  2
*D39
 70
     1
 71
     0
 10
0.0
 20
0.0
 30
0.0
  3
*D39
  1

  0
POINT
  5
A89
330
A93
100
AcDbEntity
  8
DEFPOINTS
  6
ByBlock
 62
     0
370
    15
100
AcDbPoint
 10
102.0632959847
 20
166.5679459459499
 30
0.0
  0
POINT
  5
A8A
330
A93
100
AcDbEntity
  8
DEFPOINTS
  6
ByBlock
 62
     0
370
    15
100
AcDbPoint
 10
114.0632959846999
 20
166.56802928011
 30
0.0
  0
LINE
  5
A8B
330
A93
100
AcDbEntity
  8
0
  6
ByBlock
 62
     0
370
    -2
100
AcDbLine
 10
102.0632959847
 20
166.5679459459499
 30
0.0
 11
102.0632959847
 21
188.3226454134199
 31
0.0
  0
LINE
  5
A8C
330
A93
100
AcDbEntity
  8
0
  6
ByBlock
 62
     0
370
    -2
100
AcDbLine
 10
114.0632959846999
 20
166.56802928011
 30
0.0
 11
114.0632959846999
 21
188.3226454134199
 31
0.0
  0
LINE
  5
A8D
330
A93
100
AcDbEntity
  8
0
  6
ByBlock
 62
     0
370
    -2
100
AcDbLine
 10
102.0632959847
 20
188.3226454134199
 30
0.0
 11
114.0632959846999
 21
188.3226454134199
 31
0.0
  0
SOLID
  5
A8E
330
A93
100
AcDbEntity
  8
0
  6
ByBlock
 62
     0
370
    15
100
AcDbTrace
 10
102.0632959847
 20
188.3226454134199
 30
0.0
 11
104.5632959847
 21
187.9059787467532
 31
0.0
 12
104.5632959847
 22
188.7393120800866
 32
0.0
 13
104.5632959847
 23
188.7393120800866
 33
0.0
  0
SOLID
  5
A8F
330
A93
100
AcDbEntity
  8
0
  6
ByBlock
 62
     0
370
    15
100
AcDbTrace
 10
114.0632959846999
 20
188.3226454134199
 30
0.0
 11
111.5632959846999
 21
187.9059787467532
 31
0.0
 12
111.5632959846999
 22
188.7393120800866
 32
0.0
 13
111.5632959846999
 23
188.7393120800866
 33
0.0
  0
LINE
  5
A90
330
A93
100
AcDbEntity
  8
0
  6
ByBlock
 62
     0
370
    -2
100
AcDbLine
 10
102.0632959847
 20
166.5679459459499
 30
0.0
 11
102.0632959847
 21
166.5679459459499
 31
0.0
  0
MTEXT
  5
A91
330
A93
100
AcDbEntity
  8
0
  6
ByBlock
 62
     0
100
AcDbMText
 10
126.5359602012857
 20
191.7346411773873
 30
0.0
 40
3.2
 41
0.0
 71
     5
 72
     1
  1
\A1;φ12{\H2.134400;\S+0.05^ -0;}
  7
KCADDIMSTANDARD
 73
     1
 44
1.0
  0
ENDBLK
  5
BBC
330
A93
100
AcDbEntity
  8
0
100
AcDbBlockEnd
  0
BLOCK
  5
BBD
330
A9F
100
AcDbEntity
  8
0
100
AcDbBlockBegin
  2
*D40
 70
     1
 71
     0
 10
0.0
 20
0.0
 30
0.0
  3
*D40
  1

  0
POINT
  5
A95
330
A9F
100
AcDbEntity
  8
DEFPOINTS
  6
ByBlock
 62
     0
370
    15
100
AcDbPoint
 10
102.0632959847
 20
166.5679459459499
 30
0.0
  0
POINT
  5
A96
330
A9F
100
AcDbEntity
  8
DEFPOINTS
  6
ByBlock
 62
     0
370
    15
100
AcDbPoint
 10
114.0632959846999
 20
166.56802928011
 30
0.0
  0
LINE
  5
A97
330
A9F
100
AcDbEntity
  8
0
  6
ByBlock
 62
     0
370
    -2
100
AcDbLine
 10
102.0632959847
 20
166.5679459459499
 30
0.0
 11
102.0632959847
 21
188.3226454134199
 31
0.0
  0
LINE
  5
A98
330
A9F
100
AcDbEntity
  8
0
  6
ByBlock
 62
     0
370
    -2
100
AcDbLine
 10
114.0632959846999
 20
166.56802928011
 30
0.0
 11
114.0632959846999
 21
188.3226454134199
 31
0.0
  0
LINE
  5
A99
330
A9F
100
AcDbEntity
  8
0
  6
ByBlock
 62
     0
370
    -2
100
AcDbLine
 10
102.0632959847
 20
188.3226454134199
 30
0.0
 11
114.0632959846999
 21
188.3226454134199
 31
0.0
  0
SOLID
  5
A9A
330
A9F
100
AcDbEntity
  8
0
  6
ByBlock
 62
     0
370
    15
100
AcDbTrace
 10
102.0632959847
 20
188.3226454134199
 30
0.0
 11
104.5632959847
 21
187.9059787467532
 31
0.0
 12
104.5632959847
 22
188.7393120800866
 32
0.0
 13
104.5632959847
 23
188.7393120800866
 33
0.0
  0
SOLID
  5
A9B
330
A9F
100
AcDbEntity
  8
0
  6
ByBlock
 62
     0
370
    15
100
AcDbTrace
 10
114.0632959846999
 20
188.3226454134199
 30
0.0
 11
111.5632959846999
 21
187.9059787467532
 31
0.0
 12
111.5632959846999
 22
188.7393120800866
 32
0.0
 13
111.5632959846999
 23
188.7393120800866
 33
0.0
  0
LINE
  5
A9C
330
A9F
100
AcDbEntity
  8
0
  6
ByBlock
 62
     0
370
    -2
100
AcDbLine
 10
102.0632959847
 20
166.5679459459499
 30
0.0
 11
102.0632959847
 21
166.5679459459499
 31
0.0
  0
MTEXT
  5
A9D
330
A9F
100
AcDbEntity
  8
0
  6
ByBlock
 62
     0
100
AcDbMText
 10
129.7801686168046
 20
191.9663703499243
 30
0.0
 40
3.2
 41
0.0
 71
     5
 72
     1
  1
\A1;φ12{\H2.134400;\S+0.05^ -0;}
  7
KCADDIMSTANDARD
 73
     1
 44
1.0
  0
ENDBLK
  5
BBE
330
A9F
100
AcDbEntity
  8
0
100
AcDbBlockEnd
  0
ENDSEC
  0
SECTION
  2
ENTITIES
  0
LINE
  5
2F0
102
{ACAD_REACTORS
330
2EF
102
}
330
1F
100
AcDbEntity
  8
0
  6
CENTER
 62
     7
370
    15
100
AcDbLine
 10
91.063195984704
 20
137.39794594595
 30
0.0
 11
125.1921959847
 21
137.3980459459499
 31
0.0
1001
Sigma
1000

  0
LINE
  5
2F3
102
{ACAD_REACTORS
330
2F2
102
}
330
1F
100
AcDbEntity
  8
0
  6
CENTER
 62
     7
370
    15
100
AcDbLine
 10
108.0631959847
 20
122.39804594595
 30
0.0
 11
108.0631959847
 21
168.9001459459499
 31
0.0
1001
Sigma
1000

  0
LINE
  5
2F6
102
{ACAD_REACTORS
330
2F5
102
}
330
1F
100
AcDbEntity
  8
0
  6
Continuous
 62
     7
370
    15
100
AcDbLine
 10
211.5890959846999
 20
137.39794594595
 30
0.0
 11
210.5890959847
 21
139.39794594595
 31
0.0
1001
Sigma
1000

  0
LINE
  5
2F9
102
{ACAD_REACTORS
330
2F8
102
}
330
1F
100
AcDbEntity
  8
0
  6
Continuous
 62
     7
370
    15
100
AcDbLine
 10
208.5890959847
 20
135.3980459459499
 30
0.0
 11
210.5890959847
 21
139.39794594595
 31
0.0
1001
Sigma
1000

  0
LINE
  5
2FC
102
{ACAD_REACTORS
330
2FB
102
}
330
1F
100
AcDbEntity
  8
0
  6
Continuous
 62
     7
370
    15
100
AcDbLine
 10
208.5890959847
 20
135.3980459459499
 30
0.0
 11
207.5889959847
 21
137.39794594595
 31
0.0
1001
Sigma
1000

  0
LINE
  5
2FF
102
{ACAD_REACTORS
330
2FE
102
}
330
1F
100
AcDbEntity
  8
0
  6
Continuous
 62
     7
370
    15
100
AcDbLine
 10
207.5889959847
 20
137.39794594595
 30
0.0
 11
197.5890959846999
 21
137.39794594595
 31
0.0
1001
Sigma
1000

  0
LINE
  5
302
102
{ACAD_REACTORS
330
301
102
}
330
1F
100
AcDbEntity
  8
0
  6
CENTER
 62
     7
370
    15
100
AcDbLine
 10
201.5890959847
 20
137.39794594595
 30
0.0
 11
207.5889959847
 21
137.39794594595
 31
0.0
1001
Sigma
1000

  0
LINE
  5
305
102
{ACAD_REACTORS
330
304
102
}
330
1F
100
AcDbEntity
  8
0
  6
Continuous
 62
     7
370
    15
100
AcDbLine
 10
327.4270959846999
 20
138.3980459459499
 30
0.0
 11
327.4270959846999
 21
168.59804594595
 31
0.0
1001
Sigma
1000

  0
LINE
  5
308
102
{ACAD_REACTORS
330
307
102
}
330
1F
100
AcDbEntity
  8
0
  6
Continuous
 62
     7
370
    15
100
AcDbLine
 10
322.2530959846999
 20
168.59804594595
 30
0.0
 11
332.2530959847
 21
168.59804594595
 31
0.0
1001
Sigma
1000

  0
TEXT
  5
30A
330
1F
100
AcDbEntity
  8
0
  6
Continuous
 62
     7
370
    15
100
AcDbText
 10
322.9529959944931
 20
170.1979459557363
 30
0.0
 40
4.000200176239014
  1
像面
 50
0.0006565045662
 41
0.9567387719230112
  7
KCADTEXTSTANDARD
100
AcDbText
1001
Sigma
1000

  0
LINE
  5
30D
102
{ACAD_REACTORS
330
30C
102
}
330
1F
100
AcDbEntity
  8
0
  6
Continuous
 62
     7
370
    15
100
AcDbLine
 10
195.4677959846999
 20
139.5192459459499
 30
0.0
 11
199.7103959846999
 21
135.2765459459499
 31
0.0
1001
Sigma
1000

  0
LINE
  5
310
102
{ACAD_REACTORS
330
30F
102
}
330
1F
100
AcDbEntity
  8
0
  6
Continuous
 62
     7
370
    15
100
AcDbLine
 10
199.7103959846999
 20
139.5192459459499
 30
0.0
 11
195.4677959846999
 21
135.2765459459499
 31
0.0
1001
Sigma
1000

  0
LINE
  5
313
102
{ACAD_REACTORS
330
312
102
}
330
1F
100
AcDbEntity
  8
0
  6
Continuous
 62
     7
370
    15
100
AcDbLine
 10
197.5890959846999
 20
138.39794594595
 30
0.0
 11
197.5890959846999
 21
168.39794594595
 31
0.0
1001
Sigma
1000

  0
TEXT
  5
315
330
1F
100
AcDbEntity
  8
0
  6
Continuous
 62
     7
370
    15
100
AcDbText
 10
191.0888960187333
 20
169.7979459799833
 30
0.0
 40
4.00010061264038
  1
物体面
 41
0.9486684991057739
  7
KCADTEXTSTANDARD
100
AcDbText
1001
Sigma
1000

  0
LINE
  5
318
102
{ACAD_REACTORS
330
317
102
}
330
1F
100
AcDbEntity
  8
0
  6
Continuous
 62
     7
370
    15
100
AcDbLine
 10
189.6888959846999
 20
168.79804594595
 30
0.0
 11
204.7888959847
 21
168.79804594595
 31
0.0
1001
Sigma
1000

  0
LINE
  5
31B
102
{ACAD_REACTORS
330
31A
102
}
330
1F
100
AcDbEntity
  8
0
  6
Continuous
 62
     7
370
    30
100
AcDbLine
 10
99.06339598470402
 20
160.56804594595
 30
0.0
 11
100.5631959847
 21
160.56804594595
 31
0.0
1001
Sigma
1000

  0
LINE
  5
31E
102
{ACAD_REACTORS
330
31D
102
}
330
1F
100
AcDbEntity
  8
0
  6
Continuous
 62
     7
370
    30
100
AcDbLine
 10
100.5631959847
 20
147.8980459459499
 30
0.0
 11
100.5631959847
 21
160.56804594595
 31
0.0
1001
Sigma
1000

  0
LINE
  5
321
102
{ACAD_REACTORS
330
320
102
}
330
1F
100
AcDbEntity
  8
0
  6
Continuous
 62
     7
370
    30
100
AcDbLine
 10
99.06339598470402
 20
166.5679459459499
 30
0.0
 11
99.06339598470402
 21
160.56804594595
 31
0.0
1001
Sigma
1000

  0
LINE
  5
324
102
{ACAD_REACTORS
330
323
102
}
330
1F
100
AcDbEntity
  8
0
  6
Continuous
 62
     7
370
    30
100
AcDbLine
 10
117.0630959846999
 20
160.56804594595
 30
0.0
 11
115.5631959846999
 21
160.56804594595
 31
0.0
1001
Sigma
1000

  0
LINE
  5
327
102
{ACAD_REACTORS
330
326
102
}
330
1F
100
AcDbEntity
  8
0
  6
Continuous
 62
     7
370
    30
100
AcDbLine
 10
115.5631959846999
 20
147.8980459459499
 30
0.0
 11
115.5631959846999
 21
160.56804594595
 31
0.0
1001
Sigma
1000

  0
LINE
  5
32A
102
{ACAD_REACTORS
330
329
102
}
330
1F
100
AcDbEntity
  8
0
  6
Continuous
 62
     7
370
    30
100
AcDbLine
 10
117.0630959846999
 20
166.5680459459499
 30
0.0
 11
117.0630959846999
 21
160.56804594595
 31
0.0
1001
Sigma
1000

  0
LINE
  5
32D
102
{ACAD_REACTORS
330
32C
102
}
330
1F
100
AcDbEntity
  8
0
  6
Continuous
 62
     7
370
    30
100
AcDbLine
 10
100.5631959847
 20
160.56804594595
 30
0.0
 11
115.5631959846999
 21
160.56804594595
 31
0.0
1001
Sigma
1000

  0
LINE
  5
330
102
{ACAD_REACTORS
330
32F
102
}
330
1F
100
AcDbEntity
  8
0
  6
Continuous
 62
     7
370
    15
100
AcDbLine
 10
326.0128959847
 20
138.81224594595
 30
0.0
 11
328.8412959847
 21
135.98384594595
 31
0.0
1001
Sigma
1000

  0
LINE
  5
333
102
{ACAD_REACTORS
330
332
102
}
330
1F
100
AcDbEntity
  8
0
  6
Continuous
 62
     7
370
    15
100
AcDbLine
 10
328.8412959847
 20
138.81224594595
 30
0.0
 11
326.0128959847
 21
135.98384594595
 31
0.0
1001
Sigma
1000

  0
CIRCLE
  5
335
330
1F
100
AcDbEntity
  8
0
  6
Continuous
 62
     7
370
    15
100
AcDbCircle
 10
108.0631959847
 20
137.39794594595
 30
0.0
 40
6.0
1001
Sigma
1000

  0
CIRCLE
  5
337
330
1F
100
AcDbEntity
  8
0
  6
Continuous
 62
     7
370
    15
100
AcDbCircle
 10
108.0631959847
 20
137.39794594595
 30
0.0
 40
6.1999
1001
Sigma
1000

  0
CIRCLE
  5
339
330
1F
100
AcDbEntity
  8
0
  6
Continuous
 62
     7
370
    15
100
AcDbCircle
 10
108.0631959847
 20
137.39794594595
 30
0.0
 40
7.2
1001
Sigma
1000

  0
CIRCLE
  5
33B
330
1F
100
AcDbEntity
  8
0
  6
Continuous
 62
     7
370
    15
100
AcDbCircle
 10
108.0631959847
 20
137.39794594595
 30
0.0
 40
8.0
1001
Sigma
1000

  0
CIRCLE
  5
33D
330
1F
100
AcDbEntity
  8
0
  6
Continuous
 62
     7
370
    15
100
AcDbCircle
 10
108.0631959847
 20
137.39794594595
 30
0.0
 40
7.800099999999999
1001
Sigma
1000

  0
CIRCLE
  5
33F
330
1F
100
AcDbEntity
  8
0
  6
Continuous
 62
     7
370
    15
100
AcDbCircle
 10
108.0631959847
 20
137.39794594595
 30
0.0
 40
7.5
1001
Sigma
1000

  0
LINE
  5
342
102
{ACAD_REACTORS
330
341
102
}
330
1F
100
AcDbEntity
  8
0
  6
Continuous
 62
     7
370
    15
100
AcDbLine
 10
100.5631959847
 20
145.11494594595
 30
0.0
 11
100.5631959847
 21
140.39794594595
 31
0.0
1001
Sigma
1000

  0
LINE
  5
345
102
{ACAD_REACTORS
330
344
102
}
330
1F
100
AcDbEntity
  8
0
  6
Continuous
 62
     7
370
    15
100
AcDbLine
 10
115.5631959846999
 20
145.11494594595
 30
0.0
 11
110.7426959847
 21
147.8980459459499
 31
0.0
1001
Sigma
1000

  0
LINE
  5
348
102
{ACAD_REACTORS
330
347
102
}
330
1F
100
AcDbEntity
  8
0
  6
Continuous
 62
     7
370
    15
100
AcDbLine
 10
115.5631959846999
 20
140.39794594595
 30
0.0
 11
115.5631959846999
 21
145.11494594595
 31
0.0
1001
Sigma
1000

  0
LINE
  5
34B
102
{ACAD_REACTORS
330
34A
102
}
330
1F
100
AcDbEntity
  8
0
  6
Continuous
 62
     7
370
    15
100
AcDbLine
 10
100.5631959847
 20
145.11494594595
 30
0.0
 11
105.3837959847
 21
147.8980459459499
 31
0.0
1001
Sigma
1000

  0
LINE
  5
34E
102
{ACAD_REACTORS
330
34D
102
}
330
1F
100
AcDbEntity
  8
0
  6
Continuous
 62
     7
370
    15
100
AcDbLine
 10
110.7426959847
 20
147.8980459459499
 30
0.0
 11
105.3837959847
 21
147.8980459459499
 31
0.0
1001
Sigma
1000

  0
LINE
  5
351
102
{ACAD_REACTORS
330
350
102
}
330
1F
100
AcDbEntity
  8
0
  6
Continuous
 62
     7
370
    15
100
AcDbLine
 10
115.5631959846999
 20
145.11494594595
 30
0.0
 11
115.5631959846999
 21
147.8980459459499
 31
0.0
1001
Sigma
1000

  0
LINE
  5
354
102
{ACAD_REACTORS
330
353
102
}
330
1F
100
AcDbEntity
  8
0
  6
Continuous
 62
     7
370
    15
100
AcDbLine
 10
100.5631959847
 20
145.11494594595
 30
0.0
 11
100.5631959847
 21
147.8980459459499
 31
0.0
1001
Sigma
1000

  0
LINE
  5
357
102
{ACAD_REACTORS
330
356
102
}
330
1F
100
AcDbEntity
  8
0
  6
Continuous
 62
     7
370
    15
100
AcDbLine
 10
100.5631959847
 20
147.8980459459499
 30
0.0
 11
105.3837959847
 21
147.8980459459499
 31
0.0
1001
Sigma
1000

  0
LINE
  5
35A
102
{ACAD_REACTORS
330
359
102
}
330
1F
100
AcDbEntity
  8
0
  6
Continuous
 62
     7
370
    15
100
AcDbLine
 10
110.7426959847
 20
147.8980459459499
 30
0.0
 11
115.5631959846999
 21
147.8980459459499
 31
0.0
1001
Sigma
1000

  0
ARC
  5
35C
330
1F
100
AcDbEntity
  8
0
  6
Continuous
 62
     7
370
    30
100
AcDbCircle
 10
108.0631959847
 20
137.39794594595
 30
0.0
 40
13.4999
100
AcDbArc
 50
0.0001
 51
56.2511
1001
Sigma
1000

  0
ARC
  5
35E
330
1F
100
AcDbEntity
  8
0
  6
Continuous
 62
     7
370
    30
100
AcDbCircle
 10
108.0631959847
 20
137.39794594595
 30
0.0
 40
13.5
100
AcDbArc
 50
123.7489999999999
 51
0.0001000000000392
1001
Sigma
1000

  0
ARC
  5
360
330
1F
100
AcDbEntity
  8
0
  6
Continuous
 62
     7
370
    30
100
AcDbCircle
 10
108.0631959847
 20
137.39794594595
 30
0.0
 40
14.4999
100
AcDbArc
 50
0.0001
 51
58.85270000000002
1001
Sigma
1000

  0
ARC
  5
362
330
1F
100
AcDbEntity
  8
0
  6
Continuous
 62
     7
370
    30
100
AcDbCircle
 10
108.0631959847
 20
137.39794594595
 30
0.0
 40
14.5
100
AcDbArc
 50
121.1473999999999
 51
0.0000999999999883
1001
Sigma
1000

  0
LINE
  5
365
102
{ACAD_REACTORS
330
364
102
}
330
1F
100
AcDbEntity
  8
0
  6
Continuous
 62
     7
370
    15
100
AcDbLine
 10
103.5632959846999
 20
161.6892459459499
 30
0.0
 11
103.5632959846999
 21
165.37454594595
 31
0.0
1001
Sigma
1000

  0
LINE
  5
368
102
{ACAD_REACTORS
330
367
102
}
330
1F
100
AcDbEntity
  8
0
  6
Continuous
 62
     7
370
    15
100
AcDbLine
 10
101.9361959847
 20
163.56804594595
 30
0.0
 11
105.1901959847
 21
163.5679459459499
 31
0.0
1001
Sigma
1000

  0
LINE
  5
36B
102
{ACAD_REACTORS
330
36A
102
}
330
1F
100
AcDbEntity
  8
0
  6
Continuous
 62
     7
370
    15
100
AcDbLine
 10
103.5751959846999
 20
162.71784594595
 30
0.0
 11
104.2126959846999
 21
163.14304594595
 31
0.0
1001
Sigma
1000

  0
LINE
  5
36D
102
{ACAD_REACTORS
330
36A
102
}
330
1F
100
AcDbEntity
  8
0
  6
Continuous
 62
     7
370
    15
100
AcDbLine
 10
102.9376959846999
 20
163.14294594595
 30
0.0
 11
103.5751959846999
 21
162.71784594595
 31
0.0
1001
Sigma
1000

  0
LINE
  5
36F
102
{ACAD_REACTORS
330
36A
102
}
330
1F
100
AcDbEntity
  8
0
  6
Continuous
 62
     7
370
    15
100
AcDbLine
 10
102.9376959846999
 20
163.99304594595
 30
0.0
 11
102.9376959846999
 21
163.14294594595
 31
0.0
1001
Sigma
1000

  0
LINE
  5
371
102
{ACAD_REACTORS
330
36A
102
}
330
1F
100
AcDbEntity
  8
0
  6
Continuous
 62
     7
370
    15
100
AcDbLine
 10
103.5751959846999
 20
164.4181459459499
 30
0.0
 11
102.9376959846999
 21
163.99304594595
 31
0.0
1001
Sigma
1000

  0
LINE
  5
373
102
{ACAD_REACTORS
330
36A
102
}
330
1F
100
AcDbEntity
  8
0
  6
Continuous
 62
     7
370
    15
100
AcDbLine
 10
104.2126959846999
 20
163.99304594595
 30
0.0
 11
103.5751959846999
 21
164.4181459459499
 31
0.0
1001
Sigma
1000

  0
LINE
  5
375
102
{ACAD_REACTORS
330
36A
102
}
330
1F
100
AcDbEntity
  8
0
  6
Continuous
 62
     7
370
    15
100
AcDbLine
 10
104.2126959846999
 20
163.14304594595
 30
0.0
 11
104.2126959846999
 21
163.99304594595
 31
0.0
1001
Sigma
1000

  0
LINE
  5
378
102
{ACAD_REACTORS
330
377
102
}
330
1F
100
AcDbEntity
  8
0
  6
Continuous
 62
     7
370
    15
100
AcDbLine
 10
103.7887959847
 20
165.0450459459499
 30
0.0
 11
103.5632959846999
 21
165.06794594595
 31
0.0
1001
Sigma
1000

  0
LINE
  5
37A
102
{ACAD_REACTORS
330
377
102
}
330
1F
100
AcDbEntity
  8
0
  6
Continuous
 62
     7
370
    15
100
AcDbLine
 10
104.0074959847
 20
164.97744594595
 30
0.0
 11
103.7887959847
 21
165.0450459459499
 31
0.0
1001
Sigma
1000

  0
LINE
  5
37C
102
{ACAD_REACTORS
330
377
102
}
330
1F
100
AcDbEntity
  8
0
  6
Continuous
 62
     7
370
    15
100
AcDbLine
 10
104.2126959846999
 20
164.8669459459499
 30
0.0
 11
104.0074959847
 21
164.97744594595
 31
0.0
1001
Sigma
1000

  0
LINE
  5
37E
102
{ACAD_REACTORS
330
377
102
}
330
1F
100
AcDbEntity
  8
0
  6
Continuous
 62
     7
370
    15
100
AcDbLine
 10
104.3981959846999
 20
164.7170459459499
 30
0.0
 11
104.2126959846999
 21
164.8669459459499
 31
0.0
1001
Sigma
1000

  0
LINE
  5
380
102
{ACAD_REACTORS
330
377
102
}
330
1F
100
AcDbEntity
  8
0
  6
Continuous
 62
     7
370
    15
100
AcDbLine
 10
104.5582959846999
 20
164.5321459459499
 30
0.0
 11
104.3981959846999
 21
164.7170459459499
 31
0.0
1001
Sigma
1000

  0
LINE
  5
382
102
{ACAD_REACTORS
330
377
102
}
330
1F
100
AcDbEntity
  8
0
  6
Continuous
 62
     7
370
    15
100
AcDbLine
 10
104.6880959846999
 20
164.3179459459499
 30
0.0
 11
104.5582959846999
 21
164.5321459459499
 31
0.0
1001
Sigma
1000

  0
LINE
  5
384
102
{ACAD_REACTORS
330
377
102
}
330
1F
100
AcDbEntity
  8
0
  6
Continuous
 62
     7
370
    15
100
AcDbLine
 10
104.7837959847
 20
164.0810459459499
 30
0.0
 11
104.6880959846999
 21
164.3179459459499
 31
0.0
1001
Sigma
1000

  0
LINE
  5
386
102
{ACAD_REACTORS
330
377
102
}
330
1F
100
AcDbEntity
  8
0
  6
Continuous
 62
     7
370
    15
100
AcDbLine
 10
104.8423959846999
 20
163.8285459459499
 30
0.0
 11
104.7837959847
 21
164.0810459459499
 31
0.0
1001
Sigma
1000

  0
LINE
  5
388
102
{ACAD_REACTORS
330
377
102
}
330
1F
100
AcDbEntity
  8
0
  6
Continuous
 62
     7
370
    15
100
AcDbLine
 10
104.8620959846999
 20
163.56804594595
 30
0.0
 11
104.8423959846999
 21
163.8285459459499
 31
0.0
1001
Sigma
1000

  0
LINE
  5
38A
102
{ACAD_REACTORS
330
377
102
}
330
1F
100
AcDbEntity
  8
0
  6
Continuous
 62
     7
370
    15
100
AcDbLine
 10
104.8423959846999
 20
163.30754594595
 30
0.0
 11
104.8620959846999
 21
163.56804594595
 31
0.0
1001
Sigma
1000

  0
LINE
  5
38C
102
{ACAD_REACTORS
330
377
102
}
330
1F
100
AcDbEntity
  8
0
  6
Continuous
 62
     7
370
    15
100
AcDbLine
 10
104.7837959847
 20
163.05504594595
 30
0.0
 11
104.8423959846999
 21
163.30754594595
 31
0.0
1001
Sigma
1000

  0
LINE
  5
38E
102
{ACAD_REACTORS
330
377
102
}
330
1F
100
AcDbEntity
  8
0
  6
Continuous
 62
     7
370
    15
100
AcDbLine
 10
104.6880959846999
 20
162.81804594595
 30
0.0
 11
104.7837959847
 21
163.05504594595
 31
0.0
1001
Sigma
1000

  0
LINE
  5
390
102
{ACAD_REACTORS
330
377
102
}
330
1F
100
AcDbEntity
  8
0
  6
Continuous
 62
     7
370
    15
100
AcDbLine
 10
104.5582959846999
 20
162.60384594595
 30
0.0
 11
104.6880959846999
 21
162.81804594595
 31
0.0
1001
Sigma
1000

  0
LINE
  5
392
102
{ACAD_REACTORS
330
377
102
}
330
1F
100
AcDbEntity
  8
0
  6
Continuous
 62
     7
370
    15
100
AcDbLine
 10
104.3981959846999
 20
162.41904594595
 30
0.0
 11
104.5582959846999
 21
162.60384594595
 31
0.0
1001
Sigma
1000

  0
LINE
  5
394
102
{ACAD_REACTORS
330
377
102
}
330
1F
100
AcDbEntity
  8
0
  6
Continuous
 62
     7
370
    15
100
AcDbLine
 10
104.2126959846999
 20
162.2691459459499
 30
0.0
 11
104.3981959846999
 21
162.41904594595
 31
0.0
1001
Sigma
1000

  0
LINE
  5
396
102
{ACAD_REACTORS
330
377
102
}
330
1F
100
AcDbEntity
  8
0
  6
Continuous
 62
     7
370
    15
100
AcDbLine
 10
104.0074959847
 20
162.15864594595
 30
0.0
 11
104.2126959846999
 21
162.2691459459499
 31
0.0
1001
Sigma
1000

  0
LINE
  5
398
102
{ACAD_REACTORS
330
377
102
}
330
1F
100
AcDbEntity
  8
0
  6
Continuous
 62
     7
370
    15
100
AcDbLine
 10
103.7887959847
 20
162.0908459459499
 30
0.0
 11
104.0074959847
 21
162.15864594595
 31
0.0
1001
Sigma
1000

  0
LINE
  5
39A
102
{ACAD_REACTORS
330
377
102
}
330
1F
100
AcDbEntity
  8
0
  6
Continuous
 62
     7
370
    15
100
AcDbLine
 10
103.5632959846999
 20
162.06814594595
 30
0.0
 11
103.7887959847
 21
162.0908459459499
 31
0.0
1001
Sigma
1000

  0
LINE
  5
39C
102
{ACAD_REACTORS
330
377
102
}
330
1F
100
AcDbEntity
  8
0
  6
Continuous
 62
     7
370
    15
100
AcDbLine
 10
103.3375959847
 20
162.09094594595
 30
0.0
 11
103.5632959846999
 21
162.06814594595
 31
0.0
1001
Sigma
1000

  0
LINE
  5
39E
102
{ACAD_REACTORS
330
377
102
}
330
1F
100
AcDbEntity
  8
0
  6
Continuous
 62
     7
370
    15
100
AcDbLine
 10
103.1189959847
 20
162.15864594595
 30
0.0
 11
103.3375959847
 21
162.09094594595
 31
0.0
1001
Sigma
1000

  0
LINE
  5
3A0
102
{ACAD_REACTORS
330
377
102
}
330
1F
100
AcDbEntity
  8
0
  6
Continuous
 62
     7
370
    15
100
AcDbLine
 10
102.9136959846999
 20
162.2691459459499
 30
0.0
 11
103.1189959847
 21
162.15864594595
 31
0.0
1001
Sigma
1000

  0
LINE
  5
3A2
102
{ACAD_REACTORS
330
377
102
}
330
1F
100
AcDbEntity
  8
0
  6
Continuous
 62
     7
370
    15
100
AcDbLine
 10
102.7282959846999
 20
162.41904594595
 30
0.0
 11
102.9136959846999
 21
162.2691459459499
 31
0.0
1001
Sigma
1000

  0
LINE
  5
3A4
102
{ACAD_REACTORS
330
377
102
}
330
1F
100
AcDbEntity
  8
0
  6
Continuous
 62
     7
370
    15
100
AcDbLine
 10
102.5680959847
 20
162.60394594595
 30
0.0
 11
102.7282959846999
 21
162.41904594595
 31
0.0
1001
Sigma
1000

  0
LINE
  5
3A6
102
{ACAD_REACTORS
330
377
102
}
330
1F
100
AcDbEntity
  8
0
  6
Continuous
 62
     7
370
    15
100
AcDbLine
 10
102.4383959846999
 20
162.81804594595
 30
0.0
 11
102.5680959847
 21
162.60394594595
 31
0.0
1001
Sigma
1000

  0
LINE
  5
3A8
102
{ACAD_REACTORS
330
377
102
}
330
1F
100
AcDbEntity
  8
0
  6
Continuous
 62
     7
370
    15
100
AcDbLine
 10
102.3425959846999
 20
163.05504594595
 30
0.0
 11
102.4383959846999
 21
162.81804594595
 31
0.0
1001
Sigma
1000

  0
LINE
  5
3AA
102
{ACAD_REACTORS
330
377
102
}
330
1F
100
AcDbEntity
  8
0
  6
Continuous
 62
     7
370
    15
100
AcDbLine
 10
102.2840959847
 20
163.30754594595
 30
0.0
 11
102.3425959846999
 21
163.05504594595
 31
0.0
1001
Sigma
1000

  0
LINE
  5
3AC
102
{ACAD_REACTORS
330
377
102
}
330
1F
100
AcDbEntity
  8
0
  6
Continuous
 62
     7
370
    15
100
AcDbLine
 10
102.2642959846999
 20
163.56804594595
 30
0.0
 11
102.2840959847
 21
163.30754594595
 31
0.0
1001
Sigma
1000

  0
LINE
  5
3AE
102
{ACAD_REACTORS
330
377
102
}
330
1F
100
AcDbEntity
  8
0
  6
Continuous
 62
     7
370
    15
100
AcDbLine
 10
102.2840959847
 20
163.8285459459499
 30
0.0
 11
102.2642959846999
 21
163.56804594595
 31
0.0
1001
Sigma
1000

  0
LINE
  5
3B0
102
{ACAD_REACTORS
330
377
102
}
330
1F
100
AcDbEntity
  8
0
  6
Continuous
 62
     7
370
    15
100
AcDbLine
 10
102.3425959846999
 20
164.0810459459499
 30
0.0
 11
102.2840959847
 21
163.8285459459499
 31
0.0
1001
Sigma
1000

  0
LINE
  5
3B2
102
{ACAD_REACTORS
330
377
102
}
330
1F
100
AcDbEntity
  8
0
  6
Continuous
 62
     7
370
    15
100
AcDbLine
 10
102.4383959846999
 20
164.3179459459499
 30
0.0
 11
102.3425959846999
 21
164.0810459459499
 31
0.0
1001
Sigma
1000

  0
LINE
  5
3B4
102
{ACAD_REACTORS
330
377
102
}
330
1F
100
AcDbEntity
  8
0
  6
Continuous
 62
     7
370
    15
100
AcDbLine
 10
102.5680959847
 20
164.5321459459499
 30
0.0
 11
102.4383959846999
 21
164.3179459459499
 31
0.0
1001
Sigma
1000

  0
LINE
  5
3B6
102
{ACAD_REACTORS
330
377
102
}
330
1F
100
AcDbEntity
  8
0
  6
Continuous
 62
     7
370
    15
100
AcDbLine
 10
102.7282959846999
 20
164.7170459459499
 30
0.0
 11
102.5680959847
 21
164.5321459459499
 31
0.0
1001
Sigma
1000

  0
LINE
  5
3B8
102
{ACAD_REACTORS
330
377
102
}
330
1F
100
AcDbEntity
  8
0
  6
Continuous
 62
     7
370
    15
100
AcDbLine
 10
102.9136959846999
 20
164.8669459459499
 30
0.0
 11
102.7282959846999
 21
164.7170459459499
 31
0.0
1001
Sigma
1000

  0
LINE
  5
3BA
102
{ACAD_REACTORS
330
377
102
}
330
1F
100
AcDbEntity
  8
0
  6
Continuous
 62
     7
370
    15
100
AcDbLine
 10
103.1189959847
 20
164.97744594595
 30
0.0
 11
102.9136959846999
 21
164.8669459459499
 31
0.0
1001
Sigma
1000

  0
LINE
  5
3BC
102
{ACAD_REACTORS
330
377
102
}
330
1F
100
AcDbEntity
  8
0
  6
Continuous
 62
     7
370
    15
100
AcDbLine
 10
103.3375959847
 20
165.04514594595
 30
0.0
 11
103.1189959847
 21
164.97744594595
 31
0.0
1001
Sigma
1000

  0
LINE
  5
3BE
102
{ACAD_REACTORS
330
377
102
}
330
1F
100
AcDbEntity
  8
0
  6
Continuous
 62
     7
370
    15
100
AcDbLine
 10
103.5632959846999
 20
165.06794594595
 30
0.0
 11
103.3375959847
 21
165.04514594595
 31
0.0
1001
Sigma
1000

  0
LINE
  5
3C1
102
{ACAD_REACTORS
330
3C0
102
}
330
1F
100
AcDbEntity
  8
0
  6
Continuous
 62
     7
370
    15
100
AcDbLine
 10
103.7285959846999
 20
164.65134594595
 30
0.0
 11
103.5632959846999
 21
164.66804594595
 31
0.0
1001
Sigma
1000

  0
LINE
  5
3C3
102
{ACAD_REACTORS
330
3C0
102
}
330
1F
100
AcDbEntity
  8
0
  6
Continuous
 62
     7
370
    15
100
AcDbLine
 10
103.8889959847
 20
164.6016459459499
 30
0.0
 11
103.7285959846999
 21
164.65134594595
 31
0.0
1001
Sigma
1000

  0
LINE
  5
3C5
102
{ACAD_REACTORS
330
3C0
102
}
330
1F
100
AcDbEntity
  8
0
  6
Continuous
 62
     7
370
    15
100
AcDbLine
 10
104.0393959847
 20
164.52064594595
 30
0.0
 11
103.8889959847
 21
164.6016459459499
 31
0.0
1001
Sigma
1000

  0
LINE
  5
3C7
102
{ACAD_REACTORS
330
3C0
102
}
330
1F
100
AcDbEntity
  8
0
  6
Continuous
 62
     7
370
    15
100
AcDbLine
 10
104.1754959847
 20
164.41064594595
 30
0.0
 11
104.0393959847
 21
164.52064594595
 31
0.0
1001
Sigma
1000

  0
LINE
  5
3C9
102
{ACAD_REACTORS
330
3C0
102
}
330
1F
100
AcDbEntity
  8
0
  6
Continuous
 62
     7
370
    15
100
AcDbLine
 10
104.2929959847
 20
164.2751459459499
 30
0.0
 11
104.1754959847
 21
164.41064594595
 31
0.0
1001
Sigma
1000

  0
LINE
  5
3CB
102
{ACAD_REACTORS
330
3C0
102
}
330
1F
100
AcDbEntity
  8
0
  6
Continuous
 62
     7
370
    15
100
AcDbLine
 10
104.3881959847
 20
164.1179459459499
 30
0.0
 11
104.2929959847
 21
164.2751459459499
 31
0.0
1001
Sigma
1000

  0
LINE
  5
3CD
102
{ACAD_REACTORS
330
3C0
102
}
330
1F
100
AcDbEntity
  8
0
  6
Continuous
 62
     7
370
    15
100
AcDbLine
 10
104.4583959847
 20
163.94424594595
 30
0.0
 11
104.3881959847
 21
164.1179459459499
 31
0.0
1001
Sigma
1000

  0
LINE
  5
3CF
102
{ACAD_REACTORS
330
3C0
102
}
330
1F
100
AcDbEntity
  8
0
  6
Continuous
 62
     7
370
    15
100
AcDbLine
 10
104.5012959846999
 20
163.7590459459499
 30
0.0
 11
104.4583959847
 21
163.94424594595
 31
0.0
1001
Sigma
1000

  0
LINE
  5
3D1
102
{ACAD_REACTORS
330
3C0
102
}
330
1F
100
AcDbEntity
  8
0
  6
Continuous
 62
     7
370
    15
100
AcDbLine
 10
104.5158959846999
 20
163.56804594595
 30
0.0
 11
104.5012959846999
 21
163.7590459459499
 31
0.0
1001
Sigma
1000

  0
LINE
  5
3D3
102
{ACAD_REACTORS
330
3C0
102
}
330
1F
100
AcDbEntity
  8
0
  6
Continuous
 62
     7
370
    15
100
AcDbLine
 10
104.5012959846999
 20
163.3770459459499
 30
0.0
 11
104.5158959846999
 21
163.56804594595
 31
0.0
1001
Sigma
1000

  0
LINE
  5
3D5
102
{ACAD_REACTORS
330
3C0
102
}
330
1F
100
AcDbEntity
  8
0
  6
Continuous
 62
     7
370
    15
100
AcDbLine
 10
104.4583959847
 20
163.19174594595
 30
0.0
 11
104.5012959846999
 21
163.3770459459499
 31
0.0
1001
Sigma
1000

  0
LINE
  5
3D7
102
{ACAD_REACTORS
330
3C0
102
}
330
1F
100
AcDbEntity
  8
0
  6
Continuous
 62
     7
370
    15
100
AcDbLine
 10
104.3881959847
 20
163.01804594595
 30
0.0
 11
104.4583959847
 21
163.19174594595
 31
0.0
1001
Sigma
1000

  0
LINE
  5
3D9
102
{ACAD_REACTORS
330
3C0
102
}
330
1F
100
AcDbEntity
  8
0
  6
Continuous
 62
     7
370
    15
100
AcDbLine
 10
104.2929959847
 20
162.8609459459499
 30
0.0
 11
104.3881959847
 21
163.01804594595
 31
0.0
1001
Sigma
1000

  0
LINE
  5
3DB
102
{ACAD_REACTORS
330
3C0
102
}
330
1F
100
AcDbEntity
  8
0
  6
Continuous
 62
     7
370
    15
100
AcDbLine
 10
104.1754959847
 20
162.72524594595
 30
0.0
 11
104.2929959847
 21
162.8609459459499
 31
0.0
1001
Sigma
1000

  0
LINE
  5
3DD
102
{ACAD_REACTORS
330
3C0
102
}
330
1F
100
AcDbEntity
  8
0
  6
Continuous
 62
     7
370
    15
100
AcDbLine
 10
104.0393959847
 20
162.61534594595
 30
0.0
 11
104.1754959847
 21
162.72524594595
 31
0.0
1001
Sigma
1000

  0
LINE
  5
3DF
102
{ACAD_REACTORS
330
3C0
102
}
330
1F
100
AcDbEntity
  8
0
  6
Continuous
 62
     7
370
    15
100
AcDbLine
 10
103.8889959847
 20
162.53434594595
 30
0.0
 11
104.0393959847
 21
162.61534594595
 31
0.0
1001
Sigma
1000

  0
LINE
  5
3E1
102
{ACAD_REACTORS
330
3C0
102
}
330
1F
100
AcDbEntity
  8
0
  6
Continuous
 62
     7
370
    15
100
AcDbLine
 10
103.7285959846999
 20
162.48474594595
 30
0.0
 11
103.8889959847
 21
162.53434594595
 31
0.0
1001
Sigma
1000

  0
LINE
  5
3E3
102
{ACAD_REACTORS
330
3C0
102
}
330
1F
100
AcDbEntity
  8
0
  6
Continuous
 62
     7
370
    15
100
AcDbLine
 10
103.5632959846999
 20
162.4680459459499
 30
0.0
 11
103.7285959846999
 21
162.48474594595
 31
0.0
1001
Sigma
1000

  0
LINE
  5
3E5
102
{ACAD_REACTORS
330
3C0
102
}
330
1F
100
AcDbEntity
  8
0
  6
Continuous
 62
     7
370
    15
100
AcDbLine
 10
103.3977959847
 20
162.48474594595
 30
0.0
 11
103.5632959846999
 21
162.4680459459499
 31
0.0
1001
Sigma
1000

  0
LINE
  5
3E7
102
{ACAD_REACTORS
330
3C0
102
}
330
1F
100
AcDbEntity
  8
0
  6
Continuous
 62
     7
370
    15
100
AcDbLine
 10
103.2373959847
 20
162.53434594595
 30
0.0
 11
103.3977959847
 21
162.48474594595
 31
0.0
1001
Sigma
1000

  0
LINE
  5
3E9
102
{ACAD_REACTORS
330
3C0
102
}
330
1F
100
AcDbEntity
  8
0
  6
Continuous
 62
     7
370
    15
100
AcDbLine
 10
103.0868959846999
 20
162.61534594595
 30
0.0
 11
103.2373959847
 21
162.53434594595
 31
0.0
1001
Sigma
1000

  0
LINE
  5
3EB
102
{ACAD_REACTORS
330
3C0
102
}
330
1F
100
AcDbEntity
  8
0
  6
Continuous
 62
     7
370
    15
100
AcDbLine
 10
102.9508959846999
 20
162.72534594595
 30
0.0
 11
103.0868959846999
 21
162.61534594595
 31
0.0
1001
Sigma
1000

  0
LINE
  5
3ED
102
{ACAD_REACTORS
330
3C0
102
}
330
1F
100
AcDbEntity
  8
0
  6
Continuous
 62
     7
370
    15
100
AcDbLine
 10
102.8334959846999
 20
162.8609459459499
 30
0.0
 11
102.9508959846999
 21
162.72534594595
 31
0.0
1001
Sigma
1000

  0
LINE
  5
3EF
102
{ACAD_REACTORS
330
3C0
102
}
330
1F
100
AcDbEntity
  8
0
  6
Continuous
 62
     7
370
    15
100
AcDbLine
 10
102.7381959846999
 20
163.01804594595
 30
0.0
 11
102.8334959846999
 21
162.8609459459499
 31
0.0
1001
Sigma
1000

  0
LINE
  5
3F1
102
{ACAD_REACTORS
330
3C0
102
}
330
1F
100
AcDbEntity
  8
0
  6
Continuous
 62
     7
370
    15
100
AcDbLine
 10
102.6679959847
 20
163.19174594595
 30
0.0
 11
102.7381959846999
 21
163.01804594595
 31
0.0
1001
Sigma
1000

  0
LINE
  5
3F3
102
{ACAD_REACTORS
330
3C0
102
}
330
1F
100
AcDbEntity
  8
0
  6
Continuous
 62
     7
370
    15
100
AcDbLine
 10
102.6250959846999
 20
163.3770459459499
 30
0.0
 11
102.6679959847
 21
163.19174594595
 31
0.0
1001
Sigma
1000

  0
LINE
  5
3F5
102
{ACAD_REACTORS
330
3C0
102
}
330
1F
100
AcDbEntity
  8
0
  6
Continuous
 62
     7
370
    15
100
AcDbLine
 10
102.6106959847
 20
163.56804594595
 30
0.0
 11
102.6250959846999
 21
163.3770459459499
 31
0.0
1001
Sigma
1000

  0
LINE
  5
3F7
102
{ACAD_REACTORS
330
3C0
102
}
330
1F
100
AcDbEntity
  8
0
  6
Continuous
 62
     7
370
    15
100
AcDbLine
 10
102.6250959846999
 20
163.7590459459499
 30
0.0
 11
102.6106959847
 21
163.56804594595
 31
0.0
1001
Sigma
1000

  0
LINE
  5
3F9
102
{ACAD_REACTORS
330
3C0
102
}
330
1F
100
AcDbEntity
  8
0
  6
Continuous
 62
     7
370
    15
100
AcDbLine
 10
102.6679959847
 20
163.9441459459499
 30
0.0
 11
102.6250959846999
 21
163.7590459459499
 31
0.0
1001
Sigma
1000

  0
LINE
  5
3FB
102
{ACAD_REACTORS
330
3C0
102
}
330
1F
100
AcDbEntity
  8
0
  6
Continuous
 62
     7
370
    15
100
AcDbLine
 10
102.7381959846999
 20
164.11804594595
 30
0.0
 11
102.6679959847
 21
163.9441459459499
 31
0.0
1001
Sigma
1000

  0
LINE
  5
3FD
102
{ACAD_REACTORS
330
3C0
102
}
330
1F
100
AcDbEntity
  8
0
  6
Continuous
 62
     7
370
    15
100
AcDbLine
 10
102.8334959846999
 20
164.27504594595
 30
0.0
 11
102.7381959846999
 21
164.11804594595
 31
0.0
1001
Sigma
1000

  0
LINE
  5
3FF
102
{ACAD_REACTORS
330
3C0
102
}
330
1F
100
AcDbEntity
  8
0
  6
Continuous
 62
     7
370
    15
100
AcDbLine
 10
102.9508959846999
 20
164.41064594595
 30
0.0
 11
102.8334959846999
 21
164.27504594595
 31
0.0
1001
Sigma
1000

  0
LINE
  5
401
102
{ACAD_REACTORS
330
3C0
102
}
330
1F
100
AcDbEntity
  8
0
  6
Continuous
 62
     7
370
    15
100
AcDbLine
 10
103.0868959846999
 20
164.52064594595
 30
0.0
 11
102.9508959846999
 21
164.41064594595
 31
0.0
1001
Sigma
1000

  0
LINE
  5
403
102
{ACAD_REACTORS
330
3C0
102
}
330
1F
100
AcDbEntity
  8
0
  6
Continuous
 62
     7
370
    15
100
AcDbLine
 10
103.2373959847
 20
164.60174594595
 30
0.0
 11
103.0868959846999
 21
164.52064594595
 31
0.0
1001
Sigma
1000

  0
LINE
  5
405
102
{ACAD_REACTORS
330
3C0
102
}
330
1F
100
AcDbEntity
  8
0
  6
Continuous
 62
     7
370
    15
100
AcDbLine
 10
103.3977959847
 20
164.65124594595
 30
0.0
 11
103.2373959847
 21
164.60174594595
 31
0.0
1001
Sigma
1000

  0
LINE
  5
407
102
{ACAD_REACTORS
330
3C0
102
}
330
1F
100
AcDbEntity
  8
0
  6
Continuous
 62
     7
370
    15
100
AcDbLine
 10
103.5632959846999
 20
164.66804594595
 30
0.0
 11
103.3977959847
 21
164.65124594595
 31
0.0
1001
Sigma
1000

  0
LINE
  5
40A
102
{ACAD_REACTORS
330
409
102
}
330
1F
100
AcDbEntity
  8
0
  6
Continuous
 62
     7
370
    15
100
AcDbLine
 10
310.4010959847
 20
122.89794594595
 30
0.0
 11
343.4270959846999
 21
122.89794594595
 31
0.0
1001
Sigma
1000

  0
LINE
  5
40D
102
{ACAD_REACTORS
330
40C
102
}
330
1F
100
AcDbEntity
  8
0
  6
Continuous
 62
     7
370
    15
100
AcDbLine
 10
310.4010959847
 20
151.8980459459499
 30
0.0
 11
343.4270959846999
 21
151.8980459459499
 31
0.0
1001
Sigma
1000

  0
LINE
  5
410
102
{ACAD_REACTORS
330
40F
102
}
330
1F
100
AcDbEntity
  8
0
  6
Continuous
 62
     7
370
    15
100
AcDbLine
 10
117.0629959847
 20
167.0680459459499
 30
0.0
 11
117.0629959847
 21
221.3979459459499
 31
0.0
1001
Sigma
1000

  0
LINE
  5
413
102
{ACAD_REACTORS
330
412
102
}
330
1F
100
AcDbEntity
  8
0
  6
Continuous
 62
     7
370
    15
100
AcDbLine
 10
232.8031959847
 20
129.39804594595
 30
0.0
 11
217.6031959847
 21
129.39804594595
 31
0.0
1001
Sigma
1000

  0
LINE
  5
416
102
{ACAD_REACTORS
330
415
102
}
330
1F
100
AcDbEntity
  8
0
  6
Continuous
 62
     7
370
    15
100
AcDbLine
 10
232.8031959847
 20
145.3979459459499
 30
0.0
 11
217.6031959847
 21
145.3979459459499
 31
0.0
1001
Sigma
1000

  0
LINE
  5
419
102
{ACAD_REACTORS
330
418
102
}
330
1F
100
AcDbEntity
  8
0
  6
Continuous
 62
     7
370
    15
100
AcDbLine
 10
218.6031959846999
 20
129.39804594595
 30
0.0
 11
218.6031959846999
 21
145.3979459459499
 31
0.0
1001
Sigma
1000

  0
LINE
  5
41C
102
{ACAD_REACTORS
330
41B
102
}
330
1F
100
AcDbEntity
  8
0
  6
Continuous
 62
     7
370
    15
100
AcDbLine
 10
218.6031959846999
 20
121.39804594595
 30
0.0
 11
218.6031959846999
 21
129.39804594595
 31
0.0
1001
Sigma
1000

  0
LINE
  5
41F
102
{ACAD_REACTORS
330
41E
102
}
330
1F
100
AcDbEntity
  8
0
  6
Continuous
 62
     7
370
    15
100
AcDbLine
 10
218.6031959846999
 20
129.39804594595
 30
0.0
 11
219.4031959846999
 21
125.3979459459499
 31
0.0
1001
Sigma
1000

  0
LINE
  5
421
102
{ACAD_REACTORS
330
41E
102
}
330
1F
100
AcDbEntity
  8
0
  6
Continuous
 62
     7
370
    15
100
AcDbLine
 10
217.8031959847
 20
125.3979459459499
 30
0.0
 11
218.6031959846999
 21
129.39804594595
 31
0.0
1001
Sigma
1000

  0
LINE
  5
424
102
{ACAD_REACTORS
330
423
102
}
330
1F
100
AcDbEntity
  8
0
  6
Continuous
 62
     7
370
    15
100
AcDbLine
 10
218.6031959846999
 20
163.2161459459499
 30
0.0
 11
218.6031959846999
 21
145.3979459459499
 31
0.0
1001
Sigma
1000

  0
LINE
  5
427
102
{ACAD_REACTORS
330
426
102
}
330
1F
100
AcDbEntity
  8
0
  6
Continuous
 62
     7
370
    15
100
AcDbLine
 10
218.6031959846999
 20
145.3979459459499
 30
0.0
 11
217.8031959847
 21
149.3979459459499
 31
0.0
1001
Sigma
1000

  0
LINE
  5
429
102
{ACAD_REACTORS
330
426
102
}
330
1F
100
AcDbEntity
  8
0
  6
Continuous
 62
     7
370
    15
100
AcDbLine
 10
219.4031959846999
 20
149.3979459459499
 30
0.0
 11
218.6031959846999
 21
145.3979459459499
 31
0.0
1001
Sigma
1000

  0
TEXT
  5
42B
330
1F
100
AcDbEntity
  8
0
  6
Continuous
 62
     7
370
    15
100
AcDbText
 10
217.2698959710523
 20
153.3979459532267
 30
0.0
 40
4.000000074005126
  1
16.0
 50
90.0
 41
0.9818199347998543
  7
KCADTEXTSTANDARD
100
AcDbText
1001
Sigma
1000

  0
LINE
  5
42E
102
{ACAD_REACTORS
330
42D
102
}
330
1F
100
AcDbEntity
  8
0
  6
Continuous
 62
     7
370
    15
100
AcDbLine
 10
327.4270959846999
 20
136.3980459459499
 30
0.0
 11
327.4270959846999
 21
92.897945945946
 31
0.0
1001
Sigma
1000

  0
LINE
  5
431
102
{ACAD_REACTORS
330
430
102
}
330
1F
100
AcDbEntity
  8
0
  6
Continuous
 62
     7
370
    15
100
AcDbLine
 10
197.5890959846999
 20
136.39794594595
 30
0.0
 11
197.5890959846999
 21
92.897945945946
 31
0.0
1001
Sigma
1000

  0
LINE
  5
434
102
{ACAD_REACTORS
330
433
102
}
330
1F
100
AcDbEntity
  8
0
  6
Continuous
 62
     7
370
    15
100
AcDbLine
 10
247.1080959846999
 20
93.897945945946
 30
0.0
 11
197.5890959846999
 21
93.897945945946
 31
0.0
1001
Sigma
1000

  0
LINE
  5
437
102
{ACAD_REACTORS
330
436
102
}
330
1F
100
AcDbEntity
  8
0
  6
Continuous
 62
     7
370
    15
100
AcDbLine
 10
197.5890959846999
 20
93.897945945946
 30
0.0
 11
201.5890959847
 21
94.697945945946
 31
0.0
1001
Sigma
1000

  0
LINE
  5
439
102
{ACAD_REACTORS
330
436
102
}
330
1F
100
AcDbEntity
  8
0
  6
Continuous
 62
     7
370
    15
100
AcDbLine
 10
201.5890959847
 20
93.097945945946
 30
0.0
 11
197.5890959846999
 21
93.897945945946
 31
0.0
1001
Sigma
1000

  0
LINE
  5
43C
102
{ACAD_REACTORS
330
43B
102
}
330
1F
100
AcDbEntity
  8
0
  6
Continuous
 62
     7
370
    15
100
AcDbLine
 10
247.1080959846999
 20
93.897945945946
 30
0.0
 11
327.4270959846999
 21
93.897945945946
 31
0.0
1001
Sigma
1000

  0
LINE
  5
43F
102
{ACAD_REACTORS
330
43E
102
}
330
1F
100
AcDbEntity
  8
0
  6
Continuous
 62
     7
370
    15
100
AcDbLine
 10
327.4270959846999
 20
93.897945945946
 30
0.0
 11
323.4270959846999
 21
93.097945945946
 31
0.0
1001
Sigma
1000

  0
LINE
  5
441
102
{ACAD_REACTORS
330
43E
102
}
330
1F
100
AcDbEntity
  8
0
  6
Continuous
 62
     7
370
    15
100
AcDbLine
 10
323.4270959846999
 20
94.697945945946
 30
0.0
 11
327.4270959846999
 21
93.897945945946
 31
0.0
1001
Sigma
1000

  0
LINE
  5
444
102
{ACAD_REACTORS
330
443
102
}
330
1F
100
AcDbEntity
  8
0
  6
Continuous
 62
     7
370
    15
100
AcDbLine
 10
197.5890959846999
 20
136.39794594595
 30
0.0
 11
197.5890959846999
 21
99.897945945946
 31
0.0
1001
Sigma
1000

  0
LINE
  5
447
102
{ACAD_REACTORS
330
446
102
}
330
1F
100
AcDbEntity
  8
0
  6
Continuous
 62
     7
370
    15
100
AcDbLine
 10
215.5960959846999
 20
100.89794594595
 30
0.0
 11
197.5890959846999
 21
100.89794594595
 31
0.0
1001
Sigma
1000

  0
LINE
  5
44A
102
{ACAD_REACTORS
330
449
102
}
330
1F
100
AcDbEntity
  8
0
  6
Continuous
 62
     7
370
    15
100
AcDbLine
 10
197.5890959846999
 20
100.89794594595
 30
0.0
 11
201.5890959847
 21
101.69794594595
 31
0.0
1001
Sigma
1000

  0
LINE
  5
44C
102
{ACAD_REACTORS
330
449
102
}
330
1F
100
AcDbEntity
  8
0
  6
Continuous
 62
     7
370
    15
100
AcDbLine
 10
201.5890959847
 20
100.09794594595
 30
0.0
 11
197.5890959846999
 21
100.89794594595
 31
0.0
1001
Sigma
1000

  0
LINE
  5
44F
102
{ACAD_REACTORS
330
44E
102
}
330
1F
100
AcDbEntity
  8
0
  6
Continuous
 62
     7
370
    15
100
AcDbLine
 10
215.5960959846999
 20
100.89794594595
 30
0.0
 11
233.6031959846999
 21
100.89794594595
 31
0.0
1001
Sigma
1000

  0
LINE
  5
452
102
{ACAD_REACTORS
330
451
102
}
330
1F
100
AcDbEntity
  8
0
  6
Continuous
 62
     7
370
    15
100
AcDbLine
 10
233.6031959846999
 20
100.89794594595
 30
0.0
 11
229.6031959846999
 21
100.09794594595
 31
0.0
1001
Sigma
1000

  0
LINE
  5
454
102
{ACAD_REACTORS
330
451
102
}
330
1F
100
AcDbEntity
  8
0
  6
Continuous
 62
     7
370
    15
100
AcDbLine
 10
229.6031959846999
 20
101.69794594595
 30
0.0
 11
233.6031959846999
 21
100.89794594595
 31
0.0
1001
Sigma
1000

  0
TEXT
  5
456
330
1F
100
AcDbEntity
  8
0
  6
Continuous
 62
     7
370
    15
100
AcDbText
 10
203.0805959919767
 20
102.3466459595976
 30
0.0
 40
4.000000074005126
  1
W.D.=75.0
 41
0.9046572328296667
  7
KCADTEXTSTANDARD
100
AcDbText
1001
Sigma
1000

  0
LINE
  5
459
102
{ACAD_REACTORS
330
458
102
}
330
1F
100
AcDbEntity
  8
0
  6
Continuous
 62
     7
370
    15
100
AcDbLine
 10
233.6031959846999
 20
146.19804594595
 30
0.0
 11
233.6031959846999
 21
214.8978459459499
 31
0.0
1001
Sigma
1000

  0
LINE
  5
45C
102
{ACAD_REACTORS
330
45B
102
}
330
1F
100
AcDbEntity
  8
0
  6
Continuous
 62
     7
370
    15
100
AcDbLine
 10
263.8631959846999
 20
199.8978459459499
 30
0.0
 11
263.8631959846999
 21
214.8978459459499
 31
0.0
1001
Sigma
1000

  0
LINE
  5
45F
102
{ACAD_REACTORS
330
45E
102
}
330
1F
100
AcDbEntity
  8
0
  6
Continuous
 62
     7
370
    15
100
AcDbLine
 10
248.7331959846999
 20
213.89784594595
 30
0.0
 11
263.8631959846999
 21
213.89784594595
 31
0.0
1001
Sigma
1000

  0
LINE
  5
462
102
{ACAD_REACTORS
330
461
102
}
330
1F
100
AcDbEntity
  8
0
  6
Continuous
 62
     7
370
    15
100
AcDbLine
 10
263.8631959846999
 20
213.89784594595
 30
0.0
 11
259.8631959846999
 21
213.09784594595
 31
0.0
1001
Sigma
1000

  0
LINE
  5
464
102
{ACAD_REACTORS
330
461
102
}
330
1F
100
AcDbEntity
  8
0
  6
Continuous
 62
     7
370
    15
100
AcDbLine
 10
259.8631959846999
 20
214.69784594595
 30
0.0
 11
263.8631959846999
 21
213.89784594595
 31
0.0
1001
Sigma
1000

  0
LINE
  5
467
102
{ACAD_REACTORS
330
466
102
}
330
1F
100
AcDbEntity
  8
0
  6
Continuous
 62
     7
370
    15
100
AcDbLine
 10
248.7331959846999
 20
213.89784594595
 30
0.0
 11
233.6031959846999
 21
213.89784594595
 31
0.0
1001
Sigma
1000

  0
LINE
  5
46A
102
{ACAD_REACTORS
330
469
102
}
330
1F
100
AcDbEntity
  8
0
  6
Continuous
 62
     7
370
    15
100
AcDbLine
 10
233.6031959846999
 20
213.89784594595
 30
0.0
 11
237.6031959846999
 21
214.69784594595
 31
0.0
1001
Sigma
1000

  0
LINE
  5
46C
102
{ACAD_REACTORS
330
469
102
}
330
1F
100
AcDbEntity
  8
0
  6
Continuous
 62
     7
370
    15
100
AcDbLine
 10
237.6031959846999
 20
213.09784594595
 30
0.0
 11
233.6031959846999
 21
213.89784594595
 31
0.0
1001
Sigma
1000

  0
TEXT
  5
46E
330
1F
100
AcDbEntity
  8
0
  6
Continuous
 62
     7
370
    15
100
AcDbText
 10
242.8163959919767
 20
215.2312459595977
 30
0.0
 40
4.000000074005126
  1
30.3
 41
0.9625676249080644
  7
KCADTEXTSTANDARD
100
AcDbText
1001
Sigma
1000

  0
CIRCLE
  5
470
330
1F
100
AcDbEntity
  8
0
  6
Continuous
 62
     7
370
    15
100
AcDbCircle
 10
215.4625959846999
 20
151.36924594595
 30
0.0
 40
1.6
1001
Sigma
1000

  0
LINE
  5
473
102
{ACAD_REACTORS
330
472
102
}
330
1F
100
AcDbEntity
  8
0
  6
Continuous
 62
     7
370
    15
100
AcDbLine
 10
213.4826959846999
 20
153.3491459459499
 30
0.0
 11
217.4424959847
 21
149.3893459459499
 31
0.0
1001
Sigma
1000

  0
LINE
  5
476
102
{ACAD_REACTORS
330
475
102
}
330
1F
100
AcDbEntity
  8
0
  6
Continuous
 62
     7
370
    15
100
AcDbLine
 10
99.563195984704
 20
147.8980459459499
 30
0.0
 11
75.459095984704
 21
147.8980459459499
 31
0.0
1001
Sigma
1000

  0
LINE
  5
479
102
{ACAD_REACTORS
330
478
102
}
330
1F
100
AcDbEntity
  8
0
  6
Continuous
 62
     7
370
    15
100
AcDbLine
 10
76.458995984704
 20
147.8980459459499
 30
0.0
 11
76.458995984704
 21
137.39794594595
 31
0.0
1001
Sigma
1000

  0
LINE
  5
47C
102
{ACAD_REACTORS
330
47B
102
}
330
1F
100
AcDbEntity
  8
0
  6
Continuous
 62
     7
370
    15
100
AcDbLine
 10
76.458995984704
 20
119.76164594595
 30
0.0
 11
76.458995984704
 21
137.39794594595
 31
0.0
1001
Sigma
1000

  0
LINE
  5
47F
102
{ACAD_REACTORS
330
47E
102
}
330
1F
100
AcDbEntity
  8
0
  6
Continuous
 62
     7
370
    15
100
AcDbLine
 10
76.458995984704
 20
137.39794594595
 30
0.0
 11
77.258995984704
 21
133.3980459459499
 31
0.0
1001
Sigma
1000

  0
LINE
  5
481
102
{ACAD_REACTORS
330
47E
102
}
330
1F
100
AcDbEntity
  8
0
  6
Continuous
 62
     7
370
    15
100
AcDbLine
 10
75.659095984704
 20
133.3980459459499
 30
0.0
 11
76.458995984704
 21
137.39794594595
 31
0.0
1001
Sigma
1000

  0
TEXT
  5
483
330
1F
100
AcDbEntity
  8
0
  6
Continuous
 62
     7
370
    15
100
AcDbText
 10
75.12569597106032
 20
119.7616459532267
 30
0.0
 40
4.000000074005126
  1
10.5
 50
90.0
 41
0.963639946275122
  7
KCADTEXTSTANDARD
100
AcDbText
1001
Sigma
1000

  0
LINE
  5
486
102
{ACAD_REACTORS
330
485
102
}
330
1F
100
AcDbEntity
  8
0
  6
Continuous
 62
     7
370
    15
100
AcDbLine
 10
90.063195984704
 20
137.39794594595
 30
0.0
 11
68.459095984704
 21
137.39794594595
 31
0.0
1001
Sigma
1000

  0
LINE
  5
489
102
{ACAD_REACTORS
330
488
102
}
330
1F
100
AcDbEntity
  8
0
  6
Continuous
 62
     7
370
    15
100
AcDbLine
 10
98.063295984704
 20
166.5679459459499
 30
0.0
 11
68.459095984704
 21
166.5680459459499
 31
0.0
1001
Sigma
1000

  0
LINE
  5
48C
102
{ACAD_REACTORS
330
48B
102
}
330
1F
100
AcDbEntity
  8
0
  6
Continuous
 62
     7
370
    15
100
AcDbLine
 10
69.459095984704
 20
151.98304594595
 30
0.0
 11
69.459095984704
 21
166.5680459459499
 31
0.0
1001
Sigma
1000

  0
LINE
  5
48F
102
{ACAD_REACTORS
330
48E
102
}
330
1F
100
AcDbEntity
  8
0
  6
Continuous
 62
     7
370
    15
100
AcDbLine
 10
69.459095984704
 20
166.5680459459499
 30
0.0
 11
70.259095984704
 21
162.5680459459499
 31
0.0
1001
Sigma
1000

  0
LINE
  5
491
102
{ACAD_REACTORS
330
48E
102
}
330
1F
100
AcDbEntity
  8
0
  6
Continuous
 62
     7
370
    15
100
AcDbLine
 10
68.659095984704
 20
162.5680459459499
 30
0.0
 11
69.459095984704
 21
166.5680459459499
 31
0.0
1001
Sigma
1000

  0
LINE
  5
494
102
{ACAD_REACTORS
330
493
102
}
330
1F
100
AcDbEntity
  8
0
  6
Continuous
 62
     7
370
    15
100
AcDbLine
 10
69.459095984704
 20
151.98304594595
 30
0.0
 11
69.459095984704
 21
137.39794594595
 31
0.0
1001
Sigma
1000

  0
LINE
  5
497
102
{ACAD_REACTORS
330
496
102
}
330
1F
100
AcDbEntity
  8
0
  6
Continuous
 62
     7
370
    15
100
AcDbLine
 10
69.459095984704
 20
137.39794594595
 30
0.0
 11
68.659095984704
 21
141.39794594595
 31
0.0
1001
Sigma
1000

  0
LINE
  5
499
102
{ACAD_REACTORS
330
496
102
}
330
1F
100
AcDbEntity
  8
0
  6
Continuous
 62
     7
370
    15
100
AcDbLine
 10
70.259095984704
 20
141.39794594595
 30
0.0
 11
69.459095984704
 21
137.39794594595
 31
0.0
1001
Sigma
1000

  0
TEXT
  5
49B
330
1F
100
AcDbEntity
  8
0
  6
Continuous
 62
     7
370
    15
100
AcDbText
 10
68.12569597106032
 20
146.6194459532267
 30
0.0
 40
4.000000074005126
  1
29.2
 50
90.0
 41
0.8939333106591151
  7
KCADTEXTSTANDARD
100
AcDbText
1001
Sigma
1000

  0
LINE
  5
49E
102
{ACAD_REACTORS
330
49D
102
}
330
1F
100
AcDbEntity
  8
0
  6
Continuous
 62
     7
370
    15
100
AcDbLine
 10
230.8664959846999
 20
193.6373459459499
 30
0.0
 11
175.7162959847
 21
193.6373459459499
 31
0.0
1001
Sigma
1000

  0
TEXT
  5
4A0
330
1F
100
AcDbEntity
  8
0
  6
Continuous
 62
     7
370
    15
100
AcDbText
 10
179.7191960191404
 20
189.1897459803904
 30
0.0
 40
4.000000619888306
  1
（ライトガイド固定用）
 41
0.9370533170498238
  7
KCADTEXTSTANDARD
100
AcDbText
1001
Sigma
1000

  0
TEXT
  5
4A2
330
1F
100
AcDbEntity
  8
0
  6
Continuous
 62
     7
370
    15
100
AcDbText
 10
279.0722960191404
 20
202.9204459803904
 30
0.0
 40
4.000000619888306
  1
ライトガイド
 41
0.9406800761361003
  7
KCADTEXTSTANDARD
100
AcDbText
1001
Sigma
1000

  0
TEXT
  5
4A4
330
1F
100
AcDbEntity
  8
KCAD_ASST
  6
Continuous
 62
     7
370
    15
100
AcDbText
 10
27.17199598735492
 20
99.01444594859328
 30
0.0
 40
5.500000047683715
  1
ﾗｲﾄｶﾞｲﾄﾞ(別売)
 50
359.9998898158099
 41
0.6776063015018263
  7
KCADTEXTSTANDARD
100
AcDbText
1001
Sigma
1000
ASST
  0
TEXT
  5
4A6
330
1F
100
AcDbEntity
  8
KCAD_ASST
  6
Continuous
 62
     7
370
    15
100
AcDbText
 10
27.09149596310968
 20
54.64934592435068
 30
0.0
 40
5.500099611282348
  1
推奨光源(別売)
 41
0.8123649195730296
  7
KCADTEXTSTANDARD
100
AcDbText
1001
Sigma
1000
ASST
  0
TEXT
  5
4A8
330
1F
100
AcDbEntity
  8
0
  6
Continuous
 62
     7
370
    15
100
AcDbText
 10
294.6850960191404
 20
182.7957459803904
 30
0.0
 40
4.000000619888306
  1
Cﾏｳﾝﾄ部回転調整可
 41
0.8593289843645477
  7
KCADTEXTSTANDARD
100
AcDbText
1001
Sigma
1000

  0
LINE
  5
4AB
102
{ACAD_REACTORS
330
4AA
102
}
330
1F
100
AcDbEntity
  8
0
  6
Continuous
 62
     7
370
    15
100
AcDbLine
 10
289.6374959847
 20
187.30414594595
 30
0.0
 11
303.7399959846999
 21
138.3497459459499
 31
0.0
1001
Sigma
1000

  0
LINE
  5
4AE
102
{ACAD_REACTORS
330
4AD
102
}
330
1F
100
AcDbEntity
  8
0
  6
Continuous
 62
     7
370
    15
100
AcDbLine
 10
303.7399959846999
 20
138.3497459459499
 30
0.0
 11
301.8639959847
 21
141.97194594595
 31
0.0
1001
Sigma
1000

  0
LINE
  5
4B0
102
{ACAD_REACTORS
330
4AD
102
}
330
1F
100
AcDbEntity
  8
0
  6
Continuous
 62
     7
370
    15
100
AcDbLine
 10
303.4014959846999
 20
142.4148459459499
 30
0.0
 11
303.7399959846999
 21
138.3497459459499
 31
0.0
1001
Sigma
1000

  0
TEXT
  5
4B2
330
1F
100
AcDbEntity
  8
KCAD_ASST
  6
Continuous
 62
     7
370
    15
100
AcDbText
 10
30.10439601914446
 20
91.89534598038448
 30
0.0
 40
4.000000619888306
  1
ケンコー製ライトガイド
 41
0.9370552536044323
  7
KCADTEXTSTANDARD
100
AcDbText
1001
Sigma
1000
ASST
  0
TEXT
  5
4B4
330
1F
100
AcDbEntity
  8
KCAD_ASST
  6
Continuous
 62
     7
370
    15
100
AcDbText
 10
32.31159599198579
 20
79.53484595958984
 30
0.0
 40
4.000000074005126
  1
FGS-750F
 50
359.9997826708799
 41
0.8787866235906658
  7
KCADTEXTSTANDARD
100
AcDbText
1001
Sigma
1000
ASST
  0
TEXT
  5
4B6
330
1F
100
AcDbEntity
  8
KCAD_ASST
  6
Continuous
 62
     7
370
    15
100
AcDbText
 10
32.31159599198075
 20
85.37034595958967
 30
0.0
 40
4.000000074005126
  1
FGS-500S
 41
0.8987590468540899
  7
KCADTEXTSTANDARD
100
AcDbText
1001
Sigma
1000
ASST
  0
TEXT
  5
4B8
330
1F
100
AcDbEntity
  8
KCAD_ASST
  6
Continuous
 62
     7
370
    15
100
AcDbText
 10
32.31519599198076
 20
74.02814595958968
 30
0.0
 40
4.000000074005126
  1
FGS-1000F
 41
0.916828776908134
  7
KCADTEXTSTANDARD
100
AcDbText
1001
Sigma
1000
ASST
  0
TEXT
  5
4BA
330
1F
100
AcDbEntity
  8
KCAD_ASST
  6
Continuous
 62
     7
370
    15
100
AcDbText
 10
31.99729599198076
 20
68.58824595958967
 30
0.0
 40
4.000000074005126
  1
FGS-15000F
 41
0.9005151048532587
  7
KCADTEXTSTANDARD
100
AcDbText
1001
Sigma
1000
ASST
  0
TEXT
  5
4BC
330
1F
100
AcDbEntity
  8
KCAD_ASST
  6
Continuous
 62
     7
370
    15
100
AcDbText
 10
31.83299599198075
 20
63.34384595958967
 30
0.0
 40
4.000000074005126
  1
FGS-2000F
 41
0.9128020752165333
  7
KCADTEXTSTANDARD
100
AcDbText
1001
Sigma
1000
ASST
  0
TEXT
  5
4BE
330
1F
100
AcDbEntity
  8
KCAD_ASST
  6
Continuous
 62
     7
370
    15
100
AcDbText
 10
65.39709599198076
 20
85.37034595958967
 30
0.0
 40
4.000000074005126
  1
(L=     mm)
 41
1.187503034853879
  7
KCADTEXTSTANDARD
100
AcDbText
1001
Sigma
1000
ASST
  0
TEXT
  5
4C0
330
1F
100
AcDbEntity
  8
KCAD_ASST
  6
Continuous
 62
     7
370
    15
100
AcDbText
 10
65.89969599198076
 20
79.66814595958968
 30
0.0
 40
4.000000074005126
  1
(L=     mm)
 41
1.187496806168615
  7
KCADTEXTSTANDARD
100
AcDbText
1001
Sigma
1000
ASST
  0
TEXT
  5
4C2
330
1F
100
AcDbEntity
  8
KCAD_ASST
  6
Continuous
 62
     7
370
    15
100
AcDbText
 10
66.16189599198076
 20
74.42374595958968
 30
0.0
 40
4.000000074005126
  1
(L=     mm)
 41
1.187499920511247
  7
KCADTEXTSTANDARD
100
AcDbText
1001
Sigma
1000
ASST
  0
TEXT
  5
4C4
330
1F
100
AcDbEntity
  8
KCAD_ASST
  6
Continuous
 62
     7
370
    15
100
AcDbText
 10
66.1618960010597
 20
69.1793459766097
 30
0.0
 40
4.0001001663208
  1
(L=     mm)
 41
1.187470409895875
  7
KCADTEXTSTANDARD
100
AcDbText
1001
Sigma
1000
ASST
  0
TEXT
  5
4C6
330
1F
100
AcDbEntity
  8
KCAD_ASST
  6
Continuous
 62
     7
370
    15
100
AcDbText
 10
66.42409599198076
 20
63.67274595958967
 30
0.0
 40
4.000000074005126
  1
(L=     mm)
 41
1.187499920511247
  7
KCADTEXTSTANDARD
100
AcDbText
1001
Sigma
1000
ASST
  0
TEXT
  5
4C8
330
1F
100
AcDbEntity
  8
KCAD_ASST
  6
Continuous
 62
     7
370
    15
100
AcDbText
 10
79.75349599198076
 20
63.48484595958967
 30
0.0
 40
4.000000074005126
  1
2000
 41
1.033484168005377
  7
KCADTEXTSTANDARD
100
AcDbText
1001
Sigma
1000
ASST
  0
TEXT
  5
4CA
330
1F
100
AcDbEntity
  8
KCAD_ASST
  6
Continuous
 62
     7
370
    15
100
AcDbText
 10
81.06449599198076
 20
69.05814595958968
 30
0.0
 40
4.000000074005126
  1
1500
 41
0.9848499425829993
  7
KCADTEXTSTANDARD
100
AcDbText
1001
Sigma
1000
ASST
  0
TEXT
  5
4CC
330
1F
100
AcDbEntity
  8
KCAD_ASST
  6
Continuous
 62
     7
370
    15
100
AcDbText
 10
80.54009599198076
 20
73.97364595958967
 30
0.0
 40
4.000000074005126
  1
1000
 41
1.058823458492056
  7
KCADTEXTSTANDARD
100
AcDbText
1001
Sigma
1000
ASST
  0
TEXT
  5
4CE
330
1F
100
AcDbEntity
  8
KCAD_ASST
  6
Continuous
 62
     7
370
    15
100
AcDbText
 10
83.16229599198076
 20
79.48024595958968
 30
0.0
 40
4.000000074005126
  1
750
 41
0.9636298134857003
  7
KCADTEXTSTANDARD
100
AcDbText
1001
Sigma
1000
ASST
  0
TEXT
  5
4D0
330
1F
100
AcDbEntity
  8
KCAD_ASST
  6
Continuous
 62
     7
370
    15
100
AcDbText
 10
83.42449599198076
 20
85.24914595958968
 30
0.0
 40
4.000000074005126
  1
500
 41
1.032471473188451
  7
KCADTEXTSTANDARD
100
AcDbText
1001
Sigma
1000
ASST
  0
LINE
  5
4D3
102
{ACAD_REACTORS
330
4D2
102
}
330
1F
100
AcDbEntity
  8
0
  6
Continuous
 62
     7
370
    15
100
AcDbLine
 10
100.5631959847
 20
139.39794594595
 30
0.0
 11
100.5631959847
 21
106.39804594595
 31
0.0
1001
Sigma
1000

  0
LINE
  5
4D6
102
{ACAD_REACTORS
330
4D5
102
}
330
1F
100
AcDbEntity
  8
0
  6
Continuous
 62
     7
370
    15
100
AcDbLine
 10
115.5631959846999
 20
139.39794594595
 30
0.0
 11
115.5631959846999
 21
106.39804594595
 31
0.0
1001
Sigma
1000

  0
LINE
  5
4D9
102
{ACAD_REACTORS
330
4D8
102
}
330
1F
100
AcDbEntity
  8
0
  6
Continuous
 62
     7
370
    15
100
AcDbLine
 10
100.5631959847
 20
107.39804594595
 30
0.0
 11
115.5631959846999
 21
107.39804594595
 31
0.0
1001
Sigma
1000

  0
LINE
  5
4DC
102
{ACAD_REACTORS
330
4DB
102
}
330
1F
100
AcDbEntity
  8
0
  6
Continuous
 62
     7
370
    15
100
AcDbLine
 10
92.563195984704
 20
107.39804594595
 30
0.0
 11
100.5631959847
 21
107.39804594595
 31
0.0
1001
Sigma
1000

  0
LINE
  5
4DF
102
{ACAD_REACTORS
330
4DE
102
}
330
1F
100
AcDbEntity
  8
0
  6
Continuous
 62
     7
370
    15
100
AcDbLine
 10
100.5631959847
 20
107.39804594595
 30
0.0
 11
96.563195984704
 21
106.59804594595
 31
0.0
1001
Sigma
1000

  0
LINE
  5
4E1
102
{ACAD_REACTORS
330
4DE
102
}
330
1F
100
AcDbEntity
  8
0
  6
Continuous
 62
     7
370
    15
100
AcDbLine
 10
96.563195984704
 20
108.1980459459499
 30
0.0
 11
100.5631959847
 21
107.39804594595
 31
0.0
1001
Sigma
1000

  0
LINE
  5
4E4
102
{ACAD_REACTORS
330
4E3
102
}
330
1F
100
AcDbEntity
  8
0
  6
Continuous
 62
     7
370
    15
100
AcDbLine
 10
133.1995959847
 20
107.39804594595
 30
0.0
 11
115.5631959846999
 21
107.39804594595
 31
0.0
1001
Sigma
1000

  0
LINE
  5
4E7
102
{ACAD_REACTORS
330
4E6
102
}
330
1F
100
AcDbEntity
  8
0
  6
Continuous
 62
     7
370
    15
100
AcDbLine
 10
115.5631959846999
 20
107.39804594595
 30
0.0
 11
119.5631959846999
 21
108.1980459459499
 31
0.0
1001
Sigma
1000

  0
LINE
  5
4E9
102
{ACAD_REACTORS
330
4E6
102
}
330
1F
100
AcDbEntity
  8
0
  6
Continuous
 62
     7
370
    15
100
AcDbLine
 10
119.5631959846999
 20
106.59804594595
 30
0.0
 11
115.5631959846999
 21
107.39804594595
 31
0.0
1001
Sigma
1000

  0
TEXT
  5
4EB
330
1F
100
AcDbEntity
  8
0
  6
Continuous
 62
     7
370
    15
100
AcDbText
 10
123.5631959919767
 20
108.7314459595976
 30
0.0
 40
4.000000074005126
  1
15.0
 41
0.9636399462751231
  7
KCADTEXTSTANDARD
100
AcDbText
1001
Sigma
1000

  0
LINE
  5
4EE
102
{ACAD_REACTORS
330
4ED
102
}
330
1F
100
AcDbEntity
  8
0
  6
Continuous
 62
     7
370
    15
100
AcDbLine
 10
98.063295984704
 20
160.56804594595
 30
0.0
 11
75.459095984704
 21
160.56804594595
 31
0.0
1001
Sigma
1000

  0
LINE
  5
4F1
102
{ACAD_REACTORS
330
4F0
102
}
330
1F
100
AcDbEntity
  8
0
  6
Continuous
 62
     7
370
    15
100
AcDbLine
 10
98.063295984704
 20
166.5679459459499
 30
0.0
 11
75.459095984704
 21
166.5680459459499
 31
0.0
1001
Sigma
1000

  0
LINE
  5
4F4
102
{ACAD_REACTORS
330
4F3
102
}
330
1F
100
AcDbEntity
  8
0
  6
Continuous
 62
     7
370
    15
100
AcDbLine
 10
76.458995984704
 20
160.56804594595
 30
0.0
 11
76.458995984704
 21
166.5680459459499
 31
0.0
1001
Sigma
1000

  0
LINE
  5
4F7
102
{ACAD_REACTORS
330
4F6
102
}
330
1F
100
AcDbEntity
  8
0
  6
Continuous
 62
     7
370
    15
100
AcDbLine
 10
76.458995984704
 20
182.2044459459499
 30
0.0
 11
76.458995984704
 21
166.5680459459499
 31
0.0
1001
Sigma
1000

  0
LINE
  5
4FA
102
{ACAD_REACTORS
330
4F9
102
}
330
1F
100
AcDbEntity
  8
0
  6
Continuous
 62
     7
370
    15
100
AcDbLine
 10
76.458995984704
 20
166.5680459459499
 30
0.0
 11
75.659095984704
 21
170.5679459459499
 31
0.0
1001
Sigma
1000

  0
LINE
  5
4FC
102
{ACAD_REACTORS
330
4F9
102
}
330
1F
100
AcDbEntity
  8
0
  6
Continuous
 62
     7
370
    15
100
AcDbLine
 10
77.258995984704
 20
170.5679459459499
 30
0.0
 11
76.458995984704
 21
166.5680459459499
 31
0.0
1001
Sigma
1000

  0
TEXT
  5
4FE
330
1F
100
AcDbEntity
  8
0
  6
Continuous
 62
     7
370
    15
100
AcDbText
 10
75.12569597106032
 20
174.5680459532267
 30
0.0
 40
4.000000074005126
  1
6.0
 50
90.0
 41
1.041327204511881
  7
KCADTEXTSTANDARD
100
AcDbText
1001
Sigma
1000

  0
LINE
  5
501
102
{ACAD_REACTORS
330
500
102
}
330
1F
100
AcDbEntity
  8
0
  6
Continuous
 62
     7
370
    15
100
AcDbLine
 10
76.458995984704
 20
153.13824594595
 30
0.0
 11
76.458995984704
 21
147.8980459459499
 31
0.0
1001
Sigma
1000

  0
LINE
  5
504
102
{ACAD_REACTORS
330
503
102
}
330
1F
100
AcDbEntity
  8
0
  6
Continuous
 62
     7
370
    15
100
AcDbLine
 10
76.458995984704
 20
147.8980459459499
 30
0.0
 11
75.659095984704
 21
151.8980459459499
 31
0.0
1001
Sigma
1000

  0
LINE
  5
506
102
{ACAD_REACTORS
330
503
102
}
330
1F
100
AcDbEntity
  8
0
  6
Continuous
 62
     7
370
    15
100
AcDbLine
 10
77.258995984704
 20
151.8980459459499
 30
0.0
 11
76.458995984704
 21
147.8980459459499
 31
0.0
1001
Sigma
1000

  0
LINE
  5
509
102
{ACAD_REACTORS
330
508
102
}
330
1F
100
AcDbEntity
  8
0
  6
Continuous
 62
     7
370
    15
100
AcDbLine
 10
76.458995984704
 20
154.5877459459499
 30
0.0
 11
76.458995984704
 21
160.56804594595
 31
0.0
1001
Sigma
1000

  0
LINE
  5
50C
102
{ACAD_REACTORS
330
50B
102
}
330
1F
100
AcDbEntity
  8
0
  6
Continuous
 62
     7
370
    15
100
AcDbLine
 10
76.458995984704
 20
160.56804594595
 30
0.0
 11
77.258995984704
 21
156.56804594595
 31
0.0
1001
Sigma
1000

  0
LINE
  5
50E
102
{ACAD_REACTORS
330
50B
102
}
330
1F
100
AcDbEntity
  8
0
  6
Continuous
 62
     7
370
    15
100
AcDbLine
 10
75.659095984704
 20
156.56804594595
 30
0.0
 11
76.458995984704
 21
160.56804594595
 31
0.0
1001
Sigma
1000

  0
LINE
  5
511
102
{ACAD_REACTORS
330
510
102
}
330
1F
100
AcDbEntity
  8
0
  6
Continuous
 62
     7
370
    30
100
AcDbLine
 10
282.7212959847
 20
145.3979459459499
 30
0.0
 11
302.0010959846999
 21
145.3979459459499
 31
0.0
1001
Sigma
1000

  0
LINE
  5
514
102
{ACAD_REACTORS
330
513
102
}
330
1F
100
AcDbEntity
  8
0
  6
Continuous
 62
     7
370
    30
100
AcDbLine
 10
282.7212959847
 20
129.3979459459499
 30
0.0
 11
302.00110979696
 21
129.3979459459499
 31
0.0
1001
Sigma
1000

  0
LINE
  5
517
102
{ACAD_REACTORS
330
516
102
}
330
1F
100
AcDbEntity
  8
0
  6
Continuous
 62
     7
370
    15
100
AcDbLine
 10
311.1009959846999
 20
125.59784594595
 30
0.0
 11
311.1009959846999
 21
149.19804594595
 31
0.0
1001
Sigma
1000

  0
LINE
  5
51A
102
{ACAD_REACTORS
330
519
102
}
330
1F
100
AcDbEntity
  8
0
  6
Continuous
 62
     7
370
    15
100
AcDbLine
 10
311.6206959846999
 20
150.0980459459499
 30
0.0
 11
311.6206959846999
 21
124.69794594595
 31
0.0
1001
Sigma
1000

  0
LINE
  5
51D
102
{ACAD_REACTORS
330
51C
102
}
330
1F
100
AcDbEntity
  8
0
  6
Continuous
 62
     7
370
    15
100
AcDbLine
 10
313.0010959847
 20
150.0980459459499
 30
0.0
 11
313.0011959847
 21
124.69794594595
 31
0.0
1001
Sigma
1000

  0
LINE
  5
520
102
{ACAD_REACTORS
330
51F
102
}
330
1F
100
AcDbEntity
  8
0
  6
Continuous
 62
     7
370
    15
100
AcDbLine
 10
233.8030959846999
 20
129.3979459459499
 30
0.0
 11
233.8030959846999
 21
145.3979459459499
 31
0.0
1001
Sigma
1000

  0
CIRCLE
  5
522
330
1F
100
AcDbEntity
  8
0
  6
Continuous
 62
     7
370
    15
100
AcDbCircle
 10
292.8529959846999
 20
137.3980459459499
 30
0.0
 40
2.0
1001
Sigma
1000

  0
CIRCLE
  5
524
330
1F
100
AcDbEntity
  8
0
  6
Continuous
 62
     7
370
    15
100
AcDbCircle
 10
286.8531959847
 20
137.3980459459499
 30
0.0
 40
1.4999
1001
Sigma
1000

  0
CIRCLE
  5
526
330
1F
100
AcDbEntity
  8
0
  6
Continuous
 62
     7
370
    15
100
AcDbCircle
 10
286.8531959847
 20
137.3980459459499
 30
0.0
 40
1.1001
1001
Sigma
1000

  0
LINE
  5
529
102
{ACAD_REACTORS
330
528
102
}
330
1F
100
AcDbEntity
  8
0
  6
Continuous
 62
     7
370
    15
100
AcDbLine
 10
284.9742959847
 20
137.3980459459499
 30
0.0
 11
288.6596959847
 21
137.3980459459499
 31
0.0
1001
Sigma
1000

  0
LINE
  5
52C
102
{ACAD_REACTORS
330
52B
102
}
330
1F
100
AcDbEntity
  8
0
  6
Continuous
 62
     7
370
    15
100
AcDbLine
 10
286.8531959847
 20
139.2768459459499
 30
0.0
 11
286.8531959847
 21
135.5192459459499
 31
0.0
1001
Sigma
1000

  0
LINE
  5
52F
102
{ACAD_REACTORS
330
52E
102
}
330
1F
100
AcDbEntity
  8
0
  6
Continuous
 62
     7
370
    15
100
AcDbLine
 10
286.0030959847
 20
137.38424594595
 30
0.0
 11
286.4280959847
 21
136.64804594595
 31
0.0
1001
Sigma
1000

  0
LINE
  5
531
102
{ACAD_REACTORS
330
52E
102
}
330
1F
100
AcDbEntity
  8
0
  6
Continuous
 62
     7
370
    15
100
AcDbLine
 10
286.4280959847
 20
138.1203459459499
 30
0.0
 11
286.0030959847
 21
137.38424594595
 31
0.0
1001
Sigma
1000

  0
LINE
  5
533
102
{ACAD_REACTORS
330
52E
102
}
330
1F
100
AcDbEntity
  8
0
  6
Continuous
 62
     7
370
    15
100
AcDbLine
 10
287.2782959847
 20
138.1203459459499
 30
0.0
 11
286.4280959847
 21
138.1203459459499
 31
0.0
1001
Sigma
1000

  0
LINE
  5
535
102
{ACAD_REACTORS
330
52E
102
}
330
1F
100
AcDbEntity
  8
0
  6
Continuous
 62
     7
370
    15
100
AcDbLine
 10
287.7032959846999
 20
137.38424594595
 30
0.0
 11
287.2782959847
 21
138.1203459459499
 31
0.0
1001
Sigma
1000

  0
LINE
  5
537
102
{ACAD_REACTORS
330
52E
102
}
330
1F
100
AcDbEntity
  8
0
  6
Continuous
 62
     7
370
    15
100
AcDbLine
 10
287.2782959847
 20
136.64804594595
 30
0.0
 11
287.7032959846999
 21
137.38424594595
 31
0.0
1001
Sigma
1000

  0
LINE
  5
539
102
{ACAD_REACTORS
330
52E
102
}
330
1F
100
AcDbEntity
  8
0
  6
Continuous
 62
     7
370
    15
100
AcDbLine
 10
286.4280959847
 20
136.64804594595
 30
0.0
 11
287.2782959847
 21
136.64804594595
 31
0.0
1001
Sigma
1000

  0
LINE
  5
53C
102
{ACAD_REACTORS
330
53B
102
}
330
1F
100
AcDbEntity
  8
0
  6
Continuous
 62
     7
370
    15
100
AcDbLine
 10
292.3529959847
 20
135.46154594595
 30
0.0
 11
292.3529959847
 21
139.3346459459499
 31
0.0
1001
Sigma
1000

  0
LINE
  5
53F
102
{ACAD_REACTORS
330
53E
102
}
330
1F
100
AcDbEntity
  8
0
  6
Continuous
 62
     7
370
    15
100
AcDbLine
 10
293.3529959846999
 20
139.3346459459499
 30
0.0
 11
293.3529959846999
 21
135.46154594595
 31
0.0
1001
Sigma
1000

  0
LINE
  5
542
102
{ACAD_REACTORS
330
541
102
}
330
1F
100
AcDbEntity
  8
0
  6
Continuous
 62
     7
370
    15
100
AcDbLine
 10
311.1009959846999
 20
125.59784594595
 30
0.0
 11
313.9009959846999
 21
125.5979459459499
 31
0.0
1001
Sigma
1000

  0
LINE
  5
545
102
{ACAD_REACTORS
330
544
102
}
330
1F
100
AcDbEntity
  8
0
  6
Continuous
 62
     7
370
    15
100
AcDbLine
 10
311.1009959846999
 20
149.19804594595
 30
0.0
 11
313.9009959846999
 21
149.19794594595
 31
0.0
1001
Sigma
1000

  0
LINE
  5
548
102
{ACAD_REACTORS
330
547
102
}
330
1F
100
AcDbEntity
  8
0
  6
CENTER
 62
     7
370
    15
100
AcDbLine
 10
263.8632959847
 20
137.89804594595
 30
0.0
 11
263.8632959847
 21
192.04794594595
 31
0.0
1001
Sigma
1000

  0
CIRCLE
  5
54A
330
1F
100
AcDbEntity
  8
0
  6
Continuous
 62
     7
370
    15
100
AcDbCircle
 10
304.9639959846999
 20
137.3980459459499
 30
0.0
 40
1.4999
1001
Sigma
1000

  0
CIRCLE
  5
54C
330
1F
100
AcDbEntity
  8
0
  6
Continuous
 62
     7
370
    15
100
AcDbCircle
 10
304.9639959846999
 20
137.3980459459499
 30
0.0
 40
1.1
1001
Sigma
1000

  0
LINE
  5
54F
102
{ACAD_REACTORS
330
54E
102
}
330
1F
100
AcDbEntity
  8
0
  6
Continuous
 62
     7
370
    15
100
AcDbLine
 10
303.0851959847
 20
137.3980459459499
 30
0.0
 11
306.7705959846999
 21
137.3980459459499
 31
0.0
1001
Sigma
1000

  0
LINE
  5
552
102
{ACAD_REACTORS
330
551
102
}
330
1F
100
AcDbEntity
  8
0
  6
Continuous
 62
     7
370
    15
100
AcDbLine
 10
304.9639959846999
 20
139.2768459459499
 30
0.0
 11
304.9639959846999
 21
135.5192459459499
 31
0.0
1001
Sigma
1000

  0
LINE
  5
555
102
{ACAD_REACTORS
330
554
102
}
330
1F
100
AcDbEntity
  8
0
  6
Continuous
 62
     7
370
    15
100
AcDbLine
 10
304.1139959847
 20
137.38414594595
 30
0.0
 11
304.5389959847
 21
136.64804594595
 31
0.0
1001
Sigma
1000

  0
LINE
  5
557
102
{ACAD_REACTORS
330
554
102
}
330
1F
100
AcDbEntity
  8
0
  6
Continuous
 62
     7
370
    15
100
AcDbLine
 10
304.5389959847
 20
138.1203459459499
 30
0.0
 11
304.1139959847
 21
137.38414594595
 31
0.0
1001
Sigma
1000

  0
LINE
  5
559
102
{ACAD_REACTORS
330
554
102
}
330
1F
100
AcDbEntity
  8
0
  6
Continuous
 62
     7
370
    15
100
AcDbLine
 10
305.3890959847
 20
138.1203459459499
 30
0.0
 11
304.5389959847
 21
138.1203459459499
 31
0.0
1001
Sigma
1000

  0
LINE
  5
55B
102
{ACAD_REACTORS
330
554
102
}
330
1F
100
AcDbEntity
  8
0
  6
Continuous
 62
     7
370
    15
100
AcDbLine
 10
305.8141959847
 20
137.38414594595
 30
0.0
 11
305.3890959847
 21
138.1203459459499
 31
0.0
1001
Sigma
1000

  0
LINE
  5
55D
102
{ACAD_REACTORS
330
554
102
}
330
1F
100
AcDbEntity
  8
0
  6
Continuous
 62
     7
370
    15
100
AcDbLine
 10
305.3890959847
 20
136.64804594595
 30
0.0
 11
305.8141959847
 21
137.38414594595
 31
0.0
1001
Sigma
1000

  0
LINE
  5
55F
102
{ACAD_REACTORS
330
554
102
}
330
1F
100
AcDbEntity
  8
0
  6
Continuous
 62
     7
370
    15
100
AcDbLine
 10
304.5389959847
 20
136.64804594595
 30
0.0
 11
305.3890959847
 21
136.64804594595
 31
0.0
1001
Sigma
1000

  0
LINE
  5
562
102
{ACAD_REACTORS
330
561
102
}
330
1F
100
AcDbEntity
  8
0
  6
Continuous
 62
     7
370
    15
100
AcDbLine
 10
263.8632959847
 20
192.04794594595
 30
0.0
 11
263.8632959847
 21
198.89794594595
 31
0.0
1001
Sigma
1000

  0
LINE
  5
565
102
{ACAD_REACTORS
330
564
102
}
330
1F
100
AcDbEntity
  8
0
  6
Continuous
 62
     7
370
    15
100
AcDbLine
 10
254.8633959846999
 20
166.5681459459499
 30
0.0
 11
257.8632959847
 21
166.5681459459499
 31
0.0
1001
Sigma
1000

  0
LINE
  5
568
102
{ACAD_REACTORS
330
567
102
}
330
1F
100
AcDbEntity
  8
0
  6
Continuous
 62
     7
370
    30
100
AcDbLine
 10
254.8633959846999
 20
166.5681459459499
 30
0.0
 11
257.8632959847
 21
166.5681459459499
 31
0.0
1001
Sigma
1000

  0
LINE
  5
56B
102
{ACAD_REACTORS
330
56A
102
}
330
1F
100
AcDbEntity
  8
0
  6
Continuous
 62
     7
370
    30
100
AcDbLine
 10
254.8633959846999
 20
160.56804594595
 30
0.0
 11
256.3632959847
 21
160.56804594595
 31
0.0
1001
Sigma
1000

  0
LINE
  5
56E
102
{ACAD_REACTORS
330
56D
102
}
330
1F
100
AcDbEntity
  8
0
  6
Continuous
 62
     7
370
    30
100
AcDbLine
 10
256.3632959847
 20
147.89814594595
 30
0.0
 11
256.3632959847
 21
160.56804594595
 31
0.0
1001
Sigma
1000

  0
LINE
  5
571
102
{ACAD_REACTORS
330
570
102
}
330
1F
100
AcDbEntity
  8
0
  6
Continuous
 62
     7
370
    30
100
AcDbLine
 10
254.8633959846999
 20
166.5681459459499
 30
0.0
 11
254.8633959846999
 21
160.56804594595
 31
0.0
1001
Sigma
1000

  0
LINE
  5
574
102
{ACAD_REACTORS
330
573
102
}
330
1F
100
AcDbEntity
  8
0
  6
Continuous
 62
     7
370
    15
100
AcDbLine
 10
272.8630959846999
 20
166.5681459459499
 30
0.0
 11
269.8631959846999
 21
166.5681459459499
 31
0.0
1001
Sigma
1000

  0
LINE
  5
577
102
{ACAD_REACTORS
330
576
102
}
330
1F
100
AcDbEntity
  8
0
  6
Continuous
 62
     7
370
    30
100
AcDbLine
 10
272.8630959846999
 20
166.5681459459499
 30
0.0
 11
269.8631959846999
 21
166.5681459459499
 31
0.0
1001
Sigma
1000

  0
LINE
  5
57A
102
{ACAD_REACTORS
330
579
102
}
330
1F
100
AcDbEntity
  8
0
  6
Continuous
 62
     7
370
    30
100
AcDbLine
 10
272.8630959846999
 20
160.56804594595
 30
0.0
 11
271.3631959847
 21
160.56804594595
 31
0.0
1001
Sigma
1000

  0
LINE
  5
57D
102
{ACAD_REACTORS
330
57C
102
}
330
1F
100
AcDbEntity
  8
0
  6
Continuous
 62
     7
370
    30
100
AcDbLine
 10
272.8630959846999
 20
166.5681459459499
 30
0.0
 11
272.8630959846999
 21
160.56804594595
 31
0.0
1001
Sigma
1000

  0
LINE
  5
580
102
{ACAD_REACTORS
330
57F
102
}
330
1F
100
AcDbEntity
  8
0
  6
HIDDEN
 62
     7
370
    15
100
AcDbLine
 10
257.8633959847
 20
168.5681459459499
 30
0.0
 11
269.8632959847
 21
168.5681459459499
 31
0.0
1001
Sigma
1000

  0
LINE
  5
583
102
{ACAD_REACTORS
330
582
102
}
330
1F
100
AcDbEntity
  8
0
  6
HIDDEN
 62
     7
370
    15
100
AcDbLine
 10
257.8633959847
 20
168.5681459459499
 30
0.0
 11
257.8632959847
 21
166.5681459459499
 31
0.0
1001
Sigma
1000

  0
LINE
  5
586
102
{ACAD_REACTORS
330
585
102
}
330
1F
100
AcDbEntity
  8
0
  6
HIDDEN
 62
     7
370
    15
100
AcDbLine
 10
269.8631959846999
 20
166.5681459459499
 30
0.0
 11
269.8632959847
 21
168.5681459459499
 31
0.0
1001
Sigma
1000

  0
LINE
  5
589
102
{ACAD_REACTORS
330
588
102
}
330
1F
100
AcDbEntity
  8
0
  6
Continuous
 62
     7
370
    15
100
AcDbLine
 10
257.8633959847
 20
168.5681459459499
 30
0.0
 11
257.3633959847
 21
168.5681459459499
 31
0.0
1001
Sigma
1000

  0
LINE
  5
58C
102
{ACAD_REACTORS
330
58B
102
}
330
1F
100
AcDbEntity
  8
0
  6
HIDDEN
 62
     7
370
    15
100
AcDbLine
 10
257.3633959847
 20
168.5681459459499
 30
0.0
 11
257.3633959847
 21
193.56814594595
 31
0.0
1001
Sigma
1000

  0
LINE
  5
58F
102
{ACAD_REACTORS
330
58E
102
}
330
1F
100
AcDbEntity
  8
0
  6
HIDDEN
 62
     7
370
    15
100
AcDbLine
 10
270.3632959847
 20
168.5681459459499
 30
0.0
 11
270.3632959847
 21
193.56814594595
 31
0.0
1001
Sigma
1000

  0
LINE
  5
592
102
{ACAD_REACTORS
330
591
102
}
330
1F
100
AcDbEntity
  8
0
  6
Continuous
 62
     7
370
    15
100
AcDbLine
 10
269.8632959847
 20
168.5681459459499
 30
0.0
 11
270.3632959847
 21
168.5681459459499
 31
0.0
1001
Sigma
1000

  0
LINE
  5
595
102
{ACAD_REACTORS
330
594
102
}
330
1F
100
AcDbEntity
  8
0
  6
HIDDEN
 62
     7
370
    15
100
AcDbLine
 10
257.3633959847
 20
193.56814594595
 30
0.0
 11
270.3632959847
 21
193.56814594595
 31
0.0
1001
Sigma
1000

  0
LINE
  5
598
102
{ACAD_REACTORS
330
597
102
}
330
1F
100
AcDbEntity
  8
0
  6
HIDDEN
 62
     7
370
    15
100
AcDbLine
 10
268.8632959847
 20
193.56814594595
 30
0.0
 11
268.8632959847
 21
196.4292459459499
 31
0.0
1001
Sigma
1000

  0
LINE
  5
59B
102
{ACAD_REACTORS
330
59A
102
}
330
1F
100
AcDbEntity
  8
0
  6
HIDDEN
 62
     7
370
    15
100
AcDbLine
 10
258.8632959847
 20
193.56814594595
 30
0.0
 11
258.8632959847
 21
196.4292459459499
 31
0.0
1001
Sigma
1000

  0
LINE
  5
59E
102
{ACAD_REACTORS
330
59D
102
}
330
1F
100
AcDbEntity
  8
0
  6
HIDDEN
 62
     7
370
    15
100
AcDbLine
 10
268.7594959846999
 20
196.5038459459499
 30
0.0
 11
268.8632959847
 21
196.4292459459499
 31
0.0
1001
Sigma
1000

  0
LINE
  5
5A0
102
{ACAD_REACTORS
330
59D
102
}
330
1F
100
AcDbEntity
  8
0
  6
HIDDEN
 62
     7
370
    15
100
AcDbLine
 10
268.6554959847
 20
196.57814594595
 30
0.0
 11
268.7594959846999
 21
196.5038459459499
 31
0.0
1001
Sigma
1000

  0
LINE
  5
5A2
102
{ACAD_REACTORS
330
59D
102
}
330
1F
100
AcDbEntity
  8
0
  6
HIDDEN
 62
     7
370
    15
100
AcDbLine
 10
268.5509959847
 20
196.65164594595
 30
0.0
 11
268.6554959847
 21
196.57814594595
 31
0.0
1001
Sigma
1000

  0
LINE
  5
5A4
102
{ACAD_REACTORS
330
59D
102
}
330
1F
100
AcDbEntity
  8
0
  6
HIDDEN
 62
     7
370
    15
100
AcDbLine
 10
268.4457959847
 20
196.72414594595
 30
0.0
 11
268.5509959847
 21
196.65164594595
 31
0.0
1001
Sigma
1000

  0
LINE
  5
5A6
102
{ACAD_REACTORS
330
59D
102
}
330
1F
100
AcDbEntity
  8
0
  6
HIDDEN
 62
     7
370
    15
100
AcDbLine
 10
268.3396959846999
 20
196.79524594595
 30
0.0
 11
268.4457959847
 21
196.72414594595
 31
0.0
1001
Sigma
1000

  0
LINE
  5
5A8
102
{ACAD_REACTORS
330
59D
102
}
330
1F
100
AcDbEntity
  8
0
  6
HIDDEN
 62
     7
370
    15
100
AcDbLine
 10
268.2324959847
 20
196.86454594595
 30
0.0
 11
268.3396959846999
 21
196.79524594595
 31
0.0
1001
Sigma
1000

  0
LINE
  5
5AA
102
{ACAD_REACTORS
330
59D
102
}
330
1F
100
AcDbEntity
  8
0
  6
HIDDEN
 62
     7
370
    15
100
AcDbLine
 10
268.1239959847
 20
196.93174594595
 30
0.0
 11
268.2324959847
 21
196.86454594595
 31
0.0
1001
Sigma
1000

  0
LINE
  5
5AC
102
{ACAD_REACTORS
330
59D
102
}
330
1F
100
AcDbEntity
  8
0
  6
HIDDEN
 62
     7
370
    15
100
AcDbLine
 10
268.0137959846999
 20
196.99654594595
 30
0.0
 11
268.1239959847
 21
196.93174594595
 31
0.0
1001
Sigma
1000

  0
LINE
  5
5AE
102
{ACAD_REACTORS
330
59D
102
}
330
1F
100
AcDbEntity
  8
0
  6
HIDDEN
 62
     7
370
    15
100
AcDbLine
 10
267.9018959846999
 20
197.0585459459499
 30
0.0
 11
268.0137959846999
 21
196.99654594595
 31
0.0
1001
Sigma
1000

  0
LINE
  5
5B0
102
{ACAD_REACTORS
330
59D
102
}
330
1F
100
AcDbEntity
  8
0
  6
HIDDEN
 62
     7
370
    15
100
AcDbLine
 10
267.7878959847
 20
197.11734594595
 30
0.0
 11
267.9018959846999
 21
197.0585459459499
 31
0.0
1001
Sigma
1000

  0
LINE
  5
5B2
102
{ACAD_REACTORS
330
59D
102
}
330
1F
100
AcDbEntity
  8
0
  6
HIDDEN
 62
     7
370
    15
100
AcDbLine
 10
267.6715959846999
 20
197.17264594595
 30
0.0
 11
267.7878959847
 21
197.11734594595
 31
0.0
1001
Sigma
1000

  0
LINE
  5
5B4
102
{ACAD_REACTORS
330
59D
102
}
330
1F
100
AcDbEntity
  8
0
  6
HIDDEN
 62
     7
370
    15
100
AcDbLine
 10
267.5528959847
 20
197.2240459459499
 30
0.0
 11
267.6715959846999
 21
197.17264594595
 31
0.0
1001
Sigma
1000

  0
LINE
  5
5B6
102
{ACAD_REACTORS
330
59D
102
}
330
1F
100
AcDbEntity
  8
0
  6
HIDDEN
 62
     7
370
    15
100
AcDbLine
 10
267.3923959846999
 20
197.2854459459499
 30
0.0
 11
267.5528959847
 21
197.2240459459499
 31
0.0
1001
Sigma
1000

  0
LINE
  5
5B8
102
{ACAD_REACTORS
330
59D
102
}
330
1F
100
AcDbEntity
  8
0
  6
HIDDEN
 62
     7
370
    15
100
AcDbLine
 10
267.2279959846999
 20
197.33914594595
 30
0.0
 11
267.3923959846999
 21
197.2854459459499
 31
0.0
1001
Sigma
1000

  0
LINE
  5
5BA
102
{ACAD_REACTORS
330
59D
102
}
330
1F
100
AcDbEntity
  8
0
  6
HIDDEN
 62
     7
370
    15
100
AcDbLine
 10
267.0604959847
 20
197.38494594595
 30
0.0
 11
267.2279959846999
 21
197.33914594595
 31
0.0
1001
Sigma
1000

  0
LINE
  5
5BC
102
{ACAD_REACTORS
330
59D
102
}
330
1F
100
AcDbEntity
  8
0
  6
HIDDEN
 62
     7
370
    15
100
AcDbLine
 10
266.8905959846999
 20
197.42234594595
 30
0.0
 11
267.0604959847
 21
197.38494594595
 31
0.0
1001
Sigma
1000

  0
LINE
  5
5BE
102
{ACAD_REACTORS
330
59D
102
}
330
1F
100
AcDbEntity
  8
0
  6
HIDDEN
 62
     7
370
    15
100
AcDbLine
 10
266.7190959847
 20
197.45124594595
 30
0.0
 11
266.8905959846999
 21
197.42234594595
 31
0.0
1001
Sigma
1000

  0
LINE
  5
5C0
102
{ACAD_REACTORS
330
59D
102
}
330
1F
100
AcDbEntity
  8
0
  6
HIDDEN
 62
     7
370
    15
100
AcDbLine
 10
266.5467959847
 20
197.47104594595
 30
0.0
 11
266.7190959847
 21
197.45124594595
 31
0.0
1001
Sigma
1000

  0
LINE
  5
5C2
102
{ACAD_REACTORS
330
59D
102
}
330
1F
100
AcDbEntity
  8
0
  6
HIDDEN
 62
     7
370
    15
100
AcDbLine
 10
266.3743959847
 20
197.48154594595
 30
0.0
 11
266.5467959847
 21
197.47104594595
 31
0.0
1001
Sigma
1000

  0
LINE
  5
5C4
102
{ACAD_REACTORS
330
59D
102
}
330
1F
100
AcDbEntity
  8
0
  6
HIDDEN
 62
     7
370
    15
100
AcDbLine
 10
266.2027959847
 20
197.4824459459499
 30
0.0
 11
266.3743959847
 21
197.48154594595
 31
0.0
1001
Sigma
1000

  0
LINE
  5
5C6
102
{ACAD_REACTORS
330
59D
102
}
330
1F
100
AcDbEntity
  8
0
  6
HIDDEN
 62
     7
370
    15
100
AcDbLine
 10
266.0326959847
 20
197.47334594595
 30
0.0
 11
266.2027959847
 21
197.4824459459499
 31
0.0
1001
Sigma
1000

  0
LINE
  5
5C8
102
{ACAD_REACTORS
330
59D
102
}
330
1F
100
AcDbEntity
  8
0
  6
HIDDEN
 62
     7
370
    15
100
AcDbLine
 10
265.8649959847
 20
197.45404594595
 30
0.0
 11
266.0326959847
 21
197.47334594595
 31
0.0
1001
Sigma
1000

  0
LINE
  5
5CA
102
{ACAD_REACTORS
330
59D
102
}
330
1F
100
AcDbEntity
  8
0
  6
HIDDEN
 62
     7
370
    15
100
AcDbLine
 10
265.7002959846999
 20
197.42394594595
 30
0.0
 11
265.8649959847
 21
197.45404594595
 31
0.0
1001
Sigma
1000

  0
LINE
  5
5CC
102
{ACAD_REACTORS
330
59D
102
}
330
1F
100
AcDbEntity
  8
0
  6
HIDDEN
 62
     7
370
    15
100
AcDbLine
 10
265.5394959847
 20
197.38294594595
 30
0.0
 11
265.7002959846999
 21
197.42394594595
 31
0.0
1001
Sigma
1000

  0
LINE
  5
5CE
102
{ACAD_REACTORS
330
59D
102
}
330
1F
100
AcDbEntity
  8
0
  6
HIDDEN
 62
     7
370
    15
100
AcDbLine
 10
265.3396959846999
 20
197.31434594595
 30
0.0
 11
265.5394959847
 21
197.38294594595
 31
0.0
1001
Sigma
1000

  0
LINE
  5
5D0
102
{ACAD_REACTORS
330
59D
102
}
330
1F
100
AcDbEntity
  8
0
  6
HIDDEN
 62
     7
370
    15
100
AcDbLine
 10
265.1463959847
 20
197.2297459459499
 30
0.0
 11
265.3396959846999
 21
197.31434594595
 31
0.0
1001
Sigma
1000

  0
LINE
  5
5D2
102
{ACAD_REACTORS
330
59D
102
}
330
1F
100
AcDbEntity
  8
0
  6
HIDDEN
 62
     7
370
    15
100
AcDbLine
 10
264.9583959847
 20
197.13154594595
 30
0.0
 11
265.1463959847
 21
197.2297459459499
 31
0.0
1001
Sigma
1000

  0
LINE
  5
5D4
102
{ACAD_REACTORS
330
59D
102
}
330
1F
100
AcDbEntity
  8
0
  6
HIDDEN
 62
     7
370
    15
100
AcDbLine
 10
264.7745959847
 20
197.02244594595
 30
0.0
 11
264.9583959847
 21
197.13154594595
 31
0.0
1001
Sigma
1000

  0
LINE
  5
5D6
102
{ACAD_REACTORS
330
59D
102
}
330
1F
100
AcDbEntity
  8
0
  6
HIDDEN
 62
     7
370
    15
100
AcDbLine
 10
264.5937959847
 20
196.90484594595
 30
0.0
 11
264.7745959847
 21
197.02244594595
 31
0.0
1001
Sigma
1000

  0
LINE
  5
5D8
102
{ACAD_REACTORS
330
59D
102
}
330
1F
100
AcDbEntity
  8
0
  6
HIDDEN
 62
     7
370
    15
100
AcDbLine
 10
264.4147959846999
 20
196.78134594595
 30
0.0
 11
264.5937959847
 21
196.90484594595
 31
0.0
1001
Sigma
1000

  0
LINE
  5
5DA
102
{ACAD_REACTORS
330
59D
102
}
330
1F
100
AcDbEntity
  8
0
  6
HIDDEN
 62
     7
370
    15
100
AcDbLine
 10
264.2364959847
 20
196.6545459459499
 30
0.0
 11
264.4147959846999
 21
196.78134594595
 31
0.0
1001
Sigma
1000

  0
LINE
  5
5DC
102
{ACAD_REACTORS
330
59D
102
}
330
1F
100
AcDbEntity
  8
0
  6
HIDDEN
 62
     7
370
    15
100
AcDbLine
 10
264.0575959847
 20
196.5268459459499
 30
0.0
 11
264.2364959847
 21
196.6545459459499
 31
0.0
1001
Sigma
1000

  0
LINE
  5
5DE
102
{ACAD_REACTORS
330
59D
102
}
330
1F
100
AcDbEntity
  8
0
  6
HIDDEN
 62
     7
370
    15
100
AcDbLine
 10
263.8771959846999
 20
196.40084594595
 30
0.0
 11
264.0575959847
 21
196.5268459459499
 31
0.0
1001
Sigma
1000

  0
LINE
  5
5E0
102
{ACAD_REACTORS
330
59D
102
}
330
1F
100
AcDbEntity
  8
0
  6
HIDDEN
 62
     7
370
    15
100
AcDbLine
 10
263.6937959846999
 20
196.2790459459499
 30
0.0
 11
263.8771959846999
 21
196.40084594595
 31
0.0
1001
Sigma
1000

  0
LINE
  5
5E2
102
{ACAD_REACTORS
330
59D
102
}
330
1F
100
AcDbEntity
  8
0
  6
HIDDEN
 62
     7
370
    15
100
AcDbLine
 10
263.5064959846999
 20
196.1641459459499
 30
0.0
 11
263.6937959846999
 21
196.2790459459499
 31
0.0
1001
Sigma
1000

  0
LINE
  5
5E4
102
{ACAD_REACTORS
330
59D
102
}
330
1F
100
AcDbEntity
  8
0
  6
HIDDEN
 62
     7
370
    15
100
AcDbLine
 10
263.3140959846999
 20
196.05844594595
 30
0.0
 11
263.5064959846999
 21
196.1641459459499
 31
0.0
1001
Sigma
1000

  0
LINE
  5
5E6
102
{ACAD_REACTORS
330
59D
102
}
330
1F
100
AcDbEntity
  8
0
  6
HIDDEN
 62
     7
370
    15
100
AcDbLine
 10
263.1252959847
 20
195.96844594595
 30
0.0
 11
263.3140959846999
 21
196.05844594595
 31
0.0
1001
Sigma
1000

  0
LINE
  5
5E8
102
{ACAD_REACTORS
330
59D
102
}
330
1F
100
AcDbEntity
  8
0
  6
HIDDEN
 62
     7
370
    15
100
AcDbLine
 10
262.9314959847
 20
195.8891459459499
 30
0.0
 11
263.1252959847
 21
195.96844594595
 31
0.0
1001
Sigma
1000

  0
LINE
  5
5EA
102
{ACAD_REACTORS
330
59D
102
}
330
1F
100
AcDbEntity
  8
0
  6
HIDDEN
 62
     7
370
    15
100
AcDbLine
 10
262.7333959846999
 20
195.8206459459499
 30
0.0
 11
262.9314959847
 21
195.8891459459499
 31
0.0
1001
Sigma
1000

  0
LINE
  5
5EC
102
{ACAD_REACTORS
330
59D
102
}
330
1F
100
AcDbEntity
  8
0
  6
HIDDEN
 62
     7
370
    15
100
AcDbLine
 10
262.5317959847
 20
195.76294594595
 30
0.0
 11
262.7333959846999
 21
195.8206459459499
 31
0.0
1001
Sigma
1000

  0
LINE
  5
5EE
102
{ACAD_REACTORS
330
59D
102
}
330
1F
100
AcDbEntity
  8
0
  6
HIDDEN
 62
     7
370
    15
100
AcDbLine
 10
262.3272959847
 20
195.71584594595
 30
0.0
 11
262.5317959847
 21
195.76294594595
 31
0.0
1001
Sigma
1000

  0
LINE
  5
5F0
102
{ACAD_REACTORS
330
59D
102
}
330
1F
100
AcDbEntity
  8
0
  6
HIDDEN
 62
     7
370
    15
100
AcDbLine
 10
262.1206959847
 20
195.67954594595
 30
0.0
 11
262.3272959847
 21
195.71584594595
 31
0.0
1001
Sigma
1000

  0
LINE
  5
5F2
102
{ACAD_REACTORS
330
59D
102
}
330
1F
100
AcDbEntity
  8
0
  6
HIDDEN
 62
     7
370
    15
100
AcDbLine
 10
261.9126959847
 20
195.65404594595
 30
0.0
 11
262.1206959847
 21
195.67954594595
 31
0.0
1001
Sigma
1000

  0
LINE
  5
5F4
102
{ACAD_REACTORS
330
59D
102
}
330
1F
100
AcDbEntity
  8
0
  6
HIDDEN
 62
     7
370
    15
100
AcDbLine
 10
261.7039959846999
 20
195.6392459459499
 30
0.0
 11
261.9126959847
 21
195.65404594595
 31
0.0
1001
Sigma
1000

  0
LINE
  5
5F6
102
{ACAD_REACTORS
330
59D
102
}
330
1F
100
AcDbEntity
  8
0
  6
HIDDEN
 62
     7
370
    15
100
AcDbLine
 10
261.4953959846999
 20
195.6351459459499
 30
0.0
 11
261.7039959846999
 21
195.6392459459499
 31
0.0
1001
Sigma
1000

  0
LINE
  5
5F8
102
{ACAD_REACTORS
330
59D
102
}
330
1F
100
AcDbEntity
  8
0
  6
HIDDEN
 62
     7
370
    15
100
AcDbLine
 10
261.2874959847
 20
195.6418459459499
 30
0.0
 11
261.4953959846999
 21
195.6351459459499
 31
0.0
1001
Sigma
1000

  0
LINE
  5
5FA
102
{ACAD_REACTORS
330
59D
102
}
330
1F
100
AcDbEntity
  8
0
  6
HIDDEN
 62
     7
370
    15
100
AcDbLine
 10
261.0809959846999
 20
195.6593459459499
 30
0.0
 11
261.2874959847
 21
195.6418459459499
 31
0.0
1001
Sigma
1000

  0
LINE
  5
5FC
102
{ACAD_REACTORS
330
59D
102
}
330
1F
100
AcDbEntity
  8
0
  6
HIDDEN
 62
     7
370
    15
100
AcDbLine
 10
260.8767959846999
 20
195.68754594595
 30
0.0
 11
261.0809959846999
 21
195.6593459459499
 31
0.0
1001
Sigma
1000

  0
LINE
  5
5FE
102
{ACAD_REACTORS
330
59D
102
}
330
1F
100
AcDbEntity
  8
0
  6
HIDDEN
 62
     7
370
    15
100
AcDbLine
 10
260.7011959847
 20
195.72064594595
 30
0.0
 11
260.8767959846999
 21
195.68754594595
 31
0.0
1001
Sigma
1000

  0
LINE
  5
600
102
{ACAD_REACTORS
330
59D
102
}
330
1F
100
AcDbEntity
  8
0
  6
HIDDEN
 62
     7
370
    15
100
AcDbLine
 10
260.5276959847
 20
195.76134594595
 30
0.0
 11
260.7011959847
 21
195.72064594595
 31
0.0
1001
Sigma
1000

  0
LINE
  5
602
102
{ACAD_REACTORS
330
59D
102
}
330
1F
100
AcDbEntity
  8
0
  6
HIDDEN
 62
     7
370
    15
100
AcDbLine
 10
260.3560959846999
 20
195.8087459459499
 30
0.0
 11
260.5276959847
 21
195.76134594595
 31
0.0
1001
Sigma
1000

  0
LINE
  5
604
102
{ACAD_REACTORS
330
59D
102
}
330
1F
100
AcDbEntity
  8
0
  6
HIDDEN
 62
     7
370
    15
100
AcDbLine
 10
260.1859959847
 20
195.86234594595
 30
0.0
 11
260.3560959846999
 21
195.8087459459499
 31
0.0
1001
Sigma
1000

  0
LINE
  5
606
102
{ACAD_REACTORS
330
59D
102
}
330
1F
100
AcDbEntity
  8
0
  6
HIDDEN
 62
     7
370
    15
100
AcDbLine
 10
260.0174959847
 20
195.92134594595
 30
0.0
 11
260.1859959847
 21
195.86234594595
 31
0.0
1001
Sigma
1000

  0
LINE
  5
608
102
{ACAD_REACTORS
330
59D
102
}
330
1F
100
AcDbEntity
  8
0
  6
HIDDEN
 62
     7
370
    15
100
AcDbLine
 10
259.8501959847
 20
195.9850459459499
 30
0.0
 11
260.0174959847
 21
195.92134594595
 31
0.0
1001
Sigma
1000

  0
LINE
  5
60A
102
{ACAD_REACTORS
330
59D
102
}
330
1F
100
AcDbEntity
  8
0
  6
HIDDEN
 62
     7
370
    15
100
AcDbLine
 10
259.6839959847
 20
196.05284594595
 30
0.0
 11
259.8501959847
 21
195.9850459459499
 31
0.0
1001
Sigma
1000

  0
LINE
  5
60C
102
{ACAD_REACTORS
330
59D
102
}
330
1F
100
AcDbEntity
  8
0
  6
HIDDEN
 62
     7
370
    15
100
AcDbLine
 10
259.5187959846999
 20
196.12404594595
 30
0.0
 11
259.6839959847
 21
196.05284594595
 31
0.0
1001
Sigma
1000

  0
LINE
  5
60E
102
{ACAD_REACTORS
330
59D
102
}
330
1F
100
AcDbEntity
  8
0
  6
HIDDEN
 62
     7
370
    15
100
AcDbLine
 10
259.3542959846999
 20
196.19804594595
 30
0.0
 11
259.5187959846999
 21
196.12404594595
 31
0.0
1001
Sigma
1000

  0
LINE
  5
610
102
{ACAD_REACTORS
330
59D
102
}
330
1F
100
AcDbEntity
  8
0
  6
HIDDEN
 62
     7
370
    15
100
AcDbLine
 10
259.1902959847
 20
196.2739459459499
 30
0.0
 11
259.3542959846999
 21
196.19804594595
 31
0.0
1001
Sigma
1000

  0
LINE
  5
612
102
{ACAD_REACTORS
330
59D
102
}
330
1F
100
AcDbEntity
  8
0
  6
HIDDEN
 62
     7
370
    15
100
AcDbLine
 10
259.0267959847
 20
196.35124594595
 30
0.0
 11
259.1902959847
 21
196.2739459459499
 31
0.0
1001
Sigma
1000

  0
LINE
  5
614
102
{ACAD_REACTORS
330
59D
102
}
330
1F
100
AcDbEntity
  8
0
  6
HIDDEN
 62
     7
370
    15
100
AcDbLine
 10
258.8632959847
 20
196.4292459459499
 30
0.0
 11
259.0267959847
 21
196.35124594595
 31
0.0
1001
Sigma
1000

  0
LINE
  5
617
102
{ACAD_REACTORS
330
616
102
}
330
1F
100
AcDbEntity
  8
0
  6
Continuous
 62
     7
370
    30
100
AcDbLine
 10
271.3631959847
 20
147.89814594595
 30
0.0
 11
271.3631959847
 21
160.56804594595
 31
0.0
1001
Sigma
1000

  0
LINE
  5
61A
102
{ACAD_REACTORS
330
619
102
}
330
1F
100
AcDbEntity
  8
0
  6
Continuous
 62
     7
370
    30
100
AcDbLine
 10
256.3632959847
 20
160.56804594595
 30
0.0
 11
271.3631959847
 21
160.56804594595
 31
0.0
1001
Sigma
1000

  0
LINE
  5
61D
102
{ACAD_REACTORS
330
61C
102
}
330
1F
100
AcDbEntity
  8
0
  6
Continuous
 62
     7
370
    30
100
AcDbLine
 10
269.8631959846999
 20
166.5681459459499
 30
0.0
 11
257.8632959847
 21
166.5681459459499
 31
0.0
1001
Sigma
1000

  0
LINE
  5
620
102
{ACAD_REACTORS
330
61F
102
}
330
1F
100
AcDbEntity
  8
0
  6
Continuous
 62
     7
370
    30
100
AcDbLine
 10
256.3632959847
 20
147.89814594595
 30
0.0
 11
271.3631959847
 21
147.89814594595
 31
0.0
1001
Sigma
1000

  0
LINE
  5
623
102
{ACAD_REACTORS
330
622
102
}
330
1F
100
AcDbEntity
  8
0
  6
Continuous
 62
     7
370
    30
100
AcDbLine
 10
256.3632959847
 20
147.8980459459499
 30
0.0
 11
256.3632959847
 21
145.1150459459499
 31
0.0
1001
Sigma
1000

  0
LINE
  5
626
102
{ACAD_REACTORS
330
625
102
}
330
1F
100
AcDbEntity
  8
0
  6
Continuous
 62
     7
370
    30
100
AcDbLine
 10
271.3631959847
 20
147.8980459459499
 30
0.0
 11
271.3631959847
 21
145.1150459459499
 31
0.0
1001
Sigma
1000

  0
CIRCLE
  5
628
330
1F
100
AcDbEntity
  8
0
  6
Continuous
 62
     7
370
    15
100
AcDbCircle
 10
263.8632959847
 20
163.56804594595
 30
0.0
 40
1.4999
1001
Sigma
1000

  0
CIRCLE
  5
62A
330
1F
100
AcDbEntity
  8
0
  6
Continuous
 62
     7
370
    15
100
AcDbCircle
 10
263.8632959847
 20
163.56804594595
 30
0.0
 40
1.1
1001
Sigma
1000

  0
LINE
  5
62D
102
{ACAD_REACTORS
330
62C
102
}
330
1F
100
AcDbEntity
  8
0
  6
Continuous
 62
     7
370
    15
100
AcDbLine
 10
261.9844959847
 20
163.56804594595
 30
0.0
 11
265.6697959846999
 21
163.56804594595
 31
0.0
1001
Sigma
1000

  0
LINE
  5
630
102
{ACAD_REACTORS
330
62F
102
}
330
1F
100
AcDbEntity
  8
0
  6
Continuous
 62
     7
370
    15
100
AcDbLine
 10
263.8632959847
 20
165.44694594595
 30
0.0
 11
263.8632959847
 21
161.6892459459499
 31
0.0
1001
Sigma
1000

  0
LINE
  5
633
102
{ACAD_REACTORS
330
632
102
}
330
1F
100
AcDbEntity
  8
0
  6
Continuous
 62
     7
370
    15
100
AcDbLine
 10
263.0131959847
 20
163.5542459459499
 30
0.0
 11
263.4382959847
 21
162.8181459459499
 31
0.0
1001
Sigma
1000

  0
LINE
  5
635
102
{ACAD_REACTORS
330
632
102
}
330
1F
100
AcDbEntity
  8
0
  6
Continuous
 62
     7
370
    15
100
AcDbLine
 10
263.4382959847
 20
164.29044594595
 30
0.0
 11
263.0131959847
 21
163.5542459459499
 31
0.0
1001
Sigma
1000

  0
LINE
  5
637
102
{ACAD_REACTORS
330
632
102
}
330
1F
100
AcDbEntity
  8
0
  6
Continuous
 62
     7
370
    15
100
AcDbLine
 10
264.2883959846999
 20
164.29044594595
 30
0.0
 11
263.4382959847
 21
164.29044594595
 31
0.0
1001
Sigma
1000

  0
LINE
  5
639
102
{ACAD_REACTORS
330
632
102
}
330
1F
100
AcDbEntity
  8
0
  6
Continuous
 62
     7
370
    15
100
AcDbLine
 10
264.7133959847
 20
163.5542459459499
 30
0.0
 11
264.2883959846999
 21
164.29044594595
 31
0.0
1001
Sigma
1000

  0
LINE
  5
63B
102
{ACAD_REACTORS
330
632
102
}
330
1F
100
AcDbEntity
  8
0
  6
Continuous
 62
     7
370
    15
100
AcDbLine
 10
264.2883959846999
 20
162.8181459459499
 30
0.0
 11
264.7133959847
 21
163.5542459459499
 31
0.0
1001
Sigma
1000

  0
LINE
  5
63D
102
{ACAD_REACTORS
330
632
102
}
330
1F
100
AcDbEntity
  8
0
  6
Continuous
 62
     7
370
    15
100
AcDbLine
 10
263.4382959847
 20
162.8181459459499
 30
0.0
 11
264.2883959846999
 21
162.8181459459499
 31
0.0
1001
Sigma
1000

  0
LINE
  5
640
102
{ACAD_REACTORS
330
63F
102
}
330
1F
100
AcDbEntity
  8
0
  6
Continuous
 62
     7
370
    15
100
AcDbLine
 10
256.8632959847
 20
146.49794594595
 30
0.0
 11
250.8632959847
 21
146.49794594595
 31
0.0
1001
Sigma
1000

  0
LINE
  5
643
102
{ACAD_REACTORS
330
642
102
}
330
1F
100
AcDbEntity
  8
0
  6
Continuous
 62
     7
370
    15
100
AcDbLine
 10
253.8632959846999
 20
147.9979459459499
 30
0.0
 11
253.8632959846999
 21
144.9979459459499
 31
0.0
1001
Sigma
1000

  0
LINE
  5
646
102
{ACAD_REACTORS
330
645
102
}
330
1F
100
AcDbEntity
  8
0
  6
Continuous
 62
     7
370
    15
100
AcDbLine
 10
254.8632959847
 20
146.99804594595
 30
0.0
 11
252.8632959847
 21
145.99804594595
 31
0.0
1001
Sigma
1000

  0
LINE
  5
649
102
{ACAD_REACTORS
330
648
102
}
330
1F
100
AcDbEntity
  8
0
  6
Continuous
 62
     7
370
    15
100
AcDbLine
 10
252.8632959847
 20
146.99804594595
 30
0.0
 11
254.8632959847
 21
145.99804594595
 31
0.0
1001
Sigma
1000

  0
LINE
  5
64C
102
{ACAD_REACTORS
330
64B
102
}
330
1F
100
AcDbEntity
  8
0
  6
Continuous
 62
     7
370
    15
100
AcDbLine
 10
255.8328959847
 20
146.32434594595
 30
0.0
 11
255.8632959846999
 21
146.49794594595
 31
0.0
1001
Sigma
1000

  0
LINE
  5
64E
102
{ACAD_REACTORS
330
64B
102
}
330
1F
100
AcDbEntity
  8
0
  6
Continuous
 62
     7
370
    15
100
AcDbLine
 10
255.7426959847
 20
146.15594594595
 30
0.0
 11
255.8328959847
 21
146.32434594595
 31
0.0
1001
Sigma
1000

  0
LINE
  5
650
102
{ACAD_REACTORS
330
64B
102
}
330
1F
100
AcDbEntity
  8
0
  6
Continuous
 62
     7
370
    15
100
AcDbLine
 10
255.5952959847
 20
145.99804594595
 30
0.0
 11
255.7426959847
 21
146.15594594595
 31
0.0
1001
Sigma
1000

  0
LINE
  5
652
102
{ACAD_REACTORS
330
64B
102
}
330
1F
100
AcDbEntity
  8
0
  6
Continuous
 62
     7
370
    15
100
AcDbLine
 10
255.3953959847
 20
145.85524594595
 30
0.0
 11
255.5952959847
 21
145.99804594595
 31
0.0
1001
Sigma
1000

  0
LINE
  5
654
102
{ACAD_REACTORS
330
64B
102
}
330
1F
100
AcDbEntity
  8
0
  6
Continuous
 62
     7
370
    15
100
AcDbLine
 10
255.1488959847
 20
145.7319459459499
 30
0.0
 11
255.3953959847
 21
145.85524594595
 31
0.0
1001
Sigma
1000

  0
LINE
  5
656
102
{ACAD_REACTORS
330
64B
102
}
330
1F
100
AcDbEntity
  8
0
  6
Continuous
 62
     7
370
    15
100
AcDbLine
 10
254.8632959847
 20
145.63194594595
 30
0.0
 11
255.1488959847
 21
145.7319459459499
 31
0.0
1001
Sigma
1000

  0
LINE
  5
658
102
{ACAD_REACTORS
330
64B
102
}
330
1F
100
AcDbEntity
  8
0
  6
Continuous
 62
     7
370
    15
100
AcDbLine
 10
254.5472959847
 20
145.55834594595
 30
0.0
 11
254.8632959847
 21
145.63194594595
 31
0.0
1001
Sigma
1000

  0
LINE
  5
65A
102
{ACAD_REACTORS
330
64B
102
}
330
1F
100
AcDbEntity
  8
0
  6
Continuous
 62
     7
370
    15
100
AcDbLine
 10
254.2105959846999
 20
145.5131459459499
 30
0.0
 11
254.5472959847
 21
145.55834594595
 31
0.0
1001
Sigma
1000

  0
LINE
  5
65C
102
{ACAD_REACTORS
330
64B
102
}
330
1F
100
AcDbEntity
  8
0
  6
Continuous
 62
     7
370
    15
100
AcDbLine
 10
253.8632959846999
 20
145.4980459459499
 30
0.0
 11
254.2105959846999
 21
145.5131459459499
 31
0.0
1001
Sigma
1000

  0
LINE
  5
65E
102
{ACAD_REACTORS
330
64B
102
}
330
1F
100
AcDbEntity
  8
0
  6
Continuous
 62
     7
370
    15
100
AcDbLine
 10
253.5159959846999
 20
145.5131459459499
 30
0.0
 11
253.8632959846999
 21
145.4980459459499
 31
0.0
1001
Sigma
1000

  0
LINE
  5
660
102
{ACAD_REACTORS
330
64B
102
}
330
1F
100
AcDbEntity
  8
0
  6
Continuous
 62
     7
370
    15
100
AcDbLine
 10
253.1791959846999
 20
145.55834594595
 30
0.0
 11
253.5159959846999
 21
145.5131459459499
 31
0.0
1001
Sigma
1000

  0
LINE
  5
662
102
{ACAD_REACTORS
330
64B
102
}
330
1F
100
AcDbEntity
  8
0
  6
Continuous
 62
     7
370
    15
100
AcDbLine
 10
252.8632959847
 20
145.63194594595
 30
0.0
 11
253.1791959846999
 21
145.55834594595
 31
0.0
1001
Sigma
1000

  0
LINE
  5
664
102
{ACAD_REACTORS
330
64B
102
}
330
1F
100
AcDbEntity
  8
0
  6
Continuous
 62
     7
370
    15
100
AcDbLine
 10
252.5777959847
 20
145.7319459459499
 30
0.0
 11
252.8632959847
 21
145.63194594595
 31
0.0
1001
Sigma
1000

  0
LINE
  5
666
102
{ACAD_REACTORS
330
64B
102
}
330
1F
100
AcDbEntity
  8
0
  6
Continuous
 62
     7
370
    15
100
AcDbLine
 10
252.3311959847
 20
145.85524594595
 30
0.0
 11
252.5777959847
 21
145.7319459459499
 31
0.0
1001
Sigma
1000

  0
LINE
  5
668
102
{ACAD_REACTORS
330
64B
102
}
330
1F
100
AcDbEntity
  8
0
  6
Continuous
 62
     7
370
    15
100
AcDbLine
 10
252.1312959847
 20
145.99804594595
 30
0.0
 11
252.3311959847
 21
145.85524594595
 31
0.0
1001
Sigma
1000

  0
LINE
  5
66A
102
{ACAD_REACTORS
330
64B
102
}
330
1F
100
AcDbEntity
  8
0
  6
Continuous
 62
     7
370
    15
100
AcDbLine
 10
251.9839959846999
 20
146.15594594595
 30
0.0
 11
252.1312959847
 21
145.99804594595
 31
0.0
1001
Sigma
1000

  0
LINE
  5
66C
102
{ACAD_REACTORS
330
64B
102
}
330
1F
100
AcDbEntity
  8
0
  6
Continuous
 62
     7
370
    15
100
AcDbLine
 10
251.8936959847
 20
146.32434594595
 30
0.0
 11
251.9839959846999
 21
146.15594594595
 31
0.0
1001
Sigma
1000

  0
LINE
  5
66E
102
{ACAD_REACTORS
330
64B
102
}
330
1F
100
AcDbEntity
  8
0
  6
Continuous
 62
     7
370
    15
100
AcDbLine
 10
251.8632959846999
 20
146.49794594595
 30
0.0
 11
251.8936959847
 21
146.32434594595
 31
0.0
1001
Sigma
1000

  0
LINE
  5
670
102
{ACAD_REACTORS
330
64B
102
}
330
1F
100
AcDbEntity
  8
0
  6
Continuous
 62
     7
370
    15
100
AcDbLine
 10
251.8936959847
 20
146.6716459459499
 30
0.0
 11
251.8632959846999
 21
146.49794594595
 31
0.0
1001
Sigma
1000

  0
LINE
  5
672
102
{ACAD_REACTORS
330
64B
102
}
330
1F
100
AcDbEntity
  8
0
  6
Continuous
 62
     7
370
    15
100
AcDbLine
 10
251.9839959846999
 20
146.84004594595
 30
0.0
 11
251.8936959847
 21
146.6716459459499
 31
0.0
1001
Sigma
1000

  0
LINE
  5
674
102
{ACAD_REACTORS
330
64B
102
}
330
1F
100
AcDbEntity
  8
0
  6
Continuous
 62
     7
370
    15
100
AcDbLine
 10
252.1312959847
 20
146.99804594595
 30
0.0
 11
251.9839959846999
 21
146.84004594595
 31
0.0
1001
Sigma
1000

  0
LINE
  5
676
102
{ACAD_REACTORS
330
64B
102
}
330
1F
100
AcDbEntity
  8
0
  6
Continuous
 62
     7
370
    15
100
AcDbLine
 10
252.3311959847
 20
147.1408459459499
 30
0.0
 11
252.1312959847
 21
146.99804594595
 31
0.0
1001
Sigma
1000

  0
LINE
  5
678
102
{ACAD_REACTORS
330
64B
102
}
330
1F
100
AcDbEntity
  8
0
  6
Continuous
 62
     7
370
    15
100
AcDbLine
 10
252.5777959847
 20
147.2640459459499
 30
0.0
 11
252.3311959847
 21
147.1408459459499
 31
0.0
1001
Sigma
1000

  0
LINE
  5
67A
102
{ACAD_REACTORS
330
64B
102
}
330
1F
100
AcDbEntity
  8
0
  6
Continuous
 62
     7
370
    15
100
AcDbLine
 10
252.8632959847
 20
147.36404594595
 30
0.0
 11
252.5777959847
 21
147.2640459459499
 31
0.0
1001
Sigma
1000

  0
LINE
  5
67C
102
{ACAD_REACTORS
330
64B
102
}
330
1F
100
AcDbEntity
  8
0
  6
Continuous
 62
     7
370
    15
100
AcDbLine
 10
253.1791959846999
 20
147.43764594595
 30
0.0
 11
252.8632959847
 21
147.36404594595
 31
0.0
1001
Sigma
1000

  0
LINE
  5
67E
102
{ACAD_REACTORS
330
64B
102
}
330
1F
100
AcDbEntity
  8
0
  6
Continuous
 62
     7
370
    15
100
AcDbLine
 10
253.5159959846999
 20
147.48274594595
 30
0.0
 11
253.1791959846999
 21
147.43764594595
 31
0.0
1001
Sigma
1000

  0
LINE
  5
680
102
{ACAD_REACTORS
330
64B
102
}
330
1F
100
AcDbEntity
  8
0
  6
Continuous
 62
     7
370
    15
100
AcDbLine
 10
253.8632959846999
 20
147.49804594595
 30
0.0
 11
253.5159959846999
 21
147.48274594595
 31
0.0
1001
Sigma
1000

  0
LINE
  5
682
102
{ACAD_REACTORS
330
64B
102
}
330
1F
100
AcDbEntity
  8
0
  6
Continuous
 62
     7
370
    15
100
AcDbLine
 10
254.2105959846999
 20
147.48274594595
 30
0.0
 11
253.8632959846999
 21
147.49804594595
 31
0.0
1001
Sigma
1000

  0
LINE
  5
684
102
{ACAD_REACTORS
330
64B
102
}
330
1F
100
AcDbEntity
  8
0
  6
Continuous
 62
     7
370
    15
100
AcDbLine
 10
254.5472959847
 20
147.43764594595
 30
0.0
 11
254.2105959846999
 21
147.48274594595
 31
0.0
1001
Sigma
1000

  0
LINE
  5
686
102
{ACAD_REACTORS
330
64B
102
}
330
1F
100
AcDbEntity
  8
0
  6
Continuous
 62
     7
370
    15
100
AcDbLine
 10
254.8632959847
 20
147.36404594595
 30
0.0
 11
254.5472959847
 21
147.43764594595
 31
0.0
1001
Sigma
1000

  0
LINE
  5
688
102
{ACAD_REACTORS
330
64B
102
}
330
1F
100
AcDbEntity
  8
0
  6
Continuous
 62
     7
370
    15
100
AcDbLine
 10
255.1488959847
 20
147.2640459459499
 30
0.0
 11
254.8632959847
 21
147.36404594595
 31
0.0
1001
Sigma
1000

  0
LINE
  5
68A
102
{ACAD_REACTORS
330
64B
102
}
330
1F
100
AcDbEntity
  8
0
  6
Continuous
 62
     7
370
    15
100
AcDbLine
 10
255.3953959847
 20
147.1408459459499
 30
0.0
 11
255.1488959847
 21
147.2640459459499
 31
0.0
1001
Sigma
1000

  0
LINE
  5
68C
102
{ACAD_REACTORS
330
64B
102
}
330
1F
100
AcDbEntity
  8
0
  6
Continuous
 62
     7
370
    15
100
AcDbLine
 10
255.5952959847
 20
146.99804594595
 30
0.0
 11
255.3953959847
 21
147.1408459459499
 31
0.0
1001
Sigma
1000

  0
LINE
  5
68E
102
{ACAD_REACTORS
330
64B
102
}
330
1F
100
AcDbEntity
  8
0
  6
Continuous
 62
     7
370
    15
100
AcDbLine
 10
255.7426959847
 20
146.84004594595
 30
0.0
 11
255.5952959847
 21
146.99804594595
 31
0.0
1001
Sigma
1000

  0
LINE
  5
690
102
{ACAD_REACTORS
330
64B
102
}
330
1F
100
AcDbEntity
  8
0
  6
Continuous
 62
     7
370
    15
100
AcDbLine
 10
255.8328959847
 20
146.6716459459499
 30
0.0
 11
255.7426959847
 21
146.84004594595
 31
0.0
1001
Sigma
1000

  0
LINE
  5
692
102
{ACAD_REACTORS
330
64B
102
}
330
1F
100
AcDbEntity
  8
0
  6
Continuous
 62
     7
370
    15
100
AcDbLine
 10
255.8632959846999
 20
146.49794594595
 30
0.0
 11
255.8328959847
 21
146.6716459459499
 31
0.0
1001
Sigma
1000

  0
LINE
  5
695
102
{ACAD_REACTORS
330
694
102
}
330
1F
100
AcDbEntity
  8
0
  6
Continuous
 62
     7
370
    15
100
AcDbLine
 10
276.8632959847
 20
146.49794594595
 30
0.0
 11
270.8632959847
 21
146.49794594595
 31
0.0
1001
Sigma
1000

  0
LINE
  5
698
102
{ACAD_REACTORS
330
697
102
}
330
1F
100
AcDbEntity
  8
0
  6
Continuous
 62
     7
370
    15
100
AcDbLine
 10
273.8632959847
 20
147.9979459459499
 30
0.0
 11
273.8632959847
 21
144.9979459459499
 31
0.0
1001
Sigma
1000

  0
LINE
  5
69B
102
{ACAD_REACTORS
330
69A
102
}
330
1F
100
AcDbEntity
  8
0
  6
Continuous
 62
     7
370
    15
100
AcDbLine
 10
274.8632959847
 20
146.99804594595
 30
0.0
 11
272.8632959847
 21
145.99804594595
 31
0.0
1001
Sigma
1000

  0
LINE
  5
69E
102
{ACAD_REACTORS
330
69D
102
}
330
1F
100
AcDbEntity
  8
0
  6
Continuous
 62
     7
370
    15
100
AcDbLine
 10
272.8632959847
 20
146.99804594595
 30
0.0
 11
274.8632959847
 21
145.99804594595
 31
0.0
1001
Sigma
1000

  0
LINE
  5
6A1
102
{ACAD_REACTORS
330
6A0
102
}
330
1F
100
AcDbEntity
  8
0
  6
Continuous
 62
     7
370
    15
100
AcDbLine
 10
275.8328959846999
 20
146.32434594595
 30
0.0
 11
275.8632959847
 21
146.49794594595
 31
0.0
1001
Sigma
1000

  0
LINE
  5
6A3
102
{ACAD_REACTORS
330
6A0
102
}
330
1F
100
AcDbEntity
  8
0
  6
Continuous
 62
     7
370
    15
100
AcDbLine
 10
275.7426959846999
 20
146.15594594595
 30
0.0
 11
275.8328959846999
 21
146.32434594595
 31
0.0
1001
Sigma
1000

  0
LINE
  5
6A5
102
{ACAD_REACTORS
330
6A0
102
}
330
1F
100
AcDbEntity
  8
0
  6
Continuous
 62
     7
370
    15
100
AcDbLine
 10
275.5953959847
 20
145.99804594595
 30
0.0
 11
275.7426959846999
 21
146.15594594595
 31
0.0
1001
Sigma
1000

  0
LINE
  5
6A7
102
{ACAD_REACTORS
330
6A0
102
}
330
1F
100
AcDbEntity
  8
0
  6
Continuous
 62
     7
370
    15
100
AcDbLine
 10
275.3953959846999
 20
145.85524594595
 30
0.0
 11
275.5953959847
 21
145.99804594595
 31
0.0
1001
Sigma
1000

  0
LINE
  5
6A9
102
{ACAD_REACTORS
330
6A0
102
}
330
1F
100
AcDbEntity
  8
0
  6
Continuous
 62
     7
370
    15
100
AcDbLine
 10
275.1488959847
 20
145.7319459459499
 30
0.0
 11
275.3953959846999
 21
145.85524594595
 31
0.0
1001
Sigma
1000

  0
LINE
  5
6AB
102
{ACAD_REACTORS
330
6A0
102
}
330
1F
100
AcDbEntity
  8
0
  6
Continuous
 62
     7
370
    15
100
AcDbLine
 10
274.8632959847
 20
145.63194594595
 30
0.0
 11
275.1488959847
 21
145.7319459459499
 31
0.0
1001
Sigma
1000

  0
LINE
  5
6AD
102
{ACAD_REACTORS
330
6A0
102
}
330
1F
100
AcDbEntity
  8
0
  6
Continuous
 62
     7
370
    15
100
AcDbLine
 10
274.5472959847
 20
145.55834594595
 30
0.0
 11
274.8632959847
 21
145.63194594595
 31
0.0
1001
Sigma
1000

  0
LINE
  5
6AF
102
{ACAD_REACTORS
330
6A0
102
}
330
1F
100
AcDbEntity
  8
0
  6
Continuous
 62
     7
370
    15
100
AcDbLine
 10
274.2105959846999
 20
145.5131459459499
 30
0.0
 11
274.5472959847
 21
145.55834594595
 31
0.0
1001
Sigma
1000

  0
LINE
  5
6B1
102
{ACAD_REACTORS
330
6A0
102
}
330
1F
100
AcDbEntity
  8
0
  6
Continuous
 62
     7
370
    15
100
AcDbLine
 10
273.8632959847
 20
145.4980459459499
 30
0.0
 11
274.2105959846999
 21
145.5131459459499
 31
0.0
1001
Sigma
1000

  0
LINE
  5
6B3
102
{ACAD_REACTORS
330
6A0
102
}
330
1F
100
AcDbEntity
  8
0
  6
Continuous
 62
     7
370
    15
100
AcDbLine
 10
273.5159959846999
 20
145.5131459459499
 30
0.0
 11
273.8632959847
 21
145.4980459459499
 31
0.0
1001
Sigma
1000

  0
LINE
  5
6B5
102
{ACAD_REACTORS
330
6A0
102
}
330
1F
100
AcDbEntity
  8
0
  6
Continuous
 62
     7
370
    15
100
AcDbLine
 10
273.1792959847
 20
145.55834594595
 30
0.0
 11
273.5159959846999
 21
145.5131459459499
 31
0.0
1001
Sigma
1000

  0
LINE
  5
6B7
102
{ACAD_REACTORS
330
6A0
102
}
330
1F
100
AcDbEntity
  8
0
  6
Continuous
 62
     7
370
    15
100
AcDbLine
 10
272.8632959847
 20
145.63194594595
 30
0.0
 11
273.1792959847
 21
145.55834594595
 31
0.0
1001
Sigma
1000

  0
LINE
  5
6B9
102
{ACAD_REACTORS
330
6A0
102
}
330
1F
100
AcDbEntity
  8
0
  6
Continuous
 62
     7
370
    15
100
AcDbLine
 10
272.5776959846999
 20
145.7319459459499
 30
0.0
 11
272.8632959847
 21
145.63194594595
 31
0.0
1001
Sigma
1000

  0
LINE
  5
6BB
102
{ACAD_REACTORS
330
6A0
102
}
330
1F
100
AcDbEntity
  8
0
  6
Continuous
 62
     7
370
    15
100
AcDbLine
 10
272.3311959846999
 20
145.85524594595
 30
0.0
 11
272.5776959846999
 21
145.7319459459499
 31
0.0
1001
Sigma
1000

  0
LINE
  5
6BD
102
{ACAD_REACTORS
330
6A0
102
}
330
1F
100
AcDbEntity
  8
0
  6
Continuous
 62
     7
370
    15
100
AcDbLine
 10
272.1311959847
 20
145.99804594595
 30
0.0
 11
272.3311959846999
 21
145.85524594595
 31
0.0
1001
Sigma
1000

  0
LINE
  5
6BF
102
{ACAD_REACTORS
330
6A0
102
}
330
1F
100
AcDbEntity
  8
0
  6
Continuous
 62
     7
370
    15
100
AcDbLine
 10
271.9839959846999
 20
146.15594594595
 30
0.0
 11
272.1311959847
 21
145.99804594595
 31
0.0
1001
Sigma
1000

  0
LINE
  5
6C1
102
{ACAD_REACTORS
330
6A0
102
}
330
1F
100
AcDbEntity
  8
0
  6
Continuous
 62
     7
370
    15
100
AcDbLine
 10
271.8936959846999
 20
146.32434594595
 30
0.0
 11
271.9839959846999
 21
146.15594594595
 31
0.0
1001
Sigma
1000

  0
LINE
  5
6C3
102
{ACAD_REACTORS
330
6A0
102
}
330
1F
100
AcDbEntity
  8
0
  6
Continuous
 62
     7
370
    15
100
AcDbLine
 10
271.8632959847
 20
146.49794594595
 30
0.0
 11
271.8936959846999
 21
146.32434594595
 31
0.0
1001
Sigma
1000

  0
LINE
  5
6C5
102
{ACAD_REACTORS
330
6A0
102
}
330
1F
100
AcDbEntity
  8
0
  6
Continuous
 62
     7
370
    15
100
AcDbLine
 10
271.8936959846999
 20
146.6716459459499
 30
0.0
 11
271.8632959847
 21
146.49794594595
 31
0.0
1001
Sigma
1000

  0
LINE
  5
6C7
102
{ACAD_REACTORS
330
6A0
102
}
330
1F
100
AcDbEntity
  8
0
  6
Continuous
 62
     7
370
    15
100
AcDbLine
 10
271.9839959846999
 20
146.84004594595
 30
0.0
 11
271.8936959846999
 21
146.6716459459499
 31
0.0
1001
Sigma
1000

  0
LINE
  5
6C9
102
{ACAD_REACTORS
330
6A0
102
}
330
1F
100
AcDbEntity
  8
0
  6
Continuous
 62
     7
370
    15
100
AcDbLine
 10
272.1311959847
 20
146.99804594595
 30
0.0
 11
271.9839959846999
 21
146.84004594595
 31
0.0
1001
Sigma
1000

  0
LINE
  5
6CB
102
{ACAD_REACTORS
330
6A0
102
}
330
1F
100
AcDbEntity
  8
0
  6
Continuous
 62
     7
370
    15
100
AcDbLine
 10
272.3311959846999
 20
147.1408459459499
 30
0.0
 11
272.1311959847
 21
146.99804594595
 31
0.0
1001
Sigma
1000

  0
LINE
  5
6CD
102
{ACAD_REACTORS
330
6A0
102
}
330
1F
100
AcDbEntity
  8
0
  6
Continuous
 62
     7
370
    15
100
AcDbLine
 10
272.5776959846999
 20
147.2640459459499
 30
0.0
 11
272.3311959846999
 21
147.1408459459499
 31
0.0
1001
Sigma
1000

  0
LINE
  5
6CF
102
{ACAD_REACTORS
330
6A0
102
}
330
1F
100
AcDbEntity
  8
0
  6
Continuous
 62
     7
370
    15
100
AcDbLine
 10
272.8632959847
 20
147.36404594595
 30
0.0
 11
272.5776959846999
 21
147.2640459459499
 31
0.0
1001
Sigma
1000

  0
LINE
  5
6D1
102
{ACAD_REACTORS
330
6A0
102
}
330
1F
100
AcDbEntity
  8
0
  6
Continuous
 62
     7
370
    15
100
AcDbLine
 10
273.1792959847
 20
147.43764594595
 30
0.0
 11
272.8632959847
 21
147.36404594595
 31
0.0
1001
Sigma
1000

  0
LINE
  5
6D3
102
{ACAD_REACTORS
330
6A0
102
}
330
1F
100
AcDbEntity
  8
0
  6
Continuous
 62
     7
370
    15
100
AcDbLine
 10
273.5159959846999
 20
147.48274594595
 30
0.0
 11
273.1792959847
 21
147.43764594595
 31
0.0
1001
Sigma
1000

  0
LINE
  5
6D5
102
{ACAD_REACTORS
330
6A0
102
}
330
1F
100
AcDbEntity
  8
0
  6
Continuous
 62
     7
370
    15
100
AcDbLine
 10
273.8632959847
 20
147.49804594595
 30
0.0
 11
273.5159959846999
 21
147.48274594595
 31
0.0
1001
Sigma
1000

  0
LINE
  5
6D7
102
{ACAD_REACTORS
330
6A0
102
}
330
1F
100
AcDbEntity
  8
0
  6
Continuous
 62
     7
370
    15
100
AcDbLine
 10
274.2105959846999
 20
147.48274594595
 30
0.0
 11
273.8632959847
 21
147.49804594595
 31
0.0
1001
Sigma
1000

  0
LINE
  5
6D9
102
{ACAD_REACTORS
330
6A0
102
}
330
1F
100
AcDbEntity
  8
0
  6
Continuous
 62
     7
370
    15
100
AcDbLine
 10
274.5472959847
 20
147.43764594595
 30
0.0
 11
274.2105959846999
 21
147.48274594595
 31
0.0
1001
Sigma
1000

  0
LINE
  5
6DB
102
{ACAD_REACTORS
330
6A0
102
}
330
1F
100
AcDbEntity
  8
0
  6
Continuous
 62
     7
370
    15
100
AcDbLine
 10
274.8632959847
 20
147.36404594595
 30
0.0
 11
274.5472959847
 21
147.43764594595
 31
0.0
1001
Sigma
1000

  0
LINE
  5
6DD
102
{ACAD_REACTORS
330
6A0
102
}
330
1F
100
AcDbEntity
  8
0
  6
Continuous
 62
     7
370
    15
100
AcDbLine
 10
275.1488959847
 20
147.2640459459499
 30
0.0
 11
274.8632959847
 21
147.36404594595
 31
0.0
1001
Sigma
1000

  0
LINE
  5
6DF
102
{ACAD_REACTORS
330
6A0
102
}
330
1F
100
AcDbEntity
  8
0
  6
Continuous
 62
     7
370
    15
100
AcDbLine
 10
275.3953959846999
 20
147.1408459459499
 30
0.0
 11
275.1488959847
 21
147.2640459459499
 31
0.0
1001
Sigma
1000

  0
LINE
  5
6E1
102
{ACAD_REACTORS
330
6A0
102
}
330
1F
100
AcDbEntity
  8
0
  6
Continuous
 62
     7
370
    15
100
AcDbLine
 10
275.5953959847
 20
146.99804594595
 30
0.0
 11
275.3953959846999
 21
147.1408459459499
 31
0.0
1001
Sigma
1000

  0
LINE
  5
6E3
102
{ACAD_REACTORS
330
6A0
102
}
330
1F
100
AcDbEntity
  8
0
  6
Continuous
 62
     7
370
    15
100
AcDbLine
 10
275.7426959846999
 20
146.84004594595
 30
0.0
 11
275.5953959847
 21
146.99804594595
 31
0.0
1001
Sigma
1000

  0
LINE
  5
6E5
102
{ACAD_REACTORS
330
6A0
102
}
330
1F
100
AcDbEntity
  8
0
  6
Continuous
 62
     7
370
    15
100
AcDbLine
 10
275.8328959846999
 20
146.6716459459499
 30
0.0
 11
275.7426959846999
 21
146.84004594595
 31
0.0
1001
Sigma
1000

  0
LINE
  5
6E7
102
{ACAD_REACTORS
330
6A0
102
}
330
1F
100
AcDbEntity
  8
0
  6
Continuous
 62
     7
370
    15
100
AcDbLine
 10
275.8632959847
 20
146.49794594595
 30
0.0
 11
275.8328959846999
 21
146.6716459459499
 31
0.0
1001
Sigma
1000

  0
LINE
  5
6EA
102
{ACAD_REACTORS
330
6E9
102
}
330
1F
100
AcDbEntity
  8
0
  6
Continuous
 62
     7
370
    30
100
AcDbLine
 10
251.3632959846999
 20
145.1150459459499
 30
0.0
 11
256.3632959847
 21
145.1150459459499
 31
0.0
1001
Sigma
1000

  0
LINE
  5
6ED
102
{ACAD_REACTORS
330
6EC
102
}
330
1F
100
AcDbEntity
  8
0
  6
Continuous
 62
     7
370
    30
100
AcDbLine
 10
271.3631959847
 20
145.1150459459499
 30
0.0
 11
276.3634959847
 21
145.1150459459499
 31
0.0
1001
Sigma
1000

  0
LINE
  5
6F0
102
{ACAD_REACTORS
330
6EF
102
}
330
1F
100
AcDbEntity
  8
0
  6
Continuous
 62
     7
370
    15
100
AcDbLine
 10
230.8664959846999
 20
193.6373459459499
 30
0.0
 11
262.6740959846999
 21
164.48214594595
 31
0.0
1001
Sigma
1000

  0
LINE
  5
6F3
102
{ACAD_REACTORS
330
6F2
102
}
330
1F
100
AcDbEntity
  8
0
  6
Continuous
 62
     7
370
    15
100
AcDbLine
 10
262.6740959846999
 20
164.48214594595
 30
0.0
 11
260.0571959847
 21
166.06694594595
 31
0.0
1001
Sigma
1000

  0
LINE
  5
6F5
102
{ACAD_REACTORS
330
6F2
102
}
330
1F
100
AcDbEntity
  8
0
  6
Continuous
 62
     7
370
    15
100
AcDbLine
 10
260.8679959846999
 20
166.9515459459499
 30
0.0
 11
262.6740959846999
 21
164.48214594595
 31
0.0
1001
Sigma
1000

  0
LINE
  5
6F8
102
{ACAD_REACTORS
330
6F7
102
}
330
1F
100
AcDbEntity
  8
0
  6
Continuous
 62
     7
370
    15
100
AcDbLine
 10
266.9133959847
 20
184.0887459459499
 30
0.0
 11
278.0414959847
 21
201.57574594595
 31
0.0
1001
Sigma
1000

  0
LINE
  5
6FB
102
{ACAD_REACTORS
330
6FA
102
}
330
1F
100
AcDbEntity
  8
0
  6
Continuous
 62
     7
370
    15
100
AcDbLine
 10
289.6374959847
 20
187.30414594595
 30
0.0
 11
346.8675959847
 21
187.30414594595
 31
0.0
1001
Sigma
1000

  0
TEXT
  5
6FD
330
1F
100
AcDbEntity
  8
0
  6
Continuous
 62
     7
370
    15
100
AcDbText
 10
263.3941959919767
 20
94.49724595958968
 30
0.0
 40
4.000000074005126
  1
(168.7)
 41
0.8454550858480206
  7
KCADTEXTSTANDARD
100
AcDbText
1001
Sigma
1000

  0
LINE
  5
700
102
{ACAD_REACTORS
330
6FF
102
}
330
1F
100
AcDbEntity
  8
0
  6
Continuous
 62
     7
370
    15
100
AcDbLine
 10
278.0414959847
 20
201.57574594595
 30
0.0
 11
308.3286959847
 21
201.57574594595
 31
0.0
1001
Sigma
1000

  0
TEXT
  5
702
330
1F
100
AcDbEntity
  8
0
  6
Continuous
 62
     7
370
    15
100
AcDbText
 10
176.6056960191404
 20
194.9715459803904
 30
0.0
 40
4.000000619888306
  1
3-M3六角穴付き止めネジ
 41
0.8855673627570188
  7
KCADTEXTSTANDARD
100
AcDbText
1001
Sigma
1000

  0
TEXT
  5
704
330
1F
100
AcDbEntity
  8
0
  6
Continuous
 62
     7
370
    15
100
AcDbText
 10
292.1842960191404
 20
188.1005459803904
 30
0.0
 40
4.000000619888306
  1
Ｍ３六角穴付き止めネジ
 41
0.9370552536044323
  7
KCADTEXTSTANDARD
100
AcDbText
1001
Sigma
1000

  0
TEXT
  5
706
330
1F
100
AcDbEntity
  8
0
  6
Continuous
 62
     7
370
    15
100
AcDbText
 10
292.2868959919767
 20
183.0622459595976
 30
0.0
 40
4.000000074005126
  1
(
 41
1.499999947214127
  7
KCADTEXTSTANDARD
100
AcDbText
1001
Sigma
1000

  0
TEXT
  5
708
330
1F
100
AcDbEntity
  8
0
  6
Continuous
 62
     7
370
    15
100
AcDbText
 10
339.9843959919767
 20
182.7957459595976
 30
0.0
 40
4.000000074005126
  1
)
 41
1.499999947214127
  7
KCADTEXTSTANDARD
100
AcDbText
1001
Sigma
1000

  0
TEXT
  5
70A
330
1F
100
AcDbEntity
  8
0
  6
Continuous
 62
     7
370
    15
100
AcDbText
 10
343.1819960195375
 20
176.9335459807875
 30
0.0
 40
3.99990062713623
  1
Cマウント
 41
0.8956644232828394
  7
KCADTEXTSTANDARD
100
AcDbText
1001
Sigma
1000

  0
LINE
  5
70D
102
{ACAD_REACTORS
330
70C
102
}
330
1F
100
AcDbEntity
  8
0
  6
Continuous
 62
     7
370
    15
100
AcDbLine
 10
341.8089959847
 20
176.0628459459499
 30
0.0
 11
313.3109959847
 21
150.0980459459499
 31
0.0
1001
Sigma
1000

  0
LINE
  5
710
102
{ACAD_REACTORS
330
70F
102
}
330
1F
100
AcDbEntity
  8
0
  6
Continuous
 62
     7
370
    15
100
AcDbLine
 10
313.3109959847
 20
150.0980459459499
 30
0.0
 11
315.7289959847
 21
153.38334594595
 31
0.0
1001
Sigma
1000

  0
LINE
  5
712
102
{ACAD_REACTORS
330
70F
102
}
330
1F
100
AcDbEntity
  8
0
  6
Continuous
 62
     7
370
    15
100
AcDbLine
 10
316.8065959847
 20
152.2006459459499
 30
0.0
 11
313.3109959847
 21
150.0980459459499
 31
0.0
1001
Sigma
1000

  0
LINE
  5
715
102
{ACAD_REACTORS
330
714
102
}
330
1F
100
AcDbEntity
  8
0
  6
Continuous
 62
     7
370
    15
100
AcDbLine
 10
341.8089959847
 20
176.0628459459499
 30
0.0
 11
364.7250959846999
 21
176.0628459459499
 31
0.0
1001
Sigma
1000

  0
TEXT
  5
717
330
1F
100
AcDbEntity
  8
KCAD_ASST
  6
Continuous
 62
     7
370
    15
100
AcDbText
 10
32.08849599198075
 20
48.87764595958967
 30
0.0
 40
4.000000074005126
  1
KTS-50R
 41
0.930069351961907
  7
KCADTEXTSTANDARD
100
AcDbText
1001
Sigma
1000
ASST
  0
LINE
  5
71A
102
{ACAD_REACTORS
330
719
102
}
330
1F
100
AcDbEntity
  8
0
  6
Continuous
 62
     7
370
    15
100
AcDbLine
 10
233.6031959846999
 20
128.5979459459499
 30
0.0
 11
233.6031959846999
 21
99.897945945946
 31
0.0
1001
Sigma
1000

  0
LINE
  5
71D
102
{ACAD_REACTORS
330
71C
102
}
330
1F
100
AcDbEntity
  8
0
  6
Continuous
 62
     7
370
    15
100
AcDbLine
 10
233.6030959847
 20
128.5979459459499
 30
0.0
 11
233.6030959847
 21
99.897945945946
 31
0.0
1001
Sigma
1000

  0
LINE
  5
720
102
{ACAD_REACTORS
330
71F
102
}
330
1F
100
AcDbEntity
  8
0
  6
Continuous
 62
     7
370
    15
100
AcDbLine
 10
271.7521959847
 20
100.89794594595
 30
0.0
 11
309.9010959847
 21
100.89794594595
 31
0.0
1001
Sigma
1000

  0
LINE
  5
723
102
{ACAD_REACTORS
330
722
102
}
330
1F
100
AcDbEntity
  8
0
  6
Continuous
 62
     7
370
    15
100
AcDbLine
 10
309.9010959847
 20
100.89794594595
 30
0.0
 11
305.9010959847
 21
100.09794594595
 31
0.0
1001
Sigma
1000

  0
LINE
  5
725
102
{ACAD_REACTORS
330
722
102
}
330
1F
100
AcDbEntity
  8
0
  6
Continuous
 62
     7
370
    15
100
AcDbLine
 10
305.9010959847
 20
101.69794594595
 30
0.0
 11
309.9010959847
 21
100.89794594595
 31
0.0
1001
Sigma
1000

  0
LINE
  5
728
102
{ACAD_REACTORS
330
727
102
}
330
1F
100
AcDbEntity
  8
0
  6
Continuous
 62
     7
370
    15
100
AcDbLine
 10
271.7521959847
 20
100.89794594595
 30
0.0
 11
233.6030959847
 21
100.89794594595
 31
0.0
1001
Sigma
1000

  0
LINE
  5
72B
102
{ACAD_REACTORS
330
72A
102
}
330
1F
100
AcDbEntity
  8
0
  6
Continuous
 62
     7
370
    15
100
AcDbLine
 10
233.6030959847
 20
100.89794594595
 30
0.0
 11
237.6030959846999
 21
101.69794594595
 31
0.0
1001
Sigma
1000

  0
LINE
  5
72D
102
{ACAD_REACTORS
330
72A
102
}
330
1F
100
AcDbEntity
  8
0
  6
Continuous
 62
     7
370
    15
100
AcDbLine
 10
237.6030959846999
 20
100.09794594595
 30
0.0
 11
233.6030959847
 21
100.89794594595
 31
0.0
1001
Sigma
1000

  0
LINE
  5
730
102
{ACAD_REACTORS
330
72F
102
}
330
1F
100
AcDbEntity
  8
0
  6
Continuous
 62
     7
370
    15
100
AcDbLine
 10
327.4270959846999
 20
136.3980459459499
 30
0.0
 11
327.4270959846999
 21
99.897945945946
 31
0.0
1001
Sigma
1000

  0
LINE
  5
733
102
{ACAD_REACTORS
330
732
102
}
330
1F
100
AcDbEntity
  8
0
  6
Continuous
 62
     7
370
    15
100
AcDbLine
 10
309.9010959847
 20
100.89794594595
 30
0.0
 11
327.4270959846999
 21
100.89794594595
 31
0.0
1001
Sigma
1000

  0
LINE
  5
736
102
{ACAD_REACTORS
330
735
102
}
330
1F
100
AcDbEntity
  8
0
  6
Continuous
 62
     7
370
    15
100
AcDbLine
 10
301.9011959846999
 20
100.89794594595
 30
0.0
 11
309.9010959847
 21
100.89794594595
 31
0.0
1001
Sigma
1000

  0
LINE
  5
739
102
{ACAD_REACTORS
330
738
102
}
330
1F
100
AcDbEntity
  8
0
  6
Continuous
 62
     7
370
    15
100
AcDbLine
 10
309.9010959847
 20
100.89794594595
 30
0.0
 11
305.9010959847
 21
100.09794594595
 31
0.0
1001
Sigma
1000

  0
LINE
  5
73B
102
{ACAD_REACTORS
330
738
102
}
330
1F
100
AcDbEntity
  8
0
  6
Continuous
 62
     7
370
    15
100
AcDbLine
 10
305.9010959847
 20
101.69794594595
 30
0.0
 11
309.9010959847
 21
100.89794594595
 31
0.0
1001
Sigma
1000

  0
LINE
  5
73E
102
{ACAD_REACTORS
330
73D
102
}
330
1F
100
AcDbEntity
  8
0
  6
Continuous
 62
     7
370
    15
100
AcDbLine
 10
351.6088959846999
 20
100.89794594595
 30
0.0
 11
327.4270959846999
 21
100.89794594595
 31
0.0
1001
Sigma
1000

  0
LINE
  5
741
102
{ACAD_REACTORS
330
740
102
}
330
1F
100
AcDbEntity
  8
0
  6
Continuous
 62
     7
370
    15
100
AcDbLine
 10
327.4270959846999
 20
100.89794594595
 30
0.0
 11
331.4270959846999
 21
101.69794594595
 31
0.0
1001
Sigma
1000

  0
LINE
  5
743
102
{ACAD_REACTORS
330
740
102
}
330
1F
100
AcDbEntity
  8
0
  6
Continuous
 62
     7
370
    15
100
AcDbLine
 10
331.4270959846999
 20
100.09794594595
 30
0.0
 11
327.4270959846999
 21
100.89794594595
 31
0.0
1001
Sigma
1000

  0
TEXT
  5
745
330
1F
100
AcDbEntity
  8
0
  6
Continuous
 62
     7
370
    15
100
AcDbText
 10
335.4270959919767
 20
102.2312459595976
 30
0.0
 40
4.000000074005126
  1
17.526
 41
0.8668819875073355
  7
KCADTEXTSTANDARD
100
AcDbText
1001
Sigma
1000

  0
LINE
  5
748
102
{ACAD_REACTORS
330
747
102
}
330
1F
100
AcDbEntity
  8
0
  6
Continuous
 62
     7
370
    30
100
AcDbLine
 10
99.06339598470402
 20
166.5679459459499
 30
0.0
 11
117.0630959846999
 21
166.5680459459499
 31
0.0
1001
Sigma
1000

  0
LINE
  5
74B
102
{ACAD_REACTORS
330
74A
102
}
330
1F
100
AcDbEntity
  8
0
  6
HIDDEN
 62
     7
370
    15
100
AcDbLine
 10
102.0632959847
 20
148.5680459459499
 30
0.0
 11
102.0632959847
 21
166.5679459459499
 31
0.0
1001
Sigma
1000

  0
LINE
  5
74D
102
{ACAD_REACTORS
330
74A
102
}
330
1F
100
AcDbEntity
  8
0
  6
HIDDEN
 62
     7
370
    15
100
AcDbLine
 10
114.0632959846999
 20
148.5680459459499
 30
0.0
 11
102.0632959847
 21
148.5680459459499
 31
0.0
1001
Sigma
1000

  0
LINE
  5
74F
102
{ACAD_REACTORS
330
74A
102
}
330
1F
100
AcDbEntity
  8
0
  6
HIDDEN
 62
     7
370
    15
100
AcDbLine
 10
114.0632959846999
 20
166.5680459459499
 30
0.0
 11
114.0632959846999
 21
148.5680459459499
 31
0.0
1001
Sigma
1000

  0
LINE
  5
752
102
{ACAD_REACTORS
330
751
102
}
330
1F
100
AcDbEntity
  8
0
  6
Continuous
 62
     7
370
    15
100
AcDbLine
 10
115.0632959846999
 20
148.5680459459499
 30
0.0
 11
141.6029959846999
 21
148.5680459459499
 31
0.0
1001
Sigma
1000

  0
LINE
  5
755
102
{ACAD_REACTORS
330
754
102
}
330
1F
100
AcDbEntity
  8
0
  6
Continuous
 62
     7
370
    15
100
AcDbLine
 10
115.0632959846999
 20
166.5680459459499
 30
0.0
 11
141.6029959846999
 21
166.5680459459499
 31
0.0
1001
Sigma
1000

  0
LINE
  5
758
102
{ACAD_REACTORS
330
757
102
}
330
1F
100
AcDbEntity
  8
0
  6
Continuous
 62
     7
370
    15
100
AcDbLine
 10
140.6029959846999
 20
157.5680459459499
 30
0.0
 11
140.6029959846999
 21
166.5680459459499
 31
0.0
1001
Sigma
1000

  0
LINE
  5
75B
102
{ACAD_REACTORS
330
75A
102
}
330
1F
100
AcDbEntity
  8
0
  6
Continuous
 62
     7
370
    15
100
AcDbLine
 10
140.6029959846999
 20
166.5680459459499
 30
0.0
 11
141.4029959847
 21
162.5680459459499
 31
0.0
1001
Sigma
1000

  0
LINE
  5
75D
102
{ACAD_REACTORS
330
75A
102
}
330
1F
100
AcDbEntity
  8
0
  6
Continuous
 62
     7
370
    15
100
AcDbLine
 10
139.8029959847
 20
162.5680459459499
 30
0.0
 11
140.6029959846999
 21
166.5680459459499
 31
0.0
1001
Sigma
1000

  0
LINE
  5
760
102
{ACAD_REACTORS
330
75F
102
}
330
1F
100
AcDbEntity
  8
0
  6
Continuous
 62
     7
370
    15
100
AcDbLine
 10
140.6029959846999
 20
157.5680459459499
 30
0.0
 11
140.6029959846999
 21
148.5680459459499
 31
0.0
1001
Sigma
1000

  0
LINE
  5
763
102
{ACAD_REACTORS
330
762
102
}
330
1F
100
AcDbEntity
  8
0
  6
Continuous
 62
     7
370
    15
100
AcDbLine
 10
140.6029959846999
 20
148.5680459459499
 30
0.0
 11
139.8029959847
 21
152.5680459459499
 31
0.0
1001
Sigma
1000

  0
LINE
  5
765
102
{ACAD_REACTORS
330
762
102
}
330
1F
100
AcDbEntity
  8
0
  6
Continuous
 62
     7
370
    15
100
AcDbLine
 10
141.4029959847
 20
152.5680459459499
 30
0.0
 11
140.6029959846999
 21
148.5680459459499
 31
0.0
1001
Sigma
1000

  0
TEXT
  5
767
330
1F
100
AcDbEntity
  8
0
  6
Continuous
 62
     7
370
    15
100
AcDbText
 10
139.2696959710623
 20
152.7498459532267
 30
0.0
 40
4.000000074005126
  1
18.0
 50
90.0
 41
0.9636299326949863
  7
KCADTEXTSTANDARD
100
AcDbText
1001
Sigma
1000

  0
TEXT
  5
769
330
1F
100
AcDbEntity
  8
0
  6
Continuous
 62
     7
370
    15
100
AcDbText
 10
134.2840959780783
 20
158.1427459525716
 30
0.0
 40
2.500000119209289
  1
±0.3
 50
90.0
 41
0.6532329629310148
  7
KCADTEXTSTANDARD
100
AcDbText
1001
Sigma
1000

  0
LINE
  5
76C
102
{ACAD_REACTORS
330
76B
102
}
330
1F
100
AcDbEntity
  8
0
  6
Continuous
 62
     7
370
    15
100
AcDbLine
 10
311.1009959846999
 20
149.19804594595
 30
0.0
 11
309.9010959847
 21
149.19804594595
 31
0.0
1001
Sigma
1000

  0
LINE
  5
76E
102
{ACAD_REACTORS
330
76B
102
}
330
1F
100
AcDbEntity
  8
0
  6
Continuous
 62
     7
370
    15
100
AcDbLine
 10
311.6206959846999
 20
150.0980459459499
 30
0.0
 11
311.1009959846999
 21
149.19804594595
 31
0.0
1001
Sigma
1000

  0
LINE
  5
770
102
{ACAD_REACTORS
330
76B
102
}
330
1F
100
AcDbEntity
  8
0
  6
Continuous
 62
     7
370
    15
100
AcDbLine
 10
313.0010959847
 20
150.0980459459499
 30
0.0
 11
311.6206959846999
 21
150.0980459459499
 31
0.0
1001
Sigma
1000

  0
LINE
  5
772
102
{ACAD_REACTORS
330
76B
102
}
330
1F
100
AcDbEntity
  8
0
  6
Continuous
 62
     7
370
    15
100
AcDbLine
 10
313.9009959846999
 20
149.19794594595
 30
0.0
 11
313.0010959847
 21
150.0980459459499
 31
0.0
1001
Sigma
1000

  0
LINE
  5
774
102
{ACAD_REACTORS
330
76B
102
}
330
1F
100
AcDbEntity
  8
0
  6
Continuous
 62
     7
370
    15
100
AcDbLine
 10
313.9009959846999
 20
125.5979459459499
 30
0.0
 11
313.9009959846999
 21
149.19794594595
 31
0.0
1001
Sigma
1000

  0
LINE
  5
776
102
{ACAD_REACTORS
330
76B
102
}
330
1F
100
AcDbEntity
  8
0
  6
Continuous
 62
     7
370
    15
100
AcDbLine
 10
313.0011959847
 20
124.69794594595
 30
0.0
 11
313.9009959846999
 21
125.5979459459499
 31
0.0
1001
Sigma
1000

  0
LINE
  5
778
102
{ACAD_REACTORS
330
76B
102
}
330
1F
100
AcDbEntity
  8
0
  6
Continuous
 62
     7
370
    15
100
AcDbLine
 10
311.6206959846999
 20
124.69794594595
 30
0.0
 11
313.0011959847
 21
124.69794594595
 31
0.0
1001
Sigma
1000

  0
LINE
  5
77A
102
{ACAD_REACTORS
330
76B
102
}
330
1F
100
AcDbEntity
  8
0
  6
Continuous
 62
     7
370
    15
100
AcDbLine
 10
311.1009959846999
 20
125.59784594595
 30
0.0
 11
311.6206959846999
 21
124.69794594595
 31
0.0
1001
Sigma
1000

  0
LINE
  5
77C
102
{ACAD_REACTORS
330
76B
102
}
330
1F
100
AcDbEntity
  8
0
  6
Continuous
 62
     7
370
    15
100
AcDbLine
 10
309.9010959847
 20
125.59784594595
 30
0.0
 11
311.1009959846999
 21
125.59784594595
 31
0.0
1001
Sigma
1000

  0
LINE
  5
77F
102
{ACAD_REACTORS
330
77E
102
}
330
1F
100
AcDbEntity
  8
0
  6
Continuous
 62
     7
370
    30
100
AcDbLine
 10
282.7212959847
 20
145.3979459459499
 30
0.0
 11
276.3631959846999
 21
145.3979459459499
 31
0.0
1001
Sigma
1000

  0
LINE
  5
781
102
{ACAD_REACTORS
330
77E
102
}
330
1F
100
AcDbEntity
  8
0
  6
Continuous
 62
     7
370
    30
100
AcDbLine
 10
282.7212959847
 20
129.3979459459499
 30
0.0
 11
282.7212959847
 21
145.3979459459499
 31
0.0
1001
Sigma
1000

  0
LINE
  5
783
102
{ACAD_REACTORS
330
77E
102
}
330
1F
100
AcDbEntity
  8
0
  6
Continuous
 62
     7
370
    30
100
AcDbLine
 10
233.8030959846999
 20
129.3979459459499
 30
0.0
 11
282.7212959847
 21
129.3979459459499
 31
0.0
1001
Sigma
1000

  0
LINE
  5
785
102
{ACAD_REACTORS
330
77E
102
}
330
1F
100
AcDbEntity
  8
0
  6
Continuous
 62
     7
370
    30
100
AcDbLine
 10
233.6030959847
 20
129.5979459459499
 30
0.0
 11
233.8030959846999
 21
129.3979459459499
 31
0.0
1001
Sigma
1000

  0
LINE
  5
787
102
{ACAD_REACTORS
330
77E
102
}
330
1F
100
AcDbEntity
  8
0
  6
Continuous
 62
     7
370
    30
100
AcDbLine
 10
233.6030959847
 20
145.1981459459499
 30
0.0
 11
233.6030959847
 21
129.5979459459499
 31
0.0
1001
Sigma
1000

  0
LINE
  5
789
102
{ACAD_REACTORS
330
77E
102
}
330
1F
100
AcDbEntity
  8
0
  6
Continuous
 62
     7
370
    30
100
AcDbLine
 10
233.8030959846999
 20
145.3979459459499
 30
0.0
 11
233.6030959847
 21
145.1981459459499
 31
0.0
1001
Sigma
1000

  0
LINE
  5
78B
102
{ACAD_REACTORS
330
77E
102
}
330
1F
100
AcDbEntity
  8
0
  6
Continuous
 62
     7
370
    30
100
AcDbLine
 10
251.3631959847
 20
145.3979459459499
 30
0.0
 11
233.8030959846999
 21
145.3979459459499
 31
0.0
1001
Sigma
1000

  0
LINE
  5
78E
102
{ACAD_REACTORS
330
78D
102
}
330
1F
100
AcDbEntity
  8
0
  6
Continuous
 62
     7
370
    30
100
AcDbLine
 10
275.8633959846999
 20
147.8980459459499
 30
0.0
 11
271.3631959847
 21
147.8980459459499
 31
0.0
1001
Sigma
1000

  0
LINE
  5
790
102
{ACAD_REACTORS
330
78D
102
}
330
1F
100
AcDbEntity
  8
0
  6
Continuous
 62
     7
370
    30
100
AcDbLine
 10
276.3634959847
 20
147.39804594595
 30
0.0
 11
275.8633959846999
 21
147.8980459459499
 31
0.0
1001
Sigma
1000

  0
LINE
  5
792
102
{ACAD_REACTORS
330
78D
102
}
330
1F
100
AcDbEntity
  8
0
  6
Continuous
 62
     7
370
    30
100
AcDbLine
 10
276.3634959847
 20
140.39804594595
 30
0.0
 11
276.3634959847
 21
147.39804594595
 31
0.0
1001
Sigma
1000

  0
LINE
  5
794
102
{ACAD_REACTORS
330
78D
102
}
330
1F
100
AcDbEntity
  8
0
  6
Continuous
 62
     7
370
    30
100
AcDbLine
 10
251.3632959846999
 20
140.39804594595
 30
0.0
 11
276.3634959847
 21
140.39804594595
 31
0.0
1001
Sigma
1000

  0
LINE
  5
796
102
{ACAD_REACTORS
330
78D
102
}
330
1F
100
AcDbEntity
  8
0
  6
Continuous
 62
     7
370
    30
100
AcDbLine
 10
251.3632959846999
 20
147.39804594595
 30
0.0
 11
251.3632959846999
 21
140.39804594595
 31
0.0
1001
Sigma
1000

  0
LINE
  5
798
102
{ACAD_REACTORS
330
78D
102
}
330
1F
100
AcDbEntity
  8
0
  6
Continuous
 62
     7
370
    30
100
AcDbLine
 10
251.8633959847
 20
147.8980459459499
 30
0.0
 11
251.3632959846999
 21
147.39804594595
 31
0.0
1001
Sigma
1000

  0
LINE
  5
79A
102
{ACAD_REACTORS
330
78D
102
}
330
1F
100
AcDbEntity
  8
0
  6
Continuous
 62
     7
370
    30
100
AcDbLine
 10
256.3632959847
 20
147.89814594595
 30
0.0
 11
251.8633959847
 21
147.8980459459499
 31
0.0
1001
Sigma
1000

  0
LINE
  5
79D
102
{ACAD_REACTORS
330
79C
102
}
330
1F
100
AcDbEntity
  8
0
  6
CENTER
 62
     7
370
    15
100
AcDbLine
 10
211.5890959846999
 20
137.39794594595
 30
0.0
 11
327.4270959846999
 21
137.3980459459499
 31
0.0
1001
Sigma
1000

  0
TEXT
  5
79F
330
1F
100
AcDbEntity
  8
0
  6
Continuous
 62
     7
370
    15
100
AcDbText
 10
266.2975959919767
 20
102.2312459595976
 30
0.0
 40
4.000000074005126
  1
76.2
 41
0.9090916457465102
  7
KCADTEXTSTANDARD
100
AcDbText
1001
Sigma
1000

  0
LINE
  5
7A3
102
{ACAD_REACTORS
330
7A1
102
}
330
1F
100
AcDbEntity
  8
1
  6
Continuous
 62
     7
370
    30
100
AcDbLine
 10
402.3326959847
 20
21.127745945946
 30
0.0
 11
22.598695984704
 21
21.127745945946
 31
0.0
1001
Sigma
1000

  0
LINE
  5
7A5
102
{ACAD_REACTORS
330
7A1
102
}
330
1F
100
AcDbEntity
  8
1
  6
Continuous
 62
     7
370
    30
100
AcDbLine
 10
402.3326959847
 20
280.9459459459499
 30
0.0
 11
402.3326959847
 21
21.127745945946
 31
0.0
1001
Sigma
1000

  0
LINE
  5
7A7
102
{ACAD_REACTORS
330
7A1
102
}
330
1F
100
AcDbEntity
  8
1
  6
Continuous
 62
     7
370
    30
100
AcDbLine
 10
22.598695984704
 20
280.9459459459499
 30
0.0
 11
402.3326959847
 21
280.9459459459499
 31
0.0
1001
Sigma
1000

  0
LINE
  5
7A9
102
{ACAD_REACTORS
330
7A1
102
}
330
1F
100
AcDbEntity
  8
1
  6
Continuous
 62
     7
370
    30
100
AcDbLine
 10
22.598695984704
 20
21.127745945946
 30
0.0
 11
22.598695984704
 21
280.9459459459499
 31
0.0
1001
Sigma
1000

  0
LINE
  5
7AC
330
1F
100
AcDbEntity
  8
99
  6
Continuous
 62
     7
370
    30
100
AcDbLine
 10
212.3326959847
 20
68.627745945946
 30
0.0
 11
402.3326959847
 21
68.627745945946
 31
0.0
1001
Sigma
1000

  0
LINE
  5
7AE
330
1F
100
AcDbEntity
  8
99
  6
Continuous
 62
     7
370
    30
100
AcDbLine
 10
341.3326959847
 20
21.127745945946
 30
0.0
 11
341.3326959847
 21
68.627745945946
 31
0.0
1001
Sigma
1000

  0
LINE
  5
7B0
330
1F
100
AcDbEntity
  8
99
  6
Continuous
 62
     7
370
    30
100
AcDbLine
 10
281.3326959847
 20
41.127745945946
 30
0.0
 11
402.3326959847
 21
41.127745945946
 31
0.0
1001
Sigma
1000

  0
LINE
  5
7B2
330
1F
100
AcDbEntity
  8
99
  6
Continuous
 62
     7
370
    30
100
AcDbLine
 10
326.3326959847
 20
21.127745945946
 30
0.0
 11
326.3326959847
 21
41.127745945946
 31
0.0
1001
Sigma
1000

  0
LINE
  5
7B4
330
1F
100
AcDbEntity
  8
99
  6
Continuous
 62
     7
370
    30
100
AcDbLine
 10
311.3326959847
 20
21.127745945946
 30
0.0
 11
311.3326959847
 21
41.127745945946
 31
0.0
1001
Sigma
1000

  0
LINE
  5
7B6
330
1F
100
AcDbEntity
  8
99
  6
Continuous
 62
     7
370
    30
100
AcDbLine
 10
296.3326959847
 20
21.127745945946
 30
0.0
 11
296.3326959847
 21
68.627745945946
 31
0.0
1001
Sigma
1000

  0
LINE
  5
7B8
330
1F
100
AcDbEntity
  8
99
  6
Continuous
 62
     7
370
    30
100
AcDbLine
 10
281.3326959847
 20
21.127745945946
 30
0.0
 11
281.3326959847
 21
68.627745945946
 31
0.0
1001
Sigma
1000

  0
LINE
  5
7BA
330
1F
100
AcDbEntity
  8
99
  6
Continuous
 62
     7
370
    15
100
AcDbLine
 10
212.3326959847
 20
26.127745945946
 30
0.0
 11
281.3326959847
 21
26.127745945946
 31
0.0
1001
Sigma
1000

  0
LINE
  5
7BC
330
1F
100
AcDbEntity
  8
99
  6
Continuous
 62
     7
370
    15
100
AcDbLine
 10
212.3326959847
 20
31.127745945946
 30
0.0
 11
281.3326959847
 21
31.127745945946
 31
0.0
1001
Sigma
1000

  0
LINE
  5
7BE
330
1F
100
AcDbEntity
  8
99
  6
Continuous
 62
     7
370
    15
100
AcDbLine
 10
212.3326959847
 20
36.127745945946
 30
0.0
 11
341.3326959847
 21
36.127745945946
 31
0.0
1001
Sigma
1000

  0
LINE
  5
7C0
330
1F
100
AcDbEntity
  8
99
  6
Continuous
 62
     7
370
    15
100
AcDbLine
 10
212.3326959847
 20
41.127745945946
 30
0.0
 11
281.3326959847
 21
41.127745945946
 31
0.0
1001
Sigma
1000

  0
LINE
  5
7C2
330
1F
100
AcDbEntity
  8
99
  6
Continuous
 62
     7
370
    15
100
AcDbLine
 10
212.3326959847
 20
46.127745945946
 30
0.0
 11
281.3326959847
 21
46.127745945946
 31
0.0
1001
Sigma
1000

  0
LINE
  5
7C4
330
1F
100
AcDbEntity
  8
99
  6
Continuous
 62
     7
370
    15
100
AcDbLine
 10
233.3326959847
 20
21.127745945946
 30
0.0
 11
233.3326959847
 21
56.12774594594601
 31
0.0
1001
Sigma
1000

  0
LINE
  5
7C6
330
1F
100
AcDbEntity
  8
99
  6
Continuous
 62
     7
370
    15
100
AcDbLine
 10
244.3326959846999
 20
21.127745945946
 30
0.0
 11
244.3326959846999
 21
56.12774594594601
 31
0.0
1001
Sigma
1000

  0
LINE
  5
7C8
330
1F
100
AcDbEntity
  8
99
  6
Continuous
 62
     7
370
    15
100
AcDbLine
 10
346.3326959847
 20
21.127745945946
 30
0.0
 11
346.3326959847
 21
56.12774594594601
 31
0.0
1001
Sigma
1000

  0
LINE
  5
7CA
330
1F
100
AcDbEntity
  8
99
  6
Continuous
 62
     7
370
    30
100
AcDbLine
 10
341.3326959847
 20
31.127745945946
 30
0.0
 11
402.3326959847
 21
31.127745945946
 31
0.0
1001
Sigma
1000

  0
TEXT
  5
7CC
330
1F
100
AcDbEntity
  8
99
  6
Continuous
 62
     7
370
    30
100
AcDbText
 10
342.06261024621
 20
38.013297783546
 30
0.0
 40
2.7
  1
製
 41
1.266666666666666
  7
KCADTEXTSTANDARD
100
AcDbText
1001
Sigma
1000

  0
TEXT
  5
7CE
330
1F
100
AcDbEntity
  8
99
  6
Continuous
 62
     7
370
    30
100
AcDbText
 10
295.5576959847
 20
50.352745945946
 30
0.0
 40
4.049999999999999
  1
 三角法
 41
0.7916666674531168
  7
KCADTEXTSTANDARD
100
AcDbText
1001
Sigma
1000

  0
TEXT
  5
7D0
330
1F
100
AcDbEntity
  8
99
  6
Continuous
 62
     7
370
    30
100
AcDbText
 10
342.06261024621
 20
34.913297783546
 30
0.0
 40
2.7
  1
品
 41
1.266666666666666
  7
KCADTEXTSTANDARD
100
AcDbText
1001
Sigma
1000

  0
LINE
  5
7D2
330
1F
100
AcDbEntity
  8
99
  6
Continuous
 62
     7
370
    15
100
AcDbLine
 10
216.4648901374
 20
26.82821880044599
 30
0.0
 11
213.2648901373999
 21
26.82821880044599
 31
0.0
1001
Sigma
1000

  0
TEXT
  5
7D4
330
1F
100
AcDbEntity
  8
99
  6
Continuous
 62
     7
370
    30
100
AcDbText
 10
342.06261024621
 20
31.813297783546
 30
0.0
 40
2.7
  1
名
 41
1.266666666666666
  7
KCADTEXTSTANDARD
100
AcDbText
1001
Sigma
1000

  0
TEXT
  5
7D6
330
1F
100
AcDbEntity
  8
99
  6
Continuous
 62
     7
370
    30
100
AcDbText
 10
281.1805642018
 20
36.928812189146
 30
0.0
 40
3.6
  1
 設計  製図  検図  承認
 41
1.147916666666666
  7
KCADTEXTSTANDARD
100
AcDbText
1001
Sigma
1000

  0
TEXT
  5
7D8
330
1F
100
AcDbEntity
  8
99
  6
Continuous
 62
     7
370
    30
100
AcDbText
 10
216.8399849067999
 20
21.931101386246
 30
0.0
 40
3.6
  1
 年月日   担当   訂 正 記 事
 41
0.8102941176470586
  7
KCADTEXTSTANDARD
100
AcDbText
1001
Sigma
1000

  0
TEXT
  5
7DA
330
1F
100
AcDbEntity
  8
99
  6
Continuous
 62
     7
370
    30
100
AcDbText
 10
213.0366022346999
 20
22.09750138314599
 30
0.0
 40
3.6
  1
符号
 41
0.4987500003539026
  7
KCADTEXTSTANDARD
100
AcDbText
1001
Sigma
1000

  0
LINE
  5
7DC
330
1F
100
AcDbEntity
  8
99
  6
Continuous
 62
     7
370
    15
100
AcDbLine
 10
216.4648901374
 20
46.828218800446
 30
0.0
 11
213.2648901373999
 21
46.828218800446
 31
0.0
1001
Sigma
1000

  0
LINE
  5
7DE
330
1F
100
AcDbEntity
  8
99
  6
Continuous
 62
     7
370
    15
100
AcDbLine
 10
214.8648901373999
 20
50.29232041564601
 30
0.0
 11
216.4648901374
 21
46.828218800446
 31
0.0
1001
Sigma
1000

  0
TEXT
  5
7E0
330
1F
100
AcDbEntity
  8
99
  6
Continuous
 62
     7
370
    15
100
AcDbText
 10
214.4667995221275
 20
47.41452372067316
 30
0.0
 40
2.082815953445434
  1
5
 41
0.577433628318584
  7
KCADTEXTSTANDARD
100
AcDbText
1001
Sigma
1000

  0
LINE
  5
7E2
330
1F
100
AcDbEntity
  8
99
  6
Continuous
 62
     7
370
    15
100
AcDbLine
 10
213.2648901373999
 20
46.828218800446
 30
0.0
 11
214.8648901373999
 21
50.29232041564601
 31
0.0
1001
Sigma
1000

  0
LINE
  5
7E4
330
1F
100
AcDbEntity
  8
99
  6
Continuous
 62
     7
370
    15
100
AcDbLine
 10
216.4648901374
 20
41.828218800446
 30
0.0
 11
213.2648901373999
 21
41.828218800446
 31
0.0
1001
Sigma
1000

  0
LINE
  5
7E6
330
1F
100
AcDbEntity
  8
99
  6
Continuous
 62
     7
370
    15
100
AcDbLine
 10
214.8648901373999
 20
45.292320415646
 30
0.0
 11
216.4648901374
 21
41.828218800446
 31
0.0
1001
Sigma
1000

  0
TEXT
  5
7E8
330
1F
100
AcDbEntity
  8
99
  6
Continuous
 62
     7
370
    15
100
AcDbText
 10
214.4667995221275
 20
42.41452372067316
 30
0.0
 40
2.082815953445434
  1
4
 41
0.577433628318584
  7
KCADTEXTSTANDARD
100
AcDbText
1001
Sigma
1000

  0
LINE
  5
7EA
330
1F
100
AcDbEntity
  8
99
  6
Continuous
 62
     7
370
    15
100
AcDbLine
 10
213.2648901373999
 20
41.828218800446
 30
0.0
 11
214.8648901373999
 21
45.292320415646
 31
0.0
1001
Sigma
1000

  0
LINE
  5
7EC
330
1F
100
AcDbEntity
  8
99
  6
Continuous
 62
     7
370
    15
100
AcDbLine
 10
216.4648901374
 20
36.828218800446
 30
0.0
 11
213.2648901373999
 21
36.828218800446
 31
0.0
1001
Sigma
1000

  0
LINE
  5
7EE
330
1F
100
AcDbEntity
  8
99
  6
Continuous
 62
     7
370
    15
100
AcDbLine
 10
214.8648901373999
 20
40.292320415646
 30
0.0
 11
216.4648901374
 21
36.828218800446
 31
0.0
1001
Sigma
1000

  0
TEXT
  5
7F0
330
1F
100
AcDbEntity
  8
99
  6
Continuous
 62
     7
370
    15
100
AcDbText
 10
214.4667995221275
 20
37.41452372067316
 30
0.0
 40
2.082815953445434
  1
3
 41
0.577433628318584
  7
KCADTEXTSTANDARD
100
AcDbText
1001
Sigma
1000

  0
LINE
  5
7F2
330
1F
100
AcDbEntity
  8
99
  6
Continuous
 62
     7
370
    15
100
AcDbLine
 10
214.8648901373999
 20
30.292320415646
 30
0.0
 11
216.4648901374
 21
26.82821880044599
 31
0.0
1001
Sigma
1000

  0
LINE
  5
7F4
330
1F
100
AcDbEntity
  8
99
  6
Continuous
 62
     7
370
    15
100
AcDbLine
 10
213.2648901373999
 20
26.82821880044599
 30
0.0
 11
214.8648901373999
 21
30.292320415646
 31
0.0
1001
Sigma
1000

  0
LINE
  5
7F6
330
1F
100
AcDbEntity
  8
99
  6
Continuous
 62
     7
370
    15
100
AcDbLine
 10
213.2648901373999
 20
36.828218800446
 30
0.0
 11
214.8648901373999
 21
40.292320415646
 31
0.0
1001
Sigma
1000

  0
TEXT
  5
7F8
330
1F
100
AcDbEntity
  8
99
  6
Continuous
 62
     7
370
    15
100
AcDbText
 10
214.4667995221275
 20
32.41452372067316
 30
0.0
 40
2.082815953445434
  1
2
 41
0.577433628318584
  7
KCADTEXTSTANDARD
100
AcDbText
1001
Sigma
1000

  0
LINE
  5
7FA
330
1F
100
AcDbEntity
  8
99
  6
Continuous
 62
     7
370
    15
100
AcDbLine
 10
216.4648901374
 20
31.82821880044599
 30
0.0
 11
213.2648901373999
 21
31.82821880044599
 31
0.0
1001
Sigma
1000

  0
LINE
  5
7FC
330
1F
100
AcDbEntity
  8
99
  6
Continuous
 62
     7
370
    15
100
AcDbLine
 10
214.8648901373999
 20
35.292320415646
 30
0.0
 11
216.4648901374
 21
31.82821880044599
 31
0.0
1001
Sigma
1000

  0
LINE
  5
7FE
330
1F
100
AcDbEntity
  8
99
  6
Continuous
 62
     7
370
    15
100
AcDbLine
 10
213.2648901373999
 20
31.82821880044599
 30
0.0
 11
214.8648901373999
 21
35.292320415646
 31
0.0
1001
Sigma
1000

  0
TEXT
  5
800
330
1F
100
AcDbEntity
  8
99
  6
Continuous
 62
     7
370
    15
100
AcDbText
 10
214.4667995221275
 20
27.41452372067316
 30
0.0
 40
2.082815953445434
  1
1
 41
0.577433628318584
  7
KCADTEXTSTANDARD
100
AcDbText
1001
Sigma
1000

  0
TEXT
  5
802
330
1F
100
AcDbEntity
  8
99
  6
Continuous
 62
     7
370
    30
100
AcDbText
 10
342.0506100443299
 20
41.889616408746
 30
0.0
 40
2.7
  1
差
 41
1.266666666666666
  7
KCADTEXTSTANDARD
100
AcDbText
1001
Sigma
1000

  0
TEXT
  5
804
330
1F
100
AcDbEntity
  8
99
  6
Continuous
 62
     7
370
    30
100
AcDbText
 10
342.0506100443299
 20
45.389616408746
 30
0.0
 40
2.7
  1
公
 41
1.266666666666666
  7
KCADTEXTSTANDARD
100
AcDbText
1001
Sigma
1000

  0
TEXT
  5
806
330
1F
100
AcDbEntity
  8
99
  6
Continuous
 62
     7
370
    30
100
AcDbText
 10
312.1506100681418
 20
52.889616408746
 30
0.0
 40
2.7
  1
面
 41
1.203333318233489
  7
KCADTEXTSTANDARD
100
AcDbText
1001
Sigma
1000

  0
TEXT
  5
808
330
1F
100
AcDbEntity
  8
99
  6
Continuous
 62
     7
370
    30
100
AcDbText
 10
342.0506100443299
 20
49.389616408746
 30
0.0
 40
2.7
  1
上
 41
1.266666666666666
  7
KCADTEXTSTANDARD
100
AcDbText
1001
Sigma
1000

  0
TEXT
  5
80A
330
1F
100
AcDbEntity
  8
99
  6
Continuous
 62
     7
370
    30
100
AcDbText
 10
342.0506100443299
 20
52.889616408746
 30
0.0
 40
2.7
  1
仕
 41
1.266666666666666
  7
KCADTEXTSTANDARD
100
AcDbText
1001
Sigma
1000

  0
LINE
  5
80C
330
1F
100
AcDbEntity
  8
99
  6
Continuous
 62
     7
370
    30
100
AcDbLine
 10
233.3326959847
 20
56.12774594594601
 30
0.0
 11
233.3326959847
 21
68.627745945946
 31
0.0
1001
Sigma
1000

  0
TEXT
  5
80E
330
1F
100
AcDbEntity
  8
99
  6
Continuous
 62
     7
370
    30
100
AcDbText
 10
341.9826959847
 20
27.27774594594599
 30
0.0
 40
2.7
  1
図
 41
1.266666666666666
  7
KCADTEXTSTANDARD
100
AcDbText
1001
Sigma
1000

  0
TEXT
  5
810
330
1F
100
AcDbEntity
  8
99
  6
Continuous
 62
     7
370
    30
100
AcDbText
 10
341.9826959847
 20
22.77774594594599
 30
0.0
 40
2.7
  1
番
 41
1.266666666666666
  7
KCADTEXTSTANDARD
100
AcDbText
1001
Sigma
1000

  0
LINE
  5
812
330
1F
100
AcDbEntity
  8
99
  6
Continuous
 62
     7
370
    15
100
AcDbLine
 10
212.3326959847
 20
61.12774594594601
 30
0.0
 11
402.3326959847
 21
61.12774594594601
 31
0.0
1001
Sigma
1000

  0
LINE
  5
814
330
1F
100
AcDbEntity
  8
99
  6
Continuous
 62
     7
370
    15
100
AcDbLine
 10
316.3326959847
 20
56.12774594594601
 30
0.0
 11
316.3326959847
 21
48.62774594594601
 31
0.0
1001
Sigma
1000

  0
TEXT
  5
816
330
1F
100
AcDbEntity
  8
99
  6
Continuous
 62
     7
370
    30
100
AcDbText
 10
283.7245878765999
 20
52.029878432346
 30
0.0
 40
3.6
  1
尺度
 41
1.1875
  7
KCADTEXTSTANDARD
100
AcDbText
1001
Sigma
1000

  0
LINE
  5
818
330
1F
100
AcDbEntity
  8
99
  6
Continuous
 62
     7
370
    15
100
AcDbLine
 10
213.2648901373999
 20
51.828218800446
 30
0.0
 11
214.8648901373999
 21
55.29232041561599
 31
0.0
1001
Sigma
1000

  0
TEXT
  5
81A
330
1F
100
AcDbEntity
  8
99
  6
Continuous
 62
     7
370
    15
100
AcDbText
 10
214.4667995221275
 20
52.41452372067316
 30
0.0
 40
2.082815953445434
  1
6
 41
0.577433628318584
  7
KCADTEXTSTANDARD
100
AcDbText
1001
Sigma
1000

  0
LINE
  5
81C
330
1F
100
AcDbEntity
  8
99
  6
Continuous
 62
     7
370
    15
100
AcDbLine
 10
214.8648901373999
 20
55.29232041561599
 30
0.0
 11
216.4648901374
 21
51.828218800446
 31
0.0
1001
Sigma
1000

  0
LINE
  5
81E
330
1F
100
AcDbEntity
  8
99
  6
Continuous
 62
     7
370
    15
100
AcDbLine
 10
216.4648901374
 20
51.828218800446
 30
0.0
 11
213.2648901373999
 21
51.828218800446
 31
0.0
1001
Sigma
1000

  0
LINE
  5
820
330
1F
100
AcDbEntity
  8
99
  6
Continuous
 62
     7
370
    30
100
AcDbLine
 10
311.3326959847
 20
48.62774594594601
 30
0.0
 11
311.3326959847
 21
56.12774594594601
 31
0.0
1001
Sigma
1000

  0
LINE
  5
822
330
1F
100
AcDbEntity
  8
99
  6
Continuous
 62
     7
370
    30
100
AcDbLine
 10
212.3326959847
 20
56.12774594594601
 30
0.0
 11
402.3326959847
 21
56.12774594594601
 31
0.0
1001
Sigma
1000

  0
LINE
  5
824
330
1F
100
AcDbEntity
  8
99
  6
Continuous
 62
     7
370
    15
100
AcDbLine
 10
212.3326959847
 20
51.12774594594601
 30
0.0
 11
296.3326959847
 21
51.12774594594601
 31
0.0
1001
Sigma
1000

  0
LINE
  5
826
330
1F
100
AcDbEntity
  8
99
  6
Continuous
 62
     7
370
    15
100
AcDbLine
 10
217.3326959846999
 20
21.127745945946
 30
0.0
 11
217.3326959846999
 21
56.12774594594601
 31
0.0
1001
Sigma
1000

  0
TEXT
  5
828
330
1F
100
AcDbEntity
  8
99
  6
Continuous
 62
     7
370
    30
100
AcDbText
 10
214.1673939288999
 20
56.83248105084601
 30
0.0
 40
3.6
  1
部品番号     部   品   名
 41
0.7659374981911647
  7
KCADTEXTSTANDARD
100
AcDbText
1001
Sigma
1000

  0
TEXT
  5
82A
330
1F
100
AcDbEntity
  8
99
  6
Continuous
 62
     7
370
    30
100
AcDbText
 10
283.7245878765999
 20
57.129878432336
 30
0.0
 40
3.6
  1
個数
 41
1.1875
  7
KCADTEXTSTANDARD
100
AcDbText
1001
Sigma
1000

  0
TEXT
  5
82C
330
1F
100
AcDbEntity
  8
99
  6
Continuous
 62
     7
370
    30
100
AcDbText
 10
305.1805642017999
 20
57.12881218913601
 30
0.0
 40
3.6
  1
    材       質             表  面  処  理
 41
0.6678663776994779
  7
KCADTEXTSTANDARD
100
AcDbText
1001
Sigma
1000

  0
LINE
  5
82E
330
1F
100
AcDbEntity
  8
99
  6
Continuous
 62
     7
370
    30
100
AcDbLine
 10
212.3326959847
 20
68.627745945946
 30
0.0
 11
212.3326959847
 21
21.127745945946
 31
0.0
1001
Sigma
1000

  0
TEXT
  5
830
330
1F
100
AcDbEntity
  8
99
  6
Continuous
 62
     7
370
    30
100
AcDbText
 10
283.9671199201999
 20
44.39752774734599
 30
0.0
 40
4.067999999999999
  1
1/1
 41
1.222959685349071
  7
KCADTEXTSTANDARD
100
AcDbText
1001
Sigma
1000

  0
TEXT
  5
832
330
1F
100
AcDbEntity
  8
99
  6
Continuous
 62
     7
370
    30
100
AcDbText
 10
354.67842627328
 20
23.11734720154599
 30
0.0
 40
5.695199999999999
  1
TSTM-072
 41
0.8686740987625936
  7
KCADTEXTSTANDARD
100
AcDbText
1001
Sigma
1000

  0
TEXT
  5
835
330
1F
100
AcDbEntity
  8
2
  6
Continuous
 62
     7
370
    30
100
AcDbText
 10
250.5921898242
 20
63.305968334539
 30
0.0
 40
3.375
  1
組立図
 41
0.9765999997986687
  7
KCADTEXTSTANDARD
100
AcDbText
1001
Sigma
1000

  0
TEXT
  5
837
330
1F
100
AcDbEntity
  8
2
  6
Continuous
 62
     7
370
    30
100
AcDbText
 10
217.8123290258745
 20
63.43938741224761
 30
0.0
 40
3.176999974250793
  1
１００
 41
0.9966477795924454
  7
KCADTEXTSTANDARD
100
AcDbText
1001
Sigma
1000

  0
TEXT
  5
839
330
1F
100
AcDbEntity
  8
99
  6
Continuous
 62
     7
370
    30
100
AcDbText
 10
359.42842627328
 20
33.11734720154599
 30
0.0
 40
5.695199999999999
  1
KCM-2D
 41
0.8298009469274427
  7
KCADTEXTSTANDARD
100
AcDbText
1001
Sigma
1000

  0
TEXT
  5
83B
330
1F
100
AcDbEntity
  8
99
  6
Continuous
 62
     7
370
    30
100
AcDbText
 10
358.30810172013
 20
62.160244661566
 30
0.0
 40
4.5
  1
梨地黒アルマイト
 41
0.653125
  7
KCADTEXTSTANDARD
100
AcDbText
1001
Sigma
1000

  0
LINE
  5
83D
330
1F
100
AcDbEntity
  8
99
  6
Continuous
 62
     7
370
    30
100
AcDbLine
 10
296.3326959847
 20
48.62774594594601
 30
0.0
 11
402.3326959847
 21
48.62774594594601
 31
0.0
1001
Sigma
1000

  0
TEXT
  5
83F
330
1F
100
AcDbEntity
  8
1
  6
Continuous
 62
     7
370
    30
100
AcDbText
 10
299.8709723785153
 20
43.40885790457734
 30
0.0
 40
3.239999914169311
  1
２００２年１０月２５日
 41
0.9559974749957229
  7
KCADTEXTSTANDARD
100
AcDbText
1001
Sigma
1000

  0
LINE
  5
841
330
1F
100
AcDbEntity
  8
0
  6
Continuous
 62
     7
370
    15
100
AcDbLine
 10
402.3326959847
 20
151.03684594595
 30
0.0
 11
403.3326959847
 21
151.03684594595
 31
0.0
1001
Sigma
1000

  0
LINE
  5
843
330
1F
100
AcDbEntity
  8
0
  6
Continuous
 62
     7
370
    15
100
AcDbLine
 10
22.598695984704
 20
151.03684594595
 30
0.0
 11
21.598695984704
 21
151.03684594595
 31
0.0
1001
Sigma
1000

  0
TEXT
  5
845
330
1F
100
AcDbEntity
  8
1
  6
Continuous
 62
     7
370
    15
100
AcDbText
 10
170.8998739837299
 20
80.64881919722
 30
0.0
 40
3.6
  1
光学倍率　２倍
 41
0.9601785715802439
  7
KCADTEXTSTANDARD
100
AcDbText
1001
Sigma
1000

  0
LINE
  5
847
330
1F
100
AcDbEntity
  8
1
  6
Continuous
 62
     7
370
    15
100
AcDbLine
 10
199.0239567683
 20
79.262271707302
 30
0.0
 11
170.3045306159
 21
79.262271707302
 31
0.0
1001
Sigma
1000

  0
DIMENSION
  5
849
330
1F
100
AcDbEntity
  8
KCAD_DIMS
 62
     7
100
AcDbDimension
  2
*D32
 10
313.9009959846999
 20
107.63406331939
 30
0.0
 11
299.26975540922
 21
110.56844631939
 31
0.0
 70
    32
 71
     5
 42
-1.0
  3
Standard
100
AcDbAlignedDimension
 13
309.9010959847
 23
123.3979459459499
 33
0.0
 14
313.9009959846999
 24
125.5979459459499
 34
0.0
100
AcDbRotatedDimension
1001
Sigma
1000
DIM_TPHO
1001
KCAD_DIM_EXT
1002
{
1071
 20001212
1070
     0
1070
     1
1070
     1
1040
2.5
1040
19.474361771175
1040
5.0
1040
0.0
1040
0.0
1040
0.0
1040
0.0
1040
0.0
1070
     0
1040
50.0
1040
-1.0
1013
1.0
1023
0.0
1033
0.0
1040
0.0
1013
1.0
1023
0.0
1033
0.0
1000
_None
1040
1.0
1040
3.999899999999999
1070
     0
1070
     0
1070
     0
1012
1.0
1022
0.0
1032
0.0
1013
1.0
1023
0.0
1033
0.0
1002
}
1001
ACAD
1000
DSTYLE
1002
{
1070
    41
1040
2.5
1070
    42
1040
0.0
1070
    43
1040
8.0
1070
    44
1040
0.0
1070
    45
1040
0.0
1070
    48
1040
0.1
1070
    71
1070
     1
1070
    73
1070
     0
1070
    74
1070
     0
1070
    77
1070
     1
1070
    78
1070
     8
1070
    79
1070
     2
1070
   140
1040
3.2
1070
   141
1040
2.5
1070
   145
1040
0.0001
1070
   146
1040
0.667
1070
   147
1040
0.5333000000000001
1070
   172
1070
     1
1070
   173
1070
     1
1070
   179
1070
     3
1070
   271
1070
     1
1070
   272
1070
     1
1070
   279
1070
     2
1070
   284
1070
     8
1070
   289
1070
     2
1070
   340
1005
189
1070
   341
1005
21
1070
   343
1005
12D
1070
   344
1005
12D
1002
}
  0
DIMENSION
  5
891
330
1F
100
AcDbEntity
  8
KCAD_DIMS
 62
     7
100
AcDbDimension
  2
*D33
 10
350.8498941674499
 20
122.89794594595
 30
0.0
 11
348.71656116745
 21
137.3979959459499
 31
0.0
 70
    32
 71
     5
 42
-1.0
 53
90.0
  3
Standard
100
AcDbAlignedDimension
 13
309.4012959847
 23
151.8980459459499
 33
0.0
 14
309.4012959847
 24
122.89794594595
 34
0.0
 50
90.0
100
AcDbRotatedDimension
1001
Sigma
1000
DIM_TPVO
1001
KCAD_DIM_EXT
1002
{
1071
 20001212
1070
     0
1070
     2
1070
     2
1040
2.5
1040
0.0
1040
0.0
1040
0.0
1040
0.0
1040
0.0
1040
0.0
1040
0.0
1070
     0
1040
50.0
1040
-1.0
1013
1.0
1023
0.0
1033
0.0
1040
0.0
1013
1.0
1023
0.0
1033
0.0
1000
_None
1040
1.0
1040
29.00009999999999
1070
     0
1070
     0
1070
     0
1012
1.0
1022
0.0
1032
0.0
1013
1.0
1023
0.0
1033
0.0
1002
}
1001
ACAD
1000
DSTYLE
1002
{
1070
     3
1000
φ<>
1070
    41
1040
2.5
1070
    42
1040
0.0
1070
    43
1040
8.0
1070
    44
1040
0.0
1070
    45
1040
0.0
1070
    73
1070
     0
1070
    74
1070
     0
1070
    77
1070
     1
1070
    78
1070
     8
1070
    79
1070
     2
1070
   140
1040
3.2
1070
   141
1040
2.5
1070
   145
1040
0.0001
1070
   146
1040
0.667
1070
   147
1040
0.5333000000000001
1070
   172
1070
     1
1070
   173
1070
     1
1070
   179
1070
     3
1070
   271
1070
     1
1070
   272
1070
     3
1070
   279
1070
     2
1070
   284
1070
     8
1070
   289
1070
     2
1070
   340
1005
189
1070
   341
1005
21
1070
   343
1005
12D
1070
   344
1005
12D
1002
}
  0
LINE
  5
8CD
330
1F
100
AcDbEntity
  8
0
  6
Continuous
 62
     7
370
    30
100
AcDbLine
 10
309.4012959847
 20
151.8980459459499
 30
0.0
 11
302.9050959846999
 21
151.8980459459499
 31
0.0
1001
Sigma
1000

  0
LINE
  5
8CF
330
1F
100
AcDbEntity
  8
0
  6
Continuous
 62
     7
370
    30
100
AcDbLine
 10
309.4012959847
 20
151.8980459459499
 30
0.0
 11
309.9010959847
 21
151.39804594595
 31
0.0
1001
Sigma
1000

  0
LINE
  5
8D1
330
1F
100
AcDbEntity
  8
0
  6
Continuous
 62
     7
370
    30
100
AcDbLine
 10
302.9050959846999
 20
151.89794594595
 30
0.0
 11
302.0010959846999
 21
150.9901459459499
 31
0.0
1001
Sigma
1000

  0
LINE
  5
8D3
330
1F
100
AcDbEntity
  8
0
  6
Continuous
 62
     7
370
    30
100
AcDbLine
 10
302.0010959846999
 20
150.9901459459499
 30
0.0
 11
302.0010959846999
 21
145.3979459459499
 31
0.0
1001
Sigma
1000

  0
LINE
  5
8D5
330
1F
100
AcDbEntity
  8
0
  6
Continuous
 62
     7
370
    30
100
AcDbLine
 10
309.9010959847
 20
151.39804594595
 30
0.0
 11
309.9010959847
 21
149.19804594595
 31
0.0
1001
Sigma
1000

  0
LINE
  5
8D7
330
1F
100
AcDbEntity
  8
0
  6
Continuous
 62
     7
370
    30
100
AcDbLine
 10
309.4013210196899
 20
122.8980148235399
 30
0.0
 11
302.9051210197
 21
122.89800360753
 31
0.0
1001
Sigma
1000

  0
LINE
  5
8D9
330
1F
100
AcDbEntity
  8
0
  6
Continuous
 62
     7
370
    30
100
AcDbLine
 10
309.4013210196899
 20
122.8980148235399
 30
0.0
 11
309.9011201564199
 21
123.3980156864699
 31
0.0
1001
Sigma
1000

  0
LINE
  5
8DB
330
1F
100
AcDbEntity
  8
0
  6
Continuous
 62
     7
370
    30
100
AcDbLine
 10
302.9051210195299
 20
122.8981036075299
 30
0.0
 11
302.0011194521699
 21
123.80590204673
 31
0.0
1001
Sigma
1000

  0
LINE
  5
8DD
330
1F
100
AcDbEntity
  8
0
  6
Continuous
 62
     7
370
    30
100
AcDbLine
 10
302.0011194521699
 20
123.80590204673
 30
0.0
 11
302.00110979696
 21
129.3981020467199
 31
0.0
1001
Sigma
1000

  0
LINE
  5
8DF
330
1F
100
AcDbEntity
  8
0
  6
Continuous
 62
     7
370
    30
100
AcDbLine
 10
309.9011201564199
 20
123.3980156864699
 30
0.0
 11
309.9011163580099
 21
125.59801568646
 31
0.0
1001
Sigma
1000

  0
LINE
  5
8E1
330
1F
100
AcDbEntity
  8
0
  6
Continuous
 62
     7
370
    30
100
AcDbLine
 10
309.9010959847
 20
125.59784594595
 30
0.0
 11
309.9010959847
 21
149.19804594595
 31
0.0
1001
Sigma
1000

  0
LINE
  5
8E3
330
1F
100
AcDbEntity
  8
0
  6
Continuous
 62
     7
370
    30
100
AcDbLine
 10
302.00110979696
 20
129.3981020467199
 30
0.0
 11
302.00110979696
 21
145.3979459459499
 31
0.0
1001
Sigma
1000

  0
LINE
  5
8E5
330
1F
100
AcDbEntity
  8
0
  6
Continuous
 62
     7
370
    30
100
AcDbLine
 10
309.9011163582999
 20
125.59784594595
 30
0.0
 11
311.1009959846999
 21
125.59784594595
 31
0.0
1001
Sigma
1000

  0
LINE
  5
8E7
330
1F
100
AcDbEntity
  8
0
  6
Continuous
 62
     7
370
    30
100
AcDbLine
 10
311.1009959846999
 20
125.59784594595
 30
0.0
 11
311.6206959846999
 21
124.69794594595
 31
0.0
1001
Sigma
1000

  0
LINE
  5
8E9
330
1F
100
AcDbEntity
  8
0
  6
Continuous
 62
     7
370
    30
100
AcDbLine
 10
311.6206959846999
 20
124.69794594595
 30
0.0
 11
313.0011959847
 21
124.69794594595
 31
0.0
1001
Sigma
1000

  0
LINE
  5
8EB
330
1F
100
AcDbEntity
  8
0
  6
Continuous
 62
     7
370
    30
100
AcDbLine
 10
313.0011959847
 20
124.69794594595
 30
0.0
 11
313.9009959846999
 21
125.5979459459499
 31
0.0
1001
Sigma
1000

  0
LINE
  5
8ED
330
1F
100
AcDbEntity
  8
0
  6
Continuous
 62
     7
370
    30
100
AcDbLine
 10
313.9009959846999
 20
125.5979459459499
 30
0.0
 11
313.9009959846999
 21
137.39803426921
 31
0.0
1001
Sigma
1000

  0
LINE
  5
8EF
330
1F
100
AcDbEntity
  8
0
  6
Continuous
 62
     7
370
    30
100
AcDbLine
 10
313.0011959847
 20
124.69794594595
 30
0.0
 11
313.00114598456
 21
137.3980334923899
 31
0.0
1001
Sigma
1000

  0
LINE
  5
8F1
330
1F
100
AcDbEntity
  8
0
  6
Continuous
 62
     7
370
    30
100
AcDbLine
 10
311.1009959846999
 20
125.59784594595
 30
0.0
 11
311.1009959846999
 21
137.39803185204
 31
0.0
1001
Sigma
1000

  0
LINE
  5
8F3
330
1F
100
AcDbEntity
  8
0
  6
Continuous
 62
     7
370
    30
100
AcDbLine
 10
311.6206959846999
 20
124.69794594595
 30
0.0
 11
311.6206959846999
 21
137.3980323006799
 31
0.0
1001
Sigma
1000

  0
LINE
  5
8F5
330
1F
100
AcDbEntity
  8
0
  6
Continuous
 62
     7
370
    30
100
AcDbLine
 10
313.9009959846999
 20
125.5979459459499
 30
0.0
 11
311.1009959846999
 21
125.59784594595
 31
0.0
1001
Sigma
1000

  0
LINE
  5
8F7
330
1F
100
AcDbEntity
  8
0
  6
Continuous
 62
     7
370
    30
100
AcDbLine
 10
309.9010959847
 20
149.19821568646
 30
0.0
 11
311.1009756111
 21
149.19821775811
 31
0.0
1001
Sigma
1000

  0
LINE
  5
8F9
330
1F
100
AcDbEntity
  8
0
  6
Continuous
 62
     7
370
    30
100
AcDbLine
 10
311.1009756111
 20
149.19821775811
 30
0.0
 11
311.6206740573799
 21
150.0981186553999
 31
0.0
1001
Sigma
1000

  0
LINE
  5
8FB
330
1F
100
AcDbEntity
  8
0
  6
Continuous
 62
     7
370
    30
100
AcDbLine
 10
311.6206740573799
 20
150.0981186553999
 30
0.0
 11
313.00117405738
 21
150.0981210388999
 31
0.0
1001
Sigma
1000

  0
LINE
  5
8FD
330
1F
100
AcDbEntity
  8
0
  6
Continuous
 62
     7
370
    30
100
AcDbLine
 10
313.00117405738
 20
150.0981210388999
 30
0.0
 11
313.9009756112699
 21
149.1981225924499
 31
0.0
1001
Sigma
1000

  0
LINE
  5
8FF
330
1F
100
AcDbEntity
  8
0
  6
Continuous
 62
     7
370
    30
100
AcDbLine
 10
313.9009756112699
 20
149.1981225924499
 30
0.0
 11
313.9009959846999
 21
137.39803426921
 31
0.0
1001
Sigma
1000

  0
LINE
  5
901
330
1F
100
AcDbEntity
  8
0
  6
Continuous
 62
     7
370
    30
100
AcDbLine
 10
313.00117405738
 20
150.0981210388999
 30
0.0
 11
313.00114598456
 21
137.3980334923899
 31
0.0
1001
Sigma
1000

  0
LINE
  5
904
102
{ACAD_REACTORS
330
903
102
}
330
1F
100
AcDbEntity
  8
0
  6
Continuous
 62
     7
370
    15
100
AcDbLine
 10
311.1009756111
 20
149.19821775811
 30
0.0
 11
313.9009756112699
 21
149.1981225924499
 31
0.0
1001
Sigma
1000

  0
LINE
  5
906
330
1F
100
AcDbEntity
  8
0
  6
Continuous
 62
     7
370
    30
100
AcDbLine
 10
311.1009756111
 20
149.19821775811
 30
0.0
 11
311.1009959846999
 21
137.39803185204
 31
0.0
1001
Sigma
1000

  0
LINE
  5
908
330
1F
100
AcDbEntity
  8
0
  6
Continuous
 62
     7
370
    30
100
AcDbLine
 10
311.6206740573799
 20
150.0981186553999
 30
0.0
 11
311.6206959846999
 21
137.3980323006799
 31
0.0
1001
Sigma
1000

  0
LINE
  5
90A
330
1F
100
AcDbEntity
  8
0
  6
Continuous
 62
     7
370
    30
100
AcDbLine
 10
313.9009756112699
 20
149.1981225924499
 30
0.0
 11
311.1009756111
 21
149.19821775811
 31
0.0
1001
Sigma
1000

  0
LINE
  5
90C
330
1F
100
AcDbEntity
  8
0
  6
Continuous
 62
     7
370
    30
100
AcDbLine
 10
309.4013210196899
 20
122.8980148235399
 30
0.0
 11
309.4013210196899
 21
151.8980459459499
 31
0.0
1001
Sigma
1000

  0
LINE
  5
90E
330
1F
100
AcDbEntity
  8
0
  6
Continuous
 62
     7
370
    30
100
AcDbLine
 10
302.9051210195299
 20
122.8981036075299
 30
0.0
 11
302.9051210195299
 21
151.8980459459499
 31
0.0
1001
Sigma
1000

  0
DIMENSION
  5
910
330
1F
100
AcDbEntity
  8
KCAD_DIMS
 62
     7
100
AcDbDimension
  2
*D40
 10
114.0632959846999
 20
188.3226454134199
 30
0.0
 11
129.7801686168046
 21
191.9663703499243
 31
0.0
 70
    32
 71
     5
 42
-1.0
  3
Standard
100
AcDbAlignedDimension
 13
102.0632959847
 23
166.5679459459499
 33
0.0
 14
114.0632959846999
 24
166.56802928011
 34
0.0
100
AcDbRotatedDimension
1001
Sigma
1000
DIM_TPHO
1001
KCAD_DIM_EXT
1002
{
1071
 20001212
1070
     0
1070
     1
1070
     1
1040
2.5
1040
5.0
1040
27.671846525606
1040
0.0
1040
0.0
1040
0.0
1040
0.0
1040
0.0
1070
     0
1040
50.0
1040
-1.0
1013
1.0
1023
0.0
1033
0.0
1040
0.0
1013
1.0
1023
0.0
1033
0.0
1000
_None
1040
1.0
1040
12.0
1070
     0
1070
     0
1070
     0
1012
1.0
1022
0.0
1032
0.0
1013
1.0
1023
0.0
1033
0.0
1002
}
1001
ACAD
1000
DSTYLE
1002
{
1070
     3
1000
φ<>
1070
    41
1040
2.5
1070
    42
1040
0.0
1070
    43
1040
8.0
1070
    44
1040
0.0
1070
    45
1040
0.0
1070
    47
1040
0.05
1070
    71
1070
     1
1070
    73
1070
     0
1070
    74
1070
     0
1070
    77
1070
     1
1070
    78
1070
     8
1070
    79
1070
     2
1070
   140
1040
3.2
1070
   141
1040
2.5
1070
   145
1040
0.0001
1070
   146
1040
0.667
1070
   147
1040
0.5333000000000001
1070
   172
1070
     1
1070
   173
1070
     1
1070
   179
1070
     3
1070
   271
1070
     1
1070
   272
1070
     2
1070
   279
1070
     2
1070
   284
1070
     8
1070
   289
1070
     2
1070
   340
1005
189
1070
   341
1005
21
1070
   343
1005
12D
1070
   344
1005
12D
1002
}
  0
LINE
  5
94F
102
{ACAD_REACTORS
330
94E
102
}
330
1F
100
AcDbEntity
  8
0
  6
Continuous
 62
     7
370
    15
100
AcDbLine
 10
99.06329598470398
 20
167.0680459459499
 30
0.0
 11
99.06329598470398
 21
221.3979459459499
 31
0.0
1001
Sigma
1000

  0
DIMENSION
  5
951
330
1F
100
AcDbEntity
  8
KCAD_DIMS
 62
     7
100
AcDbDimension
  2
*D38
 10
115.5631959846999
 20
212.20716033506
 30
0.0
 11
107.9976263983206
 21
214.6758292585566
 31
0.0
 70
    32
 71
     5
 42
-1.0
  3
Standard
100
AcDbAlignedDimension
 13
100.5631959847
 23
166.5679542783099
 33
0.0
 14
115.5631959846999
 24
166.5680459459499
 34
0.0
100
AcDbRotatedDimension
1001
Sigma
1000
DIM_TPHO
1001
KCAD_DIM_EXT
1002
{
1071
 20001212
1070
     0
1070
     1
1070
     1
1040
2.5
1040
5.0
1040
17.950313838311
1040
0.0
1040
0.0
1040
0.0
1040
0.0
1040
0.0
1070
     0
1040
50.0
1040
-1.0
1013
1.0
1023
0.0
1033
0.0
1040
0.0
1013
1.0
1023
0.0
1033
0.0
1000
_None
1040
1.0
1040
15.0
1070
     0
1070
     0
1070
     0
1012
1.0
1022
0.0
1032
0.0
1013
1.0
1023
0.0
1033
0.0
1002
}
1001
ACAD
1000
DSTYLE
1002
{
1070
     3
1000
φ<>
1070
    41
1040
2.5
1070
    42
1040
0.0
1070
    43
1040
8.0
1070
    44
1040
0.0
1070
    45
1040
0.0
1070
    73
1070
     0
1070
    74
1070
     0
1070
    77
1070
     1
1070
    78
1070
     8
1070
    79
1070
     2
1070
   140
1040
3.2
1070
   141
1040
2.5
1070
   145
1040
0.0001
1070
   146
1040
0.667
1070
   147
1040
0.5333000000000001
1070
   172
1070
     1
1070
   173
1070
     1
1070
   179
1070
     3
1070
   271
1070
     1
1070
   272
1070
     3
1070
   279
1070
     2
1070
   284
1070
     8
1070
   289
1070
     2
1070
   340
1005
189
1070
   341
1005
21
1070
   343
1005
12D
1070
   344
1005
12D
1002
}
  0
DIMENSION
  5
98F
330
1F
100
AcDbEntity
  8
KCAD_DIMS
 62
     7
100
AcDbDimension
  2
*D37
 10
117.0630959846999
 20
220.39794594595
 30
0.0
 11
108.2293555708577
 21
223.0180794698909
 31
0.0
 70
    32
 71
     5
 42
-1.0
  3
Standard
100
AcDbAlignedDimension
 13
99.06339598470402
 23
166.5679459459499
 33
0.0
 14
117.0630959846999
 24
166.5680459459499
 34
0.0
100
AcDbRotatedDimension
1001
Sigma
1000
DIM_TPHO
1001
KCAD_DIM_EXT
1002
{
1071
 20001212
1070
     0
1070
     1
1070
     1
1040
2.5
1040
5.0
1040
16.154082700023
1040
0.0
1040
0.0
1040
0.0
1040
0.0
1040
0.0
1070
     0
1040
50.0
1040
-1.0
1013
1.0
1023
0.0
1033
0.0
1040
0.0
1013
1.0
1023
0.0
1033
0.0
1000
_None
1040
1.0
1040
17.9997
1070
     0
1070
     0
1070
     0
1012
1.0
1022
0.0
1032
0.0
1013
1.0
1023
0.0
1033
0.0
1002
}
1001
ACAD
1000
DSTYLE
1002
{
1070
     3
1000
φ<>
1070
    41
1040
2.5
1070
    42
1040
0.0
1070
    43
1040
8.0
1070
    44
1040
0.0
1070
    45
1040
0.0
1070
    73
1070
     0
1070
    74
1070
     0
1070
    77
1070
     1
1070
    78
1070
     8
1070
    79
1070
     2
1070
   140
1040
3.2
1070
   141
1040
2.5
1070
   145
1040
0.0001
1070
   146
1040
0.667
1070
   147
1040
0.5333000000000001
1070
   172
1070
     1
1070
   173
1070
     1
1070
   179
1070
     3
1070
   271
1070
     1
1070
   272
1070
     3
1070
   279
1070
     2
1070
   284
1070
     8
1070
   289
1070
     2
1070
   340
1005
189
1070
   341
1005
21
1070
   343
1005
12D
1070
   344
1005
12D
1002
}
  0
TEXT
  5
9CD
330
1F
100
AcDbEntity
  8
99
  6
Continuous
 62
     7
370
    30
100
AcDbText
 10
312.1506100681418
 20
49.58157125908672
 30
0.0
 40
2.7
  1
取
 41
1.203333318233489
  7
KCADTEXTSTANDARD
100
AcDbText
1001
Sigma
1000

  0
OLE2FRAME
  5
9D6
330
1F
100
AcDbEntity
  8
0
  6
Continuous
 62
   134
370
    15
100
AcDbOle2Frame
 70
     2
 10
198.4886838152345
 20
19.16635878358582
 30
0.0
 11
240.2638689671083
 21
12.73940722175909
 31
0.0
 72
     0
 73
   205
 90
     9344
310
005588903D4CA3CF684049E73E7D962A334000000000000000001A05559D7108
310
6E4049E73E7D962A334000000000000000001A05559D71086E4053C35795937A
310
2940000000000000000088903D4CA3CF684053C35795937A2940000000000000
310
0000000000000100000000010000010000000100000000000100000000240000
310
D0CF11E0A1B11AE1000000000000000000000000000000003E000300FEFF0900
310
0600000000000000000000000100000001000000000000000010000002000000
310
01000000FEFFFFFF0000000000000000FFFFFFFFFFFFFFFFFFFFFFFFFFFFFFFF
310
FFFFFFFFFFFFFFFFFFFFFFFFFFFFFFFFFFFFFFFFFFFFFFFFFFFFFFFFFFFFFFFF
310
FFFFFFFFFFFFFFFFFFFFFFFFFFFFFFFFFFFFFFFFFFFFFFFFFFFFFFFFFFFFFFFF
310
FFFFFFFFFFFFFFFFFFFFFFFFFFFFFFFFFFFFFFFFFFFFFFFFFFFFFFFFFFFFFFFF
310
FFFFFFFFFFFFFFFFFFFFFFFFFFFFFFFFFFFFFFFFFFFFFFFFFFFFFFFFFFFFFFFF
310
FFFFFFFFFFFFFFFFFFFFFFFFFFFFFFFFFFFFFFFFFFFFFFFFFFFFFFFFFFFFFFFF
310
FFFFFFFFFFFFFFFFFFFFFFFFFFFFFFFFFFFFFFFFFFFFFFFFFFFFFFFFFFFFFFFF
310
FFFFFFFFFFFFFFFFFFFFFFFFFFFFFFFFFFFFFFFFFFFFFFFFFFFFFFFFFFFFFFFF
310
FFFFFFFFFFFFFFFFFFFFFFFFFFFFFFFFFFFFFFFFFFFFFFFFFFFFFFFFFFFFFFFF
310
FFFFFFFFFFFFFFFFFFFFFFFFFFFFFFFFFFFFFFFFFFFFFFFFFFFFFFFFFFFFFFFF
310
FFFFFFFFFFFFFFFFFFFFFFFFFFFFFFFFFFFFFFFFFFFFFFFFFFFFFFFFFFFFFFFF
310
FFFFFFFFFFFFFFFFFFFFFFFFFFFFFFFFFFFFFFFFFFFFFFFFFFFFFFFFFFFFFFFF
310
FFFFFFFFFFFFFFFFFFFFFFFFFFFFFFFFFFFFFFFFFFFFFFFFFFFFFFFFFFFFFFFF
310
FFFFFFFFFFFFFFFFFFFFFFFFFFFFFFFFFFFFFFFFFFFFFFFFFFFFFFFFFFFFFFFF
310
FDFFFFFFFEFFFFFFFEFFFFFFFEFFFFFF05000000060000000700000008000000
310
090000000A0000000B0000000C0000000D0000000E0000000F00000010000000
310
FEFFFFFFFFFFFFFFFFFFFFFFFFFFFFFFFFFFFFFFFFFFFFFFFFFFFFFFFFFFFFFF
310
FFFFFFFFFFFFFFFFFFFFFFFFFFFFFFFFFFFFFFFFFFFFFFFFFFFFFFFFFFFFFFFF
310
FFFFFFFFFFFFFFFFFFFFFFFFFFFFFFFFFFFFFFFFFFFFFFFFFFFFFFFFFFFFFFFF
310
FFFFFFFFFFFFFFFFFFFFFFFFFFFFFFFFFFFFFFFFFFFFFFFFFFFFFFFFFFFFFFFF
310
FFFFFFFFFFFFFFFFFFFFFFFFFFFFFFFFFFFFFFFFFFFFFFFFFFFFFFFFFFFFFFFF
310
FFFFFFFFFFFFFFFFFFFFFFFFFFFFFFFFFFFFFFFFFFFFFFFFFFFFFFFFFFFFFFFF
310
FFFFFFFFFFFFFFFFFFFFFFFFFFFFFFFFFFFFFFFFFFFFFFFFFFFFFFFFFFFFFFFF
310
FFFFFFFFFFFFFFFFFFFFFFFFFFFFFFFFFFFFFFFFFFFFFFFFFFFFFFFFFFFFFFFF
310
FFFFFFFFFFFFFFFFFFFFFFFFFFFFFFFFFFFFFFFFFFFFFFFFFFFFFFFFFFFFFFFF
310
FFFFFFFFFFFFFFFFFFFFFFFFFFFFFFFFFFFFFFFFFFFFFFFFFFFFFFFFFFFFFFFF
310
FFFFFFFFFFFFFFFFFFFFFFFFFFFFFFFFFFFFFFFFFFFFFFFFFFFFFFFFFFFFFFFF
310
FFFFFFFFFFFFFFFFFFFFFFFFFFFFFFFFFFFFFFFFFFFFFFFFFFFFFFFFFFFFFFFF
310
FFFFFFFFFFFFFFFFFFFFFFFFFFFFFFFFFFFFFFFFFFFFFFFFFFFFFFFFFFFFFFFF
310
FFFFFFFFFFFFFFFFFFFFFFFFFFFFFFFFFFFFFFFFFFFFFFFFFFFFFFFFFFFFFFFF
310
52006F006F007400200045006E00740072007900000000000000000000000000
310
0000000000000000000000000000000000000000000000000000000000000000
310
16000500FFFFFFFFFFFFFFFF020000000A00030000000000C000000000000046
310
00000000000000000000000010A6C38F0F9AC80103000000C000000000000000
310
01004F006C006500000000000000000000000000000000000000000000000000
310
0000000000000000000000000000000000000000000000000000000000000000
310
0A000200FFFFFFFFFFFFFFFFFFFFFFFF00000000000000000000000000000000
310
0000000000000000000000000000000000000000000000001400000000000000
310
010043006F006D0070004F0062006A0000000000000000000000000000000000
310
0000000000000000000000000000000000000000000000000000000000000000
310
120002010100000003000000FFFFFFFF00000000000000000000000000000000
310
0000000000000000000000000000000000000000010000004D00000000000000
310
01004F006C006500310030004E00610074006900760065000000000000000000
310
0000000000000000000000000000000000000000000000000000000000000000
310
1A000200FFFFFFFFFFFFFFFFFFFFFFFF00000000000000000000000000000000
310
0000000000000000000000000000000000000000040000000419000000000000
310
FEFFFFFF02000000FEFFFFFFFFFFFFFFFFFFFFFFFFFFFFFFFFFFFFFFFFFFFFFF
310
FFFFFFFFFFFFFFFFFFFFFFFFFFFFFFFFFFFFFFFFFFFFFFFFFFFFFFFFFFFFFFFF
310
FFFFFFFFFFFFFFFFFFFFFFFFFFFFFFFFFFFFFFFFFFFFFFFFFFFFFFFFFFFFFFFF
310
FFFFFFFFFFFFFFFFFFFFFFFFFFFFFFFFFFFFFFFFFFFFFFFFFFFFFFFFFFFFFFFF
310
FFFFFFFFFFFFFFFFFFFFFFFFFFFFFFFFFFFFFFFFFFFFFFFFFFFFFFFFFFFFFFFF
310
FFFFFFFFFFFFFFFFFFFFFFFFFFFFFFFFFFFFFFFFFFFFFFFFFFFFFFFFFFFFFFFF
310
FFFFFFFFFFFFFFFFFFFFFFFFFFFFFFFFFFFFFFFFFFFFFFFFFFFFFFFFFFFFFFFF
310
FFFFFFFFFFFFFFFFFFFFFFFFFFFFFFFFFFFFFFFFFFFFFFFFFFFFFFFFFFFFFFFF
310
FFFFFFFFFFFFFFFFFFFFFFFFFFFFFFFFFFFFFFFFFFFFFFFFFFFFFFFFFFFFFFFF
310
FFFFFFFFFFFFFFFFFFFFFFFFFFFFFFFFFFFFFFFFFFFFFFFFFFFFFFFFFFFFFFFF
310
FFFFFFFFFFFFFFFFFFFFFFFFFFFFFFFFFFFFFFFFFFFFFFFFFFFFFFFFFFFFFFFF
310
FFFFFFFFFFFFFFFFFFFFFFFFFFFFFFFFFFFFFFFFFFFFFFFFFFFFFFFFFFFFFFFF
310
FFFFFFFFFFFFFFFFFFFFFFFFFFFFFFFFFFFFFFFFFFFFFFFFFFFFFFFFFFFFFFFF
310
FFFFFFFFFFFFFFFFFFFFFFFFFFFFFFFFFFFFFFFFFFFFFFFFFFFFFFFFFFFFFFFF
310
FFFFFFFFFFFFFFFFFFFFFFFFFFFFFFFFFFFFFFFFFFFFFFFFFFFFFFFFFFFFFFFF
310
FFFFFFFFFFFFFFFFFFFFFFFFFFFFFFFFFFFFFFFFFFFFFFFFFFFFFFFFFFFFFFFF
310
0100000200000000000000000000000000000000481417050000000000000000
310
0000000000000000000000000000000000000000000000000000000000000000
310
0100FEFF030A0000FFFFFFFF0A00030000000000C00000000000004607000000
310
5042727573680007000000504272757368000700000050427275736800F439B2
310
7100000000000000000000000000000000000000000000000000000000000000
310
0000000000000000000000000000000000000000000000000000000000000000
310
0000000000000000000000000000000000000000000000000000000000000000
310
0000000000000000000000000000000000000000000000000000000000000000
310
0000000000000000000000000000000000000000000000000000000000000000
310
0000000000000000000000000000000000000000000000000000000000000000
310
0000000000000000000000000000000000000000000000000000000000000000
310
0000000000000000000000000000000000000000000000000000000000000000
310
0000000000000000000000000000000000000000000000000000000000000000
310
0000000000000000000000000000000000000000000000000000000000000000
310
0000000000000000000000000000000000000000000000000000000000000000
310
0000000000000000000000000000000000000000000000000000000000000000
310
00190000424DF618000000000000360000002800000075000000120000000100
310
180000000000C018000000000000000000000000000000000000FFFFFFFFFFFF
310
FFFFFFFFFFFFFFFFFFFFFFFFFFFFFFFFFFFF6666660808081212120C0C0C3535
310
35FFFFFFFFFFFFFFFFFFFFFFFFFFFFFFFFFFFFFFFFFFFFFFFFFFFFFFC0C0C045
310
4545151515121212121212121212131313141414151515151515161616181818
310
1818181919191919191E1E1E484848B0B0B0FFFFFFFFFFFFFFFFFFD4D4D42424
310
242424242424242E2E2EF1F1F1FFFFFFFFFFFFFFFFFFFFFFFFFFFFFFFFFFFFFF
310
FFFFDEDEDE4B4B4B3333333838383A3A3A3838382C2C2C5E5E5EEBEBEBFFFFFF
310
F1F1F14949494242424444444D4D4DF5F5F5FFFFFFA5A5A54343435050504848
310
48999999FFFFFFFFFFFFFFFFFFFFFFFFFFFFFFFFFFFFFFFFFFFFFFFFFFFFFFFF
310
FFFFFFFFFFBCBCBC6666667171716C6C6C9A9A9AFFFFFFFFFFFFFFFFFFE9E9E9
310
9393938181818080808282828484848484848585858888888888888989898B8B
310
8B8C8C8C8D8D8D8F8F8F90909090909092929291919199999900FFFFFFFFFFFF
310
FFFFFFFFFFFFFFFFFFFFFFFFFFFFFFFFFFFF5D5D5D0000000202020000002727
310
27FFFFFFFFFFFFFFFFFFFFFFFFFFFFFFFFFFFFFFFFFFFFFFFFA6A6A600000000
310
0000020202030303020202030303020202020202020202020202020202020202
310
0202020202020101010000000000000000006B6B6BFFFFFFFFFFFFCECECE0000
310
00000000000000080808EDEDEDFFFFFFFFFFFFFFFFFFFFFFFFFFFFFFFFFFFF9B
310
9B9B000000000000000000000000000000000000838383FFFFFFFFFFFFFFFFFF
310
ECECEC060606000000000000050505EEEEEEFFFFFF7B7B7B0000000000000000
310
00656565FFFFFFFFFFFFFFFFFFFFFFFFFFFFFFFFFFFFFFFFFFFFFFFFFFFFFFFF
310
FFFFFFFFFF8888880000000000000000003F3F3FFFFFFFFFFFFFC1C1C1000000
310
0000000000000000000000000000000000000000000000000000000000000000
310
0000000000000000000000000000000000000000000003030300FFFFFFFFFFFF
310
FFFFFFFFFFFFFFFFFFFFFFFFFFFFFFFFFFFF5E5E5E0000000404040000002525
310
25FFFFFFFFFFFFFFFFFFFFFFFFFFFFFFFFFFFFFFFFFFFEFEFE13131300000005
310
0505030303000000000000000000000000000000000000000000000000000000
310
000000000000000000000000050505010101000000CDCDCDFFFFFFCECECE0303
310
030202020101010B0B0BEDEDEDFFFFFFFFFFFFFFFFFFFFFFFFF7F7F759595900
310
0000000000050505000000000000383838D8D8D8FFFFFFFFFFFFFFFFFFFFFFFF
310
EDEDED0B0B0B0101010101010B0B0BEFEFEFFFFFFF7F7F7F0000000505050000
310
00686868FFFFFFFFFFFFFFFFFFFFFFFFFFFFFFFFFFFFFFFFFFFFFFFFFFFFFFFF
310
FFFFFFFFFF8D8D8D000000040404000000464646FFFFFFFFFFFF2E2E2E000000
310
0404040404040000000000000000000000000000000000000000000000000000
310
0000000000000000000000000003030305050503030312121200FFFFFFFFFFFF
310
FFFFFFFFFFFFFFFFFFFFFFFFFFFFFFFFFFFF5F5F5F0000000505050000002424
310
24FFFFFFFFFFFFFFFFFFFFFFFFFFFFFFFFFFFFFFFFFFD9D9D900000003030304
310
04040000007070709D9D9D9797979797979696969393939292928F8F8F8C8C8C
310
8A8A8A8B8B8B7E7E7E131313010101040404000000858585FFFFFFCECECE0404
310
040202020101010C0C0CEDEDEDFFFFFFFFFFFFFFFFFFCBCBCB23232300000003
310
03030404040000000606068D8D8DFFFFFFFFFFFFFFFFFFFFFFFFFFFFFFFFFFFF
310
EDEDED0C0C0C0101010101010B0B0BEFEFEFFFFFFF7F7F7F0000000505050000
310
00686868FFFFFFFFFFFFFFFFFFFFFFFFFFFFFFFFFFFFFFFFFFFFFFFFFFFFFFFF
310
FFFFFFFFFF8D8D8D000000050505000000444444FFFFFFFEFEFE050505010101
310
0404040101015A5A5A6666666464646464646464646464646363636262626262
310
626060606060606060605E5E5E00000004040403030312121200FFFFFFFFFFFF
310
FFFFFFFFFFFFFFFFFFFFFFFFFFFFFFFFFFFF5F5F5F0000000404040000002323
310
23FFFFFFFFFFFFFFFFFFFFFFFFFFFFFFFFFFFFFFFFFFD2D2D200000003030302
310
0202060606FFFFFFFFFFFFFFFFFFFFFFFFFFFFFFFFFFFFFFFFFFFFFFFFFFFFFF
310
FFFFFFFFFFFFFFFFFF666666000000040404000000808080FFFFFFCECECE0404
310
040202020101010B0B0BEDEDEDFFFFFFFFFFFF8C8C8C03030300000003030300
310
00000000003E3E3ED9D9D9FFFFFFFFFFFFFFFFFFFFFFFFFFFFFFFFFFFFFFFFFF
310
EDEDED0C0C0C0101010101010B0B0BEFEFEFFFFFFF7F7F7F0000000505050000
310
00676767FFFFFFFFFFFFFFFFFFFFFFFFFFFFFFFFFFFFFFFFFFFFFFFFFFFFFFFF
310
FFFFFFFFFF8D8D8D000000040404000000444444FFFFFFFFFFFF070707010101
310
030303000000F7F7F7FFFFFFFFFFFFFFFFFFFFFFFFFFFFFFFFFFFFFFFFFFFFFF
310
FFFFFFFFFFFFFFFFFFFFFFFFFF00000003030303030311111100FFFFFFFFFFFF
310
FFFFFFFFFFFFFFFFFFFFFFFFFFFFFFFFFFFF6161610000000404040000002222
310
22FFFFFFFFFFFFFFFFFFFFFFFFFFFFFFFFFFFFFFFFFFD3D3D300000002020202
310
0202070707FCFCFCFFFFFFFFFFFFFFFFFFFFFFFFFFFFFFFFFFFFFFFFFFFFFFFF
310
FFFFFFFFFFFFFFFFFF696969000000040404000000818181FFFFFFCECECE0404
310
040202020101010D0D0DFAFAFAEEEEEE4D4D4D0000000000000303030000000D
310
0D0D949494FFFFFFFFFFFFFFFFFFFFFFFFFFFFFFFFFFFFFFFFFFFFFFFFFFFFFF
310
EDEDED0C0C0C0101010101010B0B0BEFEFEFFFFFFF7F7F7F0000000505050000
310
00676767FFFFFFFFFFFFFFFFFFFFFFFFFFFFFFFFFFFFFFFFFFFFFFFFFFFFFFFF
310
FFFFFFFFFF8D8D8D000000040404000000434343FFFFFFFEFEFE050505010101
310
030303010101A9A9A9C1C1C1BEBEBEC1C1C1C1C1C1C2C2C2C3C3C3C4C4C4C5C5
310
C5C5C5C5C8C8C8CACACACCCCCC00000003030303030311111100FFFFFFFFFFFF
310
FFFFFFFFFFFFFFFFFFFFFFFFFFFFFFFFFFFF6161610000000404040000002121
310
21FFFFFFFFFFFFFFFFFFFFFFFFFFFFFFFFFFFFFFFFFFD5D5D500000002020202
310
0202060606FCFCFCFFFFFFFFFFFFFFFFFFFFFFFFFFFFFFFFFFFFFFFFFFFFFFFF
310
FFFFFFFFFFFFFFFFFF686868000000050505000000818181FFFFFFCCCCCC0303
310
030202020202020D0D0D9898981D1D1D000000030303040404010101545454E1
310
E1E1FFFFFFFFFFFFFFFFFFFFFFFFFFFFFFFFFFFFFFFFFFFFFFFFFFFFFFFFFFFF
310
EDEDED0C0C0C0101010101010B0B0BEFEFEFFFFFFF7F7F7F0000000505050000
310
00666666FFFFFFFFFFFFFFFFFFFFFFFFFFFFFFFFFFFFFFFFFFFFFFFFFFFFFFFF
310
FFFFFFFFFF8D8D8D000000040404000000424242FFFFFFFFFFFF1E1E1E000000
310
0505050303030000000000000000000000000000000101010101010101010202
310
0202020203030304040405050502020204040403030311111100FFFFFFFFFFFF
310
FFFFFFFFFFFFFFFFFFFFFFFFFFFFFFFFFFFF6363630000000505050000001F1F
310
1FFFFFFFFFFFFFFFFFFFFFFFFFFFFFFFFEFEFEFFFFFFD5D5D500000003030302
310
0202050505FCFCFCFFFFFFFFFFFFFFFFFFFFFFFFFFFFFFFFFFFFFFFFFFFFFFFF
310
FFFFFFFFFFFFFFFFFF686868000000040404000000818181FFFFFFCDCDCD0303
310
030202020303030707074545450000000000000404040303030303039E9E9EFF
310
FFFFFFFFFFFFFFFFFFFFFFFFFFFFFFFFFFFFFFFFFFFFFFFFFFFFFFFFFFFFFFFF
310
EDEDED0C0C0C0101010101010B0B0BEEEEEEFFFFFF7F7F7F0000000505050000
310
00666666FFFFFFFFFFFFFFFFFFFFFFFFFFFFFFFFFFFFFFFFFFFFFFFFFFFFFFFF
310
FFFFFFFFFF8D8D8D000000040404000000434343FFFFFFFFFFFF9C9C9C000000
310
0000000000000000000000000000000000000000000000000000000000000000
310
0000000000000000000000000004040405050503030311111100FFFFFFFFFFFF
310
FFFFFFFFFFFFFFFFFFFFFFFFFFFFFFFFFFFF6262620000000505050000002121
310
21FFFFFFFFFFFFFFFFFFFFFFFFFFFFFFFEFEFEFFFFFFD5D5D500000002020201
310
0101070707FDFDFDFFFFFFFFFFFFFFFFFFFFFFFFFFFFFFFFFFFFFFFFFFFFFFFF
310
FFFFFFFFFFFFFFFFFF696969000000050505000000818181FFFFFFCCCCCC0303
310
030202020101010D0D0DF6F6F6B3B3B319191900000003030302020200000057
310
5757E8E8E8FFFFFFFFFFFFFFFFFFFFFFFFFFFFFFFFFFFFFFFFFFFFFFFFFFFFFF
310
EDEDED0C0C0C0101010101010C0C0CEDEDEDFFFFFF7F7F7F0000000505050000
310
00666666FFFFFFFFFFFFFFFFFFFFFFFFFFFFFFFFFFFFFFFFFFFFFFFFFFFFFFFF
310
FFFFFFFFFF8D8D8D000000040404000000434343FFFFFFFFFFFFFFFFFFA8A8A8
310
3C3C3C2E2E2E2C2C2C2B2B2B2A2A2A2A2A2A2929292828282727272727272626
310
2626262625252525252524242400000004040403030311111100FFFFFFFFFFFF
310
FFFFFFFFFFFFFFFFFFFFFFFFFFFFFFFFFFFF6161610000000505050000002121
310
21FFFFFFFFFFFFFFFFFFFFFFFFFFFFFFFFFFFFFFFFFFD2D2D200000003030302
310
0202060606FFFFFFFFFFFFFFFFFFFFFFFFFFFFFFFFFFFFFFFFFFFFFFFFFFFFFF
310
FFFFFFFFFFFFFFFFFF666666000000050505000000808080FFFFFFCCCCCC0202
310
020202020101010B0B0BECECECFFFFFFE5E5E54D4D4D00000000000003030300
310
00001B1B1BABABABFFFFFFFFFFFFFFFFFFFFFFFFFFFFFFFFFFFFFFFFFFFFFFFF
310
EDEDED0C0C0C0101010101010B0B0BEEEEEEFFFFFF7F7F7F0000000505050000
310
00696969FFFFFFFFFFFFFFFFFFFFFFFFFFFFFFFFFFFFFFFFFFFFFFFFFFFFFFFF
310
FFFFFFFFFF909090000000040404000000414141FFFFFFFFFFFFFFFFFFFFFFFF
310
FFFFFFFDFDFDFAFAFAF9F9F9F9F9F9F7F7F7F7F7F7F7F7F7F5F5F5F5F5F5F4F4
310
F4F4F4F4F2F2F2F4F4F4F7F7F700000004040403030311111100FFFFFFFFFFFF
310
FFFFFFFFFFFFFFFFFFFFFFFFFFFFFFFFFFFF5F5F5F0000000505050000002222
310
22FFFFFFFFFFFFFFFFFFFFFFFFFFFFFFFFFFFFFFFFFFDBDBDB00000003030304
310
04040000005858588585858383838585858686868989898989898D8D8D8E8E8E
310
919191949494898989161616010101040404000000828282FFFFFFCCCCCC0303
310
030202020101010B0B0BECECECFFFFFFFFFFFFFFFFFF8F8F8F0A0A0A00000003
310
0303000000000000636363EDEDEDFFFFFFFFFFFFFFFFFFFFFFFFFFFFFFFFFFFF
310
ECECEC0C0C0C0101010101010B0B0BEFEFEFFFFFFF7F7F7F0000000505050000
310
00555555D8D8D8D1D1D1D1D1D1D2D2D2D2D2D2D2D2D2D4D4D4D4D4D4D4D4D4D5
310
D5D5DCDCDC565656000000050505000000424242FFFFFFFFFFFFFFFFFFFFFFFF
310
FFFFFFFFFFFFFFFFFFFFFFFFFFFFFFFFFFFFFFFFFFFFFFFFFFFFFFFFFFFFFFFF
310
FFFFFFFFFFFFFFFFFFFFFDFDFD00000003030303030310101000FFFFFFFFFFFF
310
FFFFFFFFFFFFFFFFFFFFFFFFFFFFFFFFFFFF5F5F5F0000000505050000002121
310
21FFFFFFFFFFFFFFFFFFFFFFFFFFFFFFFFFFFFFFFFFFFFFFFF1D1D1D00000004
310
0404040404000000000000000000000000000000000000000000000000000000
310
000000000000000000000000050505020202000000BFBFBFFFFFFFCBCBCB0202
310
020202020101010C0C0CECECECFFFFFFFFFFFFFFFFFFFFFFFFD2D2D235353500
310
00000101010202020000001F1F1FB5B5B5FFFFFFFFFFFFFFFFFFFFFFFFFFFFFF
310
ECECEC0C0C0C0101010101010B0B0BEFEFEFFFFFFF7F7F7F0000000505050404
310
0400000000000000000000000000000000000000000000000000000000000000
310
00000000000000000404040404040000006E6E6EFFFFFFFFFFFF7C7C7C464646
310
4D4D4D4D4D4D4D4D4D4D4D4D4D4D4D4D4D4D4D4D4D4D4D4D4C4C4C4D4D4D4E4E
310
4E4F4F4F50505055555530303000000004040401010115151500FFFFFFFFFFFF
310
FFFFFFFFFFFFFFFFFFFFFFFFFFFFFFFFFFFF6060600000000505050000001F1F
310
1FFFFFFFFFFFFFFFFFFFFFFFFFFFFFFFFFFFFFFFFFFFFFFFFFB3B3B300000000
310
0000000000000000000000000000000000000000000000000000000000000000
310
000000000000000000000000000000000000585858FFFFFFFFFFFFCCCCCC0303
310
030202020101010B0B0BEAEAEAFFFFFFFFFFFFFFFFFFFFFFFFFFFFFFFEFEFE77
310
7777010101000000010101000000000000656565F0F0F0FFFFFFFFFFFFFFFFFF
310
EDEDED0A0A0A0000000000000A0A0AEDEDEDFFFFFF7E7E7E0000000303030303
310
0303030302020202020202020202020202020202020202020202020202020202
310
0202020202030303020202000000040404DADADAFFFFFFFFFFFF3F3F3F000000
310
0000000000000000000000000000000000000000000000000000000000000000
310
0000000000000000000000000004040402020200000082828200F1F1F1F1F1F1
310
F1F1F1F1F1F1F2F2F2F2F2F2F3F3F3FFFFFF5F5F5F0000000505050000001E1E
310
1EFFFFFFFCFCFCFCFCFCFBFBFBFDFDFDFDFDFDFEFEFEFEFEFEFFFFFFC6C6C646
310
4646131313131313131313131313121212121212121212111111111111111111
310
1010101010101010100F0F0F1C1C1C848484FEFEFEFFFFFFFFFFFFCDCDCD0404
310
040202020101010B0B0BEBEBEBFFFFFFFFFFFFFFFFFFFFFFFFFFFFFFFFFFFFFF
310
FFFFC0C0C0222222030303060606030303000000222222BCBCBCFFFFFFFFFFFF
310
ECECEC0D0D0D0000000000000B0B0BECECECFFFFFF7E7E7E0000000000000000
310
0000000000000000000000000000000000000000000000000000000000000000
310
00000000000000000000001C1C1CBBBBBBFFFFFFFFFFFFFFFFFF3F3F3F000000
310
0000000000000000000000000000000000000000000000000000000000000000
310
000000000000000000000000000000000000004F4F4FFFFFFF00111111101010
310
1010101111111313131313131515151919190909090303030505050404040404
310
043030302E2E2E2F2F2F3131313333333333333636362F2F2F7F7F7FFFFFFFFF
310
FFFFFFFFFFFDFDFDFCFCFCFBFBFBFAFAFAF8F8F8F7F7F7F7F7F7F6F6F6F5F5F5
310
F3F3F3F3F3F3F0F0F0F4F4F4FFFFFFFFFFFFFFFFFFFFFFFFFFFFFFCECECE0404
310
040303030000000B0B0BEBEBEBFFFFFFFFFFFFFFFFFFFFFFFFFFFFFFFFFFFFFF
310
FFFFFFFFFFF5F5F5D3D3D3D5D5D5D3D3D3D1D1D1C6C6C6C9C9C9FCFCFCFFFFFF
310
FFFFFFD5D5D5D4D4D4D4D4D4D1D1D1FDFDFDFFFFFFDFDFDFBBBBBBBDBDBDBDBD
310
BDBBBBBBB9B9B9B8B8B8B5B5B5B4B4B4B3B3B3B1B1B1AFAFAFAEAEAEADADADAB
310
ABABA9A9A9A9A9A9C4C4C4FDFDFDFFFFFFFFFFFFFFFFFFFFFFFFB8B8B89B9B9B
310
9D9D9D9B9B9B9B9B9B9999999999999999999999999999999999999999999999
310
999A9A9A989898979797979797989898CCCCCCFFFFFFFFFFFF00010101000000
310
0000000000000000000000000000000000000303030505050505050404040404
310
04000000000000000000000000000000000000000000000000555555FFFFFFFF
310
FFFFFFFFFFFFFFFFFFFFFFFFFFFFFFFFFFFFFFFFFFFFFFFFFFFFFFFFFFFFFFFF
310
FFFFFFFFFFFFFFFFFFFFFFFFFFFFFFFFFFFFFFFFFFFFFFFFFFFFFFCECECE0404
310
040101010101010B0B0BEBEBEBFFFFFFFFFFFFFFFFFFFFFFFFFFFFFFFFFFFFFF
310
FFFFFFFFFFFFFFFFFFFFFFFFFFFFFFFFFFFFFFFFFFFFFFFFFFFFFFFFFFFFFFFF
310
F5F5F57979797272727373737A7A7AF6F6F6FFFFFFFFFFFFFFFFFFFFFFFFFFFF
310
FFFFFFFFFFFFFFFFFFFFFFFFFFFFFFFFFFFFFFFFFFFFFFFFFFFFFFFFFFFFFFFF
310
FFFFFFFFFFFFFFFFFFFFFFFFFFFFFFFFFFFFFFFFFFFFFFFFFFFFFFFFFFFFFFFF
310
FFFFFFFFFFFFFFFFFFFFFFFFFFFFFFFFFFFFFFFFFFFFFFFFFFFFFFFFFFFFFFFF
310
FFFFFFFFFFFFFFFFFFFFFFFFFFFFFFFFFFFFFFFFFFFFFFFFFF00030303020202
310
0303030202020303030303030303030303030303030303030303030303030303
310
030303030303030303030303030303030303030303030000005A5A5AFFFFFFFF
310
FFFFFFFFFFFFFFFFFFFFFFFFFFFFFFFFFFFFFFFFFFFFFFFFFFFFFFFFFFFFFFFF
310
FFFFFFFFFFFFFFFFFFFFFFFFFFFFFFFFFFFFFFFFFFFFFFFFFFFFFFCECECE0303
310
030202020101010A0A0AEBEBEBFFFFFFFFFFFFFFFFFFFFFFFFFFFFFFFFFFFFFF
310
FFFFFFFFFFFFFFFFFFFFFFFFFFFFFFFFFFFFFFFFFFFFFFFFFFFFFFFFFFFFFFFF
310
EDEDED000000000000000000000000EDEDEDFFFFFFFFFFFFFFFFFFFFFFFFFFFF
310
FFFFFFFFFFFFFFFFFFFFFFFFFFFFFFFFFFFFFFFFFFFFFFFFFFFFFFFFFFFFFFFF
310
FFFFFFFFFFFFFFFFFFFFFFFFFFFFFFFFFFFFFFFFFFFFFFFFFFFFFFFFFFFFFFFF
310
FFFFFFFFFFFFFFFFFFFFFFFFFFFFFFFFFFFFFFFFFFFFFFFFFFFFFFFFFFFFFFFF
310
FFFFFFFFFFFFFFFFFFFFFFFFFFFFFFFFFFFFFFFFFFFFFFFFFF00141414121212
310
1212121212121111111212121111111111111111111111111111111010101010
310
101010100F0F0F1010101010100F0F0F0F0F0F0F0F0F030303646464FFFFFFFF
310
FFFFFFFFFFFFFFFFFFFFFFFFFFFFFFFFFFFFFFFFFFFFFFFFFFFFFFFFFFFFFFFF
310
FFFFFFFFFFFFFFFFFFFFFFFFFFFFFFFFFFFFFFFFFFFFFFFFFFFFFFD0D0D00A0A
310
0A070707060606111111ECECECFFFFFFFFFFFFFFFFFFFFFFFFFFFFFFFFFFFFFF
310
FFFFFFFFFFFFFFFFFFFFFFFFFFFFFFFFFFFFFFFFFFFFFFFFFFFFFFFFFFFFFFFF
310
F0F0F00E0E0E0000000101010C0C0CEFEFEFFFFFFFFFFFFFFFFFFFFFFFFFFFFF
310
FFFFFFFFFFFFFFFFFFFFFFFFFFFFFFFFFFFFFFFFFFFFFFFFFFFFFFFFFFFFFFFF
310
FFFFFFFFFFFFFFFFFFFFFFFFFFFFFFFFFFFFFFFFFFFFFFFFFFFFFFFFFFFFFFFF
310
FFFFFFFFFFFFFFFFFFFFFFFFFFFFFFFFFFFFFFFFFFFFFFFFFFFFFFFFFFFFFFFF
310
FFFFFFFFFFFFFFFFFFFFFFFFFFFFFFFFFFFFFFFFFFFFFFFFFF00000000000000
310
0000000000000000000000000000000000000000000000000000000000000000
310
0000000000000000000000000000000000000000000000000000000000000000
310
0000000000000000000000000000000000000000000000000000000000000000
310
0000000000000000000000000000000000000000000000000000000000000000
310
0000000000000000000000000000000000000000000000000000000000000000
310
0000000000000000000000000000000000000000000000000000000000000000
310
0000000000000000000000000000000000000000000000000000000000000000
310
0000000000000000000000000000000000000000000000000000000000000000
  1
OLE
  0
TEXT
  5
9D7
330
1F
100
AcDbEntity
  8
99
  6
Continuous
 62
     7
370
    30
100
AcDbText
 10
317.0302348444833
 20
13.81056581539687
 30
0.0
 40
4.0
  1
株式会社トキナー
  7
KCADTEXTSTANDARD
100
AcDbText
1001
Sigma
1000

  0
TEXT
  5
9D8
330
1F
100
AcDbEntity
  8
99
  6
Continuous
 62
     7
370
    30
100
AcDbText
 10
368.0887944745513
 20
14.49056581539688
 30
0.0
 40
4.0
  1
Tokina Co.,Ltd.
 41
0.7000000000000001
  7
KCADTEXTSTANDARD
100
AcDbText
1001
Sigma
1000

  0
LINE
  5
AA0
330
1F
100
AcDbEntity
  8
0
  6
Continuous
 62
     7
370
    15
100
AcDbLine
 10
114.0632959846999
 20
188.3226454134199
 30
0.0
 11
139.4452333862977
 21
188.3435621595561
 31
0.0
  0
TEXT
  5
B02
330
1F
100
AcDbEntity
  8
99
  6
Continuous
 62
     7
370
    30
100
AcDbText
 10
298.1100479576591
 20
27.84663074919883
 30
0.0
 40
2.5
  1
図番登録
 41
0.9
  7
KCADTEXTSTANDARD
100
AcDbText
1001
Sigma
1000

  0
TEXT
  5
B03
330
1F
100
AcDbEntity
  8
99
  6
Continuous
 62
     7
370
    30
100
AcDbText
 10
298.5407095669417
 20
22.60274235886472
 30
0.0
 40
2.0
  1
2008.5.15
 41
0.7000000000000001
  7
KCADTEXTSTANDARD
100
AcDbText
1001
Sigma
1000

  0
ENDSEC
  0
SECTION
  2
OBJECTS
  0
DICTIONARY
  5
C
330
0
100
AcDbDictionary
281
     1
  3
ACAD_COLOR
350
6C
  3
ACAD_GROUP
350
D
  3
ACAD_LAYOUT
350
1A
  3
ACAD_MATERIAL
350
6B
  3
ACAD_MLINESTYLE
350
17
  3
ACAD_PLOTSETTINGS
350
19
  3
ACAD_PLOTSTYLENAME
350
E
  3
ACAD_TABLESTYLE
350
92
  3
ACDBHEADERROUNDTRIPXREC
350
BC0
  3
AcDbVariableDictionary
350
59
  3
DWGPROPS
350
BC3
  3
KCADFRAMEINFO
350
2A7
  0
DICTIONARY
  5
6C
102
{ACAD_REACTORS
330
C
102
}
330
C
100
AcDbDictionary
281
     1
  0
DICTIONARY
  5
D
102
{ACAD_REACTORS
330
C
102
}
330
C
100
AcDbDictionary
281
     1
  3
*A1
350
2EF
  3
*A10
350
40F
  3
*A100
350
34A
  3
*A101
350
597
  3
*A102
350
317
  3
*A103
350
59A
  3
*A104
350
59D
  3
*A105
350
350
  3
*A106
350
616
  3
*A107
350
619
  3
*A108
350
52B
  3
*A109
350
61C
  3
*A11
350
2F8
  3
*A110
350
61F
  3
*A111
350
30C
  3
*A112
350
622
  3
*A113
350
625
  3
*A114
350
62C
  3
*A115
350
62F
  3
*A116
350
31A
  3
*A117
350
54E
  3
*A118
350
632
  3
*A119
350
63F
  3
*A12
350
412
  3
*A120
350
642
  3
*A121
350
52E
  3
*A122
350
570
  3
*A123
350
645
  3
*A124
350
648
  3
*A125
350
64B
  3
*A126
350
694
  3
*A127
350
697
  3
*A128
350
69A
  3
*A129
350
353
  3
*A13
350
582
  3
*A130
350
69D
  3
*A131
350
31D
  3
*A132
350
6A0
  3
*A133
350
573
  3
*A134
350
6E9
  3
*A135
350
53B
  3
*A136
350
6EC
  3
*A137
350
6EF
  3
*A138
350
6F2
  3
*A139
350
6F7
  3
*A14
350
415
  3
*A140
350
6FA
  3
*A141
350
2F5
  3
*A142
350
6FF
  3
*A143
350
70C
  3
*A144
350
576
  3
*A145
350
70F
  3
*A146
350
320
  3
*A147
350
714
  3
*A148
350
53E
  3
*A149
350
719
  3
*A15
350
2F2
  3
*A150
350
71C
  3
*A151
350
71F
  3
*A152
350
722
  3
*A153
350
356
  3
*A154
350
727
  3
*A155
350
579
  3
*A156
350
72A
  3
*A157
350
72F
  3
*A158
350
732
  3
*A159
350
735
  3
*A16
350
418
  3
*A160
350
323
  3
*A161
350
541
  3
*A162
350
738
  3
*A163
350
73D
  3
*A164
350
740
  3
*A165
350
359
  3
*A166
350
312
  3
*A167
350
747
  3
*A168
350
74A
  3
*A169
350
751
  3
*A17
350
41B
  3
*A170
350
754
  3
*A171
350
757
  3
*A172
350
75A
  3
*A173
350
75F
  3
*A174
350
544
  3
*A175
350
326
  3
*A176
350
762
  3
*A177
350
57C
  3
*A178
350
364
  3
*A179
350
76B
  3
*A18
350
41E
  3
*A180
350
77E
  3
*A181
350
78D
  3
*A182
350
79C
  3
*A183
350
7A1
  3
*A184
350
903
  3
*A185
350
94E
  3
*A186
350
329
  3
*A187
350
367
  3
*A19
350
423
  3
*A2
350
57F
  3
*A20
350
426
  3
*A21
350
30F
  3
*A22
350
42D
  3
*A23
350
430
  3
*A24
350
585
  3
*A25
350
433
  3
*A26
350
2FB
  3
*A27
350
32C
  3
*A28
350
436
  3
*A29
350
43B
  3
*A3
350
547
  3
*A30
350
43E
  3
*A31
350
443
  3
*A32
350
446
  3
*A33
350
449
  3
*A34
350
554
  3
*A35
350
34D
  3
*A36
350
44E
  3
*A37
350
451
  3
*A38
350
458
  3
*A39
350
32F
  3
*A4
350
36A
  3
*A40
350
45B
  3
*A41
350
2FE
  3
*A42
350
45E
  3
*A43
350
461
  3
*A44
350
466
  3
*A45
350
469
  3
*A46
350
588
  3
*A47
350
472
  3
*A48
350
561
  3
*A49
350
475
  3
*A5
350
377
  3
*A50
350
478
  3
*A51
350
332
  3
*A52
350
47B
  3
*A53
350
47E
  3
*A54
350
485
  3
*A55
350
301
  3
*A56
350
488
  3
*A57
350
528
  3
*A58
350
48B
  3
*A59
350
48E
  3
*A6
350
3C0
  3
*A60
350
493
  3
*A61
350
564
  3
*A62
350
496
  3
*A63
350
341
  3
*A64
350
49D
  3
*A65
350
4AA
  3
*A66
350
4AD
  3
*A67
350
4D2
  3
*A68
350
58B
  3
*A69
350
4D5
  3
*A7
350
409
  3
*A70
350
304
  3
*A71
350
4D8
  3
*A72
350
4DB
  3
*A73
350
4DE
  3
*A74
350
567
  3
*A75
350
344
  3
*A76
350
4E3
  3
*A77
350
4E6
  3
*A78
350
4ED
  3
*A79
350
58E
  3
*A8
350
551
  3
*A80
350
4F0
  3
*A81
350
4F3
  3
*A82
350
4F6
  3
*A83
350
4F9
  3
*A84
350
307
  3
*A85
350
500
  3
*A86
350
503
  3
*A87
350
347
  3
*A88
350
56A
  3
*A89
350
508
  3
*A9
350
40C
  3
*A90
350
591
  3
*A91
350
50B
  3
*A92
350
510
  3
*A93
350
513
  3
*A94
350
516
  3
*A95
350
519
  3
*A96
350
51C
  3
*A97
350
51F
  3
*A98
350
56D
  3
*A99
350
594
  0
DICTIONARY
  5
1A
102
{ACAD_REACTORS
330
C
102
}
330
C
100
AcDbDictionary
281
     1
  3
Model
350
22
  3
ﾚｲｱｳﾄ1
350
22F
  0
DICTIONARY
  5
6B
102
{ACAD_REACTORS
330
C
102
}
330
C
100
AcDbDictionary
281
     1
  0
DICTIONARY
  5
17
102
{ACAD_REACTORS
330
C
102
}
330
C
100
AcDbDictionary
281
     1
  3
Standard
350
18
  0
DICTIONARY
  5
19
102
{ACAD_REACTORS
330
C
102
}
330
C
100
AcDbDictionary
281
     1
  0
ACDBDICTIONARYWDFLT
  5
E
102
{ACAD_REACTORS
330
C
102
}
330
C
100
AcDbDictionary
281
     1
  3
Normal
350
F
100
AcDbDictionaryWithDefault
340
F
  0
DICTIONARY
  5
92
102
{ACAD_REACTORS
330
C
102
}
330
C
100
AcDbDictionary
281
     1
  0
DICTIONARY
  5
BC0
102
{ACAD_REACTORS
330
C
102
}
330
C
100
AcDbDictionary
281
     1
  3
COLORDICT
350
BC1
  3
MATERIALDICT
350
BC2
  0
DICTIONARY
  5
59
102
{ACAD_REACTORS
330
C
102
}
330
C
100
AcDbDictionary
281
     1
  3
DIMASSOC
350
BBF
  0
XRECORD
  5
BC3
102
{ACAD_REACTORS
330
C
102
}
330
C
100
AcDbXrecord
280
     1
  1
DWGPROPS COOKIE
  2

  3

  4

  6

  7

  8
fottrem
  9

300
=
301
=
302
=
303
=
304
=
305
=
306
=
307
=
308
=
309
=
 40
0.0
 41
2453353.717125822
 42
2453298.353506759
  1

 90
        0
  0
XRECORD
  5
2A7
102
{ACAD_REACTORS
330
C
102
}
330
C
100
AcDbXrecord
280
     1
  1
A3
 40
420.0
 40
297.0
 90
        1
 90
        1
  0
GROUP
  5
2EF
102
{ACAD_REACTORS
330
D
102
}
330
D
100
AcDbGroup
300
group from kcad family
 70
     1
 71
     1
340
2F0
  0
GROUP
  5
40F
102
{ACAD_REACTORS
330
D
102
}
330
D
100
AcDbGroup
300
group from kcad family
 70
     1
 71
     1
340
410
  0
GROUP
  5
34A
102
{ACAD_REACTORS
330
D
102
}
330
D
100
AcDbGroup
300
group from kcad family
 70
     1
 71
     1
340
34B
  0
GROUP
  5
597
102
{ACAD_REACTORS
330
D
102
}
330
D
100
AcDbGroup
300
group from kcad family
 70
     1
 71
     1
340
598
  0
GROUP
  5
317
102
{ACAD_REACTORS
330
D
102
}
330
D
100
AcDbGroup
300
group from kcad family
 70
     1
 71
     1
340
318
  0
GROUP
  5
59A
102
{ACAD_REACTORS
330
D
102
}
330
D
100
AcDbGroup
300
group from kcad family
 70
     1
 71
     1
340
59B
  0
GROUP
  5
59D
102
{ACAD_REACTORS
330
D
102
}
330
D
100
AcDbGroup
300
group from kcad family
 70
     1
 71
     1
340
59E
340
5A0
340
5A2
340
5A4
340
5A6
340
5A8
340
5AA
340
5AC
340
5AE
340
5B0
340
5B2
340
5B4
340
5B6
340
5B8
340
5BA
340
5BC
340
5BE
340
5C0
340
5C2
340
5C4
340
5C6
340
5C8
340
5CA
340
5CC
340
5CE
340
5D0
340
5D2
340
5D4
340
5D6
340
5D8
340
5DA
340
5DC
340
5DE
340
5E0
340
5E2
340
5E4
340
5E6
340
5E8
340
5EA
340
5EC
340
5EE
340
5F0
340
5F2
340
5F4
340
5F6
340
5F8
340
5FA
340
5FC
340
5FE
340
600
340
602
340
604
340
606
340
608
340
60A
340
60C
340
60E
340
610
340
612
340
614
  0
GROUP
  5
350
102
{ACAD_REACTORS
330
D
102
}
330
D
100
AcDbGroup
300
group from kcad family
 70
     1
 71
     1
340
351
  0
GROUP
  5
616
102
{ACAD_REACTORS
330
D
102
}
330
D
100
AcDbGroup
300
group from kcad family
 70
     1
 71
     1
340
617
  0
GROUP
  5
619
102
{ACAD_REACTORS
330
D
102
}
330
D
100
AcDbGroup
300
group from kcad family
 70
     1
 71
     1
340
61A
  0
GROUP
  5
52B
102
{ACAD_REACTORS
330
D
102
}
330
D
100
AcDbGroup
300
group from kcad family
 70
     1
 71
     1
340
52C
  0
GROUP
  5
61C
102
{ACAD_REACTORS
330
D
102
}
330
D
100
AcDbGroup
300
group from kcad family
 70
     1
 71
     1
340
61D
  0
GROUP
  5
2F8
102
{ACAD_REACTORS
330
D
102
}
330
D
100
AcDbGroup
300
group from kcad family
 70
     1
 71
     1
340
2F9
  0
GROUP
  5
61F
102
{ACAD_REACTORS
330
D
102
}
330
D
100
AcDbGroup
300
group from kcad family
 70
     1
 71
     1
340
620
  0
GROUP
  5
30C
102
{ACAD_REACTORS
330
D
102
}
330
D
100
AcDbGroup
300
group from kcad family
 70
     1
 71
     1
340
30D
  0
GROUP
  5
622
102
{ACAD_REACTORS
330
D
102
}
330
D
100
AcDbGroup
300
group from kcad family
 70
     1
 71
     1
340
623
  0
GROUP
  5
625
102
{ACAD_REACTORS
330
D
102
}
330
D
100
AcDbGroup
300
group from kcad family
 70
     1
 71
     1
340
626
  0
GROUP
  5
62C
102
{ACAD_REACTORS
330
D
102
}
330
D
100
AcDbGroup
300
group from kcad family
 70
     1
 71
     1
340
62D
  0
GROUP
  5
62F
102
{ACAD_REACTORS
330
D
102
}
330
D
100
AcDbGroup
300
group from kcad family
 70
     1
 71
     1
340
630
  0
GROUP
  5
31A
102
{ACAD_REACTORS
330
D
102
}
330
D
100
AcDbGroup
300
group from kcad family
 70
     1
 71
     1
340
31B
  0
GROUP
  5
54E
102
{ACAD_REACTORS
330
D
102
}
330
D
100
AcDbGroup
300
group from kcad family
 70
     1
 71
     1
340
54F
  0
GROUP
  5
632
102
{ACAD_REACTORS
330
D
102
}
330
D
100
AcDbGroup
300
group from kcad family
 70
     1
 71
     1
340
633
340
635
340
637
340
639
340
63B
340
63D
  0
GROUP
  5
63F
102
{ACAD_REACTORS
330
D
102
}
330
D
100
AcDbGroup
300
group from kcad family
 70
     1
 71
     1
340
640
  0
GROUP
  5
412
102
{ACAD_REACTORS
330
D
102
}
330
D
100
AcDbGroup
300
group from kcad family
 70
     1
 71
     1
340
413
  0
GROUP
  5
642
102
{ACAD_REACTORS
330
D
102
}
330
D
100
AcDbGroup
300
group from kcad family
 70
     1
 71
     1
340
643
  0
GROUP
  5
52E
102
{ACAD_REACTORS
330
D
102
}
330
D
100
AcDbGroup
300
group from kcad family
 70
     1
 71
     1
340
52F
340
531
340
533
340
535
340
537
340
539
  0
GROUP
  5
570
102
{ACAD_REACTORS
330
D
102
}
330
D
100
AcDbGroup
300
group from kcad family
 70
     1
 71
     1
340
571
  0
GROUP
  5
645
102
{ACAD_REACTORS
330
D
102
}
330
D
100
AcDbGroup
300
group from kcad family
 70
     1
 71
     1
340
646
  0
GROUP
  5
648
102
{ACAD_REACTORS
330
D
102
}
330
D
100
AcDbGroup
300
group from kcad family
 70
     1
 71
     1
340
649
  0
GROUP
  5
64B
102
{ACAD_REACTORS
330
D
102
}
330
D
100
AcDbGroup
300
group from kcad family
 70
     1
 71
     1
340
64C
340
64E
340
650
340
652
340
654
340
656
340
658
340
65A
340
65C
340
65E
340
660
340
662
340
664
340
666
340
668
340
66A
340
66C
340
66E
340
670
340
672
340
674
340
676
340
678
340
67A
340
67C
340
67E
340
680
340
682
340
684
340
686
340
688
340
68A
340
68C
340
68E
340
690
340
692
  0
GROUP
  5
694
102
{ACAD_REACTORS
330
D
102
}
330
D
100
AcDbGroup
300
group from kcad family
 70
     1
 71
     1
340
695
  0
GROUP
  5
697
102
{ACAD_REACTORS
330
D
102
}
330
D
100
AcDbGroup
300
group from kcad family
 70
     1
 71
     1
340
698
  0
GROUP
  5
69A
102
{ACAD_REACTORS
330
D
102
}
330
D
100
AcDbGroup
300
group from kcad family
 70
     1
 71
     1
340
69B
  0
GROUP
  5
353
102
{ACAD_REACTORS
330
D
102
}
330
D
100
AcDbGroup
300
group from kcad family
 70
     1
 71
     1
340
354
  0
GROUP
  5
582
102
{ACAD_REACTORS
330
D
102
}
330
D
100
AcDbGroup
300
group from kcad family
 70
     1
 71
     1
340
583
  0
GROUP
  5
69D
102
{ACAD_REACTORS
330
D
102
}
330
D
100
AcDbGroup
300
group from kcad family
 70
     1
 71
     1
340
69E
  0
GROUP
  5
31D
102
{ACAD_REACTORS
330
D
102
}
330
D
100
AcDbGroup
300
group from kcad family
 70
     1
 71
     1
340
31E
  0
GROUP
  5
6A0
102
{ACAD_REACTORS
330
D
102
}
330
D
100
AcDbGroup
300
group from kcad family
 70
     1
 71
     1
340
6A1
340
6A3
340
6A5
340
6A7
340
6A9
340
6AB
340
6AD
340
6AF
340
6B1
340
6B3
340
6B5
340
6B7
340
6B9
340
6BB
340
6BD
340
6BF
340
6C1
340
6C3
340
6C5
340
6C7
340
6C9
340
6CB
340
6CD
340
6CF
340
6D1
340
6D3
340
6D5
340
6D7
340
6D9
340
6DB
340
6DD
340
6DF
340
6E1
340
6E3
340
6E5
340
6E7
  0
GROUP
  5
573
102
{ACAD_REACTORS
330
D
102
}
330
D
100
AcDbGroup
300
group from kcad family
 70
     1
 71
     1
340
574
  0
GROUP
  5
6E9
102
{ACAD_REACTORS
330
D
102
}
330
D
100
AcDbGroup
300
group from kcad family
 70
     1
 71
     1
340
6EA
  0
GROUP
  5
53B
102
{ACAD_REACTORS
330
D
102
}
330
D
100
AcDbGroup
300
group from kcad family
 70
     1
 71
     1
340
53C
  0
GROUP
  5
6EC
102
{ACAD_REACTORS
330
D
102
}
330
D
100
AcDbGroup
300
group from kcad family
 70
     1
 71
     1
340
6ED
  0
GROUP
  5
6EF
102
{ACAD_REACTORS
330
D
102
}
330
D
100
AcDbGroup
300
group from kcad family
 70
     1
 71
     1
340
6F0
  0
GROUP
  5
6F2
102
{ACAD_REACTORS
330
D
102
}
330
D
100
AcDbGroup
300
group from kcad family
 70
     1
 71
     1
340
6F3
340
6F5
  0
GROUP
  5
6F7
102
{ACAD_REACTORS
330
D
102
}
330
D
100
AcDbGroup
300
group from kcad family
 70
     1
 71
     1
340
6F8
  0
GROUP
  5
415
102
{ACAD_REACTORS
330
D
102
}
330
D
100
AcDbGroup
300
group from kcad family
 70
     1
 71
     1
340
416
  0
GROUP
  5
6FA
102
{ACAD_REACTORS
330
D
102
}
330
D
100
AcDbGroup
300
group from kcad family
 70
     1
 71
     1
340
6FB
  0
GROUP
  5
2F5
102
{ACAD_REACTORS
330
D
102
}
330
D
100
AcDbGroup
300
group from kcad family
 70
     1
 71
     1
340
2F6
  0
GROUP
  5
6FF
102
{ACAD_REACTORS
330
D
102
}
330
D
100
AcDbGroup
300
group from kcad family
 70
     1
 71
     1
340
700
  0
GROUP
  5
70C
102
{ACAD_REACTORS
330
D
102
}
330
D
100
AcDbGroup
300
group from kcad family
 70
     1
 71
     1
340
70D
  0
GROUP
  5
576
102
{ACAD_REACTORS
330
D
102
}
330
D
100
AcDbGroup
300
group from kcad family
 70
     1
 71
     1
340
577
  0
GROUP
  5
70F
102
{ACAD_REACTORS
330
D
102
}
330
D
100
AcDbGroup
300
group from kcad family
 70
     1
 71
     1
340
710
340
712
  0
GROUP
  5
320
102
{ACAD_REACTORS
330
D
102
}
330
D
100
AcDbGroup
300
group from kcad family
 70
     1
 71
     1
340
321
  0
GROUP
  5
714
102
{ACAD_REACTORS
330
D
102
}
330
D
100
AcDbGroup
300
group from kcad family
 70
     1
 71
     1
340
715
  0
GROUP
  5
53E
102
{ACAD_REACTORS
330
D
102
}
330
D
100
AcDbGroup
300
group from kcad family
 70
     1
 71
     1
340
53F
  0
GROUP
  5
719
102
{ACAD_REACTORS
330
D
102
}
330
D
100
AcDbGroup
300
group from kcad family
 70
     1
 71
     1
340
71A
  0
GROUP
  5
2F2
102
{ACAD_REACTORS
330
D
102
}
330
D
100
AcDbGroup
300
group from kcad family
 70
     1
 71
     1
340
2F3
  0
GROUP
  5
71C
102
{ACAD_REACTORS
330
D
102
}
330
D
100
AcDbGroup
300
group from kcad family
 70
     1
 71
     1
340
71D
  0
GROUP
  5
71F
102
{ACAD_REACTORS
330
D
102
}
330
D
100
AcDbGroup
300
group from kcad family
 70
     1
 71
     1
340
720
  0
GROUP
  5
722
102
{ACAD_REACTORS
330
D
102
}
330
D
100
AcDbGroup
300
group from kcad family
 70
     1
 71
     1
340
723
340
725
  0
GROUP
  5
356
102
{ACAD_REACTORS
330
D
102
}
330
D
100
AcDbGroup
300
group from kcad family
 70
     1
 71
     1
340
357
  0
GROUP
  5
727
102
{ACAD_REACTORS
330
D
102
}
330
D
100
AcDbGroup
300
group from kcad family
 70
     1
 71
     1
340
728
  0
GROUP
  5
579
102
{ACAD_REACTORS
330
D
102
}
330
D
100
AcDbGroup
300
group from kcad family
 70
     1
 71
     1
340
57A
  0
GROUP
  5
72A
102
{ACAD_REACTORS
330
D
102
}
330
D
100
AcDbGroup
300
group from kcad family
 70
     1
 71
     1
340
72B
340
72D
  0
GROUP
  5
72F
102
{ACAD_REACTORS
330
D
102
}
330
D
100
AcDbGroup
300
group from kcad family
 70
     1
 71
     1
340
730
  0
GROUP
  5
732
102
{ACAD_REACTORS
330
D
102
}
330
D
100
AcDbGroup
300
group from kcad family
 70
     1
 71
     1
340
733
  0
GROUP
  5
735
102
{ACAD_REACTORS
330
D
102
}
330
D
100
AcDbGroup
300
group from kcad family
 70
     1
 71
     1
340
736
  0
GROUP
  5
418
102
{ACAD_REACTORS
330
D
102
}
330
D
100
AcDbGroup
300
group from kcad family
 70
     1
 71
     1
340
419
  0
GROUP
  5
323
102
{ACAD_REACTORS
330
D
102
}
330
D
100
AcDbGroup
300
group from kcad family
 70
     1
 71
     1
340
324
  0
GROUP
  5
541
102
{ACAD_REACTORS
330
D
102
}
330
D
100
AcDbGroup
300
group from kcad family
 70
     1
 71
     1
340
542
  0
GROUP
  5
738
102
{ACAD_REACTORS
330
D
102
}
330
D
100
AcDbGroup
300
group from kcad family
 70
     1
 71
     1
340
739
340
73B
  0
GROUP
  5
73D
102
{ACAD_REACTORS
330
D
102
}
330
D
100
AcDbGroup
300
group from kcad family
 70
     1
 71
     1
340
73E
  0
GROUP
  5
740
102
{ACAD_REACTORS
330
D
102
}
330
D
100
AcDbGroup
300
group from kcad family
 70
     1
 71
     1
340
741
340
743
  0
GROUP
  5
359
102
{ACAD_REACTORS
330
D
102
}
330
D
100
AcDbGroup
300
group from kcad family
 70
     1
 71
     1
340
35A
  0
GROUP
  5
312
102
{ACAD_REACTORS
330
D
102
}
330
D
100
AcDbGroup
300
group from kcad family
 70
     1
 71
     1
340
313
  0
GROUP
  5
747
102
{ACAD_REACTORS
330
D
102
}
330
D
100
AcDbGroup
300
group from kcad family
 70
     1
 71
     1
340
748
  0
GROUP
  5
74A
102
{ACAD_REACTORS
330
D
102
}
330
D
100
AcDbGroup
300
group from kcad family
 70
     1
 71
     1
340
74B
340
74D
340
74F
  0
GROUP
  5
751
102
{ACAD_REACTORS
330
D
102
}
330
D
100
AcDbGroup
300
group from kcad family
 70
     1
 71
     1
340
752
  0
GROUP
  5
41B
102
{ACAD_REACTORS
330
D
102
}
330
D
100
AcDbGroup
300
group from kcad family
 70
     1
 71
     1
340
41C
  0
GROUP
  5
754
102
{ACAD_REACTORS
330
D
102
}
330
D
100
AcDbGroup
300
group from kcad family
 70
     1
 71
     1
340
755
  0
GROUP
  5
757
102
{ACAD_REACTORS
330
D
102
}
330
D
100
AcDbGroup
300
group from kcad family
 70
     1
 71
     1
340
758
  0
GROUP
  5
75A
102
{ACAD_REACTORS
330
D
102
}
330
D
100
AcDbGroup
300
group from kcad family
 70
     1
 71
     1
340
75B
340
75D
  0
GROUP
  5
75F
102
{ACAD_REACTORS
330
D
102
}
330
D
100
AcDbGroup
300
group from kcad family
 70
     1
 71
     1
340
760
  0
GROUP
  5
544
102
{ACAD_REACTORS
330
D
102
}
330
D
100
AcDbGroup
300
group from kcad family
 70
     1
 71
     1
340
545
  0
GROUP
  5
326
102
{ACAD_REACTORS
330
D
102
}
330
D
100
AcDbGroup
300
group from kcad family
 70
     1
 71
     1
340
327
  0
GROUP
  5
762
102
{ACAD_REACTORS
330
D
102
}
330
D
100
AcDbGroup
300
group from kcad family
 70
     1
 71
     1
340
763
340
765
  0
GROUP
  5
57C
102
{ACAD_REACTORS
330
D
102
}
330
D
100
AcDbGroup
300
group from kcad family
 70
     1
 71
     1
340
57D
  0
GROUP
  5
364
102
{ACAD_REACTORS
330
D
102
}
330
D
100
AcDbGroup
300
group from kcad family
 70
     1
 71
     1
340
365
  0
GROUP
  5
76B
102
{ACAD_REACTORS
330
D
102
}
330
D
100
AcDbGroup
300
group from kcad family
 70
     1
 71
     1
340
76C
340
76E
340
770
340
772
340
774
340
776
340
778
340
77A
340
77C
  0
GROUP
  5
41E
102
{ACAD_REACTORS
330
D
102
}
330
D
100
AcDbGroup
300
group from kcad family
 70
     1
 71
     1
340
41F
340
421
  0
GROUP
  5
77E
102
{ACAD_REACTORS
330
D
102
}
330
D
100
AcDbGroup
300
group from kcad family
 70
     1
 71
     1
340
77F
340
781
340
783
340
785
340
787
340
789
340
78B
  0
GROUP
  5
78D
102
{ACAD_REACTORS
330
D
102
}
330
D
100
AcDbGroup
300
group from kcad family
 70
     1
 71
     1
340
78E
340
790
340
792
340
794
340
796
340
798
340
79A
  0
GROUP
  5
79C
102
{ACAD_REACTORS
330
D
102
}
330
D
100
AcDbGroup
300
group from kcad family
 70
     1
 71
     1
340
79D
  0
GROUP
  5
7A1
102
{ACAD_REACTORS
330
D
102
}
330
D
100
AcDbGroup
300
group from kcad family
 70
     1
 71
     1
340
7A3
340
7A5
340
7A7
340
7A9
  0
GROUP
  5
903
102
{ACAD_REACTORS
330
D
102
}
330
D
100
AcDbGroup
300
group from kcad family
 70
     1
 71
     1
340
904
  0
GROUP
  5
94E
102
{ACAD_REACTORS
330
D
102
}
330
D
100
AcDbGroup
300
group from kcad family
 70
     1
 71
     1
340
94F
  0
GROUP
  5
329
102
{ACAD_REACTORS
330
D
102
}
330
D
100
AcDbGroup
300
group from kcad family
 70
     1
 71
     1
340
32A
  0
GROUP
  5
367
102
{ACAD_REACTORS
330
D
102
}
330
D
100
AcDbGroup
300
group from kcad family
 70
     1
 71
     1
340
368
  0
GROUP
  5
423
102
{ACAD_REACTORS
330
D
102
}
330
D
100
AcDbGroup
300
group from kcad family
 70
     1
 71
     1
340
424
  0
GROUP
  5
57F
102
{ACAD_REACTORS
330
D
102
}
330
D
100
AcDbGroup
300
group from kcad family
 70
     1
 71
     1
340
580
  0
GROUP
  5
426
102
{ACAD_REACTORS
330
D
102
}
330
D
100
AcDbGroup
300
group from kcad family
 70
     1
 71
     1
340
427
340
429
  0
GROUP
  5
30F
102
{ACAD_REACTORS
330
D
102
}
330
D
100
AcDbGroup
300
group from kcad family
 70
     1
 71
     1
340
310
  0
GROUP
  5
42D
102
{ACAD_REACTORS
330
D
102
}
330
D
100
AcDbGroup
300
group from kcad family
 70
     1
 71
     1
340
42E
  0
GROUP
  5
430
102
{ACAD_REACTORS
330
D
102
}
330
D
100
AcDbGroup
300
group from kcad family
 70
     1
 71
     1
340
431
  0
GROUP
  5
585
102
{ACAD_REACTORS
330
D
102
}
330
D
100
AcDbGroup
300
group from kcad family
 70
     1
 71
     1
340
586
  0
GROUP
  5
433
102
{ACAD_REACTORS
330
D
102
}
330
D
100
AcDbGroup
300
group from kcad family
 70
     1
 71
     1
340
434
  0
GROUP
  5
2FB
102
{ACAD_REACTORS
330
D
102
}
330
D
100
AcDbGroup
300
group from kcad family
 70
     1
 71
     1
340
2FC
  0
GROUP
  5
32C
102
{ACAD_REACTORS
330
D
102
}
330
D
100
AcDbGroup
300
group from kcad family
 70
     1
 71
     1
340
32D
  0
GROUP
  5
436
102
{ACAD_REACTORS
330
D
102
}
330
D
100
AcDbGroup
300
group from kcad family
 70
     1
 71
     1
340
437
340
439
  0
GROUP
  5
43B
102
{ACAD_REACTORS
330
D
102
}
330
D
100
AcDbGroup
300
group from kcad family
 70
     1
 71
     1
340
43C
  0
GROUP
  5
547
102
{ACAD_REACTORS
330
D
102
}
330
D
100
AcDbGroup
300
group from kcad family
 70
     1
 71
     1
340
548
  0
GROUP
  5
43E
102
{ACAD_REACTORS
330
D
102
}
330
D
100
AcDbGroup
300
group from kcad family
 70
     1
 71
     1
340
43F
340
441
  0
GROUP
  5
443
102
{ACAD_REACTORS
330
D
102
}
330
D
100
AcDbGroup
300
group from kcad family
 70
     1
 71
     1
340
444
  0
GROUP
  5
446
102
{ACAD_REACTORS
330
D
102
}
330
D
100
AcDbGroup
300
group from kcad family
 70
     1
 71
     1
340
447
  0
GROUP
  5
449
102
{ACAD_REACTORS
330
D
102
}
330
D
100
AcDbGroup
300
group from kcad family
 70
     1
 71
     1
340
44A
340
44C
  0
GROUP
  5
554
102
{ACAD_REACTORS
330
D
102
}
330
D
100
AcDbGroup
300
group from kcad family
 70
     1
 71
     1
340
555
340
557
340
559
340
55B
340
55D
340
55F
  0
GROUP
  5
34D
102
{ACAD_REACTORS
330
D
102
}
330
D
100
AcDbGroup
300
group from kcad family
 70
     1
 71
     1
340
34E
  0
GROUP
  5
44E
102
{ACAD_REACTORS
330
D
102
}
330
D
100
AcDbGroup
300
group from kcad family
 70
     1
 71
     1
340
44F
  0
GROUP
  5
451
102
{ACAD_REACTORS
330
D
102
}
330
D
100
AcDbGroup
300
group from kcad family
 70
     1
 71
     1
340
452
340
454
  0
GROUP
  5
458
102
{ACAD_REACTORS
330
D
102
}
330
D
100
AcDbGroup
300
group from kcad family
 70
     1
 71
     1
340
459
  0
GROUP
  5
32F
102
{ACAD_REACTORS
330
D
102
}
330
D
100
AcDbGroup
300
group from kcad family
 70
     1
 71
     1
340
330
  0
GROUP
  5
36A
102
{ACAD_REACTORS
330
D
102
}
330
D
100
AcDbGroup
300
group from kcad family
 70
     1
 71
     1
340
36B
340
36D
340
36F
340
371
340
373
340
375
  0
GROUP
  5
45B
102
{ACAD_REACTORS
330
D
102
}
330
D
100
AcDbGroup
300
group from kcad family
 70
     1
 71
     1
340
45C
  0
GROUP
  5
2FE
102
{ACAD_REACTORS
330
D
102
}
330
D
100
AcDbGroup
300
group from kcad family
 70
     1
 71
     1
340
2FF
  0
GROUP
  5
45E
102
{ACAD_REACTORS
330
D
102
}
330
D
100
AcDbGroup
300
group from kcad family
 70
     1
 71
     1
340
45F
  0
GROUP
  5
461
102
{ACAD_REACTORS
330
D
102
}
330
D
100
AcDbGroup
300
group from kcad family
 70
     1
 71
     1
340
462
340
464
  0
GROUP
  5
466
102
{ACAD_REACTORS
330
D
102
}
330
D
100
AcDbGroup
300
group from kcad family
 70
     1
 71
     1
340
467
  0
GROUP
  5
469
102
{ACAD_REACTORS
330
D
102
}
330
D
100
AcDbGroup
300
group from kcad family
 70
     1
 71
     1
340
46A
340
46C
  0
GROUP
  5
588
102
{ACAD_REACTORS
330
D
102
}
330
D
100
AcDbGroup
300
group from kcad family
 70
     1
 71
     1
340
589
  0
GROUP
  5
472
102
{ACAD_REACTORS
330
D
102
}
330
D
100
AcDbGroup
300
group from kcad family
 70
     1
 71
     1
340
473
  0
GROUP
  5
561
102
{ACAD_REACTORS
330
D
102
}
330
D
100
AcDbGroup
300
group from kcad family
 70
     1
 71
     1
340
562
  0
GROUP
  5
475
102
{ACAD_REACTORS
330
D
102
}
330
D
100
AcDbGroup
300
group from kcad family
 70
     1
 71
     1
340
476
  0
GROUP
  5
377
102
{ACAD_REACTORS
330
D
102
}
330
D
100
AcDbGroup
300
group from kcad family
 70
     1
 71
     1
340
378
340
37A
340
37C
340
37E
340
380
340
382
340
384
340
386
340
388
340
38A
340
38C
340
38E
340
390
340
392
340
394
340
396
340
398
340
39A
340
39C
340
39E
340
3A0
340
3A2
340
3A4
340
3A6
340
3A8
340
3AA
340
3AC
340
3AE
340
3B0
340
3B2
340
3B4
340
3B6
340
3B8
340
3BA
340
3BC
340
3BE
  0
GROUP
  5
478
102
{ACAD_REACTORS
330
D
102
}
330
D
100
AcDbGroup
300
group from kcad family
 70
     1
 71
     1
340
479
  0
GROUP
  5
332
102
{ACAD_REACTORS
330
D
102
}
330
D
100
AcDbGroup
300
group from kcad family
 70
     1
 71
     1
340
333
  0
GROUP
  5
47B
102
{ACAD_REACTORS
330
D
102
}
330
D
100
AcDbGroup
300
group from kcad family
 70
     1
 71
     1
340
47C
  0
GROUP
  5
47E
102
{ACAD_REACTORS
330
D
102
}
330
D
100
AcDbGroup
300
group from kcad family
 70
     1
 71
     1
340
47F
340
481
  0
GROUP
  5
485
102
{ACAD_REACTORS
330
D
102
}
330
D
100
AcDbGroup
300
group from kcad family
 70
     1
 71
     1
340
486
  0
GROUP
  5
301
102
{ACAD_REACTORS
330
D
102
}
330
D
100
AcDbGroup
300
group from kcad family
 70
     1
 71
     1
340
302
  0
GROUP
  5
488
102
{ACAD_REACTORS
330
D
102
}
330
D
100
AcDbGroup
300
group from kcad family
 70
     1
 71
     1
340
489
  0
GROUP
  5
528
102
{ACAD_REACTORS
330
D
102
}
330
D
100
AcDbGroup
300
group from kcad family
 70
     1
 71
     1
340
529
  0
GROUP
  5
48B
102
{ACAD_REACTORS
330
D
102
}
330
D
100
AcDbGroup
300
group from kcad family
 70
     1
 71
     1
340
48C
  0
GROUP
  5
48E
102
{ACAD_REACTORS
330
D
102
}
330
D
100
AcDbGroup
300
group from kcad family
 70
     1
 71
     1
340
48F
340
491
  0
GROUP
  5
3C0
102
{ACAD_REACTORS
330
D
102
}
330
D
100
AcDbGroup
300
group from kcad family
 70
     1
 71
     1
340
3C1
340
3C3
340
3C5
340
3C7
340
3C9
340
3CB
340
3CD
340
3CF
340
3D1
340
3D3
340
3D5
340
3D7
340
3D9
340
3DB
340
3DD
340
3DF
340
3E1
340
3E3
340
3E5
340
3E7
340
3E9
340
3EB
340
3ED
340
3EF
340
3F1
340
3F3
340
3F5
340
3F7
340
3F9
340
3FB
340
3FD
340
3FF
340
401
340
403
340
405
340
407
  0
GROUP
  5
493
102
{ACAD_REACTORS
330
D
102
}
330
D
100
AcDbGroup
300
group from kcad family
 70
     1
 71
     1
340
494
  0
GROUP
  5
564
102
{ACAD_REACTORS
330
D
102
}
330
D
100
AcDbGroup
300
group from kcad family
 70
     1
 71
     1
340
565
  0
GROUP
  5
496
102
{ACAD_REACTORS
330
D
102
}
330
D
100
AcDbGroup
300
group from kcad family
 70
     1
 71
     1
340
497
340
499
  0
GROUP
  5
341
102
{ACAD_REACTORS
330
D
102
}
330
D
100
AcDbGroup
300
group from kcad family
 70
     1
 71
     1
340
342
  0
GROUP
  5
49D
102
{ACAD_REACTORS
330
D
102
}
330
D
100
AcDbGroup
300
group from kcad family
 70
     1
 71
     1
340
49E
  0
GROUP
  5
4AA
102
{ACAD_REACTORS
330
D
102
}
330
D
100
AcDbGroup
300
group from kcad family
 70
     1
 71
     1
340
4AB
  0
GROUP
  5
4AD
102
{ACAD_REACTORS
330
D
102
}
330
D
100
AcDbGroup
300
group from kcad family
 70
     1
 71
     1
340
4AE
340
4B0
  0
GROUP
  5
4D2
102
{ACAD_REACTORS
330
D
102
}
330
D
100
AcDbGroup
300
group from kcad family
 70
     1
 71
     1
340
4D3
  0
GROUP
  5
58B
102
{ACAD_REACTORS
330
D
102
}
330
D
100
AcDbGroup
300
group from kcad family
 70
     1
 71
     1
340
58C
  0
GROUP
  5
4D5
102
{ACAD_REACTORS
330
D
102
}
330
D
100
AcDbGroup
300
group from kcad family
 70
     1
 71
     1
340
4D6
  0
GROUP
  5
409
102
{ACAD_REACTORS
330
D
102
}
330
D
100
AcDbGroup
300
group from kcad family
 70
     1
 71
     1
340
40A
  0
GROUP
  5
304
102
{ACAD_REACTORS
330
D
102
}
330
D
100
AcDbGroup
300
group from kcad family
 70
     1
 71
     1
340
305
  0
GROUP
  5
4D8
102
{ACAD_REACTORS
330
D
102
}
330
D
100
AcDbGroup
300
group from kcad family
 70
     1
 71
     1
340
4D9
  0
GROUP
  5
4DB
102
{ACAD_REACTORS
330
D
102
}
330
D
100
AcDbGroup
300
group from kcad family
 70
     1
 71
     1
340
4DC
  0
GROUP
  5
4DE
102
{ACAD_REACTORS
330
D
102
}
330
D
100
AcDbGroup
300
group from kcad family
 70
     1
 71
     1
340
4DF
340
4E1
  0
GROUP
  5
567
102
{ACAD_REACTORS
330
D
102
}
330
D
100
AcDbGroup
300
group from kcad family
 70
     1
 71
     1
340
568
  0
GROUP
  5
344
102
{ACAD_REACTORS
330
D
102
}
330
D
100
AcDbGroup
300
group from kcad family
 70
     1
 71
     1
340
345
  0
GROUP
  5
4E3
102
{ACAD_REACTORS
330
D
102
}
330
D
100
AcDbGroup
300
group from kcad family
 70
     1
 71
     1
340
4E4
  0
GROUP
  5
4E6
102
{ACAD_REACTORS
330
D
102
}
330
D
100
AcDbGroup
300
group from kcad family
 70
     1
 71
     1
340
4E7
340
4E9
  0
GROUP
  5
4ED
102
{ACAD_REACTORS
330
D
102
}
330
D
100
AcDbGroup
300
group from kcad family
 70
     1
 71
     1
340
4EE
  0
GROUP
  5
58E
102
{ACAD_REACTORS
330
D
102
}
330
D
100
AcDbGroup
300
group from kcad family
 70
     1
 71
     1
340
58F
  0
GROUP
  5
551
102
{ACAD_REACTORS
330
D
102
}
330
D
100
AcDbGroup
300
group from kcad family
 70
     1
 71
     1
340
552
  0
GROUP
  5
4F0
102
{ACAD_REACTORS
330
D
102
}
330
D
100
AcDbGroup
300
group from kcad family
 70
     1
 71
     1
340
4F1
  0
GROUP
  5
4F3
102
{ACAD_REACTORS
330
D
102
}
330
D
100
AcDbGroup
300
group from kcad family
 70
     1
 71
     1
340
4F4
  0
GROUP
  5
4F6
102
{ACAD_REACTORS
330
D
102
}
330
D
100
AcDbGroup
300
group from kcad family
 70
     1
 71
     1
340
4F7
  0
GROUP
  5
4F9
102
{ACAD_REACTORS
330
D
102
}
330
D
100
AcDbGroup
300
group from kcad family
 70
     1
 71
     1
340
4FA
340
4FC
  0
GROUP
  5
307
102
{ACAD_REACTORS
330
D
102
}
330
D
100
AcDbGroup
300
group from kcad family
 70
     1
 71
     1
340
308
  0
GROUP
  5
500
102
{ACAD_REACTORS
330
D
102
}
330
D
100
AcDbGroup
300
group from kcad family
 70
     1
 71
     1
340
501
  0
GROUP
  5
503
102
{ACAD_REACTORS
330
D
102
}
330
D
100
AcDbGroup
300
group from kcad family
 70
     1
 71
     1
340
504
340
506
  0
GROUP
  5
347
102
{ACAD_REACTORS
330
D
102
}
330
D
100
AcDbGroup
300
group from kcad family
 70
     1
 71
     1
340
348
  0
GROUP
  5
56A
102
{ACAD_REACTORS
330
D
102
}
330
D
100
AcDbGroup
300
group from kcad family
 70
     1
 71
     1
340
56B
  0
GROUP
  5
508
102
{ACAD_REACTORS
330
D
102
}
330
D
100
AcDbGroup
300
group from kcad family
 70
     1
 71
     1
340
509
  0
GROUP
  5
40C
102
{ACAD_REACTORS
330
D
102
}
330
D
100
AcDbGroup
300
group from kcad family
 70
     1
 71
     1
340
40D
  0
GROUP
  5
591
102
{ACAD_REACTORS
330
D
102
}
330
D
100
AcDbGroup
300
group from kcad family
 70
     1
 71
     1
340
592
  0
GROUP
  5
50B
102
{ACAD_REACTORS
330
D
102
}
330
D
100
AcDbGroup
300
group from kcad family
 70
     1
 71
     1
340
50C
340
50E
  0
GROUP
  5
510
102
{ACAD_REACTORS
330
D
102
}
330
D
100
AcDbGroup
300
group from kcad family
 70
     1
 71
     1
340
511
  0
GROUP
  5
513
102
{ACAD_REACTORS
330
D
102
}
330
D
100
AcDbGroup
300
group from kcad family
 70
     1
 71
     1
340
514
  0
GROUP
  5
516
102
{ACAD_REACTORS
330
D
102
}
330
D
100
AcDbGroup
300
group from kcad family
 70
     1
 71
     1
340
517
  0
GROUP
  5
519
102
{ACAD_REACTORS
330
D
102
}
330
D
100
AcDbGroup
300
group from kcad family
 70
     1
 71
     1
340
51A
  0
GROUP
  5
51C
102
{ACAD_REACTORS
330
D
102
}
330
D
100
AcDbGroup
300
group from kcad family
 70
     1
 71
     1
340
51D
  0
GROUP
  5
51F
102
{ACAD_REACTORS
330
D
102
}
330
D
100
AcDbGroup
300
group from kcad family
 70
     1
 71
     1
340
520
  0
GROUP
  5
56D
102
{ACAD_REACTORS
330
D
102
}
330
D
100
AcDbGroup
300
group from kcad family
 70
     1
 71
     1
340
56E
  0
GROUP
  5
594
102
{ACAD_REACTORS
330
D
102
}
330
D
100
AcDbGroup
300
group from kcad family
 70
     1
 71
     1
340
595
  0
LAYOUT
  5
22
102
{ACAD_REACTORS
330
1A
102
}
330
1A
100
AcDbPlotSettings
  1

  2
DWF ePlot.pc3
  4
ISO_A3_(297.00_x_420.00_MM)
  6

 40
5.793749809265136
 41
17.79375076293945
 42
5.79376220703125
 43
17.79376220703125
 44
297.0
 45
420.0
 46
0.0
 47
0.0
 48
0.0
 49
0.0
140
0.0
141
0.0
142
1.0
143
1.0
 70
 11952
 72
     1
 73
     1
 74
     2
  7

 75
    16
147
1.0
148
0.0
149
0.0
100
AcDbLayout
  1
Model
 70
     1
 71
     0
 10
0.0
 20
0.0
 11
420.0
 21
297.0
 12
0.0
 22
0.0
 32
0.0
 14
21.598695984704
 24
12.73940722175909
 34
0.0
 15
403.3326959847
 25
280.9459459459499
 35
0.0
146
0.0
 13
0.0
 23
0.0
 33
0.0
 16
1.0
 26
0.0
 36
0.0
 17
0.0
 27
1.0
 37
0.0
 76
     0
330
1F
  0
LAYOUT
  5
22F
102
{ACAD_REACTORS
330
1A
102
}
330
1A
100
AcDbPlotSettings
  1

  2
D:\ACAD2000\plotters\HP DesignJet 700(System).pc3
  4

  6

 40
0.0
 41
0.0
 42
0.0
 43
0.0
 44
0.0
 45
0.0
 46
0.0
 47
0.0
 48
0.0
 49
0.0
140
0.0
141
0.0
142
1.0
143
1.0
 70
   688
 72
     0
 73
     0
 74
     5
  7
monochrome.ctb
 75
    16
147
1.0
148
0.0
149
0.0
100
AcDbLayout
  1
ﾚｲｱｳﾄ1
 70
     1
 71
     1
 10
0.0
 20
0.0
 11
12.0
 21
9.0
 12
0.0
 22
0.0
 32
0.0
 14
0.0
 24
0.0
 34
0.0
 15
0.0
 25
0.0
 35
0.0
146
0.0
 13
0.0
 23
0.0
 33
0.0
 16
1.0
 26
0.0
 36
0.0
 17
0.0
 27
1.0
 37
0.0
 76
     0
330
73
  0
MLINESTYLE
  5
18
102
{ACAD_REACTORS
330
17
102
}
330
17
100
AcDbMlineStyle
  2
Standard
 70
     0
  3

 62
   256
 51
90.0
 52
90.0
 71
     2
 49
0.5
 62
   256
  6
BYLAYER
 49
-0.5
 62
   256
  6
BYLAYER
  0
ACDBPLACEHOLDER
  5
F
102
{ACAD_REACTORS
330
E
102
}
330
E
  0
XRECORD
  5
BC1
102
{ACAD_REACTORS
330
BC0
102
}
330
BC0
100
AcDbXrecord
280
     1
340
6C
  0
XRECORD
  5
BC2
102
{ACAD_REACTORS
330
BC0
102
}
330
BC0
100
AcDbXrecord
280
     1
340
6B
  0
DICTIONARYVAR
  5
BBF
102
{ACAD_REACTORS
330
59
102
}
330
59
100
DictionaryVariables
280
     0
  1
1
  0
ENDSEC
  0
EOF
