  0
SECTION
  2
HEADER
  9
$ACADVER
  1
AC1015
  9
$ACADMAINTVER
 70
     6
  9
$DWGCODEPAGE
  3
ANSI_932
  9
$INSBASE
 10
0.0
 20
0.0
 30
0.0
  9
$EXTMIN
 10
12.47329910140999
 20
4.104941990854689
 30
0.0
  9
$EXTMAX
 10
286.6338193791157
 20
205.0523593466424
 30
0.0
  9
$LIMMIN
 10
0.0
 20
0.0
  9
$LIMMAX
 10
297.0
 20
210.0
  9
$ORTHOMODE
 70
     0
  9
$REGENMODE
 70
     1
  9
$FILLMODE
 70
     1
  9
$QTEXTMODE
 70
     0
  9
$MIRRTEXT
 70
     1
  9
$LTSCALE
 40
0.2
  9
$ATTMODE
 70
     1
  9
$TEXTSIZE
 40
3.2
  9
$TRACEWID
 40
1.0
  9
$TEXTSTYLE
  7
KCADTEXTSTANDARD
  9
$CLAYER
  8
0
  9
$CELTYPE
  6
Continuous
  9
$CECOLOR
 62
   134
  9
$CELTSCALE
 40
1.0
  9
$DISPSILH
 70
     0
  9
$DIMSCALE
 40
1.0
  9
$DIMASZ
 40
3.0
  9
$DIMEXO
 40
1.0
  9
$DIMDLI
 40
8.0
  9
$DIMRND
 40
0.0
  9
$DIMDLE
 40
0.0
  9
$DIMEXE
 40
1.0
  9
$DIMTP
 40
0.0
  9
$DIMTM
 40
0.0
  9
$DIMTXT
 40
3.2
  9
$DIMCEN
 40
2.5
  9
$DIMTSZ
 40
0.0
  9
$DIMTOL
 70
     0
  9
$DIMLIM
 70
     0
  9
$DIMTIH
 70
     0
  9
$DIMTOH
 70
     0
  9
$DIMSE1
 70
     0
  9
$DIMSE2
 70
     0
  9
$DIMTAD
 70
     1
  9
$DIMZIN
 70
     8
  9
$DIMBLK
  1

  9
$DIMASO
 70
     1
  9
$DIMSHO
 70
     1
  9
$DIMPOST
  1

  9
$DIMAPOST
  1

  9
$DIMALT
 70
     0
  9
$DIMALTD
 70
     2
  9
$DIMALTF
 40
25.4
  9
$DIMLFAC
 40
1.0
  9
$DIMTOFL
 70
     1
  9
$DIMTVP
 40
0.0
  9
$DIMTIX
 70
     0
  9
$DIMSOXD
 70
     0
  9
$DIMSAH
 70
     1
  9
$DIMBLK1
  1

  9
$DIMBLK2
  1

  9
$DIMSTYLE
  2
Standard
  9
$DIMCLRD
 70
     0
  9
$DIMCLRE
 70
     0
  9
$DIMCLRT
 70
     0
  9
$DIMTFAC
 40
0.667
  9
$DIMGAP
 40
0.5333000000000001
  9
$DIMJUST
 70
     0
  9
$DIMSD1
 70
     0
  9
$DIMSD2
 70
     0
  9
$DIMTOLJ
 70
     1
  9
$DIMTZIN
 70
     8
  9
$DIMALTZ
 70
     0
  9
$DIMALTTZ
 70
     0
  9
$DIMUPT
 70
     0
  9
$DIMDEC
 70
     3
  9
$DIMTDEC
 70
     3
  9
$DIMALTU
 70
     2
  9
$DIMALTTD
 70
     2
  9
$DIMTXSTY
  7
KCADDIMSTANDARD
  9
$DIMAUNIT
 70
     0
  9
$DIMADEC
 70
     3
  9
$DIMALTRND
 40
0.0
  9
$DIMAZIN
 70
     2
  9
$DIMDSEP
 70
    46
  9
$DIMATFIT
 70
     3
  9
$DIMFRAC
 70
     0
  9
$DIMLDRBLK
  1
KCAD_OPEN
  9
$DIMLUNIT
 70
     2
  9
$DIMLWD
 70
    -2
  9
$DIMLWE
 70
    -2
  9
$DIMTMOVE
 70
     0
  9
$LUNITS
 70
     2
  9
$LUPREC
 70
     4
  9
$SKETCHINC
 40
1.0
  9
$FILLETRAD
 40
5.0
  9
$AUNITS
 70
     0
  9
$AUPREC
 70
     0
  9
$MENU
  1
.
  9
$ELEVATION
 40
0.0
  9
$PELEVATION
 40
0.0
  9
$THICKNESS
 40
0.0
  9
$LIMCHECK
 70
     0
  9
$CHAMFERA
 40
5.0
  9
$CHAMFERB
 40
5.0
  9
$CHAMFERC
 40
5.0
  9
$CHAMFERD
 40
0.7853981633974483
  9
$SKPOLY
 70
     0
  9
$TDCREATE
 40
2453354.092125822
  9
$TDUCREATE
 40
2453353.717125822
  9
$TDUPDATE
 40
2453294.422245174
  9
$TDUUPDATE
 40
2453294.047245174
  9
$TDINDWG
 40
0.0542167014
  9
$TDUSRTIMER
 40
0.0541935069
  9
$USRTIMER
 70
     1
  9
$ANGBASE
 50
0.0
  9
$ANGDIR
 70
     0
  9
$PDMODE
 70
     0
  9
$PDSIZE
 40
0.0
  9
$PLINEWID
 40
0.0
  9
$SPLFRAME
 70
     0
  9
$SPLINETYPE
 70
     6
  9
$SPLINESEGS
 70
     8
  9
$HANDSEED
  5
942
  9
$SURFTAB1
 70
     6
  9
$SURFTAB2
 70
     6
  9
$SURFTYPE
 70
     6
  9
$SURFU
 70
     6
  9
$SURFV
 70
     6
  9
$UCSBASE
  2

  9
$UCSNAME
  2

  9
$UCSORG
 10
0.0
 20
0.0
 30
0.0
  9
$UCSXDIR
 10
1.0
 20
0.0
 30
0.0
  9
$UCSYDIR
 10
0.0
 20
1.0
 30
0.0
  9
$UCSORTHOREF
  2

  9
$UCSORTHOVIEW
 70
     0
  9
$UCSORGTOP
 10
0.0
 20
0.0
 30
0.0
  9
$UCSORGBOTTOM
 10
0.0
 20
0.0
 30
0.0
  9
$UCSORGLEFT
 10
0.0
 20
0.0
 30
0.0
  9
$UCSORGRIGHT
 10
0.0
 20
0.0
 30
0.0
  9
$UCSORGFRONT
 10
0.0
 20
0.0
 30
0.0
  9
$UCSORGBACK
 10
0.0
 20
0.0
 30
0.0
  9
$PUCSBASE
  2

  9
$PUCSNAME
  2

  9
$PUCSORG
 10
0.0
 20
0.0
 30
0.0
  9
$PUCSXDIR
 10
1.0
 20
0.0
 30
0.0
  9
$PUCSYDIR
 10
0.0
 20
1.0
 30
0.0
  9
$PUCSORTHOREF
  2

  9
$PUCSORTHOVIEW
 70
     0
  9
$PUCSORGTOP
 10
0.0
 20
0.0
 30
0.0
  9
$PUCSORGBOTTOM
 10
0.0
 20
0.0
 30
0.0
  9
$PUCSORGLEFT
 10
0.0
 20
0.0
 30
0.0
  9
$PUCSORGRIGHT
 10
0.0
 20
0.0
 30
0.0
  9
$PUCSORGFRONT
 10
0.0
 20
0.0
 30
0.0
  9
$PUCSORGBACK
 10
0.0
 20
0.0
 30
0.0
  9
$USERI1
 70
     0
  9
$USERI2
 70
     0
  9
$USERI3
 70
     0
  9
$USERI4
 70
   257
  9
$USERI5
 70
     0
  9
$USERR1
 40
0.0
  9
$USERR2
 40
0.0
  9
$USERR3
 40
0.0
  9
$USERR4
 40
0.0
  9
$USERR5
 40
0.0
  9
$WORLDVIEW
 70
     1
  9
$SHADEDGE
 70
     3
  9
$SHADEDIF
 70
    70
  9
$TILEMODE
 70
     1
  9
$MAXACTVP
 70
    48
  9
$PINSBASE
 10
0.0
 20
0.0
 30
0.0
  9
$PLIMCHECK
 70
     0
  9
$PEXTMIN
 10
0.0
 20
0.0
 30
0.0
  9
$PEXTMAX
 10
0.0
 20
0.0
 30
0.0
  9
$PLIMMIN
 10
0.0
 20
0.0
  9
$PLIMMAX
 10
12.0
 20
9.0
  9
$UNITMODE
 70
     0
  9
$VISRETAIN
 70
     1
  9
$PLINEGEN
 70
     0
  9
$PSLTSCALE
 70
     1
  9
$TREEDEPTH
 70
  3020
  9
$CMLSTYLE
  2
Standard
  9
$CMLJUST
 70
     0
  9
$CMLSCALE
 40
20.0
  9
$PROXYGRAPHICS
 70
     1
  9
$MEASUREMENT
 70
     1
  9
$CELWEIGHT
370
    15
  9
$ENDCAPS
280
     0
  9
$JOINSTYLE
280
     0
  9
$LWDISPLAY
290
     0
  9
$INSUNITS
 70
     0
  9
$HYPERLINKBASE
  1

  9
$STYLESHEET
  1

  9
$XEDIT
290
     0
  9
$CEPSNTYPE
380
     0
  9
$PSTYLEMODE
290
     1
  9
$FINGERPRINTGUID
  2
{1989D620-E742-11D2-9219-00105A146177}
  9
$VERSIONGUID
  2
{6816001F-5664-4583-987B-DF22C3899C62}
  9
$EXTNAMES
290
     1
  9
$PSVPSCALE
 40
0.0
  9
$OLESTARTUP
290
     0
  0
ENDSEC
  0
SECTION
  2
CLASSES
  0
CLASS
  1
ACDBDICTIONARYWDFLT
  2
AcDbDictionaryWithDefault
  3
ObjectDBX Classes
 90
        0
280
     0
281
     0
  0
CLASS
  1
ACDBPLACEHOLDER
  2
AcDbPlaceHolder
  3
ObjectDBX Classes
 90
        0
280
     0
281
     0
  0
CLASS
  1
LAYOUT
  2
AcDbLayout
  3
ObjectDBX Classes
 90
        0
280
     0
281
     0
  0
CLASS
  1
DICTIONARYVAR
  2
AcDbDictionaryVar
  3
ObjectDBX Classes
 90
        0
280
     0
281
     0
  0
CLASS
  1
TABLESTYLE
  2
AcDbTableStyle
  3
ObjectDBX Classes
 90
     2047
280
     0
281
     0
  0
ENDSEC
  0
SECTION
  2
TABLES
  0
TABLE
  2
VPORT
  5
8
330
0
100
AcDbSymbolTable
 70
     2
  0
VPORT
  5
97
330
8
100
AcDbSymbolTableRecord
100
AcDbViewportTableRecord
  2
*Active
 70
     0
 10
0.0
 20
0.0
 11
1.0
 21
1.0
 12
149.5535592402628
 22
104.5786506687485
 13
0.0
 23
0.0
 14
10.0
 24
10.0
 15
10.0
 25
10.0
 16
0.0
 26
0.0
 36
1.0
 17
0.0
 27
0.0
 37
0.0
 40
205.6329229897418
 41
2.20035778175313
 42
50.0
 43
0.0
 44
0.0
 50
0.0
 51
0.0
 71
    16
 72
 20000
 73
     1
 74
     1
 75
     0
 76
     0
 77
     0
 78
     0
281
     0
 65
     0
110
0.0
120
0.0
130
0.0
111
1.0
121
0.0
131
0.0
112
0.0
122
1.0
132
0.0
 79
     0
146
0.0
  0
ENDTAB
  0
TABLE
  2
LTYPE
  5
5
330
0
100
AcDbSymbolTable
 70
     6
  0
LTYPE
  5
14
330
5
100
AcDbSymbolTableRecord
100
AcDbLinetypeTableRecord
  2
ByBlock
 70
     0
  3

 72
    65
 73
     0
 40
0.0
  0
LTYPE
  5
15
330
5
100
AcDbSymbolTableRecord
100
AcDbLinetypeTableRecord
  2
ByLayer
 70
     0
  3

 72
    65
 73
     0
 40
0.0
  0
LTYPE
  5
16
330
5
100
AcDbSymbolTableRecord
100
AcDbLinetypeTableRecord
  2
Continuous
 70
     0
  3
Solid line
 72
    65
 73
     0
 40
0.0
  0
LTYPE
  5
8D8
330
5
100
AcDbSymbolTableRecord
100
AcDbLinetypeTableRecord
  2
CENTER
 70
     0
  3
Center ____ _ ____ _ ____ _ ____ _ ____ _ ____
 72
    65
 73
     4
 40
50.8
 49
31.75
 74
     4
 75
     0
340
0
 46
1.0
 50
0.0
 44
0.0
 45
0.0
 49
-6.349999999999999
 74
     4
 75
     0
340
0
 46
1.0
 50
0.0
 44
0.0
 45
0.0
 49
6.349999999999999
 74
     4
 75
     0
340
0
 46
1.0
 50
0.0
 44
0.0
 45
0.0
 49
-6.349999999999999
 74
     4
 75
     0
340
0
 46
1.0
 50
0.0
 44
0.0
 45
0.0
  0
LTYPE
  5
8D9
330
5
100
AcDbSymbolTableRecord
100
AcDbLinetypeTableRecord
  2
DASHED
 70
     0
  3
Dashed __ __ __ __ __ __ __ __ __ __ __ __ __ _
 72
    65
 73
     2
 40
19.05
 49
12.7
 74
     4
 75
     0
340
0
 46
1.0
 50
0.0
 44
0.0
 45
0.0
 49
-6.349999999999999
 74
     4
 75
     0
340
0
 46
1.0
 50
0.0
 44
0.0
 45
0.0
  0
LTYPE
  5
8DA
330
5
100
AcDbSymbolTableRecord
100
AcDbLinetypeTableRecord
  2
HIDDEN
 70
     0
  3
Hidden __ __ __ __ __ __ __ __ __ __ __ __ __ _
 72
    65
 73
     2
 40
9.524999999999999
 49
6.349999999999999
 74
     4
 75
     0
340
0
 46
1.0
 50
0.0
 44
0.0
 45
0.0
 49
-3.174999999999999
 74
     4
 75
     0
340
0
 46
1.0
 50
0.0
 44
0.0
 45
0.0
  0
LTYPE
  5
8DB
330
5
100
AcDbSymbolTableRecord
100
AcDbLinetypeTableRecord
  2
PHANTOM
 70
     0
  3
Phantom ______  __  __  ______  __  __  ______
 72
    65
 73
     6
 40
63.50000000000001
 49
31.75
 74
     4
 75
     0
340
0
 46
1.0
 50
0.0
 44
0.0
 45
0.0
 49
-6.349999999999999
 74
     4
 75
     0
340
0
 46
1.0
 50
0.0
 44
0.0
 45
0.0
 49
6.349999999999999
 74
     4
 75
     0
340
0
 46
1.0
 50
0.0
 44
0.0
 45
0.0
 49
-6.349999999999999
 74
     4
 75
     0
340
0
 46
1.0
 50
0.0
 44
0.0
 45
0.0
 49
6.349999999999999
 74
     4
 75
     0
340
0
 46
1.0
 50
0.0
 44
0.0
 45
0.0
 49
-6.349999999999999
 74
     4
 75
     0
340
0
 46
1.0
 50
0.0
 44
0.0
 45
0.0
  0
LTYPE
  5
8DC
330
5
100
AcDbSymbolTableRecord
100
AcDbLinetypeTableRecord
  2
RUPTURE
 70
     0
  3
Rupture line
 72
    65
 73
     4
 40
45.72
 49
25.4
 74
     4
 75
     0
340
0
 46
1.0
 50
0.0
 44
0.0
 45
0.0
 49
-5.08
 74
     4
 75
   131
340
11
 46
5.08
 50
0.0
 44
-5.08
 45
0.0
 49
-10.16
 74
     4
 75
   131
340
11
 46
5.08
 50
180.0
 44
5.08
 45
0.0
 49
-5.08
 74
     4
 75
     0
340
0
 46
1.0
 50
0.0
 44
0.0
 45
0.0
  0
ENDTAB
  0
TABLE
  2
LAYER
  5
2
330
0
100
AcDbSymbolTable
 70
    15
  0
LAYER
  5
10
330
2
100
AcDbSymbolTableRecord
100
AcDbLayerTableRecord
  2
0
 70
     0
 62
     7
  6
Continuous
370
    -3
390
F
  0
LAYER
  5
778
330
2
100
AcDbSymbolTableRecord
100
AcDbLayerTableRecord
  2
KCAD_DIMS
 70
     0
 62
   134
  6
Continuous
370
    15
390
F
  0
LAYER
  5
4F
330
2
100
AcDbSymbolTableRecord
100
AcDbLayerTableRecord
  2
DEFPOINTS
 70
     0
 62
     7
  6
Continuous
290
     0
370
    -3
390
F
  0
LAYER
  5
20B
330
2
100
AcDbSymbolTableRecord
100
AcDbLayerTableRecord
  2
KCAD_ASST
 70
     0
 62
   134
  6
Continuous
370
    15
390
F
  0
LAYER
  5
20C
330
2
100
AcDbSymbolTableRecord
100
AcDbLayerTableRecord
  2
KCAD_RASTER
 70
     0
 62
     7
  6
Continuous
370
    30
390
F
  0
LAYER
  5
20D
330
2
100
AcDbSymbolTableRecord
100
AcDbLayerTableRecord
  2
SYBCENTER
 70
     0
 62
   134
  6
CENTER
370
    15
390
F
  0
LAYER
  5
20E
330
2
100
AcDbSymbolTableRecord
100
AcDbLayerTableRecord
  2
SYBHIDE
 70
     0
 62
   134
  6
HIDDEN
370
    15
390
F
  0
LAYER
  5
20F
330
2
100
AcDbSymbolTableRecord
100
AcDbLayerTableRecord
  2
SYBOUTLINE
 70
     0
 62
     7
  6
Continuous
370
    30
390
F
  0
LAYER
  5
210
330
2
100
AcDbSymbolTableRecord
100
AcDbLayerTableRecord
  2
SYBTHREAD
 70
     0
 62
   134
  6
Continuous
370
    15
390
F
  0
LAYER
  5
211
330
2
100
AcDbSymbolTableRecord
100
AcDbLayerTableRecord
  2
SYBTHRHID
 70
     0
 62
   134
  6
HIDDEN
370
    15
390
F
  0
LAYER
  5
282
330
2
100
AcDbSymbolTableRecord
100
AcDbLayerTableRecord
  2
KCAD_UIR_TMP_LAYER_
 70
     0
 62
     7
  6
Continuous
370
    -3
390
F
  0
LAYER
  5
2A8
330
2
100
AcDbSymbolTableRecord
100
AcDbLayerTableRecord
  2
KCAD_CPM_MAX_LAYER
 70
     3
 62
     7
  6
Continuous
370
    -3
390
F
  0
LAYER
  5
2EF
330
2
100
AcDbSymbolTableRecord
100
AcDbLayerTableRecord
  2
2
 70
     0
 62
     7
  6
Continuous
370
    -3
390
F
  0
LAYER
  5
2FE
330
2
100
AcDbSymbolTableRecord
100
AcDbLayerTableRecord
  2
3
 70
     0
 62
     7
  6
Continuous
370
    -3
390
F
  0
LAYER
  5
359
330
2
100
AcDbSymbolTableRecord
100
AcDbLayerTableRecord
  2
99
 70
     0
 62
     7
  6
Continuous
370
    -3
390
F
  0
ENDTAB
  0
TABLE
  2
STYLE
  5
3
330
0
100
AcDbSymbolTable
 70
     5
  0
STYLE
  5
11
330
3
100
AcDbSymbolTableRecord
100
AcDbTextStyleTableRecord
  2
Standard
 70
     0
 40
0.0
 41
1.0
 50
0.0
 71
     0
 42
3.2
  3
txt.shx
  4
bigfont.shx
  0
STYLE
  5
17F
330
3
100
AcDbSymbolTableRecord
100
AcDbTextStyleTableRecord
  2

 70
     1
 40
0.0
 41
1.0
 50
0.0
 71
     0
 42
3.2
  3
ltypeshp.shx
  4

  0
STYLE
  5
189
330
3
100
AcDbSymbolTableRecord
100
AcDbTextStyleTableRecord
  2
KCADDIMSTANDARD
 70
     0
 40
0.0
 41
1.0
 50
0.0
 71
     0
 42
3.2
  3
txt.shx
  4
bigfont.shx
  0
STYLE
  5
18A
330
3
100
AcDbSymbolTableRecord
100
AcDbTextStyleTableRecord
  2
KCADTEXTSTANDARD
 70
     0
 40
0.0
 41
1.0
 50
0.0
 71
     0
 42
3.2
  3
txt.shx
  4
bigfont.shx
  0
STYLE
  5
1AD
330
3
100
AcDbSymbolTableRecord
100
AcDbTextStyleTableRecord
  2
KCADTEXT2
 70
     0
 40
0.0
 41
1.0
 50
0.0
 71
     0
 42
3.2
  3
txt.shx
  4
extfont.shx
  0
ENDTAB
  0
TABLE
  2
VIEW
  5
6
330
0
100
AcDbSymbolTable
 70
     0
  0
ENDTAB
  0
TABLE
  2
UCS
  5
7
330
0
100
AcDbSymbolTable
 70
     0
  0
ENDTAB
  0
TABLE
  2
APPID
  5
9
330
0
100
AcDbSymbolTable
 70
     3
  0
APPID
  5
12
330
9
100
AcDbSymbolTableRecord
100
AcDbRegAppTableRecord
  2
ACAD
 70
     0
  0
APPID
  5
8D6
330
9
100
AcDbSymbolTableRecord
100
AcDbRegAppTableRecord
  2
Sigma
 70
     0
  0
APPID
  5
8D7
330
9
100
AcDbSymbolTableRecord
100
AcDbRegAppTableRecord
  2
KCAD_DIM_EXT
 70
     0
  0
ENDTAB
  0
TABLE
  2
DIMSTYLE
  5
A
330
0
100
AcDbSymbolTable
 70
     1
100
AcDbDimStyleTable
  0
DIMSTYLE
105
27
102
{ACAD_REACTORS
330
47E
330
4C6
330
50B
330
547
330
58D
330
5C9
330
639
330
6A9
102
}
330
A
100
AcDbSymbolTableRecord
100
AcDbDimStyleTableRecord
  2
Standard
 70
     0
340
11
  0
ENDTAB
  0
TABLE
  2
BLOCK_RECORD
  5
1
330
0
100
AcDbSymbolTable
 70
    47
  0
BLOCK_RECORD
  5
1F
330
1
100
AcDbSymbolTableRecord
100
AcDbBlockTableRecord
  2
*Model_Space
340
22
  0
BLOCK_RECORD
  5
73
330
1
100
AcDbSymbolTableRecord
100
AcDbBlockTableRecord
  2
*Paper_Space
340
22F
  0
BLOCK_RECORD
  5
779
330
1
100
AcDbSymbolTableRecord
100
AcDbBlockTableRecord
  2
KCAD_OPEN
340
0
  0
BLOCK_RECORD
  5
3C
330
1
100
AcDbSymbolTableRecord
100
AcDbBlockTableRecord
  2
KCAD_DOTSMALL
340
0
  0
BLOCK_RECORD
  5
44
330
1
100
AcDbSymbolTableRecord
100
AcDbBlockTableRecord
  2
KCAD_NONE
340
0
  0
BLOCK_RECORD
  5
FC
330
1
100
AcDbSymbolTableRecord
100
AcDbBlockTableRecord
  2
_CLOSED
340
0
  0
BLOCK_RECORD
  5
103
330
1
100
AcDbSymbolTableRecord
100
AcDbBlockTableRecord
  2
_DOT
340
0
  0
BLOCK_RECORD
  5
10B
330
1
100
AcDbSymbolTableRecord
100
AcDbBlockTableRecord
  2
_CLOSEDBLANK
340
0
  0
BLOCK_RECORD
  5
111
330
1
100
AcDbSymbolTableRecord
100
AcDbBlockTableRecord
  2
_OBLIQUE
340
0
  0
BLOCK_RECORD
  5
115
330
1
100
AcDbSymbolTableRecord
100
AcDbBlockTableRecord
  2
_ARCHTICK
340
0
  0
BLOCK_RECORD
  5
11C
330
1
100
AcDbSymbolTableRecord
100
AcDbBlockTableRecord
  2
_OPEN
340
0
  0
BLOCK_RECORD
  5
122
330
1
100
AcDbSymbolTableRecord
100
AcDbBlockTableRecord
  2
_ORIGIN
340
0
  0
BLOCK_RECORD
  5
127
330
1
100
AcDbSymbolTableRecord
100
AcDbBlockTableRecord
  2
_OPEN90
340
0
  0
BLOCK_RECORD
  5
12D
330
1
100
AcDbSymbolTableRecord
100
AcDbBlockTableRecord
  2
_OPEN30
340
0
102
{BLKREFS
331
4BD
331
4BE
331
505
331
506
331
540
331
541
331
57C
331
57D
331
5C2
331
5C3
331
5FE
331
5FF
331
633
331
66E
331
66F
331
6A3
331
6DE
331
6DF
331
587
331
6E9
102
}
  0
BLOCK_RECORD
  5
133
330
1
100
AcDbSymbolTableRecord
100
AcDbBlockTableRecord
  2
_DOTBLANK
340
0
  0
BLOCK_RECORD
  5
138
330
1
100
AcDbSymbolTableRecord
100
AcDbBlockTableRecord
  2
_DOTSMALL
340
0
  0
BLOCK_RECORD
  5
13F
330
1
100
AcDbSymbolTableRecord
100
AcDbBlockTableRecord
  2
_BOXFILLED
340
0
  0
BLOCK_RECORD
  5
144
330
1
100
AcDbSymbolTableRecord
100
AcDbBlockTableRecord
  2
_BOXBLANK
340
0
  0
BLOCK_RECORD
  5
14C
330
1
100
AcDbSymbolTableRecord
100
AcDbBlockTableRecord
  2
_DATUMFILLED
340
0
  0
BLOCK_RECORD
  5
150
330
1
100
AcDbSymbolTableRecord
100
AcDbBlockTableRecord
  2
_DATUMBLANK
340
0
  0
BLOCK_RECORD
  5
156
330
1
100
AcDbSymbolTableRecord
100
AcDbBlockTableRecord
  2
_INTEGRAL
340
0
  0
BLOCK_RECORD
  5
1F1
330
1
100
AcDbSymbolTableRecord
100
AcDbBlockTableRecord
  2
_Origin2
340
0
  0
BLOCK_RECORD
  5
1F7
330
1
100
AcDbSymbolTableRecord
100
AcDbBlockTableRecord
  2
KCAD_OPEN30
340
0
  0
BLOCK_RECORD
  5
222
330
1
100
AcDbSymbolTableRecord
100
AcDbBlockTableRecord
  2
_None
340
0
  0
BLOCK_RECORD
  5
283
330
1
100
AcDbSymbolTableRecord
100
AcDbBlockTableRecord
  2
_Small
340
0
  0
BLOCK_RECORD
  5
287
330
1
100
AcDbSymbolTableRecord
100
AcDbBlockTableRecord
  2
KCAD_OPEN_2
340
0
  0
BLOCK_RECORD
  5
28E
330
1
100
AcDbSymbolTableRecord
100
AcDbBlockTableRecord
  2
KCAD_OPEN30_2
340
0
  0
BLOCK_RECORD
  5
2AD
330
1
100
AcDbSymbolTableRecord
100
AcDbBlockTableRecord
  2
KCAD_OPEN30ANG
340
0
  0
BLOCK_RECORD
  5
2B6
330
1
100
AcDbSymbolTableRecord
100
AcDbBlockTableRecord
  2
KCAD_DOTANG
340
0
  0
BLOCK_RECORD
  5
47F
330
1
100
AcDbSymbolTableRecord
100
AcDbBlockTableRecord
  2
*D27
340
0
  0
BLOCK_RECORD
  5
4C7
330
1
100
AcDbSymbolTableRecord
100
AcDbBlockTableRecord
  2
*D28
340
0
  0
BLOCK_RECORD
  5
50C
330
1
100
AcDbSymbolTableRecord
100
AcDbBlockTableRecord
  2
*D29
340
0
  0
BLOCK_RECORD
  5
548
330
1
100
AcDbSymbolTableRecord
100
AcDbBlockTableRecord
  2
*D30
340
0
  0
BLOCK_RECORD
  5
58E
330
1
100
AcDbSymbolTableRecord
100
AcDbBlockTableRecord
  2
*D31
340
0
  0
BLOCK_RECORD
  5
5CA
330
1
100
AcDbSymbolTableRecord
100
AcDbBlockTableRecord
  2
*D32
340
0
  0
BLOCK_RECORD
  5
606
330
1
100
AcDbSymbolTableRecord
100
AcDbBlockTableRecord
  2
*D33
340
0
  0
BLOCK_RECORD
  5
63A
330
1
100
AcDbSymbolTableRecord
100
AcDbBlockTableRecord
  2
*D34
340
0
  0
BLOCK_RECORD
  5
676
330
1
100
AcDbSymbolTableRecord
100
AcDbBlockTableRecord
  2
*D35
340
0
  0
BLOCK_RECORD
  5
6AA
330
1
100
AcDbSymbolTableRecord
100
AcDbBlockTableRecord
  2
*D36
340
0
  0
BLOCK_RECORD
  5
701
330
1
100
AcDbSymbolTableRecord
100
AcDbBlockTableRecord
  2
*D37
340
0
  0
BLOCK_RECORD
  5
70E
330
1
100
AcDbSymbolTableRecord
100
AcDbBlockTableRecord
  2
*D38
340
0
  0
BLOCK_RECORD
  5
71A
330
1
100
AcDbSymbolTableRecord
100
AcDbBlockTableRecord
  2
*D39
340
0
  0
BLOCK_RECORD
  5
726
330
1
100
AcDbSymbolTableRecord
100
AcDbBlockTableRecord
  2
*D40
340
0
  0
BLOCK_RECORD
  5
732
330
1
100
AcDbSymbolTableRecord
100
AcDbBlockTableRecord
  2
*D41
340
0
  0
BLOCK_RECORD
  5
73E
330
1
100
AcDbSymbolTableRecord
100
AcDbBlockTableRecord
  2
*D42
340
0
  0
BLOCK_RECORD
  5
749
330
1
100
AcDbSymbolTableRecord
100
AcDbBlockTableRecord
  2
*D43
340
0
  0
BLOCK_RECORD
  5
755
330
1
100
AcDbSymbolTableRecord
100
AcDbBlockTableRecord
  2
*D44
340
0
  0
BLOCK_RECORD
  5
760
330
1
100
AcDbSymbolTableRecord
100
AcDbBlockTableRecord
  2
*D45
340
0
  0
BLOCK_RECORD
  5
76C
330
1
100
AcDbSymbolTableRecord
100
AcDbBlockTableRecord
  2
*D46
340
0
  0
ENDTAB
  0
ENDSEC
  0
SECTION
  2
BLOCKS
  0
BLOCK
  5
20
330
1F
100
AcDbEntity
  8
0
100
AcDbBlockBegin
  2
*Model_Space
 70
     0
 71
     0
 10
0.0
 20
0.0
 30
0.0
  3
*Model_Space
  1

  0
ENDBLK
  5
21
330
1F
100
AcDbEntity
  8
0
100
AcDbBlockEnd
  0
BLOCK
  5
75
330
73
100
AcDbEntity
 67
     1
  8
0
100
AcDbBlockBegin
  2
*Paper_Space
 70
     0
 71
     0
 10
0.0
 20
0.0
 30
0.0
  3
*Paper_Space
  1

  0
ENDBLK
  5
76
330
73
100
AcDbEntity
 67
     1
  8
0
100
AcDbBlockEnd
  0
BLOCK
  5
8DF
330
779
100
AcDbEntity
  8
KCAD_DIMS
100
AcDbBlockBegin
  2
KCAD_OPEN
 70
     0
 71
     0
 10
0.0
 20
0.0
 30
0.0
  3
KCAD_OPEN
  1

  0
LINE
  5
7D8
330
779
100
AcDbEntity
  8
0
  6
Continuous
 62
     0
370
    -2
100
AcDbLine
 10
0.0
 20
0.0
 30
0.0
 11
-1.0
 21
0.0
 31
0.0
  0
LINE
  5
23
330
779
100
AcDbEntity
  8
0
  6
Continuous
 62
     0
370
    -2
100
AcDbLine
 10
0.0
 20
0.0
 30
0.0
 11
-1.0
 21
0.158384
 31
0.0
  0
LINE
  5
24
330
779
100
AcDbEntity
  8
0
  6
Continuous
 62
     0
370
    -2
100
AcDbLine
 10
0.0
 20
0.0
 30
0.0
 11
-1.0
 21
-0.158384
 31
0.0
  0
ENDBLK
  5
8E0
330
779
100
AcDbEntity
  8
KCAD_DIMS
100
AcDbBlockEnd
  0
BLOCK
  5
8E1
330
3C
100
AcDbEntity
  8
KCAD_DIMS
100
AcDbBlockBegin
  2
KCAD_DOTSMALL
 70
     0
 71
     0
 10
0.0
 20
0.0
 30
0.0
  3
KCAD_DOTSMALL
  1

  0
LWPOLYLINE
  5
3D
330
3C
100
AcDbEntity
  8
KCAD_DIMS
 62
     0
100
AcDbPolyline
 90
        2
 70
     1
 43
0.5
 10
0.06252
 20
0.0
 42
1.0
 10
-0.06262
 20
0.0
 42
1.0
  0
LINE
  5
41
330
3C
100
AcDbEntity
  8
0
  6
Continuous
 62
     0
370
    -2
100
AcDbLine
 10
0.0
 20
0.0
 30
0.0
 11
-1.0
 21
0.0
 31
0.0
  0
ENDBLK
  5
8E2
330
3C
100
AcDbEntity
  8
0
100
AcDbBlockEnd
  0
BLOCK
  5
8E3
330
44
100
AcDbEntity
  8
KCAD_DIMS
100
AcDbBlockBegin
  2
KCAD_NONE
 70
     0
 71
     0
 10
0.0
 20
0.0
 30
0.0
  3
KCAD_NONE
  1

  0
LINE
  5
45
330
44
100
AcDbEntity
  8
0
  6
Continuous
 62
     0
370
    -2
100
AcDbLine
 10
0.0
 20
0.0
 30
0.0
 11
-1.0
 21
0.0
 31
0.0
  0
ENDBLK
  5
8E4
330
44
100
AcDbEntity
  8
0
100
AcDbBlockEnd
  0
BLOCK
  5
8E5
330
FC
100
AcDbEntity
  8
0
100
AcDbBlockBegin
  2
_CLOSED
 70
     0
 71
     0
 10
0.0
 20
0.0
 30
0.0
  3
_CLOSED
  1

  0
LINE
  5
FE
330
FC
100
AcDbEntity
  8
0
  6
Continuous
 62
     0
370
    -2
100
AcDbLine
 10
-1.0
 20
0.166667
 30
0.0
 11
0.0
 21
0.0
 31
0.0
  0
LINE
  5
FF
330
FC
100
AcDbEntity
  8
0
  6
Continuous
 62
     0
370
    -2
100
AcDbLine
 10
0.0
 20
0.0
 30
0.0
 11
-1.0
 21
-0.166667
 31
0.0
  0
LINE
  5
100
330
FC
100
AcDbEntity
  8
0
  6
Continuous
 62
     0
370
    -2
100
AcDbLine
 10
-1.0
 20
0.166667
 30
0.0
 11
-1.0
 21
-0.166667
 31
0.0
  0
LINE
  5
101
330
FC
100
AcDbEntity
  8
0
  6
Continuous
 62
     0
370
    -2
100
AcDbLine
 10
0.0
 20
0.0
 30
0.0
 11
-1.0
 21
0.0
 31
0.0
  0
ENDBLK
  5
8E6
330
FC
100
AcDbEntity
  8
0
100
AcDbBlockEnd
  0
BLOCK
  5
8E7
330
103
100
AcDbEntity
  8
0
100
AcDbBlockBegin
  2
_DOT
 70
     0
 71
     0
 10
0.0
 20
0.0
 30
0.0
  3
_DOT
  1

  0
LWPOLYLINE
  5
105
330
103
100
AcDbEntity
  8
0
  6
ByBlock
 62
     0
100
AcDbPolyline
 90
        2
 70
     1
 43
0.5
 10
-0.25
 20
0.0
 42
1.0
 10
0.25
 20
0.0
 42
1.0
  0
LINE
  5
109
330
103
100
AcDbEntity
  8
0
  6
Continuous
 62
     0
370
    -2
100
AcDbLine
 10
-0.5
 20
0.0
 30
0.0
 11
-1.0
 21
0.0
 31
0.0
  0
ENDBLK
  5
8E8
330
103
100
AcDbEntity
  8
0
100
AcDbBlockEnd
  0
BLOCK
  5
8E9
330
10B
100
AcDbEntity
  8
0
100
AcDbBlockBegin
  2
_CLOSEDBLANK
 70
     0
 71
     0
 10
0.0
 20
0.0
 30
0.0
  3
_CLOSEDBLANK
  1

  0
LINE
  5
10D
330
10B
100
AcDbEntity
  8
0
  6
Continuous
 62
     0
370
    -2
100
AcDbLine
 10
-1.0
 20
0.166667
 30
0.0
 11
0.0
 21
0.0
 31
0.0
  0
LINE
  5
10E
330
10B
100
AcDbEntity
  8
0
  6
Continuous
 62
     0
370
    -2
100
AcDbLine
 10
0.0
 20
0.0
 30
0.0
 11
-1.0
 21
-0.166667
 31
0.0
  0
LINE
  5
10F
330
10B
100
AcDbEntity
  8
0
  6
Continuous
 62
     0
370
    -2
100
AcDbLine
 10
-1.0
 20
0.166667
 30
0.0
 11
-1.0
 21
-0.166667
 31
0.0
  0
ENDBLK
  5
8EA
330
10B
100
AcDbEntity
  8
0
100
AcDbBlockEnd
  0
BLOCK
  5
8EB
330
111
100
AcDbEntity
  8
0
100
AcDbBlockBegin
  2
_OBLIQUE
 70
     0
 71
     0
 10
0.0
 20
0.0
 30
0.0
  3
_OBLIQUE
  1

  0
LINE
  5
113
330
111
100
AcDbEntity
  8
0
  6
Continuous
 62
     0
370
    -2
100
AcDbLine
 10
-0.5
 20
-0.5
 30
0.0
 11
0.5
 21
0.5
 31
0.0
  0
ENDBLK
  5
8EC
330
111
100
AcDbEntity
  8
0
100
AcDbBlockEnd
  0
BLOCK
  5
8ED
330
115
100
AcDbEntity
  8
0
100
AcDbBlockBegin
  2
_ARCHTICK
 70
     0
 71
     0
 10
0.0
 20
0.0
 30
0.0
  3
_ARCHTICK
  1

  0
LWPOLYLINE
  5
117
330
115
100
AcDbEntity
  8
0
  6
ByBlock
 62
     0
100
AcDbPolyline
 90
        2
 70
     0
 43
0.15
 10
-0.5
 20
-0.5
 10
0.5
 20
0.5
  0
ENDBLK
  5
8EE
330
115
100
AcDbEntity
  8
0
100
AcDbBlockEnd
  0
BLOCK
  5
8EF
330
11C
100
AcDbEntity
  8
0
100
AcDbBlockBegin
  2
_OPEN
 70
     0
 71
     0
 10
0.0
 20
0.0
 30
0.0
  3
_OPEN
  1

  0
LINE
  5
11E
330
11C
100
AcDbEntity
  8
0
  6
Continuous
 62
     0
370
    -2
100
AcDbLine
 10
-1.0
 20
0.166667
 30
0.0
 11
0.0
 21
0.0
 31
0.0
  0
LINE
  5
11F
330
11C
100
AcDbEntity
  8
0
  6
Continuous
 62
     0
370
    -2
100
AcDbLine
 10
0.0
 20
0.0
 30
0.0
 11
-1.0
 21
-0.166667
 31
0.0
  0
LINE
  5
120
330
11C
100
AcDbEntity
  8
0
  6
Continuous
 62
     0
370
    -2
100
AcDbLine
 10
0.0
 20
0.0
 30
0.0
 11
-1.0
 21
0.0
 31
0.0
  0
ENDBLK
  5
8F0
330
11C
100
AcDbEntity
  8
0
100
AcDbBlockEnd
  0
BLOCK
  5
8F1
330
122
100
AcDbEntity
  8
0
100
AcDbBlockBegin
  2
_ORIGIN
 70
     0
 71
     0
 10
0.0
 20
0.0
 30
0.0
  3
_ORIGIN
  1

  0
CIRCLE
  5
124
330
122
100
AcDbEntity
  8
0
  6
ByBlock
 62
     0
100
AcDbCircle
 10
0.0
 20
0.0
 30
0.0
 40
0.5
  0
LINE
  5
125
330
122
100
AcDbEntity
  8
0
  6
Continuous
 62
     0
370
    -2
100
AcDbLine
 10
0.0
 20
0.0
 30
0.0
 11
-1.0
 21
0.0
 31
0.0
  0
ENDBLK
  5
8F2
330
122
100
AcDbEntity
  8
0
100
AcDbBlockEnd
  0
BLOCK
  5
8F3
330
127
100
AcDbEntity
  8
0
100
AcDbBlockBegin
  2
_OPEN90
 70
     0
 71
     0
 10
0.0
 20
0.0
 30
0.0
  3
_OPEN90
  1

  0
LINE
  5
129
330
127
100
AcDbEntity
  8
0
  6
Continuous
 62
     0
370
    -2
100
AcDbLine
 10
-0.5
 20
0.5
 30
0.0
 11
0.0
 21
0.0
 31
0.0
  0
LINE
  5
12A
330
127
100
AcDbEntity
  8
0
  6
Continuous
 62
     0
370
    -2
100
AcDbLine
 10
0.0
 20
0.0
 30
0.0
 11
-0.5
 21
-0.5
 31
0.0
  0
LINE
  5
12B
330
127
100
AcDbEntity
  8
0
  6
Continuous
 62
     0
370
    -2
100
AcDbLine
 10
0.0
 20
0.0
 30
0.0
 11
-1.0
 21
0.0
 31
0.0
  0
ENDBLK
  5
8F4
330
127
100
AcDbEntity
  8
0
100
AcDbBlockEnd
  0
BLOCK
  5
8F5
330
12D
100
AcDbEntity
  8
0
100
AcDbBlockBegin
  2
_OPEN30
 70
     0
 71
     0
 10
0.0
 20
0.0
 30
0.0
  3
_OPEN30
  1

  0
LINE
  5
12F
330
12D
100
AcDbEntity
  8
0
  6
Continuous
 62
     0
370
    -2
100
AcDbLine
 10
-1.0
 20
0.267949
 30
0.0
 11
0.0
 21
0.0
 31
0.0
  0
LINE
  5
130
330
12D
100
AcDbEntity
  8
0
  6
Continuous
 62
     0
370
    -2
100
AcDbLine
 10
0.0
 20
0.0
 30
0.0
 11
-1.0
 21
-0.267949
 31
0.0
  0
LINE
  5
131
330
12D
100
AcDbEntity
  8
0
  6
Continuous
 62
     0
370
    -2
100
AcDbLine
 10
0.0
 20
0.0
 30
0.0
 11
-1.0
 21
0.0
 31
0.0
  0
ENDBLK
  5
8F6
330
12D
100
AcDbEntity
  8
0
100
AcDbBlockEnd
  0
BLOCK
  5
8F7
330
133
100
AcDbEntity
  8
0
100
AcDbBlockBegin
  2
_DOTBLANK
 70
     0
 71
     0
 10
0.0
 20
0.0
 30
0.0
  3
_DOTBLANK
  1

  0
CIRCLE
  5
135
330
133
100
AcDbEntity
  8
0
  6
ByBlock
 62
     0
100
AcDbCircle
 10
0.0
 20
0.0
 30
0.0
 40
0.5
  0
LINE
  5
136
330
133
100
AcDbEntity
  8
0
  6
Continuous
 62
     0
370
    -2
100
AcDbLine
 10
-0.5
 20
0.0
 30
0.0
 11
-1.0
 21
0.0
 31
0.0
  0
ENDBLK
  5
8F8
330
133
100
AcDbEntity
  8
0
100
AcDbBlockEnd
  0
BLOCK
  5
8F9
330
138
100
AcDbEntity
  8
0
100
AcDbBlockBegin
  2
_DOTSMALL
 70
     0
 71
     0
 10
0.0
 20
0.0
 30
0.0
  3
_DOTSMALL
  1

  0
LWPOLYLINE
  5
13A
330
138
100
AcDbEntity
  8
0
  6
ByBlock
 62
     0
100
AcDbPolyline
 90
        2
 70
     1
 43
0.5
 10
-0.0625
 20
0.0
 42
1.0
 10
0.0625
 20
0.0
 42
1.0
  0
ENDBLK
  5
8FA
330
138
100
AcDbEntity
  8
0
100
AcDbBlockEnd
  0
BLOCK
  5
8FB
330
13F
100
AcDbEntity
  8
0
100
AcDbBlockBegin
  2
_BOXFILLED
 70
     0
 71
     0
 10
0.0
 20
0.0
 30
0.0
  3
_BOXFILLED
  1

  0
SOLID
  5
141
330
13F
100
AcDbEntity
  8
0
  6
ByBlock
 62
     0
100
AcDbTrace
 10
-0.5
 20
0.5
 30
0.0
 11
0.5
 21
0.5
 31
0.0
 12
-0.5
 22
-0.5
 32
0.0
 13
0.5
 23
-0.5
 33
0.0
  0
LINE
  5
142
330
13F
100
AcDbEntity
  8
0
  6
Continuous
 62
     0
370
    -2
100
AcDbLine
 10
-0.5
 20
0.0
 30
0.0
 11
-1.0
 21
0.0
 31
0.0
  0
ENDBLK
  5
8FC
330
13F
100
AcDbEntity
  8
0
100
AcDbBlockEnd
  0
BLOCK
  5
8FD
330
144
100
AcDbEntity
  8
0
100
AcDbBlockBegin
  2
_BOXBLANK
 70
     0
 71
     0
 10
0.0
 20
0.0
 30
0.0
  3
_BOXBLANK
  1

  0
LINE
  5
146
330
144
100
AcDbEntity
  8
0
  6
Continuous
 62
     0
370
    -2
100
AcDbLine
 10
-0.5
 20
-0.5
 30
0.0
 11
0.5
 21
-0.5
 31
0.0
  0
LINE
  5
147
330
144
100
AcDbEntity
  8
0
  6
Continuous
 62
     0
370
    -2
100
AcDbLine
 10
0.5
 20
-0.5
 30
0.0
 11
0.5
 21
0.5
 31
0.0
  0
LINE
  5
148
330
144
100
AcDbEntity
  8
0
  6
Continuous
 62
     0
370
    -2
100
AcDbLine
 10
0.5
 20
0.5
 30
0.0
 11
-0.5
 21
0.5
 31
0.0
  0
LINE
  5
149
330
144
100
AcDbEntity
  8
0
  6
Continuous
 62
     0
370
    -2
100
AcDbLine
 10
-0.5
 20
0.5
 30
0.0
 11
-0.5
 21
-0.5
 31
0.0
  0
LINE
  5
14A
330
144
100
AcDbEntity
  8
0
  6
Continuous
 62
     0
370
    -2
100
AcDbLine
 10
-0.5
 20
0.0
 30
0.0
 11
-1.0
 21
0.0
 31
0.0
  0
ENDBLK
  5
8FE
330
144
100
AcDbEntity
  8
0
100
AcDbBlockEnd
  0
BLOCK
  5
8FF
330
14C
100
AcDbEntity
  8
0
100
AcDbBlockBegin
  2
_DATUMFILLED
 70
     0
 71
     0
 10
0.0
 20
0.0
 30
0.0
  3
_DATUMFILLED
  1

  0
SOLID
  5
14E
330
14C
100
AcDbEntity
  8
0
  6
ByBlock
 62
     0
100
AcDbTrace
 10
0.0
 20
0.5773500000000001
 30
0.0
 11
-1.0
 21
0.0
 31
0.0
 12
0.0
 22
-0.5773500000000001
 32
0.0
 13
0.0
 23
-0.5773500000000001
 33
0.0
  0
ENDBLK
  5
900
330
14C
100
AcDbEntity
  8
0
100
AcDbBlockEnd
  0
BLOCK
  5
901
330
150
100
AcDbEntity
  8
0
100
AcDbBlockBegin
  2
_DATUMBLANK
 70
     0
 71
     0
 10
0.0
 20
0.0
 30
0.0
  3
_DATUMBLANK
  1

  0
LINE
  5
152
330
150
100
AcDbEntity
  8
0
  6
Continuous
 62
     0
370
    -2
100
AcDbLine
 10
0.0
 20
0.5773500000000001
 30
0.0
 11
-1.0
 21
0.0
 31
0.0
  0
LINE
  5
153
330
150
100
AcDbEntity
  8
0
  6
Continuous
 62
     0
370
    -2
100
AcDbLine
 10
-1.0
 20
0.0
 30
0.0
 11
0.0
 21
-0.5773500000000001
 31
0.0
  0
LINE
  5
154
330
150
100
AcDbEntity
  8
0
  6
Continuous
 62
     0
370
    -2
100
AcDbLine
 10
0.0
 20
-0.5773500000000001
 30
0.0
 11
0.0
 21
0.5773500000000001
 31
0.0
  0
ENDBLK
  5
902
330
150
100
AcDbEntity
  8
0
100
AcDbBlockEnd
  0
BLOCK
  5
903
330
156
100
AcDbEntity
  8
0
100
AcDbBlockBegin
  2
_INTEGRAL
 70
     0
 71
     0
 10
0.0
 20
0.0
 30
0.0
  3
_INTEGRAL
  1

  0
ARC
  5
158
330
156
100
AcDbEntity
  8
0
  6
ByBlock
 62
     0
100
AcDbCircle
 10
0.444888
 20
-0.091335
 30
0.0
 40
0.454167
100
AcDbArc
 50
102.0
 51
168.0
  0
ARC
  5
159
330
156
100
AcDbEntity
  8
0
  6
ByBlock
 62
     0
100
AcDbCircle
 10
-0.444888
 20
0.091335
 30
0.0
 40
0.454167
100
AcDbArc
 50
282.0
 51
348.0
  0
ENDBLK
  5
904
330
156
100
AcDbEntity
  8
0
100
AcDbBlockEnd
  0
BLOCK
  5
905
330
1F1
100
AcDbEntity
  8
0
100
AcDbBlockBegin
  2
_Origin2
 70
     0
 71
     0
 10
0.0
 20
0.0
 30
0.0
  3
_Origin2
  1

  0
CIRCLE
  5
1F2
330
1F1
100
AcDbEntity
  8
0
  6
Continuous
 62
     0
370
    -2
100
AcDbCircle
 10
0.0
 20
0.0
 30
0.0
 40
0.5
  0
CIRCLE
  5
1F3
330
1F1
100
AcDbEntity
  8
0
  6
Continuous
 62
     0
370
    -2
100
AcDbCircle
 10
0.0
 20
0.0
 30
0.0
 40
0.25
  0
LINE
  5
1F4
330
1F1
100
AcDbEntity
  8
0
  6
Continuous
 62
     0
370
    -2
100
AcDbLine
 10
-0.5
 20
0.0
 30
0.0
 11
-1.0
 21
0.0
 31
0.0
  0
ENDBLK
  5
906
330
1F1
100
AcDbEntity
  8
0
100
AcDbBlockEnd
  0
BLOCK
  5
907
330
1F7
100
AcDbEntity
  8
0
100
AcDbBlockBegin
  2
KCAD_OPEN30
 70
     0
 71
     0
 10
0.0
 20
0.0
 30
0.0
  3
KCAD_OPEN30
  1

  0
LINE
  5
1F8
330
1F7
100
AcDbEntity
  8
0
  6
Continuous
 62
     0
370
    -2
100
AcDbLine
 10
0.0
 20
0.0
 30
0.0
 11
-1.0
 21
0.0
 31
0.0
  0
LINE
  5
1F9
330
1F7
100
AcDbEntity
  8
0
  6
Continuous
 62
     0
370
    -2
100
AcDbLine
 10
0.0
 20
0.0
 30
0.0
 11
-1.0
 21
0.2679491924311227
 31
0.0
  0
LINE
  5
1FA
330
1F7
100
AcDbEntity
  8
0
  6
Continuous
 62
     0
370
    -2
100
AcDbLine
 10
0.0
 20
0.0
 30
0.0
 11
-1.0
 21
-0.2679491924311227
 31
0.0
  0
ENDBLK
  5
908
330
1F7
100
AcDbEntity
  8
0
100
AcDbBlockEnd
  0
BLOCK
  5
909
330
222
100
AcDbEntity
  8
0
100
AcDbBlockBegin
  2
_None
 70
     0
 71
     0
 10
0.0
 20
0.0
 30
0.0
  3
_None
  1

  0
ENDBLK
  5
90A
330
222
100
AcDbEntity
  8
0
100
AcDbBlockEnd
  0
BLOCK
  5
90B
330
283
100
AcDbEntity
  8
0
100
AcDbBlockBegin
  2
_Small
 70
     0
 71
     0
 10
0.0
 20
0.0
 30
0.0
  3
_Small
  1

  0
CIRCLE
  5
284
330
283
100
AcDbEntity
  8
0
  6
ByBlock
 62
     0
370
    -2
100
AcDbCircle
 10
0.0
 20
0.0
 30
0.0
 40
0.25
  0
ENDBLK
  5
90C
330
283
100
AcDbEntity
  8
0
100
AcDbBlockEnd
  0
BLOCK
  5
90D
330
287
100
AcDbEntity
  8
0
100
AcDbBlockBegin
  2
KCAD_OPEN_2
 70
     0
 71
     0
 10
0.0
 20
0.0
 30
0.0
  3
KCAD_OPEN_2
  1

  0
LINE
  5
288
330
287
100
AcDbEntity
  8
0
  6
Continuous
 62
     0
370
    -2
100
AcDbLine
 10
0.0
 20
0.0
 30
0.0
 11
-2.0
 21
0.0
 31
0.0
  0
LINE
  5
289
330
287
100
AcDbEntity
  8
0
  6
Continuous
 62
     0
370
    -2
100
AcDbLine
 10
0.0
 20
0.0
 30
0.0
 11
-2.0
 21
0.3167688806490725
 31
0.0
  0
LINE
  5
28A
330
287
100
AcDbEntity
  8
0
  6
Continuous
 62
     0
370
    -2
100
AcDbLine
 10
0.0
 20
0.0
 30
0.0
 11
-2.0
 21
-0.3167688806490725
 31
0.0
  0
LINE
  5
28B
330
287
100
AcDbEntity
  8
0
  6
Continuous
 62
     0
370
    -2
100
AcDbLine
 10
-2.0
 20
0.0
 30
0.0
 11
-4.0
 21
0.0
 31
0.0
  0
ENDBLK
  5
90E
330
287
100
AcDbEntity
  8
0
100
AcDbBlockEnd
  0
BLOCK
  5
90F
330
28E
100
AcDbEntity
  8
0
100
AcDbBlockBegin
  2
KCAD_OPEN30_2
 70
     0
 71
     0
 10
0.0
 20
0.0
 30
0.0
  3
KCAD_OPEN30_2
  1

  0
LINE
  5
28F
330
28E
100
AcDbEntity
  8
0
  6
Continuous
 62
     0
370
    -2
100
AcDbLine
 10
0.0
 20
0.0
 30
0.0
 11
-2.0
 21
0.0
 31
0.0
  0
LINE
  5
290
330
28E
100
AcDbEntity
  8
0
  6
Continuous
 62
     0
370
    -2
100
AcDbLine
 10
0.0
 20
0.0
 30
0.0
 11
-2.0
 21
0.5358983848622455
 31
0.0
  0
LINE
  5
291
330
28E
100
AcDbEntity
  8
0
  6
Continuous
 62
     0
370
    -2
100
AcDbLine
 10
0.0
 20
0.0
 30
0.0
 11
-2.0
 21
-0.5358983848622455
 31
0.0
  0
LINE
  5
292
330
28E
100
AcDbEntity
  8
0
  6
Continuous
 62
     0
370
    -2
100
AcDbLine
 10
-2.0
 20
0.0
 30
0.0
 11
-4.0
 21
0.0
 31
0.0
  0
ENDBLK
  5
910
330
28E
100
AcDbEntity
  8
0
100
AcDbBlockEnd
  0
BLOCK
  5
911
330
2AD
100
AcDbEntity
  8
0
100
AcDbBlockBegin
  2
KCAD_OPEN30ANG
 70
     0
 71
     0
 10
0.0
 20
0.0
 30
0.0
  3
KCAD_OPEN30ANG
  1

  0
LINE
  5
2D7
330
2AD
100
AcDbEntity
  8
0
  6
Continuous
 62
     0
370
    -2
100
AcDbLine
 10
0.0
 20
0.0
 30
0.0
 11
-1.0
 21
-0.267949
 31
0.0
  0
LINE
  5
2D8
330
2AD
100
AcDbEntity
  8
0
  6
Continuous
 62
     0
370
    -2
100
AcDbLine
 10
-1.0
 20
0.267949
 30
0.0
 11
0.0
 21
0.0
 31
0.0
  0
ENDBLK
  5
912
330
2AD
100
AcDbEntity
  8
0
100
AcDbBlockEnd
  0
BLOCK
  5
913
330
2B6
100
AcDbEntity
  8
0
100
AcDbBlockBegin
  2
KCAD_DOTANG
 70
     0
 71
     0
 10
0.0
 20
0.0
 30
0.0
  3
KCAD_DOTANG
  1

  0
LWPOLYLINE
  5
2DD
330
2B6
100
AcDbEntity
  8
0
  6
ByBlock
 62
     0
100
AcDbPolyline
 90
        2
 70
     1
 43
0.5
 10
-0.25
 20
0.0
 42
1.0
 10
0.25
 20
0.0
 42
1.0
  0
ENDBLK
  5
914
330
2B6
100
AcDbEntity
  8
0
100
AcDbBlockEnd
  0
BLOCK
  5
915
330
47F
100
AcDbEntity
  8
0
100
AcDbBlockBegin
  2
*D27
 70
     1
 71
     0
 10
0.0
 20
0.0
 30
0.0
  3
*D27
  1

  0
LINE
  5
4BB
330
47F
100
AcDbEntity
  8
KCAD_DIMS
 62
     0
370
    -2
100
AcDbLine
 10
227.2888657050478
 20
172.4428003842997
 30
0.0
 11
227.2888657050478
 21
156.0585106382976
 31
0.0
  0
LINE
  5
4BC
330
47F
100
AcDbEntity
  8
KCAD_DIMS
 62
     0
370
    -2
100
AcDbLine
 10
231.2888657050478
 20
172.4428003842997
 30
0.0
 11
231.2888657050478
 21
152.508510638298
 31
0.0
  0
INSERT
  5
4BD
330
47F
100
AcDbEntity
  8
KCAD_DIMS
 62
     0
370
    -2
100
AcDbBlockReference
  2
_OPEN30
 10
227.2888657050478
 20
171.4428003842997
 30
0.0
 41
2.5
 42
2.5
 43
2.5
  0
INSERT
  5
4BE
330
47F
100
AcDbEntity
  8
KCAD_DIMS
 62
     0
370
    -2
100
AcDbBlockReference
  2
_OPEN30
 10
231.2888657050478
 20
171.4428003842997
 30
0.0
 41
2.5
 42
2.5
 43
2.5
 50
180.0
  0
LINE
  5
4BF
330
47F
100
AcDbEntity
  8
KCAD_DIMS
 62
     0
370
    -2
100
AcDbLine
 10
227.2888657050478
 20
171.4428003842997
 30
0.0
 11
231.2888657050478
 21
171.4428003842997
 31
0.0
  0
LINE
  5
4C0
330
47F
100
AcDbEntity
  8
KCAD_DIMS
 62
     0
370
    -2
100
AcDbLine
 10
224.7888657050478
 20
171.4428003842997
 30
0.0
 11
222.2888657050478
 21
171.4428003842997
 31
0.0
  0
LINE
  5
4C1
330
47F
100
AcDbEntity
  8
KCAD_DIMS
 62
     0
370
    -2
100
AcDbLine
 10
233.7888657050478
 20
171.4428003842997
 30
0.0
 11
242.2251881227729
 21
171.4428003842997
 31
0.0
  0
POINT
  5
4C2
330
47F
100
AcDbEntity
  8
DEFPOINTS
 62
     0
370
    15
100
AcDbPoint
 10
227.2888657050478
 20
155.0585106382976
 30
0.0
  0
POINT
  5
4C3
330
47F
100
AcDbEntity
  8
DEFPOINTS
 62
     0
370
    15
100
AcDbPoint
 10
231.2888657050478
 20
151.508510638298
 30
0.0
  0
POINT
  5
4C4
330
47F
100
AcDbEntity
  8
DEFPOINTS
 62
     0
370
    15
100
AcDbPoint
 10
231.2888657050478
 20
171.4428003842997
 30
0.0
  0
MTEXT
  5
4C5
330
47F
100
AcDbEntity
  8
KCAD_DIMS
 62
     0
100
AcDbMText
 10
241.2251881467545
 20
173.5761333842997
 30
0.0
 40
3.2
 41
0.0
 71
     5
 72
     1
  1
\A1;4
  7
KCADDIMSTANDARD
 73
     1
 44
1.0
  0
ENDBLK
  5
916
330
47F
100
AcDbEntity
  8
0
100
AcDbBlockEnd
  0
BLOCK
  5
917
330
4C7
100
AcDbEntity
  8
0
100
AcDbBlockBegin
  2
*D28
 70
     1
 71
     0
 10
0.0
 20
0.0
 30
0.0
  3
*D28
  1

  0
LINE
  5
503
330
4C7
100
AcDbEntity
  8
KCAD_DIMS
 62
     0
370
    -2
100
AcDbLine
 10
227.2888657050478
 20
164.3402604031144
 30
0.0
 11
227.2888657050478
 21
156.0585106382976
 31
0.0
  0
LINE
  5
504
330
4C7
100
AcDbEntity
  8
KCAD_DIMS
 62
     0
370
    -2
100
AcDbLine
 10
222.2888657050478
 20
164.3402604031144
 30
0.0
 11
222.2888657050478
 21
156.0585106382976
 31
0.0
  0
INSERT
  5
505
330
4C7
100
AcDbEntity
  8
KCAD_DIMS
 62
     0
370
    -2
100
AcDbBlockReference
  2
_OPEN30
 10
227.2888657050478
 20
163.3402604031144
 30
0.0
 41
2.5
 42
2.5
 43
2.5
  0
INSERT
  5
506
330
4C7
100
AcDbEntity
  8
KCAD_DIMS
 62
     0
370
    -2
100
AcDbBlockReference
  2
_OPEN30
 10
222.2888657050478
 20
163.3402604031144
 30
0.0
 41
2.5
 42
2.5
 43
2.5
 50
180.0
  0
POINT
  5
507
330
4C7
100
AcDbEntity
  8
DEFPOINTS
 62
     0
370
    15
100
AcDbPoint
 10
227.2888657050478
 20
155.0585106382976
 30
0.0
  0
POINT
  5
508
330
4C7
100
AcDbEntity
  8
DEFPOINTS
 62
     0
370
    15
100
AcDbPoint
 10
222.2888657050478
 20
155.0585106382976
 30
0.0
  0
POINT
  5
509
330
4C7
100
AcDbEntity
  8
DEFPOINTS
 62
     0
370
    15
100
AcDbPoint
 10
222.2888657050478
 20
163.3402604031144
 30
0.0
  0
MTEXT
  5
50A
330
4C7
100
AcDbEntity
  8
KCAD_DIMS
 62
     0
100
AcDbMText
 10
224.7888657050479
 20
165.4735934031144
 30
0.0
 40
3.2
 41
0.0
 71
     5
 72
     1
  1
\A1;5
  7
KCADDIMSTANDARD
 73
     1
 44
1.0
  0
ENDBLK
  5
918
330
4C7
100
AcDbEntity
  8
0
100
AcDbBlockEnd
  0
BLOCK
  5
919
330
50C
100
AcDbEntity
  8
0
100
AcDbBlockBegin
  2
*D29
 70
     1
 71
     0
 10
0.0
 20
0.0
 30
0.0
  3
*D29
  1

  0
LINE
  5
53E
330
50C
100
AcDbEntity
  8
KCAD_DIMS
 62
     0
370
    -2
100
AcDbLine
 10
134.6888657050478
 20
172.4428003842997
 30
0.0
 11
134.6888657050478
 21
152.5585106382972
 31
0.0
  0
LINE
  5
53F
330
50C
100
AcDbEntity
  8
KCAD_DIMS
 62
     0
370
    -2
100
AcDbLine
 10
227.2888657050478
 20
172.4428003842997
 30
0.0
 11
227.2888657050478
 21
156.0585106382976
 31
0.0
  0
INSERT
  5
540
330
50C
100
AcDbEntity
  8
KCAD_DIMS
 62
     0
370
    -2
100
AcDbBlockReference
  2
_OPEN30
 10
134.6888657050478
 20
171.4428003842997
 30
0.0
 41
2.5
 42
2.5
 43
2.5
 50
180.0
  0
INSERT
  5
541
330
50C
100
AcDbEntity
  8
KCAD_DIMS
 62
     0
370
    -2
100
AcDbBlockReference
  2
_OPEN30
 10
227.2888657050478
 20
171.4428003842997
 30
0.0
 41
2.5
 42
2.5
 43
2.5
  0
LINE
  5
542
330
50C
100
AcDbEntity
  8
KCAD_DIMS
 62
     0
370
    -2
100
AcDbLine
 10
137.1888657050478
 20
171.4428003842997
 30
0.0
 11
224.7888657050479
 21
171.4428003842997
 31
0.0
  0
POINT
  5
543
330
50C
100
AcDbEntity
  8
DEFPOINTS
 62
     0
370
    15
100
AcDbPoint
 10
134.6888657050478
 20
151.5585106382972
 30
0.0
  0
POINT
  5
544
330
50C
100
AcDbEntity
  8
DEFPOINTS
 62
     0
370
    15
100
AcDbPoint
 10
227.2888657050478
 20
155.0585106382976
 30
0.0
  0
POINT
  5
545
330
50C
100
AcDbEntity
  8
DEFPOINTS
 62
     0
370
    15
100
AcDbPoint
 10
227.2888657050478
 20
171.4428003842997
 30
0.0
  0
MTEXT
  5
546
330
50C
100
AcDbEntity
  8
KCAD_DIMS
 62
     0
100
AcDbMText
 10
180.9888657050478
 20
173.5761333842997
 30
0.0
 40
3.2
 41
0.0
 71
     5
 72
     1
  1
\A1;92.6
  7
KCADDIMSTANDARD
 73
     1
 44
1.0
  0
ENDBLK
  5
91A
330
50C
100
AcDbEntity
  8
0
100
AcDbBlockEnd
  0
BLOCK
  5
91B
330
548
100
AcDbEntity
  8
0
100
AcDbBlockBegin
  2
*D30
 70
     1
 71
     0
 10
0.0
 20
0.0
 30
0.0
  3
*D30
  1

  0
LINE
  5
57A
330
548
100
AcDbEntity
  8
KCAD_DIMS
 62
     0
370
    -2
100
AcDbLine
 10
256.928504233302
 20
123.5585106382977
 30
0.0
 11
227.7888657050479
 21
123.5585106382977
 31
0.0
  0
LINE
  5
57B
330
548
100
AcDbEntity
  8
KCAD_DIMS
 62
     0
370
    -2
100
AcDbLine
 10
256.9285042333019
 20
155.5585106382977
 30
0.0
 11
227.7888657050478
 21
155.5585106382976
 31
0.0
  0
INSERT
  5
57C
330
548
100
AcDbEntity
  8
KCAD_DIMS
 62
     0
370
    -2
100
AcDbBlockReference
  2
_OPEN30
 10
255.928504233302
 20
123.5585106382977
 30
0.0
 41
2.5
 42
2.5
 43
2.5
 50
270.0
  0
INSERT
  5
57D
330
548
100
AcDbEntity
  8
KCAD_DIMS
 62
     0
370
    -2
100
AcDbBlockReference
  2
_OPEN30
 10
255.9285042333019
 20
155.5585106382977
 30
0.0
 41
2.5
 42
2.5
 43
2.5
 50
90.00000000000006
  0
LINE
  5
57E
330
548
100
AcDbEntity
  8
KCAD_DIMS
 62
     0
370
    -2
100
AcDbLine
 10
255.928504233302
 20
126.0585106382977
 30
0.0
 11
255.9285042333019
 21
153.0585106382977
 31
0.0
  0
POINT
  5
57F
330
548
100
AcDbEntity
  8
DEFPOINTS
 62
     0
370
    15
100
AcDbPoint
 10
226.7888657050479
 20
123.5585106382977
 30
0.0
  0
POINT
  5
580
330
548
100
AcDbEntity
  8
DEFPOINTS
 62
     0
370
    15
100
AcDbPoint
 10
226.7888657050478
 20
155.5585106382976
 30
0.0
  0
POINT
  5
581
330
548
100
AcDbEntity
  8
DEFPOINTS
 62
     0
370
    15
100
AcDbPoint
 10
255.9285042333019
 20
155.5585106382976
 30
0.0
  0
MTEXT
  5
582
330
548
100
AcDbEntity
  8
KCAD_DIMS
 62
     0
100
AcDbMText
 10
253.795171233302
 20
139.5585106382977
 30
0.0
 40
3.2
 41
0.0
 71
     5
 72
     1
  1
\A1;%%c32
  7
KCADDIMSTANDARD
 11
1.000000000000000E-16
 21
1.0
 31
0.0
 73
     1
 44
1.0
  0
ENDBLK
  5
91C
330
548
100
AcDbEntity
  8
0
100
AcDbBlockEnd
  0
BLOCK
  5
91D
330
58E
100
AcDbEntity
  8
0
100
AcDbBlockBegin
  2
*D31
 70
     1
 71
     0
 10
0.0
 20
0.0
 30
0.0
  3
*D31
  1

  0
LINE
  5
5C0
330
58E
100
AcDbEntity
  8
KCAD_DIMS
 62
     0
370
    -2
100
AcDbLine
 10
244.8148657050479
 20
107.0718085106383
 30
0.0
 11
244.8148657050479
 21
135.607108544665
 31
0.0
  0
LINE
  5
5C1
330
58E
100
AcDbEntity
  8
KCAD_DIMS
 62
     0
370
    -2
100
AcDbLine
 10
227.2888657050478
 20
107.0718085106383
 30
0.0
 11
227.2888657050478
 21
123.0585106382976
 31
0.0
  0
INSERT
  5
5C2
330
58E
100
AcDbEntity
  8
KCAD_DIMS
 62
     0
370
    -2
100
AcDbBlockReference
  2
_OPEN30
 10
244.8148657050479
 20
108.0718085106383
 30
0.0
 41
2.5
 42
2.5
 43
2.5
  0
INSERT
  5
5C3
330
58E
100
AcDbEntity
  8
KCAD_DIMS
 62
     0
370
    -2
100
AcDbBlockReference
  2
_OPEN30
 10
227.2888657050478
 20
108.0718085106383
 30
0.0
 41
2.5
 42
2.5
 43
2.5
 50
180.0
  0
LINE
  5
5C4
330
58E
100
AcDbEntity
  8
KCAD_DIMS
 62
     0
370
    -2
100
AcDbLine
 10
242.3148657050479
 20
108.0718085106383
 30
0.0
 11
229.7888657050478
 21
108.0718085106383
 31
0.0
  0
POINT
  5
5C5
330
58E
100
AcDbEntity
  8
DEFPOINTS
 62
     0
370
    15
100
AcDbPoint
 10
244.8148657050479
 20
136.607108544665
 30
0.0
  0
POINT
  5
5C6
330
58E
100
AcDbEntity
  8
DEFPOINTS
 62
     0
370
    15
100
AcDbPoint
 10
227.2888657050478
 20
124.0585106382976
 30
0.0
  0
POINT
  5
5C7
330
58E
100
AcDbEntity
  8
DEFPOINTS
 62
     0
370
    15
100
AcDbPoint
 10
227.2888657050478
 20
108.0718085106383
 30
0.0
  0
MTEXT
  5
5C8
330
58E
100
AcDbEntity
  8
KCAD_DIMS
 62
     0
100
AcDbMText
 10
236.0518657050478
 20
103.5281914893617
 30
0.0
 40
3.2
 41
0.0
 71
     5
 72
     1
  1
\A1;Ｆ．Ｂ．＝17.526
  7
KCADDIMSTANDARD
 73
     1
 44
1.0
  0
ENDBLK
  5
91E
330
58E
100
AcDbEntity
  8
0
100
AcDbBlockEnd
  0
BLOCK
  5
91F
330
5CA
100
AcDbEntity
  8
0
100
AcDbBlockBegin
  2
*D32
 70
     1
 71
     0
 10
0.0
 20
0.0
 30
0.0
  3
*D32
  1

  0
LINE
  5
5FC
330
5CA
100
AcDbEntity
  8
KCAD_DIMS
 62
     0
370
    -2
100
AcDbLine
 10
152.6888657050478
 20
164.3402604031143
 30
0.0
 11
152.6888657050478
 21
152.5585106382972
 31
0.0
  0
LINE
  5
5FD
330
5CA
100
AcDbEntity
  8
KCAD_DIMS
 62
     0
370
    -2
100
AcDbLine
 10
134.6888657050478
 20
164.3402604031143
 30
0.0
 11
134.6888657050478
 21
152.5585106382972
 31
0.0
  0
INSERT
  5
5FE
330
5CA
100
AcDbEntity
  8
KCAD_DIMS
 62
     0
370
    -2
100
AcDbBlockReference
  2
_OPEN30
 10
152.6888657050478
 20
163.3402604031143
 30
0.0
 41
2.5
 42
2.5
 43
2.5
  0
INSERT
  5
5FF
330
5CA
100
AcDbEntity
  8
KCAD_DIMS
 62
     0
370
    -2
100
AcDbBlockReference
  2
_OPEN30
 10
134.6888657050478
 20
163.3402604031143
 30
0.0
 41
2.5
 42
2.5
 43
2.5
 50
180.0
  0
LINE
  5
600
330
5CA
100
AcDbEntity
  8
KCAD_DIMS
 62
     0
370
    -2
100
AcDbLine
 10
150.1888657050478
 20
163.3402604031143
 30
0.0
 11
137.1888657050478
 21
163.3402604031143
 31
0.0
  0
POINT
  5
601
330
5CA
100
AcDbEntity
  8
DEFPOINTS
 62
     0
370
    15
100
AcDbPoint
 10
152.6888657050478
 20
151.5585106382972
 30
0.0
  0
POINT
  5
602
330
5CA
100
AcDbEntity
  8
DEFPOINTS
 62
     0
370
    15
100
AcDbPoint
 10
134.6888657050478
 20
151.5585106382972
 30
0.0
  0
POINT
  5
603
330
5CA
100
AcDbEntity
  8
DEFPOINTS
 62
     0
370
    15
100
AcDbPoint
 10
134.6888657050478
 20
163.3402604031143
 30
0.0
  0
MTEXT
  5
604
330
5CA
100
AcDbEntity
  8
KCAD_DIMS
 62
     0
100
AcDbMText
 10
143.6888657050478
 20
165.4735934031143
 30
0.0
 40
3.2
 41
0.0
 71
     5
 72
     1
  1
\A1;18
  7
KCADDIMSTANDARD
 73
     1
 44
1.0
  0
ENDBLK
  5
920
330
5CA
100
AcDbEntity
  8
0
100
AcDbBlockEnd
  0
BLOCK
  5
921
330
606
100
AcDbEntity
  8
0
100
AcDbBlockBegin
  2
*D33
 70
     1
 71
     0
 10
0.0
 20
0.0
 30
0.0
  3
*D33
  1

  0
LINE
  5
632
330
606
100
AcDbEntity
  8
KCAD_DIMS
 62
     0
370
    -2
100
AcDbLine
 10
154.7928739416752
 20
125.5585106382972
 30
0.0
 11
153.6888657050479
 21
125.5585106382972
 31
0.0
  0
INSERT
  5
633
330
606
100
AcDbEntity
  8
KCAD_DIMS
 62
     0
370
    -2
100
AcDbBlockReference
  2
_OPEN30
 10
153.7928739416752
 20
125.5585106382972
 30
0.0
 41
2.5
 42
2.5
 43
2.5
 50
270.0000000000001
  0
LINE
  5
634
330
606
100
AcDbEntity
  8
KCAD_DIMS
 62
     0
370
    -2
100
AcDbLine
 10
153.7928739416752
 20
128.0585106382972
 30
0.0
 11
153.7928739416751
 21
142.5698933887804
 31
0.0
  0
POINT
  5
635
330
606
100
AcDbEntity
  8
DEFPOINTS
 62
     0
370
    15
100
AcDbPoint
 10
152.6888657050479
 20
125.5585106382972
 30
0.0
  0
POINT
  5
636
330
606
100
AcDbEntity
  8
DEFPOINTS
 62
     0
370
    15
100
AcDbPoint
 10
152.6888657050478
 20
139.5585106382972
 30
0.0
  0
POINT
  5
637
330
606
100
AcDbEntity
  8
DEFPOINTS
 62
     0
370
    15
100
AcDbPoint
 10
153.7928739416751
 20
139.5585106382972
 30
0.0
  0
MTEXT
  5
638
330
606
100
AcDbEntity
  8
KCAD_DIMS
 62
     0
100
AcDbMText
 10
150.8584909416752
 20
113.7471277596524
 30
0.0
 40
3.2
 41
0.0
 71
     5
 72
     1
  1
\A1;%%c28{\H2.134400;\S 0^ -0.1;}
  7
KCADDIMSTANDARD
 11
1.000000000000000E-16
 21
1.0
 31
0.0
 73
     1
 44
1.0
  0
ENDBLK
  5
922
330
606
100
AcDbEntity
  8
0
100
AcDbBlockEnd
  0
BLOCK
  5
923
330
63A
100
AcDbEntity
  8
0
100
AcDbBlockBegin
  2
*D34
 70
     1
 71
     0
 10
0.0
 20
0.0
 30
0.0
  3
*D34
  1

  0
LINE
  5
66C
330
63A
100
AcDbEntity
  8
KCAD_DIMS
 62
     0
370
    -2
100
AcDbLine
 10
118.2872295390404
 20
151.5585106382971
 30
0.0
 11
133.6888657050478
 21
151.5585106382972
 31
0.0
  0
LINE
  5
66D
330
63A
100
AcDbEntity
  8
KCAD_DIMS
 62
     0
370
    -2
100
AcDbLine
 10
118.2872295390404
 20
127.5585106382971
 30
0.0
 11
133.6888657050479
 21
127.5585106382972
 31
0.0
  0
INSERT
  5
66E
330
63A
100
AcDbEntity
  8
KCAD_DIMS
 62
     0
370
    -2
100
AcDbBlockReference
  2
_OPEN30
 10
119.2872295390404
 20
151.5585106382971
 30
0.0
 41
2.5
 42
2.5
 43
2.5
 50
90.00000000000006
  0
INSERT
  5
66F
330
63A
100
AcDbEntity
  8
KCAD_DIMS
 62
     0
370
    -2
100
AcDbBlockReference
  2
_OPEN30
 10
119.2872295390404
 20
127.5585106382971
 30
0.0
 41
2.5
 42
2.5
 43
2.5
 50
270.0
  0
LINE
  5
670
330
63A
100
AcDbEntity
  8
KCAD_DIMS
 62
     0
370
    -2
100
AcDbLine
 10
119.2872295390404
 20
149.0585106382971
 30
0.0
 11
119.2872295390404
 21
130.0585106382972
 31
0.0
  0
POINT
  5
671
330
63A
100
AcDbEntity
  8
DEFPOINTS
 62
     0
370
    15
100
AcDbPoint
 10
134.6888657050478
 20
151.5585106382972
 30
0.0
  0
POINT
  5
672
330
63A
100
AcDbEntity
  8
DEFPOINTS
 62
     0
370
    15
100
AcDbPoint
 10
134.6888657050479
 20
127.5585106382972
 30
0.0
  0
POINT
  5
673
330
63A
100
AcDbEntity
  8
DEFPOINTS
 62
     0
370
    15
100
AcDbPoint
 10
119.2872295390404
 20
127.5585106382972
 30
0.0
  0
MTEXT
  5
674
330
63A
100
AcDbEntity
  8
KCAD_DIMS
 62
     0
100
AcDbMText
 10
117.1538965390404
 20
139.5585106382971
 30
0.0
 40
3.2
 41
0.0
 71
     5
 72
     1
  1
\A1;24
  7
KCADDIMSTANDARD
 11
1.000000000000000E-16
 21
1.0
 31
0.0
 73
     1
 44
1.0
  0
ENDBLK
  5
924
330
63A
100
AcDbEntity
  8
0
100
AcDbBlockEnd
  0
BLOCK
  5
925
330
676
100
AcDbEntity
  8
0
100
AcDbBlockBegin
  2
*D35
 70
     1
 71
     0
 10
0.0
 20
0.0
 30
0.0
  3
*D35
  1

  0
LINE
  5
6A2
330
676
100
AcDbEntity
  8
KCAD_DIMS
 62
     0
370
    -2
100
AcDbLine
 10
211.4564910630299
 20
125.0585106382975
 30
0.0
 11
209.788865705048
 21
125.0585106382975
 31
0.0
  0
INSERT
  5
6A3
330
676
100
AcDbEntity
  8
KCAD_DIMS
 62
     0
370
    -2
100
AcDbBlockReference
  2
_OPEN30
 10
210.4564910630299
 20
125.0585106382975
 30
0.0
 41
2.5
 42
2.5
 43
2.5
 50
270.0000000000001
  0
LINE
  5
6A4
330
676
100
AcDbEntity
  8
KCAD_DIMS
 62
     0
370
    -2
100
AcDbLine
 10
210.4564910630299
 20
127.5585106382975
 30
0.0
 11
210.4564910630299
 21
141.4598275374168
 31
0.0
  0
POINT
  5
6A5
330
676
100
AcDbEntity
  8
DEFPOINTS
 62
     0
370
    15
100
AcDbPoint
 10
208.788865705048
 20
125.0585106382975
 30
0.0
  0
POINT
  5
6A6
330
676
100
AcDbEntity
  8
DEFPOINTS
 62
     0
370
    15
100
AcDbPoint
 10
208.2888657050479
 20
139.5585106382974
 30
0.0
  0
POINT
  5
6A7
330
676
100
AcDbEntity
  8
DEFPOINTS
 62
     0
370
    15
100
AcDbPoint
 10
210.4564910630299
 20
139.5585106382974
 30
0.0
  0
MTEXT
  5
6A8
330
676
100
AcDbEntity
  8
KCAD_DIMS
 62
     0
100
AcDbMText
 10
207.5221080630299
 20
113.8571936110165
 30
0.0
 40
3.2
 41
0.0
 71
     5
 72
     1
  1
\A1;%%c29{\H2.134400;\S 0^ -0.1;}
  7
KCADDIMSTANDARD
 11
1.000000000000000E-16
 21
1.0
 31
0.0
 73
     1
 44
1.0
  0
ENDBLK
  5
926
330
676
100
AcDbEntity
  8
0
100
AcDbBlockEnd
  0
BLOCK
  5
927
330
6AA
100
AcDbEntity
  8
0
100
AcDbBlockBegin
  2
*D36
 70
     1
 71
     0
 10
0.0
 20
0.0
 30
0.0
  3
*D36
  1

  0
LINE
  5
6DC
330
6AA
100
AcDbEntity
  8
KCAD_DIMS
 62
     0
370
    -2
100
AcDbLine
 10
134.6888657050479
 20
107.0718085106382
 30
0.0
 11
134.6888657050479
 21
126.5585106382972
 31
0.0
  0
LINE
  5
6DD
330
6AA
100
AcDbEntity
  8
KCAD_DIMS
 62
     0
370
    -2
100
AcDbLine
 10
44.68886570504999
 20
107.0718085106382
 30
0.0
 11
44.68886570504999
 21
138.5585106382963
 31
0.0
  0
INSERT
  5
6DE
330
6AA
100
AcDbEntity
  8
KCAD_DIMS
 62
     0
370
    -2
100
AcDbBlockReference
  2
_OPEN30
 10
134.6888657050479
 20
108.0718085106382
 30
0.0
 41
2.5
 42
2.5
 43
2.5
  0
INSERT
  5
6DF
330
6AA
100
AcDbEntity
  8
KCAD_DIMS
 62
     0
370
    -2
100
AcDbBlockReference
  2
_OPEN30
 10
44.68886570504999
 20
108.0718085106382
 30
0.0
 41
2.5
 42
2.5
 43
2.5
 50
180.0
  0
LINE
  5
6E0
330
6AA
100
AcDbEntity
  8
KCAD_DIMS
 62
     0
370
    -2
100
AcDbLine
 10
132.1888657050479
 20
108.0718085106382
 30
0.0
 11
47.18886570504999
 21
108.0718085106382
 31
0.0
  0
POINT
  5
6E1
330
6AA
100
AcDbEntity
  8
DEFPOINTS
 62
     0
370
    15
100
AcDbPoint
 10
134.6888657050479
 20
127.5585106382972
 30
0.0
  0
POINT
  5
6E2
330
6AA
100
AcDbEntity
  8
DEFPOINTS
 62
     0
370
    15
100
AcDbPoint
 10
44.68886570504999
 20
139.5585106382963
 30
0.0
  0
POINT
  5
6E3
330
6AA
100
AcDbEntity
  8
DEFPOINTS
 62
     0
370
    15
100
AcDbPoint
 10
44.68886570504999
 20
108.0718085106382
 30
0.0
  0
MTEXT
  5
6E4
330
6AA
100
AcDbEntity
  8
KCAD_DIMS
 62
     0
100
AcDbMText
 10
89.68886570504897
 20
110.2051415106381
 30
0.0
 40
3.2
 41
0.0
 71
     5
 72
     1
  1
\A1;Ｗ．Ｄ．＝　90
  7
KCADDIMSTANDARD
 73
     1
 44
1.0
  0
ENDBLK
  5
928
330
6AA
100
AcDbEntity
  8
0
100
AcDbBlockEnd
  0
BLOCK
  5
929
330
701
100
AcDbEntity
  8
0
100
AcDbBlockBegin
  2
*D37
 70
     1
 71
     0
 10
0.0
 20
0.0
 30
0.0
  3
*D37
  1

  0
POINT
  5
6F6
330
701
100
AcDbEntity
  8
DEFPOINTS
  6
ByBlock
 62
     0
370
    15
100
AcDbPoint
 10
227.2888657050478
 20
155.0585106382976
 30
0.0
  0
POINT
  5
6F7
330
701
100
AcDbEntity
  8
DEFPOINTS
  6
ByBlock
 62
     0
370
    15
100
AcDbPoint
 10
231.2888657050478
 20
151.508510638298
 30
0.0
  0
LINE
  5
6F8
330
701
100
AcDbEntity
  8
0
  6
ByBlock
 62
     0
370
    -2
100
AcDbLine
 10
227.2888657050478
 20
156.0585106382976
 30
0.0
 11
227.2888657050478
 21
172.4428003842997
 31
0.0
  0
LINE
  5
6F9
330
701
100
AcDbEntity
  8
0
  6
ByBlock
 62
     0
370
    -2
100
AcDbLine
 10
231.2888657050478
 20
152.508510638298
 30
0.0
 11
231.2888657050478
 21
172.4428003842997
 31
0.0
  0
LINE
  5
6FA
330
701
100
AcDbEntity
  8
0
  6
ByBlock
 62
     0
370
    -2
100
AcDbLine
 10
224.7888657050478
 20
171.4428003842997
 30
0.0
 11
222.2888657050478
 21
171.4428003842997
 31
0.0
  0
SOLID
  5
6FB
330
701
100
AcDbEntity
  8
0
  6
ByBlock
 62
     0
370
    15
100
AcDbTrace
 10
227.2888657050478
 20
171.4428003842997
 30
0.0
 11
224.7888657050478
 21
171.0261337176329
 31
0.0
 12
224.7888657050478
 22
171.8594670509664
 32
0.0
 13
224.7888657050478
 23
171.8594670509664
 33
0.0
  0
LINE
  5
6FC
330
701
100
AcDbEntity
  8
0
  6
ByBlock
 62
     0
370
    -2
100
AcDbLine
 10
233.7888657050478
 20
171.4428003842997
 30
0.0
 11
236.2888657050478
 21
171.4428003842997
 31
0.0
  0
SOLID
  5
6FD
330
701
100
AcDbEntity
  8
0
  6
ByBlock
 62
     0
370
    15
100
AcDbTrace
 10
231.2888657050478
 20
171.4428003842997
 30
0.0
 11
233.7888657050478
 21
171.0261337176329
 31
0.0
 12
233.7888657050478
 22
171.8594670509664
 32
0.0
 13
233.7888657050478
 23
171.8594670509664
 33
0.0
  0
LINE
  5
6FE
330
701
100
AcDbEntity
  8
0
  6
ByBlock
 62
     0
370
    -2
100
AcDbLine
 10
227.2888657050478
 20
171.4428003842997
 30
0.0
 11
231.2888657050478
 21
171.4428003842997
 31
0.0
  0
MTEXT
  5
6FF
330
701
100
AcDbEntity
  8
0
  6
ByBlock
 62
     0
100
AcDbMText
 10
241.2251881467545
 20
173.5761333842997
 30
0.0
 40
3.2
 41
0.0
 71
     5
 72
     1
  1
4
  7
KCADDIMSTANDARD
 73
     1
 44
1.0
  0
ENDBLK
  5
92A
330
701
100
AcDbEntity
  8
0
100
AcDbBlockEnd
  0
BLOCK
  5
92B
330
70E
100
AcDbEntity
  8
0
100
AcDbBlockBegin
  2
*D38
 70
     1
 71
     0
 10
0.0
 20
0.0
 30
0.0
  3
*D38
  1

  0
POINT
  5
703
330
70E
100
AcDbEntity
  8
DEFPOINTS
  6
ByBlock
 62
     0
370
    15
100
AcDbPoint
 10
227.2888657050478
 20
155.0585106382976
 30
0.0
  0
POINT
  5
704
330
70E
100
AcDbEntity
  8
DEFPOINTS
  6
ByBlock
 62
     0
370
    15
100
AcDbPoint
 10
222.2888657050478
 20
155.0585106382976
 30
0.0
  0
LINE
  5
705
330
70E
100
AcDbEntity
  8
0
  6
ByBlock
 62
     0
370
    -2
100
AcDbLine
 10
227.2888657050478
 20
156.0585106382976
 30
0.0
 11
227.2888657050478
 21
164.3402604031144
 31
0.0
  0
LINE
  5
706
330
70E
100
AcDbEntity
  8
0
  6
ByBlock
 62
     0
370
    -2
100
AcDbLine
 10
222.2888657050478
 20
156.0585106382976
 30
0.0
 11
222.2888657050478
 21
164.3402604031144
 31
0.0
  0
LINE
  5
707
330
70E
100
AcDbEntity
  8
0
  6
ByBlock
 62
     0
370
    -2
100
AcDbLine
 10
229.7888657050478
 20
163.3402604031144
 30
0.0
 11
232.2888657050478
 21
163.3402604031144
 31
0.0
  0
SOLID
  5
708
330
70E
100
AcDbEntity
  8
0
  6
ByBlock
 62
     0
370
    15
100
AcDbTrace
 10
227.2888657050478
 20
163.3402604031144
 30
0.0
 11
229.7888657050478
 21
163.7569270697811
 31
0.0
 12
229.7888657050478
 22
162.9235937364477
 32
0.0
 13
229.7888657050478
 23
162.9235937364477
 33
0.0
  0
LINE
  5
709
330
70E
100
AcDbEntity
  8
0
  6
ByBlock
 62
     0
370
    -2
100
AcDbLine
 10
219.7888657050478
 20
163.3402604031144
 30
0.0
 11
217.2888657050478
 21
163.3402604031144
 31
0.0
  0
SOLID
  5
70A
330
70E
100
AcDbEntity
  8
0
  6
ByBlock
 62
     0
370
    15
100
AcDbTrace
 10
222.2888657050478
 20
163.3402604031144
 30
0.0
 11
219.7888657050478
 21
163.7569270697811
 31
0.0
 12
219.7888657050478
 22
162.9235937364477
 32
0.0
 13
219.7888657050478
 23
162.9235937364477
 33
0.0
  0
LINE
  5
70B
330
70E
100
AcDbEntity
  8
0
  6
ByBlock
 62
     0
370
    -2
100
AcDbLine
 10
227.2888657050478
 20
163.3402604031144
 30
0.0
 11
222.2888657050478
 21
163.3402604031144
 31
0.0
  0
MTEXT
  5
70C
330
70E
100
AcDbEntity
  8
0
  6
ByBlock
 62
     0
100
AcDbMText
 10
224.7888657050479
 20
165.4735934031144
 30
0.0
 40
3.2
 41
0.0
 71
     5
 72
     1
  1
5
  7
KCADDIMSTANDARD
 73
     1
 44
1.0
  0
ENDBLK
  5
92C
330
70E
100
AcDbEntity
  8
0
100
AcDbBlockEnd
  0
BLOCK
  5
92D
330
71A
100
AcDbEntity
  8
0
100
AcDbBlockBegin
  2
*D39
 70
     1
 71
     0
 10
0.0
 20
0.0
 30
0.0
  3
*D39
  1

  0
POINT
  5
710
330
71A
100
AcDbEntity
  8
DEFPOINTS
  6
ByBlock
 62
     0
370
    15
100
AcDbPoint
 10
134.6888657050478
 20
151.5585106382972
 30
0.0
  0
POINT
  5
711
330
71A
100
AcDbEntity
  8
DEFPOINTS
  6
ByBlock
 62
     0
370
    15
100
AcDbPoint
 10
227.2888657050478
 20
155.0585106382976
 30
0.0
  0
LINE
  5
712
330
71A
100
AcDbEntity
  8
0
  6
ByBlock
 62
     0
370
    -2
100
AcDbLine
 10
134.6888657050478
 20
152.5585106382972
 30
0.0
 11
134.6888657050478
 21
172.4428003842997
 31
0.0
  0
LINE
  5
713
330
71A
100
AcDbEntity
  8
0
  6
ByBlock
 62
     0
370
    -2
100
AcDbLine
 10
227.2888657050478
 20
156.0585106382976
 30
0.0
 11
227.2888657050478
 21
172.4428003842997
 31
0.0
  0
LINE
  5
714
330
71A
100
AcDbEntity
  8
0
  6
ByBlock
 62
     0
370
    -2
100
AcDbLine
 10
134.6888657050478
 20
171.4428003842997
 30
0.0
 11
227.2888657050478
 21
171.4428003842997
 31
0.0
  0
SOLID
  5
715
330
71A
100
AcDbEntity
  8
0
  6
ByBlock
 62
     0
370
    15
100
AcDbTrace
 10
134.6888657050478
 20
171.4428003842997
 30
0.0
 11
137.1888657050478
 21
171.0261337176329
 31
0.0
 12
137.1888657050478
 22
171.8594670509664
 32
0.0
 13
137.1888657050478
 23
171.8594670509664
 33
0.0
  0
SOLID
  5
716
330
71A
100
AcDbEntity
  8
0
  6
ByBlock
 62
     0
370
    15
100
AcDbTrace
 10
227.2888657050478
 20
171.4428003842997
 30
0.0
 11
224.7888657050478
 21
171.0261337176329
 31
0.0
 12
224.7888657050478
 22
171.8594670509664
 32
0.0
 13
224.7888657050478
 23
171.8594670509664
 33
0.0
  0
LINE
  5
717
330
71A
100
AcDbEntity
  8
0
  6
ByBlock
 62
     0
370
    -2
100
AcDbLine
 10
134.6888657050478
 20
151.5585106382972
 30
0.0
 11
134.6888657050478
 21
151.5585106382972
 31
0.0
  0
MTEXT
  5
718
330
71A
100
AcDbEntity
  8
0
  6
ByBlock
 62
     0
100
AcDbMText
 10
180.9888657050478
 20
173.5761333842997
 30
0.0
 40
3.2
 41
0.0
 71
     5
 72
     1
  1
92.6
  7
KCADDIMSTANDARD
 73
     1
 44
1.0
  0
ENDBLK
  5
92E
330
71A
100
AcDbEntity
  8
0
100
AcDbBlockEnd
  0
BLOCK
  5
92F
330
726
100
AcDbEntity
  8
0
100
AcDbBlockBegin
  2
*D40
 70
     1
 71
     0
 10
0.0
 20
0.0
 30
0.0
  3
*D40
  1

  0
POINT
  5
71C
330
726
100
AcDbEntity
  8
DEFPOINTS
  6
ByBlock
 62
     0
370
    15
100
AcDbPoint
 10
226.7888657050479
 20
123.5585106382977
 30
0.0
  0
POINT
  5
71D
330
726
100
AcDbEntity
  8
DEFPOINTS
  6
ByBlock
 62
     0
370
    15
100
AcDbPoint
 10
226.7888657050478
 20
155.5585106382976
 30
0.0
  0
LINE
  5
71E
330
726
100
AcDbEntity
  8
0
  6
ByBlock
 62
     0
370
    -2
100
AcDbLine
 10
227.7888657050479
 20
123.5585106382977
 30
0.0
 11
256.9285042333019
 21
123.5585106382977
 31
0.0
  0
LINE
  5
71F
330
726
100
AcDbEntity
  8
0
  6
ByBlock
 62
     0
370
    -2
100
AcDbLine
 10
227.7888657050478
 20
155.5585106382976
 30
0.0
 11
256.9285042333019
 21
155.5585106382976
 31
0.0
  0
LINE
  5
720
330
726
100
AcDbEntity
  8
0
  6
ByBlock
 62
     0
370
    -2
100
AcDbLine
 10
255.9285042333019
 20
123.5585106382977
 30
0.0
 11
255.9285042333019
 21
155.5585106382976
 31
0.0
  0
SOLID
  5
721
330
726
100
AcDbEntity
  8
0
  6
ByBlock
 62
     0
370
    15
100
AcDbTrace
 10
255.9285042333019
 20
123.5585106382977
 30
0.0
 11
256.3451708999687
 21
126.0585106382977
 31
0.0
 12
255.5118375666352
 22
126.0585106382977
 32
0.0
 13
255.5118375666352
 23
126.0585106382977
 33
0.0
  0
SOLID
  5
722
330
726
100
AcDbEntity
  8
0
  6
ByBlock
 62
     0
370
    15
100
AcDbTrace
 10
255.9285042333019
 20
155.5585106382976
 30
0.0
 11
256.3451708999687
 21
153.0585106382976
 31
0.0
 12
255.5118375666352
 22
153.0585106382976
 32
0.0
 13
255.5118375666352
 23
153.0585106382976
 33
0.0
  0
LINE
  5
723
330
726
100
AcDbEntity
  8
0
  6
ByBlock
 62
     0
370
    -2
100
AcDbLine
 10
226.7888657050479
 20
123.5585106382977
 30
0.0
 11
226.7888657050479
 21
123.5585106382977
 31
0.0
  0
MTEXT
  5
724
330
726
100
AcDbEntity
  8
0
  6
ByBlock
 62
     0
100
AcDbMText
 10
253.795171233302
 20
139.5585106382977
 30
0.0
 40
3.2
 41
0.0
 71
     5
 72
     1
  1
\A1;%%c32
  7
KCADDIMSTANDARD
 11
-1.271037311859069E-15
 21
1.0
 31
0.0
 73
     1
 44
1.0
  0
ENDBLK
  5
930
330
726
100
AcDbEntity
  8
0
100
AcDbBlockEnd
  0
BLOCK
  5
931
330
732
100
AcDbEntity
  8
0
100
AcDbBlockBegin
  2
*D41
 70
     1
 71
     0
 10
0.0
 20
0.0
 30
0.0
  3
*D41
  1

  0
POINT
  5
728
330
732
100
AcDbEntity
  8
DEFPOINTS
  6
ByBlock
 62
     0
370
    15
100
AcDbPoint
 10
244.8148657050479
 20
136.607108544665
 30
0.0
  0
POINT
  5
729
330
732
100
AcDbEntity
  8
DEFPOINTS
  6
ByBlock
 62
     0
370
    15
100
AcDbPoint
 10
227.2888657050478
 20
124.0585106382976
 30
0.0
  0
LINE
  5
72A
330
732
100
AcDbEntity
  8
0
  6
ByBlock
 62
     0
370
    -2
100
AcDbLine
 10
244.8148657050479
 20
135.607108544665
 30
0.0
 11
244.8148657050479
 21
107.0718085106383
 31
0.0
  0
LINE
  5
72B
330
732
100
AcDbEntity
  8
0
  6
ByBlock
 62
     0
370
    -2
100
AcDbLine
 10
227.2888657050478
 20
123.0585106382976
 30
0.0
 11
227.2888657050478
 21
107.0718085106383
 31
0.0
  0
LINE
  5
72C
330
732
100
AcDbEntity
  8
0
  6
ByBlock
 62
     0
370
    -2
100
AcDbLine
 10
244.8148657050479
 20
108.0718085106383
 30
0.0
 11
227.2888657050478
 21
108.0718085106383
 31
0.0
  0
SOLID
  5
72D
330
732
100
AcDbEntity
  8
0
  6
ByBlock
 62
     0
370
    15
100
AcDbTrace
 10
244.8148657050479
 20
108.0718085106383
 30
0.0
 11
242.3148657050479
 21
108.488475177305
 31
0.0
 12
242.3148657050479
 22
107.6551418439716
 32
0.0
 13
242.3148657050479
 23
107.6551418439716
 33
0.0
  0
SOLID
  5
72E
330
732
100
AcDbEntity
  8
0
  6
ByBlock
 62
     0
370
    15
100
AcDbTrace
 10
227.2888657050478
 20
108.0718085106383
 30
0.0
 11
229.7888657050478
 21
108.488475177305
 31
0.0
 12
229.7888657050478
 22
107.6551418439716
 32
0.0
 13
229.7888657050478
 23
107.6551418439716
 33
0.0
  0
LINE
  5
72F
330
732
100
AcDbEntity
  8
0
  6
ByBlock
 62
     0
370
    -2
100
AcDbLine
 10
244.8148657050479
 20
136.607108544665
 30
0.0
 11
244.8148657050479
 21
136.607108544665
 31
0.0
  0
MTEXT
  5
730
330
732
100
AcDbEntity
  8
0
  6
ByBlock
 62
     0
100
AcDbMText
 10
236.0518657050478
 20
103.5281914893617
 30
0.0
 40
3.2
 41
0.0
 71
     5
 72
     1
  1
\A1;Ｆ．Ｂ．＝17.526
  7
KCADDIMSTANDARD
 73
     1
 44
1.0
  0
ENDBLK
  5
932
330
732
100
AcDbEntity
  8
0
100
AcDbBlockEnd
  0
BLOCK
  5
933
330
73E
100
AcDbEntity
  8
0
100
AcDbBlockBegin
  2
*D42
 70
     1
 71
     0
 10
0.0
 20
0.0
 30
0.0
  3
*D42
  1

  0
POINT
  5
734
330
73E
100
AcDbEntity
  8
DEFPOINTS
  6
ByBlock
 62
     0
370
    15
100
AcDbPoint
 10
152.6888657050478
 20
151.5585106382972
 30
0.0
  0
POINT
  5
735
330
73E
100
AcDbEntity
  8
DEFPOINTS
  6
ByBlock
 62
     0
370
    15
100
AcDbPoint
 10
134.6888657050478
 20
151.5585106382972
 30
0.0
  0
LINE
  5
736
330
73E
100
AcDbEntity
  8
0
  6
ByBlock
 62
     0
370
    -2
100
AcDbLine
 10
152.6888657050478
 20
152.5585106382972
 30
0.0
 11
152.6888657050478
 21
164.3402604031143
 31
0.0
  0
LINE
  5
737
330
73E
100
AcDbEntity
  8
0
  6
ByBlock
 62
     0
370
    -2
100
AcDbLine
 10
134.6888657050478
 20
152.5585106382972
 30
0.0
 11
134.6888657050478
 21
164.3402604031143
 31
0.0
  0
LINE
  5
738
330
73E
100
AcDbEntity
  8
0
  6
ByBlock
 62
     0
370
    -2
100
AcDbLine
 10
152.6888657050478
 20
163.3402604031143
 30
0.0
 11
134.6888657050478
 21
163.3402604031143
 31
0.0
  0
SOLID
  5
739
330
73E
100
AcDbEntity
  8
0
  6
ByBlock
 62
     0
370
    15
100
AcDbTrace
 10
152.6888657050478
 20
163.3402604031143
 30
0.0
 11
150.1888657050478
 21
163.7569270697811
 31
0.0
 12
150.1888657050478
 22
162.9235937364476
 32
0.0
 13
150.1888657050478
 23
162.9235937364476
 33
0.0
  0
SOLID
  5
73A
330
73E
100
AcDbEntity
  8
0
  6
ByBlock
 62
     0
370
    15
100
AcDbTrace
 10
134.6888657050478
 20
163.3402604031143
 30
0.0
 11
137.1888657050478
 21
163.7569270697811
 31
0.0
 12
137.1888657050478
 22
162.9235937364476
 32
0.0
 13
137.1888657050478
 23
162.9235937364476
 33
0.0
  0
LINE
  5
73B
330
73E
100
AcDbEntity
  8
0
  6
ByBlock
 62
     0
370
    -2
100
AcDbLine
 10
152.6888657050478
 20
151.5585106382972
 30
0.0
 11
152.6888657050478
 21
151.5585106382972
 31
0.0
  0
MTEXT
  5
73C
330
73E
100
AcDbEntity
  8
0
  6
ByBlock
 62
     0
100
AcDbMText
 10
143.6888657050478
 20
165.4735934031143
 30
0.0
 40
3.2
 41
0.0
 71
     5
 72
     1
  1
18
  7
KCADDIMSTANDARD
 73
     1
 44
1.0
  0
ENDBLK
  5
934
330
73E
100
AcDbEntity
  8
0
100
AcDbBlockEnd
  0
BLOCK
  5
935
330
749
100
AcDbEntity
  8
0
100
AcDbBlockBegin
  2
*D43
 70
     1
 71
     0
 10
0.0
 20
0.0
 30
0.0
  3
*D43
  1

  0
POINT
  5
740
330
749
100
AcDbEntity
  8
DEFPOINTS
  6
ByBlock
 62
     0
370
    15
100
AcDbPoint
 10
152.6888657050479
 20
125.5585106382972
 30
0.0
  0
POINT
  5
741
330
749
100
AcDbEntity
  8
DEFPOINTS
  6
ByBlock
 62
     0
370
    15
100
AcDbPoint
 10
152.6888657050478
 20
139.5585106382972
 30
0.0
  0
LINE
  5
742
330
749
100
AcDbEntity
  8
0
  6
ByBlock
 62
     0
370
    -2
100
AcDbLine
 10
153.6888657050479
 20
125.5585106382972
 30
0.0
 11
154.7928739416751
 21
125.5585106382972
 31
0.0
  0
LINE
  5
743
330
749
100
AcDbEntity
  8
0
  6
ByBlock
 62
     0
370
    -2
100
AcDbLine
 10
153.7928739416751
 20
125.5585106382972
 30
0.0
 11
153.7928739416751
 21
139.5585106382972
 31
0.0
  0
SOLID
  5
744
330
749
100
AcDbEntity
  8
0
  6
ByBlock
 62
     0
370
    15
100
AcDbTrace
 10
153.7928739416751
 20
125.5585106382972
 30
0.0
 11
154.2095406083419
 21
128.0585106382972
 31
0.0
 12
153.3762072750084
 22
128.0585106382972
 32
0.0
 13
153.3762072750084
 23
128.0585106382972
 33
0.0
  0
SOLID
  5
745
330
749
100
AcDbEntity
  8
0
  6
ByBlock
 62
     0
370
    15
100
AcDbTrace
 10
153.7928739416751
 20
139.5585106382972
 30
0.0
 11
154.2095406083419
 21
137.0585106382972
 31
0.0
 12
153.3762072750084
 22
137.0585106382972
 32
0.0
 13
153.3762072750084
 23
137.0585106382972
 33
0.0
  0
LINE
  5
746
330
749
100
AcDbEntity
  8
0
  6
ByBlock
 62
     0
370
    -2
100
AcDbLine
 10
152.6888657050479
 20
125.5585106382972
 30
0.0
 11
152.6888657050479
 21
125.5585106382972
 31
0.0
  0
MTEXT
  5
747
330
749
100
AcDbEntity
  8
0
  6
ByBlock
 62
     0
100
AcDbMText
 10
150.8584909416752
 20
113.7471277596524
 30
0.0
 40
3.2
 41
0.0
 71
     5
 72
     1
  1
\A1;%%c28{\H2.134400;\S+0^ -0.1;}
  7
KCADDIMSTANDARD
 11
-1.271037311859069E-15
 21
1.0
 31
0.0
 73
     1
 44
1.0
  0
ENDBLK
  5
936
330
749
100
AcDbEntity
  8
0
100
AcDbBlockEnd
  0
BLOCK
  5
937
330
755
100
AcDbEntity
  8
0
100
AcDbBlockBegin
  2
*D44
 70
     1
 71
     0
 10
0.0
 20
0.0
 30
0.0
  3
*D44
  1

  0
POINT
  5
74B
330
755
100
AcDbEntity
  8
DEFPOINTS
  6
ByBlock
 62
     0
370
    15
100
AcDbPoint
 10
134.6888657050478
 20
151.5585106382972
 30
0.0
  0
POINT
  5
74C
330
755
100
AcDbEntity
  8
DEFPOINTS
  6
ByBlock
 62
     0
370
    15
100
AcDbPoint
 10
134.6888657050479
 20
127.5585106382972
 30
0.0
  0
LINE
  5
74D
330
755
100
AcDbEntity
  8
0
  6
ByBlock
 62
     0
370
    -2
100
AcDbLine
 10
133.6888657050478
 20
151.5585106382972
 30
0.0
 11
118.2872295390404
 21
151.5585106382972
 31
0.0
  0
LINE
  5
74E
330
755
100
AcDbEntity
  8
0
  6
ByBlock
 62
     0
370
    -2
100
AcDbLine
 10
133.6888657050479
 20
127.5585106382972
 30
0.0
 11
118.2872295390404
 21
127.5585106382972
 31
0.0
  0
LINE
  5
74F
330
755
100
AcDbEntity
  8
0
  6
ByBlock
 62
     0
370
    -2
100
AcDbLine
 10
119.2872295390404
 20
151.5585106382972
 30
0.0
 11
119.2872295390404
 21
127.5585106382972
 31
0.0
  0
SOLID
  5
750
330
755
100
AcDbEntity
  8
0
  6
ByBlock
 62
     0
370
    15
100
AcDbTrace
 10
119.2872295390404
 20
151.5585106382972
 30
0.0
 11
118.8705628723737
 21
149.0585106382972
 31
0.0
 12
119.7038962057071
 22
149.0585106382972
 32
0.0
 13
119.7038962057071
 23
149.0585106382972
 33
0.0
  0
SOLID
  5
751
330
755
100
AcDbEntity
  8
0
  6
ByBlock
 62
     0
370
    15
100
AcDbTrace
 10
119.2872295390404
 20
127.5585106382972
 30
0.0
 11
118.8705628723737
 21
130.0585106382972
 31
0.0
 12
119.7038962057071
 22
130.0585106382972
 32
0.0
 13
119.7038962057071
 23
130.0585106382972
 33
0.0
  0
LINE
  5
752
330
755
100
AcDbEntity
  8
0
  6
ByBlock
 62
     0
370
    -2
100
AcDbLine
 10
134.6888657050478
 20
151.5585106382972
 30
0.0
 11
134.6888657050478
 21
151.5585106382972
 31
0.0
  0
MTEXT
  5
753
330
755
100
AcDbEntity
  8
0
  6
ByBlock
 62
     0
100
AcDbMText
 10
117.1538965390404
 20
139.5585106382971
 30
0.0
 40
3.2
 41
0.0
 71
     5
 72
     1
  1
24
  7
KCADDIMSTANDARD
 11
-1.271037311859069E-15
 21
1.0
 31
0.0
 73
     1
 44
1.0
  0
ENDBLK
  5
938
330
755
100
AcDbEntity
  8
0
100
AcDbBlockEnd
  0
BLOCK
  5
939
330
760
100
AcDbEntity
  8
0
100
AcDbBlockBegin
  2
*D45
 70
     1
 71
     0
 10
0.0
 20
0.0
 30
0.0
  3
*D45
  1

  0
POINT
  5
757
330
760
100
AcDbEntity
  8
DEFPOINTS
  6
ByBlock
 62
     0
370
    15
100
AcDbPoint
 10
208.788865705048
 20
125.0585106382975
 30
0.0
  0
POINT
  5
758
330
760
100
AcDbEntity
  8
DEFPOINTS
  6
ByBlock
 62
     0
370
    15
100
AcDbPoint
 10
208.2888657050479
 20
139.5585106382974
 30
0.0
  0
LINE
  5
759
330
760
100
AcDbEntity
  8
0
  6
ByBlock
 62
     0
370
    -2
100
AcDbLine
 10
209.788865705048
 20
125.0585106382975
 30
0.0
 11
211.4564910630299
 21
125.0585106382975
 31
0.0
  0
LINE
  5
75A
330
760
100
AcDbEntity
  8
0
  6
ByBlock
 62
     0
370
    -2
100
AcDbLine
 10
210.4564910630299
 20
125.0585106382975
 30
0.0
 11
210.4564910630299
 21
139.5585106382974
 31
0.0
  0
SOLID
  5
75B
330
760
100
AcDbEntity
  8
0
  6
ByBlock
 62
     0
370
    15
100
AcDbTrace
 10
210.4564910630299
 20
125.0585106382975
 30
0.0
 11
210.8731577296966
 21
127.5585106382975
 31
0.0
 12
210.0398243963631
 22
127.5585106382975
 32
0.0
 13
210.0398243963631
 23
127.5585106382975
 33
0.0
  0
SOLID
  5
75C
330
760
100
AcDbEntity
  8
0
  6
ByBlock
 62
     0
370
    15
100
AcDbTrace
 10
210.4564910630299
 20
139.5585106382974
 30
0.0
 11
210.8731577296966
 21
137.0585106382974
 31
0.0
 12
210.0398243963631
 22
137.0585106382974
 32
0.0
 13
210.0398243963631
 23
137.0585106382974
 33
0.0
  0
LINE
  5
75D
330
760
100
AcDbEntity
  8
0
  6
ByBlock
 62
     0
370
    -2
100
AcDbLine
 10
208.788865705048
 20
125.0585106382975
 30
0.0
 11
208.788865705048
 21
125.0585106382975
 31
0.0
  0
MTEXT
  5
75E
330
760
100
AcDbEntity
  8
0
  6
ByBlock
 62
     0
100
AcDbMText
 10
207.5221080630299
 20
113.8571936110165
 30
0.0
 40
3.2
 41
0.0
 71
     5
 72
     1
  1
\A1;%%c29{\H2.134400;\S+0^ -0.1;}
  7
KCADDIMSTANDARD
 11
-1.271037311859069E-15
 21
1.0
 31
0.0
 73
     1
 44
1.0
  0
ENDBLK
  5
93A
330
760
100
AcDbEntity
  8
0
100
AcDbBlockEnd
  0
BLOCK
  5
93B
330
76C
100
AcDbEntity
  8
0
100
AcDbBlockBegin
  2
*D46
 70
     1
 71
     0
 10
0.0
 20
0.0
 30
0.0
  3
*D46
  1

  0
POINT
  5
762
330
76C
100
AcDbEntity
  8
DEFPOINTS
  6
ByBlock
 62
     0
370
    15
100
AcDbPoint
 10
134.6888657050479
 20
127.5585106382972
 30
0.0
  0
POINT
  5
763
330
76C
100
AcDbEntity
  8
DEFPOINTS
  6
ByBlock
 62
     0
370
    15
100
AcDbPoint
 10
44.68886570504999
 20
139.5585106382963
 30
0.0
  0
LINE
  5
764
330
76C
100
AcDbEntity
  8
0
  6
ByBlock
 62
     0
370
    -2
100
AcDbLine
 10
134.6888657050479
 20
126.5585106382972
 30
0.0
 11
134.6888657050479
 21
107.0718085106382
 31
0.0
  0
LINE
  5
765
330
76C
100
AcDbEntity
  8
0
  6
ByBlock
 62
     0
370
    -2
100
AcDbLine
 10
44.68886570504999
 20
138.5585106382963
 30
0.0
 11
44.68886570504999
 21
107.0718085106382
 31
0.0
  0
LINE
  5
766
330
76C
100
AcDbEntity
  8
0
  6
ByBlock
 62
     0
370
    -2
100
AcDbLine
 10
134.6888657050479
 20
108.0718085106382
 30
0.0
 11
44.68886570504999
 21
108.0718085106382
 31
0.0
  0
SOLID
  5
767
330
76C
100
AcDbEntity
  8
0
  6
ByBlock
 62
     0
370
    15
100
AcDbTrace
 10
134.6888657050479
 20
108.0718085106382
 30
0.0
 11
132.1888657050479
 21
108.488475177305
 31
0.0
 12
132.1888657050479
 22
107.6551418439714
 32
0.0
 13
132.1888657050479
 23
107.6551418439714
 33
0.0
  0
SOLID
  5
768
330
76C
100
AcDbEntity
  8
0
  6
ByBlock
 62
     0
370
    15
100
AcDbTrace
 10
44.68886570504999
 20
108.0718085106382
 30
0.0
 11
47.18886570504999
 21
108.488475177305
 31
0.0
 12
47.18886570504999
 22
107.6551418439714
 32
0.0
 13
47.18886570504999
 23
107.6551418439714
 33
0.0
  0
LINE
  5
769
330
76C
100
AcDbEntity
  8
0
  6
ByBlock
 62
     0
370
    -2
100
AcDbLine
 10
134.6888657050479
 20
127.5585106382972
 30
0.0
 11
134.6888657050479
 21
127.5585106382972
 31
0.0
  0
MTEXT
  5
76A
330
76C
100
AcDbEntity
  8
0
  6
ByBlock
 62
     0
100
AcDbMText
 10
89.68886570504897
 20
110.2051415106381
 30
0.0
 40
3.2
 41
0.0
 71
     5
 72
     1
  1
\A1;Ｗ．Ｄ．＝　90
  7
KCADDIMSTANDARD
 73
     1
 44
1.0
  0
ENDBLK
  5
93C
330
76C
100
AcDbEntity
  8
0
100
AcDbBlockEnd
  0
ENDSEC
  0
SECTION
  2
ENTITIES
  0
LINE
  5
2F0
330
1F
100
AcDbEntity
  8
2
  6
Continuous
 62
     7
370
    30
100
AcDbLine
 10
13.87329910140997
 20
201.5523593466425
 30
0.0
 11
284.8838193791154
 21
201.5523593466425
 31
0.0
1001
Sigma
1000

  0
LINE
  5
2F2
330
1F
100
AcDbEntity
  8
2
  6
Continuous
 62
     7
370
    30
100
AcDbLine
 10
13.87329910140997
 20
201.5523593466425
 30
0.0
 11
13.87329910140997
 21
11.75235934666
 31
0.0
1001
Sigma
1000

  0
LINE
  5
2F4
330
1F
100
AcDbEntity
  8
2
  6
Continuous
 62
     7
370
    15
100
AcDbLine
 10
147.0999999999999
 20
205.0523593466424
 30
0.0
 11
147.0999999999999
 21
201.5523593466425
 31
0.0
1001
Sigma
1000

  0
LINE
  5
2F6
330
1F
100
AcDbEntity
  8
2
  6
Continuous
 62
     7
370
    15
100
AcDbLine
 10
14.22329910140999
 20
105.0
 30
0.0
 11
12.47329910140999
 21
105.0
 31
0.0
1001
Sigma
1000

  0
LINE
  5
2F8
330
1F
100
AcDbEntity
  8
2
  6
Continuous
 62
     7
370
    15
100
AcDbLine
 10
284.8838193791157
 20
105.0
 30
0.0
 11
286.6338193791157
 21
105.0
 31
0.0
1001
Sigma
1000

  0
LINE
  5
2FA
330
1F
100
AcDbEntity
  8
2
  6
Continuous
 62
     7
370
    30
100
AcDbLine
 10
284.8838193791157
 20
11.75235934666
 30
0.0
 11
284.8838193791154
 21
201.5523593466425
 31
0.0
1001
Sigma
1000

  0
LINE
  5
2FC
330
1F
100
AcDbEntity
  8
2
  6
CENTER
 62
     7
370
    15
100
AcDbLine
 10
247.9117606117757
 20
139.5585106382978
 30
0.0
 11
43.27465214267575
 21
139.5585106382963
 31
0.0
1001
Sigma
1000

  0
LINE
  5
2FF
330
1F
100
AcDbEntity
  8
3
  6
Continuous
 62
     7
370
    30
100
AcDbLine
 10
152.6888657050479
 20
127.5585106382972
 30
0.0
 11
152.6888657050478
 21
151.5585106382972
 31
0.0
1001
Sigma
1000

  0
LINE
  5
301
330
1F
100
AcDbEntity
  8
3
  6
Continuous
 62
     7
370
    30
100
AcDbLine
 10
152.6888657050478
 20
151.5585106382972
 30
0.0
 11
134.6888657050478
 21
151.5585106382972
 31
0.0
1001
Sigma
1000

  0
LINE
  5
303
330
1F
100
AcDbEntity
  8
3
  6
Continuous
 62
     7
370
    30
100
AcDbLine
 10
227.2888657050478
 20
124.0585106382976
 30
0.0
 11
227.2888657050478
 21
155.0585106382976
 31
0.0
1001
Sigma
1000

  0
LINE
  5
305
330
1F
100
AcDbEntity
  8
3
  6
Continuous
 62
     7
370
    30
100
AcDbLine
 10
227.2888657050478
 20
155.0585106382976
 30
0.0
 11
226.7888657050478
 21
155.5585106382976
 31
0.0
1001
Sigma
1000

  0
LINE
  5
307
330
1F
100
AcDbEntity
  8
3
  6
Continuous
 62
     7
370
    30
100
AcDbLine
 10
226.7888657050478
 20
155.5585106382976
 30
0.0
 11
222.7888657050478
 21
155.5585106382976
 31
0.0
1001
Sigma
1000

  0
LINE
  5
309
330
1F
100
AcDbEntity
  8
3
  6
Continuous
 62
     7
370
    30
100
AcDbLine
 10
222.7888657050478
 20
155.5585106382976
 30
0.0
 11
222.2888657050478
 21
155.0585106382976
 31
0.0
1001
Sigma
1000

  0
LINE
  5
30B
330
1F
100
AcDbEntity
  8
3
  6
Continuous
 62
     7
370
    30
100
AcDbLine
 10
222.2888657050478
 20
155.0585106382976
 30
0.0
 11
222.2888657050479
 21
124.0585106382976
 31
0.0
1001
Sigma
1000

  0
LINE
  5
30D
330
1F
100
AcDbEntity
  8
3
  6
Continuous
 62
     7
370
    30
100
AcDbLine
 10
222.2888657050479
 20
124.0585106382976
 30
0.0
 11
222.7888657050479
 21
123.5585106382976
 31
0.0
1001
Sigma
1000

  0
LINE
  5
30F
330
1F
100
AcDbEntity
  8
3
  6
Continuous
 62
     7
370
    30
100
AcDbLine
 10
222.7888657050479
 20
123.5585106382976
 30
0.0
 11
226.7888657050479
 21
123.5585106382977
 31
0.0
1001
Sigma
1000

  0
LINE
  5
311
330
1F
100
AcDbEntity
  8
3
  6
Continuous
 62
     7
370
    30
100
AcDbLine
 10
226.7888657050479
 20
123.5585106382977
 30
0.0
 11
227.2888657050478
 21
124.0585106382976
 31
0.0
1001
Sigma
1000

  0
LINE
  5
313
330
1F
100
AcDbEntity
  8
3
  6
Continuous
 62
     7
370
    30
100
AcDbLine
 10
222.2888657050479
 20
125.0585106382976
 30
0.0
 11
222.2888657050478
 21
154.0585106382976
 31
0.0
1001
Sigma
1000

  0
LINE
  5
315
330
1F
100
AcDbEntity
  8
3
  6
Continuous
 62
     7
370
    30
100
AcDbLine
 10
219.7888657050478
 20
154.0585106382976
 30
0.0
 11
222.2888657050478
 21
154.0585106382976
 31
0.0
1001
Sigma
1000

  0
LINE
  5
317
330
1F
100
AcDbEntity
  8
3
  6
Continuous
 62
     7
370
    30
100
AcDbLine
 10
219.2888657050479
 20
125.5585106382976
 30
0.0
 11
219.2888657050478
 21
153.5585106382976
 31
0.0
1001
Sigma
1000

  0
LINE
  5
319
330
1F
100
AcDbEntity
  8
3
  6
Continuous
 62
     7
370
    30
100
AcDbLine
 10
219.788865705048
 20
125.0585106382976
 30
0.0
 11
222.2888657050479
 21
125.0585106382976
 31
0.0
1001
Sigma
1000

  0
LINE
  5
31B
330
1F
100
AcDbEntity
  8
3
  6
Continuous
 62
     7
370
    30
100
AcDbLine
 10
219.2888657050479
 20
125.5585106382976
 30
0.0
 11
219.2888657050478
 21
153.5585106382976
 31
0.0
1001
Sigma
1000

  0
LINE
  5
31D
330
1F
100
AcDbEntity
  8
3
  6
Continuous
 62
     7
370
    30
100
AcDbLine
 10
219.2888657050478
 20
153.5585106382976
 30
0.0
 11
211.7888657050479
 21
153.5585106382976
 31
0.0
1001
Sigma
1000

  0
LINE
  5
31F
330
1F
100
AcDbEntity
  8
3
  6
Continuous
 62
     7
370
    30
100
AcDbLine
 10
211.7888657050479
 20
153.5585106382976
 30
0.0
 11
211.788865705048
 21
125.5585106382976
 31
0.0
1001
Sigma
1000

  0
LINE
  5
321
330
1F
100
AcDbEntity
  8
3
  6
Continuous
 62
     7
370
    30
100
AcDbLine
 10
211.788865705048
 20
125.5585106382976
 30
0.0
 11
219.288865705048
 21
125.5585106382976
 31
0.0
1001
Sigma
1000

  0
LINE
  5
323
330
1F
100
AcDbEntity
  8
3
  6
Continuous
 62
     7
370
    30
100
AcDbLine
 10
211.7888657050479
 20
125.5585106382975
 30
0.0
 11
211.7888657050479
 21
153.5585106382975
 31
0.0
1001
Sigma
1000

  0
LINE
  5
325
330
1F
100
AcDbEntity
  8
2
  6
Continuous
 62
     7
370
    30
100
AcDbLine
 10
227.2888657050478
 20
151.508510638298
 30
0.0
 11
227.2888657050478
 21
127.608510638298
 31
0.0
1001
Sigma
1000

  0
LINE
  5
327
330
1F
100
AcDbEntity
  8
2
  6
Continuous
 62
     7
370
    30
100
AcDbLine
 10
228.0388657050478
 20
126.858510638298
 30
0.0
 11
230.5388657050478
 21
126.858510638298
 31
0.0
1001
Sigma
1000

  0
LINE
  5
329
330
1F
100
AcDbEntity
  8
2
  6
Continuous
 62
     7
370
    30
100
AcDbLine
 10
230.5388657050478
 20
126.858510638298
 30
0.0
 11
231.2888657050478
 21
127.608510638298
 31
0.0
1001
Sigma
1000

  0
LINE
  5
32B
330
1F
100
AcDbEntity
  8
2
  6
Continuous
 62
     7
370
    30
100
AcDbLine
 10
231.2888657050478
 20
127.608510638298
 30
0.0
 11
231.2888657050478
 21
151.508510638298
 31
0.0
1001
Sigma
1000

  0
LINE
  5
32D
330
1F
100
AcDbEntity
  8
2
  6
Continuous
 62
     7
370
    30
100
AcDbLine
 10
231.2888657050478
 20
151.508510638298
 30
0.0
 11
230.5388657050478
 21
152.258510638298
 31
0.0
1001
Sigma
1000

  0
LINE
  5
32F
330
1F
100
AcDbEntity
  8
2
  6
Continuous
 62
     7
370
    30
100
AcDbLine
 10
230.5388657050478
 20
152.258510638298
 30
0.0
 11
228.0388657050478
 21
152.258510638298
 31
0.0
1001
Sigma
1000

  0
LINE
  5
331
330
1F
100
AcDbEntity
  8
2
  6
Continuous
 62
     7
370
    30
100
AcDbLine
 10
230.5388657050478
 20
152.258510638298
 30
0.0
 11
230.5388657050478
 21
126.858510638298
 31
0.0
1001
Sigma
1000

  0
LINE
  5
333
330
1F
100
AcDbEntity
  8
2
  6
Continuous
 62
     7
370
    30
100
AcDbLine
 10
228.0388657050478
 20
126.858510638298
 30
0.0
 11
228.0388657050478
 21
152.258510638298
 31
0.0
1001
Sigma
1000

  0
LINE
  5
335
330
1F
100
AcDbEntity
  8
2
  6
Continuous
 62
     7
370
    30
100
AcDbLine
 10
231.2888657050478
 20
151.508510638298
 30
0.0
 11
227.2888657050478
 21
151.508510638298
 31
0.0
1001
Sigma
1000

  0
LINE
  5
337
330
1F
100
AcDbEntity
  8
2
  6
Continuous
 62
     7
370
    30
100
AcDbLine
 10
231.2888657050478
 20
127.608510638298
 30
0.0
 11
227.2888657050478
 21
127.608510638298
 31
0.0
1001
Sigma
1000

  0
LINE
  5
339
330
1F
100
AcDbEntity
  8
2
  6
CENTER
 62
     7
370
    15
100
AcDbLine
 10
244.8148657050479
 20
136.607108544665
 30
0.0
 11
244.8148657050479
 21
142.33617721823
 31
0.0
1001
Sigma
1000

  0
LINE
  5
33B
330
1F
100
AcDbEntity
  8
3
  6
Continuous
 62
     7
370
    30
100
AcDbLine
 10
211.7888657050479
 20
153.5585106382975
 30
0.0
 11
211.2888657050479
 21
154.0585106382975
 31
0.0
1001
Sigma
1000

  0
LINE
  5
33D
330
1F
100
AcDbEntity
  8
3
  6
Continuous
 62
     7
370
    30
100
AcDbLine
 10
211.2888657050479
 20
154.0585106382975
 30
0.0
 11
208.7888657050479
 21
154.0585106382975
 31
0.0
1001
Sigma
1000

  0
LINE
  5
33F
330
1F
100
AcDbEntity
  8
3
  6
Continuous
 62
     7
370
    30
100
AcDbLine
 10
208.7888657050479
 20
154.0585106382975
 30
0.0
 11
208.2888657050479
 21
153.5585106382975
 31
0.0
1001
Sigma
1000

  0
LINE
  5
341
330
1F
100
AcDbEntity
  8
3
  6
Continuous
 62
     7
370
    30
100
AcDbLine
 10
208.2888657050479
 20
153.5585106382975
 30
0.0
 11
208.288865705048
 21
125.5585106382975
 31
0.0
1001
Sigma
1000

  0
LINE
  5
343
330
1F
100
AcDbEntity
  8
3
  6
Continuous
 62
     7
370
    30
100
AcDbLine
 10
208.288865705048
 20
125.5585106382975
 30
0.0
 11
208.788865705048
 21
125.0585106382975
 31
0.0
1001
Sigma
1000

  0
LINE
  5
345
330
1F
100
AcDbEntity
  8
3
  6
Continuous
 62
     7
370
    30
100
AcDbLine
 10
208.788865705048
 20
125.0585106382975
 30
0.0
 11
211.288865705048
 21
125.0585106382975
 31
0.0
1001
Sigma
1000

  0
LINE
  5
347
330
1F
100
AcDbEntity
  8
3
  6
Continuous
 62
     7
370
    30
100
AcDbLine
 10
211.288865705048
 20
125.0585106382975
 30
0.0
 11
211.7888657050479
 21
125.5585106382975
 31
0.0
1001
Sigma
1000

  0
LINE
  5
349
330
1F
100
AcDbEntity
  8
3
  6
Continuous
 62
     7
370
    30
100
AcDbLine
 10
155.6888657050478
 20
153.0585106382973
 30
0.0
 11
155.6888657050479
 21
126.0585106382973
 31
0.0
1001
Sigma
1000

  0
LINE
  5
34B
330
1F
100
AcDbEntity
  8
3
  6
Continuous
 62
     7
370
    30
100
AcDbLine
 10
152.6888657050478
 20
153.5585106382972
 30
0.0
 11
152.6888657050479
 21
125.5585106382972
 31
0.0
1001
Sigma
1000

  0
LINE
  5
34D
330
1F
100
AcDbEntity
  8
3
  6
Continuous
 62
     7
370
    30
100
AcDbLine
 10
155.1888657050479
 20
125.5585106382973
 30
0.0
 11
152.6888657050479
 21
125.5585106382972
 31
0.0
1001
Sigma
1000

  0
LINE
  5
34F
330
1F
100
AcDbEntity
  8
3
  6
Continuous
 62
     7
370
    30
100
AcDbLine
 10
155.6888657050479
 20
126.0585106382972
 30
0.0
 11
155.6888657050478
 21
153.0585106382972
 31
0.0
1001
Sigma
1000

  0
LINE
  5
351
330
1F
100
AcDbEntity
  8
3
  6
Continuous
 62
     7
370
    30
100
AcDbLine
 10
134.6888657050478
 20
151.5585106382972
 30
0.0
 11
134.6888657050479
 21
127.5585106382972
 31
0.0
1001
Sigma
1000

  0
LINE
  5
353
330
1F
100
AcDbEntity
  8
3
  6
Continuous
 62
     7
370
    30
100
AcDbLine
 10
134.6888657050479
 20
127.5585106382972
 30
0.0
 11
152.6888657050479
 21
127.5585106382973
 31
0.0
1001
Sigma
1000

  0
LINE
  5
355
330
1F
100
AcDbEntity
  8
3
  6
Continuous
 62
     7
370
    30
100
AcDbLine
 10
155.1888657050478
 20
153.5585106382972
 30
0.0
 11
152.6888657050478
 21
153.5585106382972
 31
0.0
1001
Sigma
1000

  0
LINE
  5
357
330
1F
100
AcDbEntity
  8
3
  6
Continuous
 62
     7
370
    30
100
AcDbLine
 10
155.6888657050479
 20
126.0585106382973
 30
0.0
 11
208.288865705048
 21
126.0585106382974
 31
0.0
1001
Sigma
1000

  0
LINE
  5
35A
330
1F
100
AcDbEntity
  8
99
  6
Continuous
 62
     7
370
    30
100
AcDbLine
 10
94.88381937911574
 20
59.25235934666003
 30
0.0
 11
284.8838193791157
 21
59.25235934666003
 31
0.0
1001
Sigma
1000

  0
LINE
  5
35C
330
1F
100
AcDbEntity
  8
99
  6
Continuous
 62
     7
370
    30
100
AcDbLine
 10
223.8838193791157
 20
11.75235934666001
 30
0.0
 11
223.8838193791157
 21
59.25235934666003
 31
0.0
1001
Sigma
1000

  0
LINE
  5
35E
330
1F
100
AcDbEntity
  8
3
  6
Continuous
 62
     7
370
    30
100
AcDbLine
 10
208.288865705048
 20
126.0585106382974
 30
0.0
 11
208.2888657050479
 21
153.0585106382974
 31
0.0
1001
Sigma
1000

  0
LINE
  5
360
330
1F
100
AcDbEntity
  8
3
  6
Continuous
 62
     7
370
    30
100
AcDbLine
 10
208.2888657050479
 20
153.0585106382974
 30
0.0
 11
155.6888657050478
 21
153.0585106382973
 31
0.0
1001
Sigma
1000

  0
LINE
  5
362
330
1F
100
AcDbEntity
  8
3
  6
Continuous
 62
     7
370
    30
100
AcDbLine
 10
219.2888657050478
 20
153.5585106382976
 30
0.0
 11
219.7888657050478
 21
154.0585106382976
 31
0.0
1001
Sigma
1000

  0
LINE
  5
364
330
1F
100
AcDbEntity
  8
3
  6
Continuous
 62
     7
370
    30
100
AcDbLine
 10
219.2888657050479
 20
125.5585106382976
 30
0.0
 11
219.788865705048
 21
125.0585106382976
 31
0.0
1001
Sigma
1000

  0
LINE
  5
366
330
1F
100
AcDbEntity
  8
3
  6
Continuous
 62
     7
370
    30
100
AcDbLine
 10
222.2888657050478
 20
139.5585106382976
 30
0.0
 11
227.2888657050478
 21
139.5585106382976
 31
0.0
1001
Sigma
1000

  0
LINE
  5
368
330
1F
100
AcDbEntity
  8
3
  6
Continuous
 62
     7
370
    30
100
AcDbLine
 10
222.2888657050478
 20
140.5585106382976
 30
0.0
 11
227.2888657050478
 21
140.5585106382976
 31
0.0
1001
Sigma
1000

  0
LINE
  5
36A
330
1F
100
AcDbEntity
  8
3
  6
Continuous
 62
     7
370
    30
100
AcDbLine
 10
222.2888657050478
 20
138.5585106382976
 30
0.0
 11
227.2888657050478
 21
138.5585106382976
 31
0.0
1001
Sigma
1000

  0
LINE
  5
36C
330
1F
100
AcDbEntity
  8
3
  6
Continuous
 62
     7
370
    30
100
AcDbLine
 10
222.2888657050478
 20
141.5585106382976
 30
0.0
 11
227.2888657050478
 21
141.5585106382976
 31
0.0
1001
Sigma
1000

  0
LINE
  5
36E
330
1F
100
AcDbEntity
  8
3
  6
Continuous
 62
     7
370
    30
100
AcDbLine
 10
222.2888657050478
 20
137.5585106382976
 30
0.0
 11
227.2888657050478
 21
137.5585106382976
 31
0.0
1001
Sigma
1000

  0
LINE
  5
370
330
1F
100
AcDbEntity
  8
3
  6
Continuous
 62
     7
370
    30
100
AcDbLine
 10
222.2888657050478
 20
142.5585106382976
 30
0.0
 11
227.2888657050478
 21
142.5585106382976
 31
0.0
1001
Sigma
1000

  0
LINE
  5
372
330
1F
100
AcDbEntity
  8
3
  6
Continuous
 62
     7
370
    30
100
AcDbLine
 10
222.2888657050478
 20
136.5585106382976
 30
0.0
 11
227.2888657050478
 21
136.5585106382976
 31
0.0
1001
Sigma
1000

  0
LINE
  5
374
330
1F
100
AcDbEntity
  8
3
  6
Continuous
 62
     7
370
    30
100
AcDbLine
 10
222.2888657050478
 20
143.5585106382976
 30
0.0
 11
227.2888657050478
 21
143.5585106382976
 31
0.0
1001
Sigma
1000

  0
LINE
  5
376
330
1F
100
AcDbEntity
  8
3
  6
Continuous
 62
     7
370
    30
100
AcDbLine
 10
222.2888657050478
 20
135.5585106382976
 30
0.0
 11
227.2888657050478
 21
135.5585106382976
 31
0.0
1001
Sigma
1000

  0
LINE
  5
378
330
1F
100
AcDbEntity
  8
3
  6
Continuous
 62
     7
370
    30
100
AcDbLine
 10
222.2888657050478
 20
144.4585106382976
 30
0.0
 11
227.2888657050478
 21
144.4585106382976
 31
0.0
1001
Sigma
1000

  0
LINE
  5
37A
330
1F
100
AcDbEntity
  8
3
  6
Continuous
 62
     7
370
    30
100
AcDbLine
 10
222.2888657050478
 20
134.6585106382976
 30
0.0
 11
227.2888657050478
 21
134.6585106382976
 31
0.0
1001
Sigma
1000

  0
LINE
  5
37C
330
1F
100
AcDbEntity
  8
3
  6
Continuous
 62
     7
370
    30
100
AcDbLine
 10
222.2888657050478
 20
145.4585106382976
 30
0.0
 11
227.2888657050478
 21
145.4585106382976
 31
0.0
1001
Sigma
1000

  0
LINE
  5
37E
330
1F
100
AcDbEntity
  8
3
  6
Continuous
 62
     7
370
    30
100
AcDbLine
 10
222.2888657050478
 20
133.6585106382976
 30
0.0
 11
227.2888657050478
 21
133.6585106382976
 31
0.0
1001
Sigma
1000

  0
LINE
  5
380
330
1F
100
AcDbEntity
  8
3
  6
Continuous
 62
     7
370
    30
100
AcDbLine
 10
222.2888657050478
 20
146.3585106382976
 30
0.0
 11
227.2888657050478
 21
146.3585106382976
 31
0.0
1001
Sigma
1000

  0
LINE
  5
382
330
1F
100
AcDbEntity
  8
3
  6
Continuous
 62
     7
370
    30
100
AcDbLine
 10
222.2888657050478
 20
132.7585106382976
 30
0.0
 11
227.2888657050478
 21
132.7585106382976
 31
0.0
1001
Sigma
1000

  0
LINE
  5
384
330
1F
100
AcDbEntity
  8
3
  6
Continuous
 62
     7
370
    30
100
AcDbLine
 10
222.2888657050478
 20
147.2585106382976
 30
0.0
 11
227.2888657050478
 21
147.2585106382976
 31
0.0
1001
Sigma
1000

  0
LINE
  5
386
330
1F
100
AcDbEntity
  8
3
  6
Continuous
 62
     7
370
    30
100
AcDbLine
 10
222.2888657050478
 20
131.8585106382976
 30
0.0
 11
227.2888657050478
 21
131.8585106382976
 31
0.0
1001
Sigma
1000

  0
LINE
  5
388
330
1F
100
AcDbEntity
  8
3
  6
Continuous
 62
     7
370
    30
100
AcDbLine
 10
222.2888657050478
 20
148.0585106382976
 30
0.0
 11
227.2888657050478
 21
148.0585106382976
 31
0.0
1001
Sigma
1000

  0
LINE
  5
38A
330
1F
100
AcDbEntity
  8
3
  6
Continuous
 62
     7
370
    30
100
AcDbLine
 10
222.2888657050478
 20
131.0585106382976
 30
0.0
 11
227.2888657050478
 21
131.0585106382976
 31
0.0
1001
Sigma
1000

  0
LINE
  5
38C
330
1F
100
AcDbEntity
  8
3
  6
Continuous
 62
     7
370
    30
100
AcDbLine
 10
222.2888657050478
 20
148.9585106382976
 30
0.0
 11
227.2888657050478
 21
148.9585106382976
 31
0.0
1001
Sigma
1000

  0
LINE
  5
38E
330
1F
100
AcDbEntity
  8
3
  6
Continuous
 62
     7
370
    30
100
AcDbLine
 10
222.2888657050478
 20
130.1585106382976
 30
0.0
 11
227.2888657050478
 21
130.1585106382976
 31
0.0
1001
Sigma
1000

  0
LINE
  5
390
330
1F
100
AcDbEntity
  8
3
  6
Continuous
 62
     7
370
    30
100
AcDbLine
 10
222.2888657050478
 20
149.7585106382976
 30
0.0
 11
227.2888657050478
 21
149.7585106382976
 31
0.0
1001
Sigma
1000

  0
LINE
  5
392
330
1F
100
AcDbEntity
  8
3
  6
Continuous
 62
     7
370
    30
100
AcDbLine
 10
222.2888657050478
 20
129.3585106382976
 30
0.0
 11
227.2888657050478
 21
129.3585106382976
 31
0.0
1001
Sigma
1000

  0
LINE
  5
394
330
1F
100
AcDbEntity
  8
3
  6
Continuous
 62
     7
370
    30
100
AcDbLine
 10
222.2888657050478
 20
150.4585106382976
 30
0.0
 11
227.2888657050478
 21
150.4585106382976
 31
0.0
1001
Sigma
1000

  0
LINE
  5
396
330
1F
100
AcDbEntity
  8
3
  6
Continuous
 62
     7
370
    30
100
AcDbLine
 10
222.2888657050478
 20
128.6585106382976
 30
0.0
 11
227.2888657050478
 21
128.6585106382976
 31
0.0
1001
Sigma
1000

  0
LINE
  5
398
330
1F
100
AcDbEntity
  8
3
  6
Continuous
 62
     7
370
    30
100
AcDbLine
 10
222.2888657050478
 20
151.1585106382976
 30
0.0
 11
227.2888657050478
 21
151.1585106382976
 31
0.0
1001
Sigma
1000

  0
LINE
  5
39A
330
1F
100
AcDbEntity
  8
3
  6
Continuous
 62
     7
370
    30
100
AcDbLine
 10
222.2888657050478
 20
127.9585106382976
 30
0.0
 11
227.2888657050478
 21
127.9585106382976
 31
0.0
1001
Sigma
1000

  0
LINE
  5
39C
330
1F
100
AcDbEntity
  8
3
  6
Continuous
 62
     7
370
    30
100
AcDbLine
 10
222.2888657050478
 20
151.8585106382976
 30
0.0
 11
227.2888657050478
 21
151.8585106382976
 31
0.0
1001
Sigma
1000

  0
LINE
  5
39E
330
1F
100
AcDbEntity
  8
3
  6
Continuous
 62
     7
370
    30
100
AcDbLine
 10
222.2888657050478
 20
127.2585106382976
 30
0.0
 11
227.2888657050478
 21
127.2585106382976
 31
0.0
1001
Sigma
1000

  0
LINE
  5
3A0
330
1F
100
AcDbEntity
  8
3
  6
Continuous
 62
     7
370
    30
100
AcDbLine
 10
222.2888657050478
 20
152.4585106382976
 30
0.0
 11
227.2888657050478
 21
152.4585106382976
 31
0.0
1001
Sigma
1000

  0
LINE
  5
3A2
330
1F
100
AcDbEntity
  8
3
  6
Continuous
 62
     7
370
    30
100
AcDbLine
 10
222.2888657050478
 20
126.6585106382976
 30
0.0
 11
227.2888657050478
 21
126.6585106382976
 31
0.0
1001
Sigma
1000

  0
LINE
  5
3A4
330
1F
100
AcDbEntity
  8
3
  6
Continuous
 62
     7
370
    30
100
AcDbLine
 10
222.2888657050478
 20
153.0585106382976
 30
0.0
 11
227.2888657050478
 21
153.0585106382976
 31
0.0
1001
Sigma
1000

  0
LINE
  5
3A6
330
1F
100
AcDbEntity
  8
3
  6
Continuous
 62
     7
370
    30
100
AcDbLine
 10
222.2888657050478
 20
126.0585106382976
 30
0.0
 11
227.2888657050478
 21
126.0585106382976
 31
0.0
1001
Sigma
1000

  0
LINE
  5
3A8
330
1F
100
AcDbEntity
  8
3
  6
Continuous
 62
     7
370
    30
100
AcDbLine
 10
222.2888657050478
 20
153.5585106382976
 30
0.0
 11
227.2888657050478
 21
153.5585106382976
 31
0.0
1001
Sigma
1000

  0
LINE
  5
3AA
330
1F
100
AcDbEntity
  8
3
  6
Continuous
 62
     7
370
    30
100
AcDbLine
 10
222.2888657050478
 20
125.5585106382976
 30
0.0
 11
227.2888657050478
 21
125.5585106382976
 31
0.0
1001
Sigma
1000

  0
LINE
  5
3AC
330
1F
100
AcDbEntity
  8
3
  6
Continuous
 62
     7
370
    30
100
AcDbLine
 10
222.2888657050478
 20
153.9585106382976
 30
0.0
 11
227.2888657050478
 21
153.9585106382976
 31
0.0
1001
Sigma
1000

  0
LINE
  5
3AE
330
1F
100
AcDbEntity
  8
3
  6
Continuous
 62
     7
370
    30
100
AcDbLine
 10
222.2888657050478
 20
125.1585106382976
 30
0.0
 11
227.2888657050478
 21
125.1585106382976
 31
0.0
1001
Sigma
1000

  0
LINE
  5
3B0
330
1F
100
AcDbEntity
  8
3
  6
Continuous
 62
     7
370
    30
100
AcDbLine
 10
222.2888657050478
 20
154.3585106382976
 30
0.0
 11
227.2888657050478
 21
154.3585106382976
 31
0.0
1001
Sigma
1000

  0
LINE
  5
3B2
330
1F
100
AcDbEntity
  8
3
  6
Continuous
 62
     7
370
    30
100
AcDbLine
 10
222.2888657050478
 20
124.7585106382976
 30
0.0
 11
227.2888657050478
 21
124.7585106382976
 31
0.0
1001
Sigma
1000

  0
LINE
  5
3B4
330
1F
100
AcDbEntity
  8
3
  6
Continuous
 62
     7
370
    30
100
AcDbLine
 10
222.2888657050478
 20
154.7585106382976
 30
0.0
 11
227.2888657050478
 21
154.7585106382976
 31
0.0
1001
Sigma
1000

  0
LINE
  5
3B6
330
1F
100
AcDbEntity
  8
3
  6
Continuous
 62
     7
370
    30
100
AcDbLine
 10
222.2888657050478
 20
124.3585106382976
 30
0.0
 11
227.2888657050478
 21
124.3585106382976
 31
0.0
1001
Sigma
1000

  0
LINE
  5
3B8
330
1F
100
AcDbEntity
  8
3
  6
Continuous
 62
     7
370
    30
100
AcDbLine
 10
222.2888657050478
 20
155.0585106382976
 30
0.0
 11
227.2888657050478
 21
155.0585106382976
 31
0.0
1001
Sigma
1000

  0
LINE
  5
3BA
330
1F
100
AcDbEntity
  8
3
  6
Continuous
 62
     7
370
    30
100
AcDbLine
 10
222.2888657050478
 20
124.0585106382976
 30
0.0
 11
227.2888657050478
 21
124.0585106382976
 31
0.0
1001
Sigma
1000

  0
LINE
  5
3BC
330
1F
100
AcDbEntity
  8
3
  6
Continuous
 62
     7
370
    30
100
AcDbLine
 10
227.0888657050478
 20
155.2585106382976
 30
0.0
 11
222.4888657050478
 21
155.2585106382976
 31
0.0
1001
Sigma
1000

  0
LINE
  5
3BE
330
1F
100
AcDbEntity
  8
3
  6
Continuous
 62
     7
370
    30
100
AcDbLine
 10
222.4888657050479
 20
123.8585106382976
 30
0.0
 11
227.0888657050478
 21
123.8585106382976
 31
0.0
1001
Sigma
1000

  0
LINE
  5
3C0
330
1F
100
AcDbEntity
  8
3
  6
Continuous
 62
     7
370
    30
100
AcDbLine
 10
226.8888657050478
 20
155.4585106382976
 30
0.0
 11
222.6888657050477
 21
155.4585106382976
 31
0.0
1001
Sigma
1000

  0
LINE
  5
3C2
330
1F
100
AcDbEntity
  8
3
  6
Continuous
 62
     7
370
    30
100
AcDbLine
 10
222.688865705048
 20
123.6585106382976
 30
0.0
 11
226.8888657050478
 21
123.6585106382976
 31
0.0
1001
Sigma
1000

  0
LINE
  5
3C4
330
1F
100
AcDbEntity
  8
3
  6
Continuous
 62
     7
370
    30
100
AcDbLine
 10
226.7888657050478
 20
155.5585106382976
 30
0.0
 11
226.7888657050479
 21
123.5585106382977
 31
0.0
1001
Sigma
1000

  0
LINE
  5
3C6
330
1F
100
AcDbEntity
  8
3
  6
Continuous
 62
     7
370
    30
100
AcDbLine
 10
222.7888657050479
 20
123.5585106382976
 30
0.0
 11
222.7888657050478
 21
155.5585106382976
 31
0.0
1001
Sigma
1000

  0
LINE
  5
3C8
330
1F
100
AcDbEntity
  8
3
  6
Continuous
 62
     7
370
    30
100
AcDbLine
 10
219.788865705048
 20
125.0585106382976
 30
0.0
 11
219.7888657050478
 21
154.0585106382976
 31
0.0
1001
Sigma
1000

  0
LINE
  5
3CA
330
1F
100
AcDbEntity
  8
3
  6
Continuous
 62
     7
370
    30
100
AcDbLine
 10
211.2888657050479
 20
154.0585106382975
 30
0.0
 11
211.288865705048
 21
125.0585106382975
 31
0.0
1001
Sigma
1000

  0
LINE
  5
3CC
330
1F
100
AcDbEntity
  8
3
  6
Continuous
 62
     7
370
    30
100
AcDbLine
 10
208.788865705048
 20
125.0585106382975
 30
0.0
 11
208.7888657050479
 21
154.0585106382975
 31
0.0
1001
Sigma
1000

  0
LINE
  5
3CE
330
1F
100
AcDbEntity
  8
3
  6
Continuous
 62
     7
370
    30
100
AcDbLine
 10
155.1888657050478
 20
153.5585106382972
 30
0.0
 11
155.6888657050478
 21
153.0585106382972
 31
0.0
1001
Sigma
1000

  0
LINE
  5
3D0
330
1F
100
AcDbEntity
  8
3
  6
Continuous
 62
     7
370
    30
100
AcDbLine
 10
155.6888657050479
 20
126.0585106382972
 30
0.0
 11
155.1888657050479
 21
125.5585106382973
 31
0.0
1001
Sigma
1000

  0
LINE
  5
3D2
330
1F
100
AcDbEntity
  8
3
  6
Continuous
 62
     7
370
    30
100
AcDbLine
 10
155.1888657050479
 20
125.5585106382973
 30
0.0
 11
155.1888657050478
 21
153.5585106382972
 31
0.0
1001
Sigma
1000

  0
LINE
  5
3D4
330
1F
100
AcDbEntity
  8
3
  6
Continuous
 62
     7
370
    15
100
AcDbLine
 10
44.68886570504899
 20
139.5585106382964
 30
0.0
 11
46.10307926742208
 21
140.9727242006695
 31
0.0
1001
Sigma
1000

  0
LINE
  5
3D6
330
1F
100
AcDbEntity
  8
3
  6
Continuous
 62
     7
370
    15
100
AcDbLine
 10
44.68886570504899
 20
139.5585106382964
 30
0.0
 11
44.68886570504899
 21
141.5585106382964
 31
0.0
1001
Sigma
1000

  0
LINE
  5
3D8
330
1F
100
AcDbEntity
  8
3
  6
Continuous
 62
     7
370
    15
100
AcDbLine
 10
44.68886570504899
 20
139.5585106382973
 30
0.0
 11
46.10307926742208
 21
138.1442970759242
 31
0.0
1001
Sigma
1000

  0
LINE
  5
3DA
330
1F
100
AcDbEntity
  8
3
  6
Continuous
 62
     7
370
    15
100
AcDbLine
 10
44.68886570504887
 20
139.5585106382964
 30
0.0
 11
43.27465214267575
 21
140.9727242006695
 31
0.0
1001
Sigma
1000

  0
LINE
  5
3DC
330
1F
100
AcDbEntity
  8
3
  6
Continuous
 62
     7
370
    15
100
AcDbLine
 10
44.68886570504887
 20
139.5585106382964
 30
0.0
 11
44.68886570504887
 21
141.5585106382964
 31
0.0
1001
Sigma
1000

  0
LINE
  5
3DE
330
1F
100
AcDbEntity
  8
3
  6
Continuous
 62
     7
370
    15
100
AcDbLine
 10
44.68886570504887
 20
139.5585106382973
 30
0.0
 11
43.27465214267575
 21
138.1442970759242
 31
0.0
1001
Sigma
1000

  0
LINE
  5
3E0
330
1F
100
AcDbEntity
  8
99
  6
Continuous
 62
     7
370
    30
100
AcDbLine
 10
163.8838193791157
 20
31.75235934666001
 30
0.0
 11
284.8838193791157
 21
31.75235934666001
 31
0.0
1001
Sigma
1000

  0
LINE
  5
3E2
330
1F
100
AcDbEntity
  8
99
  6
Continuous
 62
     7
370
    30
100
AcDbLine
 10
208.8838193791157
 20
11.75235934666001
 30
0.0
 11
208.8838193791157
 21
31.75235934666001
 31
0.0
1001
Sigma
1000

  0
LINE
  5
3E4
330
1F
100
AcDbEntity
  8
99
  6
Continuous
 62
     7
370
    30
100
AcDbLine
 10
193.8838193791157
 20
11.75235934666001
 30
0.0
 11
193.8838193791157
 21
31.75235934666001
 31
0.0
1001
Sigma
1000

  0
LINE
  5
3E6
330
1F
100
AcDbEntity
  8
99
  6
Continuous
 62
     7
370
    30
100
AcDbLine
 10
178.8838193791157
 20
11.75235934666001
 30
0.0
 11
178.8838193791157
 21
59.25235934666003
 31
0.0
1001
Sigma
1000

  0
LINE
  5
3E8
330
1F
100
AcDbEntity
  8
99
  6
Continuous
 62
     7
370
    30
100
AcDbLine
 10
163.8838193791157
 20
11.75235934666001
 30
0.0
 11
163.8838193791157
 21
59.25235934666003
 31
0.0
1001
Sigma
1000

  0
LINE
  5
3EA
330
1F
100
AcDbEntity
  8
99
  6
Continuous
 62
     7
370
    15
100
AcDbLine
 10
94.88381937911574
 20
16.75235934666003
 30
0.0
 11
163.8838193791157
 21
16.75235934666003
 31
0.0
1001
Sigma
1000

  0
LINE
  5
3EC
330
1F
100
AcDbEntity
  8
99
  6
Continuous
 62
     7
370
    15
100
AcDbLine
 10
94.88381937911574
 20
21.75235934666003
 30
0.0
 11
163.8838193791157
 21
21.75235934666003
 31
0.0
1001
Sigma
1000

  0
TEXT
  5
3EE
330
1F
100
AcDbEntity
  8
3
  6
Continuous
 62
     7
370
    30
100
AcDbText
 10
134.43545705802
 20
80.13419666952396
 30
0.0
 40
2.879999828338623
  1
ＫＣＭ－１０ :　倍率＝１．０倍　　Ｗ．Ｄ．（作動距離)＝９０ｍｍ
 41
0.8338846962691391
  7
KCADTEXTSTANDARD
100
AcDbText
1001
Sigma
1000

  0
LINE
  5
3F0
330
1F
100
AcDbEntity
  8
99
  6
Continuous
 62
     7
370
    15
100
AcDbLine
 10
94.88381937911574
 20
26.75235934666004
 30
0.0
 11
223.8838193791157
 21
26.75235934666004
 31
0.0
1001
Sigma
1000

  0
LINE
  5
3F2
330
1F
100
AcDbEntity
  8
2
  6
Continuous
 62
     7
370
    30
100
AcDbLine
 10
13.87329910140997
 20
11.75235934666
 30
0.0
 11
284.8838193791157
 21
11.75235934666
 31
0.0
1001
Sigma
1000

  0
LINE
  5
3F4
330
1F
100
AcDbEntity
  8
99
  6
Continuous
 62
     7
370
    15
100
AcDbLine
 10
94.88381937911574
 20
31.75235934666001
 30
0.0
 11
163.8838193791157
 21
31.75235934666001
 31
0.0
1001
Sigma
1000

  0
LINE
  5
3F6
330
1F
100
AcDbEntity
  8
99
  6
Continuous
 62
     7
370
    15
100
AcDbLine
 10
94.88381937911574
 20
36.75235934666003
 30
0.0
 11
163.8838193791157
 21
36.75235934666003
 31
0.0
1001
Sigma
1000

  0
LINE
  5
3F8
330
1F
100
AcDbEntity
  8
99
  6
Continuous
 62
     7
370
    30
100
AcDbLine
 10
178.8838193791157
 20
39.25235934666004
 30
0.0
 11
284.8838193791157
 21
39.25235934666004
 31
0.0
1001
Sigma
1000

  0
LINE
  5
3FA
330
1F
100
AcDbEntity
  8
99
  6
Continuous
 62
     7
370
    15
100
AcDbLine
 10
115.8838193791157
 20
11.75235934666001
 30
0.0
 11
115.8838193791157
 21
46.75235934666003
 31
0.0
1001
Sigma
1000

  0
LINE
  5
3FC
330
1F
100
AcDbEntity
  8
99
  6
Continuous
 62
     7
370
    15
100
AcDbLine
 10
126.8838193791157
 20
11.75235934666001
 30
0.0
 11
126.8838193791157
 21
46.75235934666003
 31
0.0
1001
Sigma
1000

  0
LINE
  5
3FE
330
1F
100
AcDbEntity
  8
99
  6
Continuous
 62
     7
370
    15
100
AcDbLine
 10
228.8838193791157
 20
11.75235934666001
 30
0.0
 11
228.8838193791157
 21
46.75235934666003
 31
0.0
1001
Sigma
1000

  0
LINE
  5
400
330
1F
100
AcDbEntity
  8
99
  6
Continuous
 62
     7
370
    30
100
AcDbLine
 10
223.8838193791157
 20
21.75235934666003
 30
0.0
 11
284.8838193791157
 21
21.75235934666003
 31
0.0
1001
Sigma
1000

  0
TEXT
  5
402
330
1F
100
AcDbEntity
  8
99
  6
Continuous
 62
     7
370
    30
100
AcDbText
 10
224.6137336406258
 20
28.63791118426004
 30
0.0
 40
2.7
  1
製
 41
1.266666666666666
  7
KCADTEXTSTANDARD
100
AcDbText
1001
Sigma
1000

  0
TEXT
  5
404
330
1F
100
AcDbEntity
  8
99
  6
Continuous
 62
     7
370
    30
100
AcDbText
 10
178.1088193791157
 20
40.97735934666003
 30
0.0
 40
4.049999999999999
  1
 三角法
 41
0.791666663520866
  7
KCADTEXTSTANDARD
100
AcDbText
1001
Sigma
1000

  0
TEXT
  5
406
330
1F
100
AcDbEntity
  8
99
  6
Continuous
 62
     7
370
    30
100
AcDbText
 10
224.6137336406258
 20
25.53791118426004
 30
0.0
 40
2.7
  1
品
 41
1.266666666666666
  7
KCADTEXTSTANDARD
100
AcDbText
1001
Sigma
1000

  0
LINE
  5
408
330
1F
100
AcDbEntity
  8
99
  6
Continuous
 62
     7
370
    15
100
AcDbLine
 10
99.01601353182573
 20
17.45283220116003
 30
0.0
 11
95.81601353182575
 21
17.45283220116003
 31
0.0
1001
Sigma
1000

  0
TEXT
  5
40A
330
1F
100
AcDbEntity
  8
99
  6
Continuous
 62
     7
370
    30
100
AcDbText
 10
224.6137336406258
 20
22.43791118426002
 30
0.0
 40
2.7
  1
名
 41
1.266666666666666
  7
KCADTEXTSTANDARD
100
AcDbText
1001
Sigma
1000

  0
TEXT
  5
40C
330
1F
100
AcDbEntity
  8
99
  6
Continuous
 62
     7
370
    30
100
AcDbText
 10
163.7316875961657
 20
27.55342558986002
 30
0.0
 40
3.6
  1
 設計  製図  検図  承認
 41
1.147916666666666
  7
KCADTEXTSTANDARD
100
AcDbText
1001
Sigma
1000

  0
TEXT
  5
40E
330
1F
100
AcDbEntity
  8
99
  6
Continuous
 62
     7
370
    30
100
AcDbText
 10
99.39110830122075
 20
12.55571478696
 30
0.0
 40
3.6
  1
 年月日    担当   訂 正 記 事
 41
0.8102941176470586
  7
KCADTEXTSTANDARD
100
AcDbText
1001
Sigma
1000

  0
TEXT
  5
410
330
1F
100
AcDbEntity
  8
99
  6
Continuous
 62
     7
370
    30
100
AcDbText
 10
95.58772562911577
 20
12.72211478386001
 30
0.0
 40
3.6
  1
符号
 41
0.4987499985843897
  7
KCADTEXTSTANDARD
100
AcDbText
1001
Sigma
1000

  0
LINE
  5
412
330
1F
100
AcDbEntity
  8
99
  6
Continuous
 62
     7
370
    15
100
AcDbLine
 10
99.01601353182573
 20
37.45283220116003
 30
0.0
 11
95.81601353182575
 21
37.45283220116003
 31
0.0
1001
Sigma
1000

  0
LINE
  5
414
330
1F
100
AcDbEntity
  8
99
  6
Continuous
 62
     7
370
    15
100
AcDbLine
 10
97.41601353182574
 20
40.91693381636003
 30
0.0
 11
99.01601353182573
 21
37.45283220116003
 31
0.0
1001
Sigma
1000

  0
TEXT
  5
416
330
1F
100
AcDbEntity
  8
99
  6
Continuous
 62
     7
370
    15
100
AcDbText
 10
97.01792291655323
 20
38.03913712138717
 30
0.0
 40
2.082815953445434
  1
5
 41
0.577433628318584
  7
KCADTEXTSTANDARD
100
AcDbText
1001
Sigma
1000

  0
LINE
  5
418
330
1F
100
AcDbEntity
  8
99
  6
Continuous
 62
     7
370
    15
100
AcDbLine
 10
95.81601353182575
 20
37.45283220116003
 30
0.0
 11
97.41601353182574
 21
40.91693381636003
 31
0.0
1001
Sigma
1000

  0
LINE
  5
41A
330
1F
100
AcDbEntity
  8
99
  6
Continuous
 62
     7
370
    15
100
AcDbLine
 10
99.01601353182573
 20
32.45283220116003
 30
0.0
 11
95.81601353182575
 21
32.45283220116003
 31
0.0
1001
Sigma
1000

  0
LINE
  5
41C
330
1F
100
AcDbEntity
  8
99
  6
Continuous
 62
     7
370
    15
100
AcDbLine
 10
97.41601353182574
 20
35.91693381636003
 30
0.0
 11
99.01601353182573
 21
32.45283220116003
 31
0.0
1001
Sigma
1000

  0
TEXT
  5
41E
330
1F
100
AcDbEntity
  8
99
  6
Continuous
 62
     7
370
    15
100
AcDbText
 10
97.01792291655323
 20
33.0391371213872
 30
0.0
 40
2.082815953445434
  1
4
 41
0.577433628318584
  7
KCADTEXTSTANDARD
100
AcDbText
1001
Sigma
1000

  0
LINE
  5
420
330
1F
100
AcDbEntity
  8
99
  6
Continuous
 62
     7
370
    15
100
AcDbLine
 10
95.81601353182575
 20
32.45283220116003
 30
0.0
 11
97.41601353182574
 21
35.91693381636003
 31
0.0
1001
Sigma
1000

  0
LINE
  5
422
330
1F
100
AcDbEntity
  8
99
  6
Continuous
 62
     7
370
    15
100
AcDbLine
 10
99.01601353182573
 20
27.45283220116005
 30
0.0
 11
95.81601353182575
 21
27.45283220116005
 31
0.0
1001
Sigma
1000

  0
LINE
  5
424
330
1F
100
AcDbEntity
  8
99
  6
Continuous
 62
     7
370
    15
100
AcDbLine
 10
97.41601353182574
 20
30.91693381636001
 30
0.0
 11
99.01601353182573
 21
27.45283220116005
 31
0.0
1001
Sigma
1000

  0
TEXT
  5
426
330
1F
100
AcDbEntity
  8
99
  6
Continuous
 62
     7
370
    15
100
AcDbText
 10
97.01792291655323
 20
28.03913712138719
 30
0.0
 40
2.082815953445434
  1
3
 41
0.577433628318584
  7
KCADTEXTSTANDARD
100
AcDbText
1001
Sigma
1000

  0
LINE
  5
428
330
1F
100
AcDbEntity
  8
99
  6
Continuous
 62
     7
370
    15
100
AcDbLine
 10
97.41601353182574
 20
20.91693381636003
 30
0.0
 11
99.01601353182573
 21
17.45283220116003
 31
0.0
1001
Sigma
1000

  0
LINE
  5
42A
330
1F
100
AcDbEntity
  8
99
  6
Continuous
 62
     7
370
    15
100
AcDbLine
 10
95.81601353182575
 20
17.45283220116003
 30
0.0
 11
97.41601353182574
 21
20.91693381636003
 31
0.0
1001
Sigma
1000

  0
LINE
  5
42C
330
1F
100
AcDbEntity
  8
99
  6
Continuous
 62
     7
370
    15
100
AcDbLine
 10
95.81601353182575
 20
27.45283220116005
 30
0.0
 11
97.41601353182574
 21
30.91693381636001
 31
0.0
1001
Sigma
1000

  0
TEXT
  5
42E
330
1F
100
AcDbEntity
  8
99
  6
Continuous
 62
     7
370
    15
100
AcDbText
 10
97.01792291655323
 20
23.03913712138718
 30
0.0
 40
2.082815953445434
  1
2
 41
0.577433628318584
  7
KCADTEXTSTANDARD
100
AcDbText
1001
Sigma
1000

  0
LINE
  5
430
330
1F
100
AcDbEntity
  8
99
  6
Continuous
 62
     7
370
    15
100
AcDbLine
 10
99.01601353182573
 20
22.45283220116003
 30
0.0
 11
95.81601353182575
 21
22.45283220116003
 31
0.0
1001
Sigma
1000

  0
LINE
  5
432
330
1F
100
AcDbEntity
  8
99
  6
Continuous
 62
     7
370
    15
100
AcDbLine
 10
97.41601353182574
 20
25.91693381636003
 30
0.0
 11
99.01601353182573
 21
22.45283220116003
 31
0.0
1001
Sigma
1000

  0
LINE
  5
434
330
1F
100
AcDbEntity
  8
99
  6
Continuous
 62
     7
370
    15
100
AcDbLine
 10
95.81601353182575
 20
22.45283220116003
 30
0.0
 11
97.41601353182574
 21
25.91693381636003
 31
0.0
1001
Sigma
1000

  0
TEXT
  5
436
330
1F
100
AcDbEntity
  8
99
  6
Continuous
 62
     7
370
    15
100
AcDbText
 10
97.01792291655323
 20
18.03913712138719
 30
0.0
 40
2.082815953445434
  1
1
 41
0.577433628318584
  7
KCADTEXTSTANDARD
100
AcDbText
1001
Sigma
1000

  0
TEXT
  5
438
330
1F
100
AcDbEntity
  8
99
  6
Continuous
 62
     7
370
    30
100
AcDbText
 10
224.6017334387457
 20
32.51422980946002
 30
0.0
 40
2.7
  1
差
 41
1.266666666666666
  7
KCADTEXTSTANDARD
100
AcDbText
1001
Sigma
1000

  0
TEXT
  5
43A
330
1F
100
AcDbEntity
  8
99
  6
Continuous
 62
     7
370
    30
100
AcDbText
 10
224.6017334387457
 20
36.01422980946002
 30
0.0
 40
2.7
  1
公
 41
1.266666666666666
  7
KCADTEXTSTANDARD
100
AcDbText
1001
Sigma
1000

  0
TEXT
  5
43C
330
1F
100
AcDbEntity
  8
99
  6
Continuous
 62
     7
370
    30
100
AcDbText
 10
194.7017334625875
 20
43.51422980946002
 30
0.0
 40
2.7
  1
面
 41
1.203333318233489
  7
KCADTEXTSTANDARD
100
AcDbText
1001
Sigma
1000

  0
TEXT
  5
43E
330
1F
100
AcDbEntity
  8
99
  6
Continuous
 62
     7
370
    30
100
AcDbText
 10
194.7017334625875
 20
40.01422980946002
 30
0.0
 40
2.7
  1
取
 41
1.203333318233489
  7
KCADTEXTSTANDARD
100
AcDbText
1001
Sigma
1000

  0
TEXT
  5
440
330
1F
100
AcDbEntity
  8
99
  6
Continuous
 62
     7
370
    30
100
AcDbText
 10
224.6017334387457
 20
40.01422980946002
 30
0.0
 40
2.7
  1
上
 41
1.266666666666666
  7
KCADTEXTSTANDARD
100
AcDbText
1001
Sigma
1000

  0
TEXT
  5
442
330
1F
100
AcDbEntity
  8
99
  6
Continuous
 62
     7
370
    30
100
AcDbText
 10
224.6017334387457
 20
43.51422980946002
 30
0.0
 40
2.7
  1
仕
 41
1.266666666666666
  7
KCADTEXTSTANDARD
100
AcDbText
1001
Sigma
1000

  0
LINE
  5
444
330
1F
100
AcDbEntity
  8
99
  6
Continuous
 62
     7
370
    30
100
AcDbLine
 10
115.8838193791157
 20
46.75235934666003
 30
0.0
 11
115.8838193791157
 21
59.25235934666003
 31
0.0
1001
Sigma
1000

  0
TEXT
  5
446
330
1F
100
AcDbEntity
  8
99
  6
Continuous
 62
     7
370
    30
100
AcDbText
 10
224.5338193791158
 20
17.90235934666004
 30
0.0
 40
2.7
  1
図
 41
1.266666666666666
  7
KCADTEXTSTANDARD
100
AcDbText
1001
Sigma
1000

  0
TEXT
  5
448
330
1F
100
AcDbEntity
  8
99
  6
Continuous
 62
     7
370
    30
100
AcDbText
 10
224.5338193791158
 20
13.40235934666003
 30
0.0
 40
2.7
  1
番
 41
1.266666666666666
  7
KCADTEXTSTANDARD
100
AcDbText
1001
Sigma
1000

  0
LINE
  5
44A
330
1F
100
AcDbEntity
  8
99
  6
Continuous
 62
     7
370
    15
100
AcDbLine
 10
94.88381937911574
 20
51.75235934666003
 30
0.0
 11
284.8838193791157
 21
51.75235934666003
 31
0.0
1001
Sigma
1000

  0
LINE
  5
44C
330
1F
100
AcDbEntity
  8
99
  6
Continuous
 62
     7
370
    15
100
AcDbLine
 10
198.8838193791157
 20
46.75235934666003
 30
0.0
 11
198.8838193791157
 21
39.25235934666004
 31
0.0
1001
Sigma
1000

  0
TEXT
  5
44E
330
1F
100
AcDbEntity
  8
99
  6
Continuous
 62
     7
370
    30
100
AcDbText
 10
166.2757112710057
 20
42.65449183306003
 30
0.0
 40
3.6
  1
尺度
 41
1.1875
  7
KCADTEXTSTANDARD
100
AcDbText
1001
Sigma
1000

  0
LINE
  5
450
330
1F
100
AcDbEntity
  8
99
  6
Continuous
 62
     7
370
    15
100
AcDbLine
 10
95.81601353182575
 20
42.45283220116004
 30
0.0
 11
97.41601353182574
 21
45.91693381633002
 31
0.0
1001
Sigma
1000

  0
TEXT
  5
452
330
1F
100
AcDbEntity
  8
99
  6
Continuous
 62
     7
370
    15
100
AcDbText
 10
97.01792291655323
 20
43.03913712138718
 30
0.0
 40
2.082815953445434
  1
6
 41
0.577433628318584
  7
KCADTEXTSTANDARD
100
AcDbText
1001
Sigma
1000

  0
LINE
  5
454
330
1F
100
AcDbEntity
  8
99
  6
Continuous
 62
     7
370
    15
100
AcDbLine
 10
97.41601353182574
 20
45.91693381633002
 30
0.0
 11
99.01601353182573
 21
42.45283220116004
 31
0.0
1001
Sigma
1000

  0
LINE
  5
456
330
1F
100
AcDbEntity
  8
99
  6
Continuous
 62
     7
370
    15
100
AcDbLine
 10
99.01601353182573
 20
42.45283220116004
 30
0.0
 11
95.81601353182575
 21
42.45283220116004
 31
0.0
1001
Sigma
1000

  0
LINE
  5
458
330
1F
100
AcDbEntity
  8
99
  6
Continuous
 62
     7
370
    30
100
AcDbLine
 10
193.8838193791157
 20
39.25235934666004
 30
0.0
 11
193.8838193791157
 21
46.75235934666003
 31
0.0
1001
Sigma
1000

  0
LINE
  5
45A
330
1F
100
AcDbEntity
  8
99
  6
Continuous
 62
     7
370
    30
100
AcDbLine
 10
94.88381937911574
 20
46.75235934666003
 30
0.0
 11
284.8838193791157
 21
46.75235934666003
 31
0.0
1001
Sigma
1000

  0
LINE
  5
45C
330
1F
100
AcDbEntity
  8
99
  6
Continuous
 62
     7
370
    15
100
AcDbLine
 10
94.88381937911574
 20
41.75235934666003
 30
0.0
 11
178.8838193791157
 21
41.75235934666003
 31
0.0
1001
Sigma
1000

  0
LINE
  5
45E
330
1F
100
AcDbEntity
  8
99
  6
Continuous
 62
     7
370
    15
100
AcDbLine
 10
99.88381937911576
 20
11.75235934666001
 30
0.0
 11
99.88381937911576
 21
46.75235934666003
 31
0.0
1001
Sigma
1000

  0
TEXT
  5
460
330
1F
100
AcDbEntity
  8
99
  6
Continuous
 62
     7
370
    30
100
AcDbText
 10
96.71851732335276
 20
47.45709445156004
 30
0.0
 40
3.6
  1
部品番号     部   品   名
 41
0.7659374981911647
  7
KCADTEXTSTANDARD
100
AcDbText
1001
Sigma
1000

  0
TEXT
  5
462
330
1F
100
AcDbEntity
  8
99
  6
Continuous
 62
     7
370
    30
100
AcDbText
 10
166.2757112710057
 20
47.75449183305002
 30
0.0
 40
3.6
  1
個数
 41
1.1875
  7
KCADTEXTSTANDARD
100
AcDbText
1001
Sigma
1000

  0
TEXT
  5
464
330
1F
100
AcDbEntity
  8
99
  6
Continuous
 62
     7
370
    30
100
AcDbText
 10
187.7316875961757
 20
47.75342558985003
 30
0.0
 40
3.6
  1
材       質                    表  面  処  理
 41
0.6678663776994779
  7
KCADTEXTSTANDARD
100
AcDbText
1001
Sigma
1000

  0
LINE
  5
466
330
1F
100
AcDbEntity
  8
99
  6
Continuous
 62
     7
370
    30
100
AcDbLine
 10
94.88381937911574
 20
59.25235934666003
 30
0.0
 11
94.88381937911574
 21
11.75235934666001
 31
0.0
1001
Sigma
1000

  0
TEXT
  5
468
330
1F
100
AcDbEntity
  8
99
  6
Continuous
 62
     7
370
    30
100
AcDbText
 10
166.5182429569458
 20
35.02214114806003
 30
0.0
 40
4.067999999999999
  1
1/1
 41
1.22295977326152
  7
KCADTEXTSTANDARD
100
AcDbText
1001
Sigma
1000

  0
TEXT
  5
46A
330
1F
100
AcDbEntity
  8
99
  6
Continuous
 62
     7
370
    30
100
AcDbText
 10
237.2295497058427
 20
13.74196043536703
 30
0.0
 40
5.695200387954711
  1
TSTM-079
 41
0.8888757589864034
  7
KCADTEXTSTANDARD
100
AcDbText
1001
Sigma
1000

  0
TEXT
  5
46C
330
1F
100
AcDbEntity
  8
2
  6
Continuous
 62
     7
370
    30
100
AcDbText
 10
133.1770631327917
 20
53.9643316494228
 30
0.0
 40
3.307500171661377
  1
組立図
 41
0.9771428555286853
  7
KCADTEXTSTANDARD
100
AcDbText
1001
Sigma
1000

  0
TEXT
  5
472
330
1F
100
AcDbEntity
  8
99
  6
Continuous
 62
     7
370
    30
100
AcDbText
 10
183.3338193791157
 20
33.70235934666003
 30
0.0
 40
3.6
  1
  １９９２ 年０６月２３ 日
 41
0.7
  7
KCADTEXTSTANDARD
100
AcDbText
1001
Sigma
1000

  0
TEXT
  5
476
330
1F
100
AcDbEntity
  8
2
  6
Continuous
 62
     7
370
    30
100
AcDbText
 10
100.770702407382
 20
54.47125080008699
 30
0.0
 40
2.3625
  1
１００
 41
1.007904774991292
  7
KCADTEXTSTANDARD
100
AcDbText
1001
Sigma
1000

  0
TEXT
  5
478
330
1F
100
AcDbEntity
  8
99
  6
Continuous
 62
     7
370
    30
100
AcDbText
 10
241.9795497058427
 20
23.74196043536702
 30
0.0
 40
5.695200387954711
  1
KCM-10
 41
0.9101041989730418
  7
KCADTEXTSTANDARD
100
AcDbText
1001
Sigma
1000

  0
TEXT
  5
47A
330
1F
100
AcDbEntity
  8
99
  6
Continuous
 62
     7
370
    30
100
AcDbText
 10
240.8592251145457
 20
52.78485806228003
 30
0.0
 40
4.5
  1
梨地黒アルマイト
 41
0.653125
  7
KCADTEXTSTANDARD
100
AcDbText
1001
Sigma
1000

  0
LINE
  5
47C
330
1F
100
AcDbEntity
  8
3
  6
HIDDEN
 62
     7
370
    30
100
AcDbLine
 10
134.6888657050478
 20
150.808510638297
 30
0.0
 11
137.6888657050478
 21
150.808510638297
 31
0.0
1001
Sigma
1000

  0
DIMENSION
  5
47E
330
1F
100
AcDbEntity
  8
KCAD_DIMS
 62
     7
100
AcDbDimension
  2
*D37
 10
231.2888657050478
 20
171.4428003842997
 30
0.0
 11
241.2251881467545
 21
173.5761333842997
 31
0.0
 70
    32
  1
<>
 71
     5
 42
-1.0
  3
Standard
100
AcDbAlignedDimension
 13
227.2888657050478
 23
155.0585106382976
 33
0.0
 14
231.2888657050478
 24
151.508510638298
 34
0.0
100
AcDbRotatedDimension
1001
Sigma
1000
DIM_TPHO
1001
KCAD_DIM_EXT
1002
{
1071
 20001212
1070
     0
1070
     1
1070
     1
1040
2.5
1040
5.0
1040
10.93632241772506
1040
0.0
1040
0.0
1040
0.0
1040
0.0
1040
0.0
1070
     0
1040
50.0
1040
-1.0
1013
1.0
1023
0.0
1033
0.0
1040
0.0
1013
1.0
1023
0.0
1033
0.0
1000
_None
1040
1.0
1040
4.000000000000039
1070
     0
1070
     0
1070
     0
1012
1.0
1022
0.0
1032
0.0
1013
1.0
1023
0.0
1033
0.0
1002
}
1001
ACAD
1000
DSTYLE
1002
{
1070
    41
1040
2.5
1070
    42
1040
1.0
1070
    43
1040
8.0
1070
    44
1040
1.0
1070
    45
1040
0.0
1070
    73
1070
     0
1070
    74
1070
     0
1070
    77
1070
     1
1070
    78
1070
     8
1070
    79
1070
     2
1070
   140
1040
3.2
1070
   141
1040
2.5
1070
   145
1040
0.0001
1070
   146
1040
0.667
1070
   147
1040
0.5333000000000001
1070
   172
1070
     1
1070
   173
1070
     1
1070
   179
1070
     3
1070
   271
1070
     3
1070
   272
1070
     3
1070
   279
1070
     2
1070
   284
1070
     8
1070
   289
1070
     2
1070
   340
1005
189
1070
   341
1005
21
1070
   343
1005
12D
1070
   344
1005
12D
1002
}
  0
DIMENSION
  5
4C6
330
1F
100
AcDbEntity
  8
KCAD_DIMS
 62
     7
100
AcDbDimension
  2
*D38
 10
222.2888657050478
 20
163.3402604031144
 30
0.0
 11
224.7888657050479
 21
165.4735934031144
 31
0.0
 70
    32
  1
<>
 71
     5
 42
-1.0
  3
Standard
100
AcDbAlignedDimension
 13
227.2888657050478
 23
155.0585106382976
 33
0.0
 14
222.2888657050478
 24
155.0585106382976
 34
0.0
100
AcDbRotatedDimension
1001
Sigma
1000
DIM_TPHO
1001
KCAD_DIM_EXT
1002
{
1071
 20001212
1070
     0
1070
     2
1070
     2
1040
2.5
1040
0.0
1040
0.0
1040
0.0
1040
0.0
1040
0.0
1040
0.0
1040
0.0
1070
     0
1040
50.0
1040
-1.0
1013
1.0
1023
0.0
1033
0.0
1040
0.0
1013
1.0
1023
0.0
1033
0.0
1000
_None
1040
1.0
1040
5.000000000000001
1070
     0
1070
     0
1070
     0
1012
1.0
1022
0.0
1032
0.0
1013
1.0
1023
0.0
1033
0.0
1002
}
1001
ACAD
1000
DSTYLE
1002
{
1070
    41
1040
2.5
1070
    42
1040
1.0
1070
    43
1040
8.0
1070
    44
1040
1.0
1070
    45
1040
0.0
1070
    73
1070
     0
1070
    74
1070
     0
1070
    77
1070
     1
1070
    78
1070
     8
1070
    79
1070
     2
1070
   140
1040
3.2
1070
   141
1040
2.5
1070
   145
1040
0.0001
1070
   146
1040
0.667
1070
   147
1040
0.5333000000000001
1070
   172
1070
     1
1070
   173
1070
     1
1070
   179
1070
     3
1070
   271
1070
     3
1070
   272
1070
     3
1070
   279
1070
     2
1070
   284
1070
     8
1070
   289
1070
     2
1070
   340
1005
189
1070
   341
1005
21
1070
   343
1005
12D
1070
   344
1005
12D
1002
}
  0
DIMENSION
  5
50B
330
1F
100
AcDbEntity
  8
KCAD_DIMS
 62
     7
100
AcDbDimension
  2
*D39
 10
227.2888657050478
 20
171.4428003842997
 30
0.0
 11
180.9888657050478
 21
173.5761333842997
 31
0.0
 70
    32
  1
<>
 71
     5
 42
-1.0
  3
Standard
100
AcDbAlignedDimension
 13
134.6888657050478
 23
151.5585106382972
 33
0.0
 14
227.2888657050478
 24
155.0585106382976
 34
0.0
100
AcDbRotatedDimension
1001
Sigma
1000
DIM_TPHO
1001
KCAD_DIM_EXT
1002
{
1071
 20001212
1070
     0
1070
     2
1070
     2
1040
2.5
1040
0.0
1040
0.0
1040
0.0
1040
0.0
1040
0.0
1040
0.0
1040
0.0
1070
     0
1040
50.0
1040
-1.0
1013
1.0
1023
0.0
1033
0.0
1040
0.0
1013
1.0
1023
0.0
1033
0.0
1000
_None
1040
1.0
1040
92.60000000000001
1070
     0
1070
     0
1070
     0
1012
1.0
1022
0.0
1032
0.0
1013
1.0
1023
0.0
1033
0.0
1002
}
1001
ACAD
1000
DSTYLE
1002
{
1070
    41
1040
2.5
1070
    42
1040
1.0
1070
    43
1040
8.0
1070
    44
1040
1.0
1070
    45
1040
0.0
1070
    73
1070
     0
1070
    74
1070
     0
1070
    77
1070
     1
1070
    78
1070
     8
1070
    79
1070
     2
1070
   140
1040
3.2
1070
   141
1040
2.5
1070
   145
1040
0.0001
1070
   146
1040
0.667
1070
   147
1040
0.5333000000000001
1070
   172
1070
     1
1070
   173
1070
     1
1070
   179
1070
     3
1070
   271
1070
     3
1070
   272
1070
     3
1070
   279
1070
     2
1070
   284
1070
     8
1070
   289
1070
     2
1070
   340
1005
189
1070
   341
1005
21
1070
   343
1005
12D
1070
   344
1005
12D
1002
}
  0
DIMENSION
  5
547
330
1F
100
AcDbEntity
  8
KCAD_DIMS
 62
     7
100
AcDbDimension
  2
*D40
 10
255.9285042333019
 20
155.5585106382976
 30
0.0
 11
253.795171233302
 21
139.5585106382977
 31
0.0
 70
    32
  1
<>
 71
     5
 42
-1.0
 53
90.00000000000007
  3
Standard
100
AcDbAlignedDimension
 13
226.7888657050479
 23
123.5585106382977
 33
0.0
 14
226.7888657050478
 24
155.5585106382976
 34
0.0
 50
90.00000000000007
100
AcDbRotatedDimension
1001
Sigma
1000
DIM_TPVO
1001
KCAD_DIM_EXT
1002
{
1071
 20001212
1070
     0
1070
     2
1070
     2
1040
2.5
1040
0.0
1040
0.0
1040
0.0
1040
0.0
1040
0.0
1040
0.0
1040
0.0
1070
     0
1040
50.0
1040
-1.0
1013
1.0
1023
0.0
1033
0.0
1040
0.0
1013
1.0
1023
0.0
1033
0.0
1000
_None
1040
1.0
1040
31.99999999999999
1070
     0
1070
     0
1070
     0
1012
1.0
1022
0.0
1032
0.0
1013
1.0
1023
0.0
1033
0.0
1002
}
1001
ACAD
1000
DSTYLE
1002
{
1070
     3
1000
%%c<>
1070
    41
1040
2.5
1070
    42
1040
1.0
1070
    43
1040
8.0
1070
    44
1040
1.0
1070
    45
1040
0.0
1070
    73
1070
     0
1070
    74
1070
     0
1070
    77
1070
     1
1070
    78
1070
     8
1070
    79
1070
     2
1070
   140
1040
3.2
1070
   141
1040
2.5
1070
   145
1040
0.0001
1070
   146
1040
0.667
1070
   147
1040
0.5333000000000001
1070
   172
1070
     1
1070
   173
1070
     1
1070
   179
1070
     3
1070
   271
1070
     3
1070
   272
1070
     3
1070
   279
1070
     2
1070
   284
1070
     8
1070
   289
1070
     2
1070
   340
1005
189
1070
   341
1005
21
1070
   343
1005
12D
1070
   344
1005
12D
1002
}
  0
LINE
  5
585
102
{ACAD_REACTORS
330
583
330
584
102
}
330
1F
100
AcDbEntity
  8
2
  6
Continuous
 62
     7
370
    15
100
AcDbLine
 10
230.445869877193
 20
152.1127164932924
 30
0.0
 11
237.1455406203701
 21
161.7000814211414
 31
0.0
1001
Sigma
1000

  0
INSERT
  5
587
102
{ACAD_REACTORS
330
583
330
584
102
}
330
1F
100
AcDbEntity
  8
2
  6
Continuous
 62
     7
370
    15
100
AcDbBlockReference
  2
_OPEN30
 10
230.445869877193
 20
152.1127164932924
 30
0.0
 41
3.0
 42
3.0
 43
3.0
 50
235.0540692363617
1001
Sigma
1000
_BRRS
  0
TEXT
  5
589
102
{ACAD_REACTORS
330
583
102
}
330
1F
100
AcDbEntity
  8
2
  6
Continuous
 62
     7
370
    15
100
AcDbText
 10
240.7899845892906
 20
162.3934114116047
 30
0.0
 40
2.879999828338623
  1
Ｃマウント
 41
0.8507590152775655
  7
KCADTEXTSTANDARD
100
AcDbText
1001
Sigma
1000

  0
LINE
  5
58B
102
{ACAD_REACTORS
330
583
102
}
330
1F
100
AcDbEntity
  8
2
  6
Continuous
 62
     7
370
    15
100
AcDbLine
 10
237.1455406203701
 20
161.7000814211414
 30
0.0
 11
255.6977118620281
 21
161.7000814211414
 31
0.0
1001
Sigma
1000

  0
DIMENSION
  5
58D
330
1F
100
AcDbEntity
  8
KCAD_DIMS
 62
     7
100
AcDbDimension
  2
*D41
 10
227.2888657050478
 20
108.0718085106383
 30
0.0
 11
236.0518657050478
 21
103.5281914893617
 31
0.0
 70
    32
  1
<>
 71
     5
 42
-1.0
  3
Standard
100
AcDbAlignedDimension
 13
244.8148657050479
 23
136.607108544665
 33
0.0
 14
227.2888657050478
 24
124.0585106382976
 34
0.0
100
AcDbRotatedDimension
1001
Sigma
1000
DIM_TPHO
1001
KCAD_DIM_EXT
1002
{
1071
 20001212
1070
     0
1070
     2
1070
     2
1040
2.5
1040
0.0
1040
0.0
1040
0.0
1040
0.0
1040
0.0
1040
0.0
1040
0.0
1070
     0
1040
50.0
1040
-1.0
1013
1.0
1023
0.0
1033
0.0
1040
0.0
1013
1.0
1023
0.0
1033
0.0
1000
_None
1040
1.0
1040
17.52600000000005
1070
     0
1070
     0
1070
     0
1012
1.0
1022
0.0
1032
0.0
1013
1.0
1023
0.0
1033
0.0
1002
}
1001
ACAD
1000
DSTYLE
1002
{
1070
     3
1000
Ｆ．Ｂ．＝<>
1070
    41
1040
2.5
1070
    42
1040
1.0
1070
    43
1040
8.0
1070
    44
1040
1.0
1070
    45
1040
0.0
1070
    73
1070
     0
1070
    74
1070
     0
1070
    77
1070
     1
1070
    78
1070
     8
1070
    79
1070
     2
1070
   140
1040
3.2
1070
   141
1040
2.5
1070
   145
1040
0.0001
1070
   146
1040
0.667
1070
   147
1040
0.5333000000000001
1070
   172
1070
     1
1070
   173
1070
     1
1070
   179
1070
     3
1070
   271
1070
     3
1070
   272
1070
     3
1070
   279
1070
     2
1070
   284
1070
     8
1070
   289
1070
     2
1070
   340
1005
189
1070
   341
1005
21
1070
   343
1005
12D
1070
   344
1005
12D
1002
}
  0
DIMENSION
  5
5C9
330
1F
100
AcDbEntity
  8
KCAD_DIMS
 62
     7
100
AcDbDimension
  2
*D42
 10
134.6888657050478
 20
163.3402604031143
 30
0.0
 11
143.6888657050478
 21
165.4735934031143
 31
0.0
 70
    32
  1
<>
 71
     5
 42
-1.0
  3
Standard
100
AcDbAlignedDimension
 13
152.6888657050478
 23
151.5585106382972
 33
0.0
 14
134.6888657050478
 24
151.5585106382972
 34
0.0
100
AcDbRotatedDimension
1001
Sigma
1000
DIM_TPHO
1001
KCAD_DIM_EXT
1002
{
1071
 20001212
1070
     0
1070
     2
1070
     2
1040
2.5
1040
0.0
1040
0.0
1040
0.0
1040
0.0
1040
0.0
1040
0.0
1040
0.0
1070
     0
1040
50.0
1040
-1.0
1013
1.0
1023
0.0
1033
0.0
1040
0.0
1013
1.0
1023
0.0
1033
0.0
1000
_None
1040
1.0
1040
18.0
1070
     0
1070
     0
1070
     0
1012
1.0
1022
0.0
1032
0.0
1013
1.0
1023
0.0
1033
0.0
1002
}
1001
ACAD
1000
DSTYLE
1002
{
1070
    41
1040
2.5
1070
    42
1040
1.0
1070
    43
1040
8.0
1070
    44
1040
1.0
1070
    45
1040
0.0
1070
    73
1070
     0
1070
    74
1070
     0
1070
    77
1070
     1
1070
    78
1070
     8
1070
    79
1070
     2
1070
   140
1040
3.2
1070
   141
1040
2.5
1070
   145
1040
0.0001
1070
   146
1040
0.667
1070
   147
1040
0.5333000000000001
1070
   172
1070
     1
1070
   173
1070
     1
1070
   179
1070
     3
1070
   271
1070
     3
1070
   272
1070
     3
1070
   279
1070
     2
1070
   284
1070
     8
1070
   289
1070
     2
1070
   340
1005
189
1070
   341
1005
21
1070
   343
1005
12D
1070
   344
1005
12D
1002
}
  0
DIMENSION
  5
639
330
1F
100
AcDbEntity
  8
KCAD_DIMS
 62
     7
100
AcDbDimension
  2
*D44
 10
119.2872295390404
 20
127.5585106382972
 30
0.0
 11
117.1538965390404
 21
139.5585106382971
 31
0.0
 70
    32
  1
<>
 71
     5
 42
-1.0
 53
90.00000000000007
  3
Standard
100
AcDbAlignedDimension
 13
134.6888657050478
 23
151.5585106382972
 33
0.0
 14
134.6888657050479
 24
127.5585106382972
 34
0.0
 50
90.00000000000007
100
AcDbRotatedDimension
1001
Sigma
1000
DIM_TPVO
1001
KCAD_DIM_EXT
1002
{
1071
 20001212
1070
     0
1070
     2
1070
     2
1040
2.5
1040
0.0
1040
0.0
1040
0.0
1040
0.0
1040
0.0
1040
0.0
1040
0.0
1070
     0
1040
50.0
1040
-1.0
1013
1.0
1023
0.0
1033
0.0
1040
0.0
1013
1.0
1023
0.0
1033
0.0
1000
_None
1040
1.0
1040
23.99999999999999
1070
     0
1070
     0
1070
     0
1012
1.0
1022
0.0
1032
0.0
1013
1.0
1023
0.0
1033
0.0
1002
}
1001
ACAD
1000
DSTYLE
1002
{
1070
    41
1040
2.5
1070
    42
1040
1.0
1070
    43
1040
8.0
1070
    44
1040
1.0
1070
    45
1040
0.0
1070
    73
1070
     0
1070
    74
1070
     0
1070
    77
1070
     1
1070
    78
1070
     8
1070
    79
1070
     2
1070
   140
1040
3.2
1070
   141
1040
2.5
1070
   145
1040
0.0001
1070
   146
1040
0.667
1070
   147
1040
0.5333000000000001
1070
   172
1070
     1
1070
   173
1070
     1
1070
   179
1070
     3
1070
   271
1070
     3
1070
   272
1070
     3
1070
   279
1070
     2
1070
   284
1070
     8
1070
   289
1070
     2
1070
   340
1005
189
1070
   341
1005
21
1070
   343
1005
12D
1070
   344
1005
12D
1002
}
  0
DIMENSION
  5
6A9
330
1F
100
AcDbEntity
  8
KCAD_DIMS
 62
     7
100
AcDbDimension
  2
*D46
 10
44.68886570504999
 20
108.0718085106382
 30
0.0
 11
89.68886570504897
 21
110.2051415106381
 31
0.0
 70
    32
  1
<>
 71
     5
 42
-1.0
  3
Standard
100
AcDbAlignedDimension
 13
134.6888657050479
 23
127.5585106382972
 33
0.0
 14
44.68886570504999
 24
139.5585106382963
 34
0.0
100
AcDbRotatedDimension
1001
Sigma
1000
DIM_TPHO
1001
KCAD_DIM_EXT
1002
{
1071
 20001212
1070
     0
1070
     2
1070
     2
1040
2.5
1040
0.0
1040
0.0
1040
0.0
1040
0.0
1040
0.0
1040
0.0
1040
0.0
1070
     0
1040
50.0
1040
-1.0
1013
1.0
1023
0.0
1033
0.0
1040
0.0
1013
1.0
1023
0.0
1033
0.0
1000
_None
1040
1.0
1040
89.99999999999797
1070
     0
1070
     0
1070
     0
1012
1.0
1022
0.0
1032
0.0
1013
1.0
1023
0.0
1033
0.0
1002
}
1001
ACAD
1000
DSTYLE
1002
{
1070
     3
1000
Ｗ．Ｄ．＝　<>
1070
    41
1040
2.5
1070
    42
1040
1.0
1070
    43
1040
8.0
1070
    44
1040
1.0
1070
    45
1040
0.0
1070
    73
1070
     0
1070
    74
1070
     0
1070
    77
1070
     1
1070
    78
1070
     8
1070
    79
1070
     2
1070
   140
1040
3.2
1070
   141
1040
2.5
1070
   145
1040
0.0001
1070
   146
1040
0.667
1070
   147
1040
0.5333000000000001
1070
   172
1070
     1
1070
   173
1070
     1
1070
   179
1070
     3
1070
   271
1070
     3
1070
   272
1070
     3
1070
   279
1070
     2
1070
   284
1070
     8
1070
   289
1070
     2
1070
   340
1005
189
1070
   341
1005
21
1070
   343
1005
12D
1070
   344
1005
12D
1002
}
  0
LINE
  5
6E7
102
{ACAD_REACTORS
330
6E5
330
6E6
102
}
330
1F
100
AcDbEntity
  8
99
  6
Continuous
 62
     7
370
    15
100
AcDbLine
 10
134.4542702205679
 20
149.2335509197168
 30
0.0
 11
130.5278826382578
 21
144.6651125377788
 31
0.0
1001
Sigma
1000

  0
INSERT
  5
6E9
102
{ACAD_REACTORS
330
6E5
330
6E6
102
}
330
1F
100
AcDbEntity
  8
99
  6
Continuous
 62
     7
370
    15
100
AcDbBlockReference
  2
_OPEN30
 10
134.4542702205679
 20
149.2335509197168
 30
0.0
 41
3.0
 42
3.0
 43
3.0
 50
49.3222770595218
1001
Sigma
1000
_BRRS
  0
LINE
  5
6EB
102
{ACAD_REACTORS
330
6E5
102
}
330
1F
100
AcDbEntity
  8
99
  6
Continuous
 62
     7
370
    15
100
AcDbLine
 10
130.5278826382578
 20
144.6651125377788
 30
0.0
 11
122.0556342845378
 21
170.9398067993038
 31
0.0
1001
Sigma
1000

  0
LINE
  5
6ED
102
{ACAD_REACTORS
330
6E5
102
}
330
1F
100
AcDbEntity
  8
99
  6
Continuous
 62
     7
370
    15
100
AcDbLine
 10
122.0556342845378
 20
170.9398067993038
 30
0.0
 11
57.97402562974792
 21
170.9398067993028
 31
0.0
1001
Sigma
1000

  0
TEXT
  5
6F0
102
{ACAD_REACTORS
330
6EF
102
}
330
1F
100
AcDbEntity
  8
99
  6
Continuous
 62
     7
370
    15
100
AcDbText
 10
63.06840444725428
 20
171.8219138453988
 30
0.0
 40
4.5
  1
M22.5 P0.5 フィルターネジ
 41
0.5832699184947544
  7
KCADTEXTSTANDARD
100
AcDbText
1001
Sigma
1000

  0
TEXT
  5
76D
330
1F
100
AcDbEntity
  8
99
  6
Continuous
 62
     7
370
    30
100
AcDbText
 10
251.0203619598315
 20
6.126364871439382
 30
0.0
 40
4.0
  1
Tokina Co.,Ltd.
 41
0.7000000000000001
  7
KCADTEXTSTANDARD
100
AcDbText
1001
Sigma
1000

  0
TEXT
  5
76E
330
1F
100
AcDbEntity
  8
99
  6
Continuous
 62
     7
370
    30
100
AcDbText
 10
201.0523596580516
 20
5.781720591585556
 30
0.0
 40
4.0
  1
株式会社トキナー
  7
KCADTEXTSTANDARD
100
AcDbText
1001
Sigma
1000

  0
OLE2FRAME
  5
76F
330
1F
100
AcDbEntity
  8
0
  6
Continuous
 62
   134
370
    15
100
AcDbOle2Frame
 70
     2
 10
130.292302707209
 20
10.14134495348581
 30
0.0
 11
169.5289219643113
 21
4.104941990854689
 31
0.0
 72
     0
 73
   205
 90
     9344
310
0055D8FF348B5A496040365AA15D5E48244000000000000000004E5BC1EDEC30
310
6540365AA15D5E48244000000000000000004E5BC1EDEC306540C6CACAE9756B
310
10400000000000000000D8FF348B5A496040C6CACAE9756B1040000000000000
310
0000000000000100000000010000010000000100000000000100000000240000
310
D0CF11E0A1B11AE1000000000000000000000000000000003E000300FEFF0900
310
0600000000000000000000000100000001000000000000000010000002000000
310
01000000FEFFFFFF0000000000000000FFFFFFFFFFFFFFFFFFFFFFFFFFFFFFFF
310
FFFFFFFFFFFFFFFFFFFFFFFFFFFFFFFFFFFFFFFFFFFFFFFFFFFFFFFFFFFFFFFF
310
FFFFFFFFFFFFFFFFFFFFFFFFFFFFFFFFFFFFFFFFFFFFFFFFFFFFFFFFFFFFFFFF
310
FFFFFFFFFFFFFFFFFFFFFFFFFFFFFFFFFFFFFFFFFFFFFFFFFFFFFFFFFFFFFFFF
310
FFFFFFFFFFFFFFFFFFFFFFFFFFFFFFFFFFFFFFFFFFFFFFFFFFFFFFFFFFFFFFFF
310
FFFFFFFFFFFFFFFFFFFFFFFFFFFFFFFFFFFFFFFFFFFFFFFFFFFFFFFFFFFFFFFF
310
FFFFFFFFFFFFFFFFFFFFFFFFFFFFFFFFFFFFFFFFFFFFFFFFFFFFFFFFFFFFFFFF
310
FFFFFFFFFFFFFFFFFFFFFFFFFFFFFFFFFFFFFFFFFFFFFFFFFFFFFFFFFFFFFFFF
310
FFFFFFFFFFFFFFFFFFFFFFFFFFFFFFFFFFFFFFFFFFFFFFFFFFFFFFFFFFFFFFFF
310
FFFFFFFFFFFFFFFFFFFFFFFFFFFFFFFFFFFFFFFFFFFFFFFFFFFFFFFFFFFFFFFF
310
FFFFFFFFFFFFFFFFFFFFFFFFFFFFFFFFFFFFFFFFFFFFFFFFFFFFFFFFFFFFFFFF
310
FFFFFFFFFFFFFFFFFFFFFFFFFFFFFFFFFFFFFFFFFFFFFFFFFFFFFFFFFFFFFFFF
310
FFFFFFFFFFFFFFFFFFFFFFFFFFFFFFFFFFFFFFFFFFFFFFFFFFFFFFFFFFFFFFFF
310
FFFFFFFFFFFFFFFFFFFFFFFFFFFFFFFFFFFFFFFFFFFFFFFFFFFFFFFFFFFFFFFF
310
FDFFFFFFFEFFFFFFFEFFFFFFFEFFFFFF05000000060000000700000008000000
310
090000000A0000000B0000000C0000000D0000000E0000000F00000010000000
310
FEFFFFFFFFFFFFFFFFFFFFFFFFFFFFFFFFFFFFFFFFFFFFFFFFFFFFFFFFFFFFFF
310
FFFFFFFFFFFFFFFFFFFFFFFFFFFFFFFFFFFFFFFFFFFFFFFFFFFFFFFFFFFFFFFF
310
FFFFFFFFFFFFFFFFFFFFFFFFFFFFFFFFFFFFFFFFFFFFFFFFFFFFFFFFFFFFFFFF
310
FFFFFFFFFFFFFFFFFFFFFFFFFFFFFFFFFFFFFFFFFFFFFFFFFFFFFFFFFFFFFFFF
310
FFFFFFFFFFFFFFFFFFFFFFFFFFFFFFFFFFFFFFFFFFFFFFFFFFFFFFFFFFFFFFFF
310
FFFFFFFFFFFFFFFFFFFFFFFFFFFFFFFFFFFFFFFFFFFFFFFFFFFFFFFFFFFFFFFF
310
FFFFFFFFFFFFFFFFFFFFFFFFFFFFFFFFFFFFFFFFFFFFFFFFFFFFFFFFFFFFFFFF
310
FFFFFFFFFFFFFFFFFFFFFFFFFFFFFFFFFFFFFFFFFFFFFFFFFFFFFFFFFFFFFFFF
310
FFFFFFFFFFFFFFFFFFFFFFFFFFFFFFFFFFFFFFFFFFFFFFFFFFFFFFFFFFFFFFFF
310
FFFFFFFFFFFFFFFFFFFFFFFFFFFFFFFFFFFFFFFFFFFFFFFFFFFFFFFFFFFFFFFF
310
FFFFFFFFFFFFFFFFFFFFFFFFFFFFFFFFFFFFFFFFFFFFFFFFFFFFFFFFFFFFFFFF
310
FFFFFFFFFFFFFFFFFFFFFFFFFFFFFFFFFFFFFFFFFFFFFFFFFFFFFFFFFFFFFFFF
310
FFFFFFFFFFFFFFFFFFFFFFFFFFFFFFFFFFFFFFFFFFFFFFFFFFFFFFFFFFFFFFFF
310
FFFFFFFFFFFFFFFFFFFFFFFFFFFFFFFFFFFFFFFFFFFFFFFFFFFFFFFFFFFFFFFF
310
52006F006F007400200045006E00740072007900000000000000000000000000
310
0000000000000000000000000000000000000000000000000000000000000000
310
16000500FFFFFFFFFFFFFFFF020000000A00030000000000C000000000000046
310
00000000000000000000000050524EA0149AC80103000000C000000000000000
310
01004F006C006500000000000000000000000000000000000000000000000000
310
0000000000000000000000000000000000000000000000000000000000000000
310
0A000200FFFFFFFFFFFFFFFFFFFFFFFF00000000000000000000000000000000
310
0000000000000000000000000000000000000000000000001400000000000000
310
010043006F006D0070004F0062006A0000000000000000000000000000000000
310
0000000000000000000000000000000000000000000000000000000000000000
310
120002010100000003000000FFFFFFFF00000000000000000000000000000000
310
0000000000000000000000000000000000000000010000004D00000000000000
310
01004F006C006500310030004E00610074006900760065000000000000000000
310
0000000000000000000000000000000000000000000000000000000000000000
310
1A000200FFFFFFFFFFFFFFFFFFFFFFFF00000000000000000000000000000000
310
0000000000000000000000000000000000000000040000000419000000000000
310
FEFFFFFF02000000FEFFFFFFFFFFFFFFFFFFFFFFFFFFFFFFFFFFFFFFFFFFFFFF
310
FFFFFFFFFFFFFFFFFFFFFFFFFFFFFFFFFFFFFFFFFFFFFFFFFFFFFFFFFFFFFFFF
310
FFFFFFFFFFFFFFFFFFFFFFFFFFFFFFFFFFFFFFFFFFFFFFFFFFFFFFFFFFFFFFFF
310
FFFFFFFFFFFFFFFFFFFFFFFFFFFFFFFFFFFFFFFFFFFFFFFFFFFFFFFFFFFFFFFF
310
FFFFFFFFFFFFFFFFFFFFFFFFFFFFFFFFFFFFFFFFFFFFFFFFFFFFFFFFFFFFFFFF
310
FFFFFFFFFFFFFFFFFFFFFFFFFFFFFFFFFFFFFFFFFFFFFFFFFFFFFFFFFFFFFFFF
310
FFFFFFFFFFFFFFFFFFFFFFFFFFFFFFFFFFFFFFFFFFFFFFFFFFFFFFFFFFFFFFFF
310
FFFFFFFFFFFFFFFFFFFFFFFFFFFFFFFFFFFFFFFFFFFFFFFFFFFFFFFFFFFFFFFF
310
FFFFFFFFFFFFFFFFFFFFFFFFFFFFFFFFFFFFFFFFFFFFFFFFFFFFFFFFFFFFFFFF
310
FFFFFFFFFFFFFFFFFFFFFFFFFFFFFFFFFFFFFFFFFFFFFFFFFFFFFFFFFFFFFFFF
310
FFFFFFFFFFFFFFFFFFFFFFFFFFFFFFFFFFFFFFFFFFFFFFFFFFFFFFFFFFFFFFFF
310
FFFFFFFFFFFFFFFFFFFFFFFFFFFFFFFFFFFFFFFFFFFFFFFFFFFFFFFFFFFFFFFF
310
FFFFFFFFFFFFFFFFFFFFFFFFFFFFFFFFFFFFFFFFFFFFFFFFFFFFFFFFFFFFFFFF
310
FFFFFFFFFFFFFFFFFFFFFFFFFFFFFFFFFFFFFFFFFFFFFFFFFFFFFFFFFFFFFFFF
310
FFFFFFFFFFFFFFFFFFFFFFFFFFFFFFFFFFFFFFFFFFFFFFFFFFFFFFFFFFFFFFFF
310
FFFFFFFFFFFFFFFFFFFFFFFFFFFFFFFFFFFFFFFFFFFFFFFFFFFFFFFFFFFFFFFF
310
0100000200000000000000000000000000000000406620050000000000000000
310
0000000000000000000000000000000000000000000000000000000000000000
310
0100FEFF030A0000FFFFFFFF0A00030000000000C00000000000004607000000
310
5042727573680007000000504272757368000700000050427275736800F439B2
310
7100000000000000000000000000000000000000000000000000000000000000
310
0000000000000000000000000000000000000000000000000000000000000000
310
0000000000000000000000000000000000000000000000000000000000000000
310
0000000000000000000000000000000000000000000000000000000000000000
310
0000000000000000000000000000000000000000000000000000000000000000
310
0000000000000000000000000000000000000000000000000000000000000000
310
0000000000000000000000000000000000000000000000000000000000000000
310
0000000000000000000000000000000000000000000000000000000000000000
310
0000000000000000000000000000000000000000000000000000000000000000
310
0000000000000000000000000000000000000000000000000000000000000000
310
0000000000000000000000000000000000000000000000000000000000000000
310
0000000000000000000000000000000000000000000000000000000000000000
310
00190000424DF618000000000000360000002800000075000000120000000100
310
180000000000C018000000000000000000000000000000000000FFFFFFFFFFFF
310
FFFFFFFFFFFFFFFFFFFFFFFFFFFFFFFFFFFF6666660808081212120C0C0C3535
310
35FFFFFFFFFFFFFFFFFFFFFFFFFFFFFFFFFFFFFFFFFFFFFFFFFFFFFFC0C0C045
310
4545151515121212121212121212131313141414151515151515161616181818
310
1818181919191919191E1E1E484848B0B0B0FFFFFFFFFFFFFFFFFFD4D4D42424
310
242424242424242E2E2EF1F1F1FFFFFFFFFFFFFFFFFFFFFFFFFFFFFFFFFFFFFF
310
FFFFDEDEDE4B4B4B3333333838383A3A3A3838382C2C2C5E5E5EEBEBEBFFFFFF
310
F1F1F14949494242424444444D4D4DF5F5F5FFFFFFA5A5A54343435050504848
310
48999999FFFFFFFFFFFFFFFFFFFFFFFFFFFFFFFFFFFFFFFFFFFFFFFFFFFFFFFF
310
FFFFFFFFFFBCBCBC6666667171716C6C6C9A9A9AFFFFFFFFFFFFFFFFFFE9E9E9
310
9393938181818080808282828484848484848585858888888888888989898B8B
310
8B8C8C8C8D8D8D8F8F8F90909090909092929291919199999900FFFFFFFFFFFF
310
FFFFFFFFFFFFFFFFFFFFFFFFFFFFFFFFFFFF5D5D5D0000000202020000002727
310
27FFFFFFFFFFFFFFFFFFFFFFFFFFFFFFFFFFFFFFFFFFFFFFFFA6A6A600000000
310
0000020202030303020202030303020202020202020202020202020202020202
310
0202020202020101010000000000000000006B6B6BFFFFFFFFFFFFCECECE0000
310
00000000000000080808EDEDEDFFFFFFFFFFFFFFFFFFFFFFFFFFFFFFFFFFFF9B
310
9B9B000000000000000000000000000000000000838383FFFFFFFFFFFFFFFFFF
310
ECECEC060606000000000000050505EEEEEEFFFFFF7B7B7B0000000000000000
310
00656565FFFFFFFFFFFFFFFFFFFFFFFFFFFFFFFFFFFFFFFFFFFFFFFFFFFFFFFF
310
FFFFFFFFFF8888880000000000000000003F3F3FFFFFFFFFFFFFC1C1C1000000
310
0000000000000000000000000000000000000000000000000000000000000000
310
0000000000000000000000000000000000000000000003030300FFFFFFFFFFFF
310
FFFFFFFFFFFFFFFFFFFFFFFFFFFFFFFFFFFF5E5E5E0000000404040000002525
310
25FFFFFFFFFFFFFFFFFFFFFFFFFFFFFFFFFFFFFFFFFFFEFEFE13131300000005
310
0505030303000000000000000000000000000000000000000000000000000000
310
000000000000000000000000050505010101000000CDCDCDFFFFFFCECECE0303
310
030202020101010B0B0BEDEDEDFFFFFFFFFFFFFFFFFFFFFFFFF7F7F759595900
310
0000000000050505000000000000383838D8D8D8FFFFFFFFFFFFFFFFFFFFFFFF
310
EDEDED0B0B0B0101010101010B0B0BEFEFEFFFFFFF7F7F7F0000000505050000
310
00686868FFFFFFFFFFFFFFFFFFFFFFFFFFFFFFFFFFFFFFFFFFFFFFFFFFFFFFFF
310
FFFFFFFFFF8D8D8D000000040404000000464646FFFFFFFFFFFF2E2E2E000000
310
0404040404040000000000000000000000000000000000000000000000000000
310
0000000000000000000000000003030305050503030312121200FFFFFFFFFFFF
310
FFFFFFFFFFFFFFFFFFFFFFFFFFFFFFFFFFFF5F5F5F0000000505050000002424
310
24FFFFFFFFFFFFFFFFFFFFFFFFFFFFFFFFFFFFFFFFFFD9D9D900000003030304
310
04040000007070709D9D9D9797979797979696969393939292928F8F8F8C8C8C
310
8A8A8A8B8B8B7E7E7E131313010101040404000000858585FFFFFFCECECE0404
310
040202020101010C0C0CEDEDEDFFFFFFFFFFFFFFFFFFCBCBCB23232300000003
310
03030404040000000606068D8D8DFFFFFFFFFFFFFFFFFFFFFFFFFFFFFFFFFFFF
310
EDEDED0C0C0C0101010101010B0B0BEFEFEFFFFFFF7F7F7F0000000505050000
310
00686868FFFFFFFFFFFFFFFFFFFFFFFFFFFFFFFFFFFFFFFFFFFFFFFFFFFFFFFF
310
FFFFFFFFFF8D8D8D000000050505000000444444FFFFFFFEFEFE050505010101
310
0404040101015A5A5A6666666464646464646464646464646363636262626262
310
626060606060606060605E5E5E00000004040403030312121200FFFFFFFFFFFF
310
FFFFFFFFFFFFFFFFFFFFFFFFFFFFFFFFFFFF5F5F5F0000000404040000002323
310
23FFFFFFFFFFFFFFFFFFFFFFFFFFFFFFFFFFFFFFFFFFD2D2D200000003030302
310
0202060606FFFFFFFFFFFFFFFFFFFFFFFFFFFFFFFFFFFFFFFFFFFFFFFFFFFFFF
310
FFFFFFFFFFFFFFFFFF666666000000040404000000808080FFFFFFCECECE0404
310
040202020101010B0B0BEDEDEDFFFFFFFFFFFF8C8C8C03030300000003030300
310
00000000003E3E3ED9D9D9FFFFFFFFFFFFFFFFFFFFFFFFFFFFFFFFFFFFFFFFFF
310
EDEDED0C0C0C0101010101010B0B0BEFEFEFFFFFFF7F7F7F0000000505050000
310
00676767FFFFFFFFFFFFFFFFFFFFFFFFFFFFFFFFFFFFFFFFFFFFFFFFFFFFFFFF
310
FFFFFFFFFF8D8D8D000000040404000000444444FFFFFFFFFFFF070707010101
310
030303000000F7F7F7FFFFFFFFFFFFFFFFFFFFFFFFFFFFFFFFFFFFFFFFFFFFFF
310
FFFFFFFFFFFFFFFFFFFFFFFFFF00000003030303030311111100FFFFFFFFFFFF
310
FFFFFFFFFFFFFFFFFFFFFFFFFFFFFFFFFFFF6161610000000404040000002222
310
22FFFFFFFFFFFFFFFFFFFFFFFFFFFFFFFFFFFFFFFFFFD3D3D300000002020202
310
0202070707FCFCFCFFFFFFFFFFFFFFFFFFFFFFFFFFFFFFFFFFFFFFFFFFFFFFFF
310
FFFFFFFFFFFFFFFFFF696969000000040404000000818181FFFFFFCECECE0404
310
040202020101010D0D0DFAFAFAEEEEEE4D4D4D0000000000000303030000000D
310
0D0D949494FFFFFFFFFFFFFFFFFFFFFFFFFFFFFFFFFFFFFFFFFFFFFFFFFFFFFF
310
EDEDED0C0C0C0101010101010B0B0BEFEFEFFFFFFF7F7F7F0000000505050000
310
00676767FFFFFFFFFFFFFFFFFFFFFFFFFFFFFFFFFFFFFFFFFFFFFFFFFFFFFFFF
310
FFFFFFFFFF8D8D8D000000040404000000434343FFFFFFFEFEFE050505010101
310
030303010101A9A9A9C1C1C1BEBEBEC1C1C1C1C1C1C2C2C2C3C3C3C4C4C4C5C5
310
C5C5C5C5C8C8C8CACACACCCCCC00000003030303030311111100FFFFFFFFFFFF
310
FFFFFFFFFFFFFFFFFFFFFFFFFFFFFFFFFFFF6161610000000404040000002121
310
21FFFFFFFFFFFFFFFFFFFFFFFFFFFFFFFFFFFFFFFFFFD5D5D500000002020202
310
0202060606FCFCFCFFFFFFFFFFFFFFFFFFFFFFFFFFFFFFFFFFFFFFFFFFFFFFFF
310
FFFFFFFFFFFFFFFFFF686868000000050505000000818181FFFFFFCCCCCC0303
310
030202020202020D0D0D9898981D1D1D000000030303040404010101545454E1
310
E1E1FFFFFFFFFFFFFFFFFFFFFFFFFFFFFFFFFFFFFFFFFFFFFFFFFFFFFFFFFFFF
310
EDEDED0C0C0C0101010101010B0B0BEFEFEFFFFFFF7F7F7F0000000505050000
310
00666666FFFFFFFFFFFFFFFFFFFFFFFFFFFFFFFFFFFFFFFFFFFFFFFFFFFFFFFF
310
FFFFFFFFFF8D8D8D000000040404000000424242FFFFFFFFFFFF1E1E1E000000
310
0505050303030000000000000000000000000000000101010101010101010202
310
0202020203030304040405050502020204040403030311111100FFFFFFFFFFFF
310
FFFFFFFFFFFFFFFFFFFFFFFFFFFFFFFFFFFF6363630000000505050000001F1F
310
1FFFFFFFFFFFFFFFFFFFFFFFFFFFFFFFFEFEFEFFFFFFD5D5D500000003030302
310
0202050505FCFCFCFFFFFFFFFFFFFFFFFFFFFFFFFFFFFFFFFFFFFFFFFFFFFFFF
310
FFFFFFFFFFFFFFFFFF686868000000040404000000818181FFFFFFCDCDCD0303
310
030202020303030707074545450000000000000404040303030303039E9E9EFF
310
FFFFFFFFFFFFFFFFFFFFFFFFFFFFFFFFFFFFFFFFFFFFFFFFFFFFFFFFFFFFFFFF
310
EDEDED0C0C0C0101010101010B0B0BEEEEEEFFFFFF7F7F7F0000000505050000
310
00666666FFFFFFFFFFFFFFFFFFFFFFFFFFFFFFFFFFFFFFFFFFFFFFFFFFFFFFFF
310
FFFFFFFFFF8D8D8D000000040404000000434343FFFFFFFFFFFF9C9C9C000000
310
0000000000000000000000000000000000000000000000000000000000000000
310
0000000000000000000000000004040405050503030311111100FFFFFFFFFFFF
310
FFFFFFFFFFFFFFFFFFFFFFFFFFFFFFFFFFFF6262620000000505050000002121
310
21FFFFFFFFFFFFFFFFFFFFFFFFFFFFFFFEFEFEFFFFFFD5D5D500000002020201
310
0101070707FDFDFDFFFFFFFFFFFFFFFFFFFFFFFFFFFFFFFFFFFFFFFFFFFFFFFF
310
FFFFFFFFFFFFFFFFFF696969000000050505000000818181FFFFFFCCCCCC0303
310
030202020101010D0D0DF6F6F6B3B3B319191900000003030302020200000057
310
5757E8E8E8FFFFFFFFFFFFFFFFFFFFFFFFFFFFFFFFFFFFFFFFFFFFFFFFFFFFFF
310
EDEDED0C0C0C0101010101010C0C0CEDEDEDFFFFFF7F7F7F0000000505050000
310
00666666FFFFFFFFFFFFFFFFFFFFFFFFFFFFFFFFFFFFFFFFFFFFFFFFFFFFFFFF
310
FFFFFFFFFF8D8D8D000000040404000000434343FFFFFFFFFFFFFFFFFFA8A8A8
310
3C3C3C2E2E2E2C2C2C2B2B2B2A2A2A2A2A2A2929292828282727272727272626
310
2626262625252525252524242400000004040403030311111100FFFFFFFFFFFF
310
FFFFFFFFFFFFFFFFFFFFFFFFFFFFFFFFFFFF6161610000000505050000002121
310
21FFFFFFFFFFFFFFFFFFFFFFFFFFFFFFFFFFFFFFFFFFD2D2D200000003030302
310
0202060606FFFFFFFFFFFFFFFFFFFFFFFFFFFFFFFFFFFFFFFFFFFFFFFFFFFFFF
310
FFFFFFFFFFFFFFFFFF666666000000050505000000808080FFFFFFCCCCCC0202
310
020202020101010B0B0BECECECFFFFFFE5E5E54D4D4D00000000000003030300
310
00001B1B1BABABABFFFFFFFFFFFFFFFFFFFFFFFFFFFFFFFFFFFFFFFFFFFFFFFF
310
EDEDED0C0C0C0101010101010B0B0BEEEEEEFFFFFF7F7F7F0000000505050000
310
00696969FFFFFFFFFFFFFFFFFFFFFFFFFFFFFFFFFFFFFFFFFFFFFFFFFFFFFFFF
310
FFFFFFFFFF909090000000040404000000414141FFFFFFFFFFFFFFFFFFFFFFFF
310
FFFFFFFDFDFDFAFAFAF9F9F9F9F9F9F7F7F7F7F7F7F7F7F7F5F5F5F5F5F5F4F4
310
F4F4F4F4F2F2F2F4F4F4F7F7F700000004040403030311111100FFFFFFFFFFFF
310
FFFFFFFFFFFFFFFFFFFFFFFFFFFFFFFFFFFF5F5F5F0000000505050000002222
310
22FFFFFFFFFFFFFFFFFFFFFFFFFFFFFFFFFFFFFFFFFFDBDBDB00000003030304
310
04040000005858588585858383838585858686868989898989898D8D8D8E8E8E
310
919191949494898989161616010101040404000000828282FFFFFFCCCCCC0303
310
030202020101010B0B0BECECECFFFFFFFFFFFFFFFFFF8F8F8F0A0A0A00000003
310
0303000000000000636363EDEDEDFFFFFFFFFFFFFFFFFFFFFFFFFFFFFFFFFFFF
310
ECECEC0C0C0C0101010101010B0B0BEFEFEFFFFFFF7F7F7F0000000505050000
310
00555555D8D8D8D1D1D1D1D1D1D2D2D2D2D2D2D2D2D2D4D4D4D4D4D4D4D4D4D5
310
D5D5DCDCDC565656000000050505000000424242FFFFFFFFFFFFFFFFFFFFFFFF
310
FFFFFFFFFFFFFFFFFFFFFFFFFFFFFFFFFFFFFFFFFFFFFFFFFFFFFFFFFFFFFFFF
310
FFFFFFFFFFFFFFFFFFFFFDFDFD00000003030303030310101000FFFFFFFFFFFF
310
FFFFFFFFFFFFFFFFFFFFFFFFFFFFFFFFFFFF5F5F5F0000000505050000002121
310
21FFFFFFFFFFFFFFFFFFFFFFFFFFFFFFFFFFFFFFFFFFFFFFFF1D1D1D00000004
310
0404040404000000000000000000000000000000000000000000000000000000
310
000000000000000000000000050505020202000000BFBFBFFFFFFFCBCBCB0202
310
020202020101010C0C0CECECECFFFFFFFFFFFFFFFFFFFFFFFFD2D2D235353500
310
00000101010202020000001F1F1FB5B5B5FFFFFFFFFFFFFFFFFFFFFFFFFFFFFF
310
ECECEC0C0C0C0101010101010B0B0BEFEFEFFFFFFF7F7F7F0000000505050404
310
0400000000000000000000000000000000000000000000000000000000000000
310
00000000000000000404040404040000006E6E6EFFFFFFFFFFFF7C7C7C464646
310
4D4D4D4D4D4D4D4D4D4D4D4D4D4D4D4D4D4D4D4D4D4D4D4D4C4C4C4D4D4D4E4E
310
4E4F4F4F50505055555530303000000004040401010115151500FFFFFFFFFFFF
310
FFFFFFFFFFFFFFFFFFFFFFFFFFFFFFFFFFFF6060600000000505050000001F1F
310
1FFFFFFFFFFFFFFFFFFFFFFFFFFFFFFFFFFFFFFFFFFFFFFFFFB3B3B300000000
310
0000000000000000000000000000000000000000000000000000000000000000
310
000000000000000000000000000000000000585858FFFFFFFFFFFFCCCCCC0303
310
030202020101010B0B0BEAEAEAFFFFFFFFFFFFFFFFFFFFFFFFFFFFFFFEFEFE77
310
7777010101000000010101000000000000656565F0F0F0FFFFFFFFFFFFFFFFFF
310
EDEDED0A0A0A0000000000000A0A0AEDEDEDFFFFFF7E7E7E0000000303030303
310
0303030302020202020202020202020202020202020202020202020202020202
310
0202020202030303020202000000040404DADADAFFFFFFFFFFFF3F3F3F000000
310
0000000000000000000000000000000000000000000000000000000000000000
310
0000000000000000000000000004040402020200000082828200F1F1F1F1F1F1
310
F1F1F1F1F1F1F2F2F2F2F2F2F3F3F3FFFFFF5F5F5F0000000505050000001E1E
310
1EFFFFFFFCFCFCFCFCFCFBFBFBFDFDFDFDFDFDFEFEFEFEFEFEFFFFFFC6C6C646
310
4646131313131313131313131313121212121212121212111111111111111111
310
1010101010101010100F0F0F1C1C1C848484FEFEFEFFFFFFFFFFFFCDCDCD0404
310
040202020101010B0B0BEBEBEBFFFFFFFFFFFFFFFFFFFFFFFFFFFFFFFFFFFFFF
310
FFFFC0C0C0222222030303060606030303000000222222BCBCBCFFFFFFFFFFFF
310
ECECEC0D0D0D0000000000000B0B0BECECECFFFFFF7E7E7E0000000000000000
310
0000000000000000000000000000000000000000000000000000000000000000
310
00000000000000000000001C1C1CBBBBBBFFFFFFFFFFFFFFFFFF3F3F3F000000
310
0000000000000000000000000000000000000000000000000000000000000000
310
000000000000000000000000000000000000004F4F4FFFFFFF00111111101010
310
1010101111111313131313131515151919190909090303030505050404040404
310
043030302E2E2E2F2F2F3131313333333333333636362F2F2F7F7F7FFFFFFFFF
310
FFFFFFFFFFFDFDFDFCFCFCFBFBFBFAFAFAF8F8F8F7F7F7F7F7F7F6F6F6F5F5F5
310
F3F3F3F3F3F3F0F0F0F4F4F4FFFFFFFFFFFFFFFFFFFFFFFFFFFFFFCECECE0404
310
040303030000000B0B0BEBEBEBFFFFFFFFFFFFFFFFFFFFFFFFFFFFFFFFFFFFFF
310
FFFFFFFFFFF5F5F5D3D3D3D5D5D5D3D3D3D1D1D1C6C6C6C9C9C9FCFCFCFFFFFF
310
FFFFFFD5D5D5D4D4D4D4D4D4D1D1D1FDFDFDFFFFFFDFDFDFBBBBBBBDBDBDBDBD
310
BDBBBBBBB9B9B9B8B8B8B5B5B5B4B4B4B3B3B3B1B1B1AFAFAFAEAEAEADADADAB
310
ABABA9A9A9A9A9A9C4C4C4FDFDFDFFFFFFFFFFFFFFFFFFFFFFFFB8B8B89B9B9B
310
9D9D9D9B9B9B9B9B9B9999999999999999999999999999999999999999999999
310
999A9A9A989898979797979797989898CCCCCCFFFFFFFFFFFF00010101000000
310
0000000000000000000000000000000000000303030505050505050404040404
310
04000000000000000000000000000000000000000000000000555555FFFFFFFF
310
FFFFFFFFFFFFFFFFFFFFFFFFFFFFFFFFFFFFFFFFFFFFFFFFFFFFFFFFFFFFFFFF
310
FFFFFFFFFFFFFFFFFFFFFFFFFFFFFFFFFFFFFFFFFFFFFFFFFFFFFFCECECE0404
310
040101010101010B0B0BEBEBEBFFFFFFFFFFFFFFFFFFFFFFFFFFFFFFFFFFFFFF
310
FFFFFFFFFFFFFFFFFFFFFFFFFFFFFFFFFFFFFFFFFFFFFFFFFFFFFFFFFFFFFFFF
310
F5F5F57979797272727373737A7A7AF6F6F6FFFFFFFFFFFFFFFFFFFFFFFFFFFF
310
FFFFFFFFFFFFFFFFFFFFFFFFFFFFFFFFFFFFFFFFFFFFFFFFFFFFFFFFFFFFFFFF
310
FFFFFFFFFFFFFFFFFFFFFFFFFFFFFFFFFFFFFFFFFFFFFFFFFFFFFFFFFFFFFFFF
310
FFFFFFFFFFFFFFFFFFFFFFFFFFFFFFFFFFFFFFFFFFFFFFFFFFFFFFFFFFFFFFFF
310
FFFFFFFFFFFFFFFFFFFFFFFFFFFFFFFFFFFFFFFFFFFFFFFFFF00030303020202
310
0303030202020303030303030303030303030303030303030303030303030303
310
030303030303030303030303030303030303030303030000005A5A5AFFFFFFFF
310
FFFFFFFFFFFFFFFFFFFFFFFFFFFFFFFFFFFFFFFFFFFFFFFFFFFFFFFFFFFFFFFF
310
FFFFFFFFFFFFFFFFFFFFFFFFFFFFFFFFFFFFFFFFFFFFFFFFFFFFFFCECECE0303
310
030202020101010A0A0AEBEBEBFFFFFFFFFFFFFFFFFFFFFFFFFFFFFFFFFFFFFF
310
FFFFFFFFFFFFFFFFFFFFFFFFFFFFFFFFFFFFFFFFFFFFFFFFFFFFFFFFFFFFFFFF
310
EDEDED000000000000000000000000EDEDEDFFFFFFFFFFFFFFFFFFFFFFFFFFFF
310
FFFFFFFFFFFFFFFFFFFFFFFFFFFFFFFFFFFFFFFFFFFFFFFFFFFFFFFFFFFFFFFF
310
FFFFFFFFFFFFFFFFFFFFFFFFFFFFFFFFFFFFFFFFFFFFFFFFFFFFFFFFFFFFFFFF
310
FFFFFFFFFFFFFFFFFFFFFFFFFFFFFFFFFFFFFFFFFFFFFFFFFFFFFFFFFFFFFFFF
310
FFFFFFFFFFFFFFFFFFFFFFFFFFFFFFFFFFFFFFFFFFFFFFFFFF00141414121212
310
1212121212121111111212121111111111111111111111111111111010101010
310
101010100F0F0F1010101010100F0F0F0F0F0F0F0F0F030303646464FFFFFFFF
310
FFFFFFFFFFFFFFFFFFFFFFFFFFFFFFFFFFFFFFFFFFFFFFFFFFFFFFFFFFFFFFFF
310
FFFFFFFFFFFFFFFFFFFFFFFFFFFFFFFFFFFFFFFFFFFFFFFFFFFFFFD0D0D00A0A
310
0A070707060606111111ECECECFFFFFFFFFFFFFFFFFFFFFFFFFFFFFFFFFFFFFF
310
FFFFFFFFFFFFFFFFFFFFFFFFFFFFFFFFFFFFFFFFFFFFFFFFFFFFFFFFFFFFFFFF
310
F0F0F00E0E0E0000000101010C0C0CEFEFEFFFFFFFFFFFFFFFFFFFFFFFFFFFFF
310
FFFFFFFFFFFFFFFFFFFFFFFFFFFFFFFFFFFFFFFFFFFFFFFFFFFFFFFFFFFFFFFF
310
FFFFFFFFFFFFFFFFFFFFFFFFFFFFFFFFFFFFFFFFFFFFFFFFFFFFFFFFFFFFFFFF
310
FFFFFFFFFFFFFFFFFFFFFFFFFFFFFFFFFFFFFFFFFFFFFFFFFFFFFFFFFFFFFFFF
310
FFFFFFFFFFFFFFFFFFFFFFFFFFFFFFFFFFFFFFFFFFFFFFFFFF00000000000000
310
0000000000000000000000000000000000000000000000000000000000000000
310
0000000000000000000000000000000000000000000000000000000000004300
310
3A005C0044006F00630075006D0065006E0074007300200061006E0064002000
310
530065007400740069006E00670073005C00740061006B006500690073006800
310
69005C004D007900200044006F00630075006D0065006E00740073005C004900
310
6E0064007500730074007200690061006C00500072006F006400750063007400
310
73004400690076005C00ED30B430000000000000000000000000000000000000
310
0000000000000000000000000000000000000000000000000000000000000000
  1
OLE
  0
POINT
  5
7E9
330
1F
100
AcDbEntity
  8
KCAD_DIMS
 62
     7
370
    15
100
AcDbPoint
 10
152.6888657050479
 20
125.5585106382972
 30
0.0
  0
POINT
  5
7EA
330
1F
100
AcDbEntity
  8
KCAD_DIMS
 62
     7
370
    15
100
AcDbPoint
 10
152.6888657050478
 20
139.5585106382972
 30
0.0
  0
LINE
  5
7EB
330
1F
100
AcDbEntity
  8
KCAD_DIMS
 62
     7
370
    -2
100
AcDbLine
 10
153.6888657050479
 20
125.5585106382972
 30
0.0
 11
154.7928739416751
 21
125.5585106382972
 31
0.0
  0
LINE
  5
7EC
330
1F
100
AcDbEntity
  8
KCAD_DIMS
 62
     7
370
    -2
100
AcDbLine
 10
153.7928739416751
 20
125.5585106382972
 30
0.0
 11
153.7824172584099
 21
146.4002232892859
 31
0.0
  0
SOLID
  5
7ED
330
1F
100
AcDbEntity
  8
KCAD_DIMS
 62
     7
370
    15
100
AcDbTrace
 10
153.7928739416751
 20
125.5585106382972
 30
0.0
 11
154.2095406083419
 21
128.0585106382972
 31
0.0
 12
153.3762072750084
 22
128.0585106382972
 32
0.0
 13
153.3762072750084
 23
128.0585106382972
 33
0.0
  0
LINE
  5
7EF
330
1F
100
AcDbEntity
  8
KCAD_DIMS
 62
     7
370
    -2
100
AcDbLine
 10
152.6888657050479
 20
125.5585106382972
 30
0.0
 11
152.6888657050479
 21
125.5585106382972
 31
0.0
  0
MTEXT
  5
7F0
330
1F
100
AcDbEntity
  8
KCAD_DIMS
 62
     7
100
AcDbMText
 10
150.8584909416752
 20
113.7471277596524
 30
0.0
 40
3.2
 41
0.0
 71
     5
 72
     1
  1
\A1;%%c28{\H2.134400;\S+0^ -0.1;}
  7
KCADDIMSTANDARD
 11
-1.271037311859069E-15
 21
1.0
 31
0.0
 73
     1
 44
1.0
  0
LINE
  5
7F1
330
1F
100
AcDbEntity
  8
0
  6
Continuous
 62
     7
370
    15
100
AcDbLine
 10
153.7928739416751
 20
125.5585106382972
 30
0.0
 11
153.817268568927
 21
105.7635952263303
 31
0.0
  0
POINT
  5
7F2
330
1F
100
AcDbEntity
  8
KCAD_DIMS
 62
     7
370
    15
100
AcDbPoint
 10
208.788865705048
 20
125.0585106382975
 30
0.0
  0
POINT
  5
7F3
330
1F
100
AcDbEntity
  8
KCAD_DIMS
 62
     7
370
    15
100
AcDbPoint
 10
208.2888657050479
 20
139.5585106382974
 30
0.0
  0
LINE
  5
7F4
330
1F
100
AcDbEntity
  8
KCAD_DIMS
 62
     7
370
    -2
100
AcDbLine
 10
209.788865705048
 20
125.0585106382975
 30
0.0
 11
211.4564910630299
 21
125.0585106382975
 31
0.0
  0
LINE
  5
7F5
330
1F
100
AcDbEntity
  8
KCAD_DIMS
 62
     7
370
    -2
100
AcDbLine
 10
210.173277725068
 20
125.0113084153039
 30
0.0
 11
210.2022861317933
 21
145.1680765087103
 31
0.0
  0
SOLID
  5
7F6
330
1F
100
AcDbEntity
  8
KCAD_DIMS
 62
     7
370
    15
100
AcDbTrace
 10
210.173277725068
 20
125.0113084153039
 30
0.0
 11
210.5899443917347
 21
127.5113084153039
 31
0.0
 12
209.7566110584012
 22
127.5113084153039
 32
0.0
 13
209.7566110584012
 23
127.5113084153039
 33
0.0
  0
LINE
  5
7F8
330
1F
100
AcDbEntity
  8
KCAD_DIMS
 62
     7
370
    -2
100
AcDbLine
 10
208.788865705048
 20
125.0585106382975
 30
0.0
 11
208.788865705048
 21
125.0585106382975
 31
0.0
  0
MTEXT
  5
7F9
330
1F
100
AcDbEntity
  8
KCAD_DIMS
 62
     7
100
AcDbMText
 10
207.238894725068
 20
113.8099913880229
 30
0.0
 40
3.199999999999989
 41
0.0
 71
     5
 72
     1
  1
\A1;%%c29{\H2.134400;\S+0^ -0.1;}
  7
KCADDIMSTANDARD
 11
-1.276756478318930E-15
 21
1.0
 31
0.0
 73
     1
 44
1.0
  0
LINE
  5
7FA
330
1F
100
AcDbEntity
  8
0
  6
Continuous
 62
     7
370
    15
100
AcDbLine
 10
210.173277725068
 20
125.0113084153039
 30
0.0
 11
210.2022861317933
 21
106.2043113505763
 31
0.0
  0
TEXT
  5
868
330
1F
100
AcDbEntity
  8
99
  6
Continuous
 62
     7
370
    30
100
AcDbText
 10
181.2400509544712
 20
19.46754352732929
 30
0.0
 40
2.5
  1
図番登録
 41
0.9
  7
KCADTEXTSTANDARD
100
AcDbText
1001
Sigma
1000

  0
TEXT
  5
869
330
1F
100
AcDbEntity
  8
99
  6
Continuous
 62
     7
370
    30
100
AcDbText
 10
181.6707125637538
 20
14.22365513699518
 30
0.0
 40
2.0
  1
2008.5.15
 41
0.7000000000000001
  7
KCADTEXTSTANDARD
100
AcDbText
1001
Sigma
1000

  0
ENDSEC
  0
SECTION
  2
OBJECTS
  0
DICTIONARY
  5
C
330
0
100
AcDbDictionary
281
     1
  3
ACAD_COLOR
350
6C
  3
ACAD_GROUP
350
D
  3
ACAD_LAYOUT
350
1A
  3
ACAD_MATERIAL
350
6B
  3
ACAD_MLINESTYLE
350
17
  3
ACAD_PLOTSETTINGS
350
19
  3
ACAD_PLOTSTYLENAME
350
E
  3
ACAD_TABLESTYLE
350
92
  3
ACDBHEADERROUNDTRIPXREC
350
93E
  3
AcDbVariableDictionary
350
59
  3
DWGPROPS
350
941
  3
KCADFRAMEINFO
350
2A7
  0
DICTIONARY
  5
6C
102
{ACAD_REACTORS
330
C
102
}
330
C
100
AcDbDictionary
281
     1
  0
DICTIONARY
  5
D
102
{ACAD_REACTORS
330
C
102
}
330
C
100
AcDbDictionary
281
     1
  3
*A1
350
583
  3
*A2
350
584
  3
*A3
350
6E5
  3
*A4
350
6E6
  3
*A5
350
6EF
  0
DICTIONARY
  5
1A
102
{ACAD_REACTORS
330
C
102
}
330
C
100
AcDbDictionary
281
     1
  3
Model
350
22
  3
ﾚｲｱｳﾄ1
350
22F
  0
DICTIONARY
  5
6B
102
{ACAD_REACTORS
330
C
102
}
330
C
100
AcDbDictionary
281
     1
  0
DICTIONARY
  5
17
102
{ACAD_REACTORS
330
C
102
}
330
C
100
AcDbDictionary
281
     1
  3
Standard
350
18
  0
DICTIONARY
  5
19
102
{ACAD_REACTORS
330
C
102
}
330
C
100
AcDbDictionary
281
     1
  0
ACDBDICTIONARYWDFLT
  5
E
102
{ACAD_REACTORS
330
C
102
}
330
C
100
AcDbDictionary
281
     1
  3
Normal
350
F
100
AcDbDictionaryWithDefault
340
F
  0
DICTIONARY
  5
92
102
{ACAD_REACTORS
330
C
102
}
330
C
100
AcDbDictionary
281
     1
  0
DICTIONARY
  5
93E
102
{ACAD_REACTORS
330
C
102
}
330
C
100
AcDbDictionary
281
     1
  3
COLORDICT
350
93F
  3
MATERIALDICT
350
940
  0
DICTIONARY
  5
59
102
{ACAD_REACTORS
330
C
102
}
330
C
100
AcDbDictionary
281
     1
  3
DIMASSOC
350
93D
  0
XRECORD
  5
941
102
{ACAD_REACTORS
330
C
102
}
330
C
100
AcDbXrecord
280
     1
  1
DWGPROPS COOKIE
  2

  3

  4

  6

  7

  8
fottrem
  9

300
=
301
=
302
=
303
=
304
=
305
=
306
=
307
=
308
=
309
=
 40
0.0
 41
2453353.717125822
 42
2453294.047245174
  1

 90
        0
  0
XRECORD
  5
2A7
102
{ACAD_REACTORS
330
C
102
}
330
C
100
AcDbXrecord
280
     1
  1
A4
 40
297.0
 40
210.0
 90
        1
 90
        1
  0
GROUP
  5
583
102
{ACAD_REACTORS
330
D
102
}
330
D
100
AcDbGroup
300
group from kcad family
 70
     1
 71
     1
340
585
340
587
340
589
340
58B
  0
GROUP
  5
584
102
{ACAD_REACTORS
330
D
102
}
330
D
100
AcDbGroup
300
line with arrowBlockRef from kcad family
 70
     1
 71
     1
340
585
340
587
  0
GROUP
  5
6E5
102
{ACAD_REACTORS
330
D
102
}
330
D
100
AcDbGroup
300
group from kcad family
 70
     1
 71
     1
340
6E7
340
6E9
340
6EB
340
6ED
  0
GROUP
  5
6E6
102
{ACAD_REACTORS
330
D
102
}
330
D
100
AcDbGroup
300
line with arrowBlockRef from kcad family
 70
     1
 71
     1
340
6E7
340
6E9
  0
GROUP
  5
6EF
102
{ACAD_REACTORS
330
D
102
}
330
D
100
AcDbGroup
300
group from kcad family
 70
     1
 71
     1
340
6F0
  0
LAYOUT
  5
22
102
{ACAD_REACTORS
330
1A
102
}
330
1A
100
AcDbPlotSettings
  1

  2
DWF ePlot.pc3
  4
ISO_A3_(297.00_x_420.00_MM)
  6

 40
5.793749809265136
 41
17.79375076293945
 42
5.79376220703125
 43
17.79376220703125
 44
297.0
 45
420.0
 46
0.0
 47
0.0
 48
0.0
 49
0.0
140
0.0
141
0.0
142
1.0
143
1.0
 70
 11952
 72
     1
 73
     0
 74
     2
  7

 75
    33
147
1.0
148
0.0
149
0.0
100
AcDbLayout
  1
Model
 70
     1
 71
     0
 10
0.0
 20
0.0
 11
297.0
 21
210.0
 12
0.0
 22
0.0
 32
0.0
 14
12.47329910140999
 24
4.104941990854689
 34
0.0
 15
286.6338193791157
 25
205.0523593466424
 35
0.0
146
0.0
 13
0.0
 23
0.0
 33
0.0
 16
1.0
 26
0.0
 36
0.0
 17
0.0
 27
1.0
 37
0.0
 76
     0
330
1F
  0
LAYOUT
  5
22F
102
{ACAD_REACTORS
330
1A
102
}
330
1A
100
AcDbPlotSettings
  1

  2
D:\ACAD2000\plotters\HP DesignJet 700(System).pc3
  4

  6

 40
0.0
 41
0.0
 42
0.0
 43
0.0
 44
0.0
 45
0.0
 46
0.0
 47
0.0
 48
0.0
 49
0.0
140
0.0
141
0.0
142
1.0
143
1.0
 70
   688
 72
     0
 73
     0
 74
     5
  7
monochrome.ctb
 75
    16
147
1.0
148
0.0
149
0.0
100
AcDbLayout
  1
ﾚｲｱｳﾄ1
 70
     1
 71
     1
 10
0.0
 20
0.0
 11
12.0
 21
9.0
 12
0.0
 22
0.0
 32
0.0
 14
0.0
 24
0.0
 34
0.0
 15
0.0
 25
0.0
 35
0.0
146
0.0
 13
0.0
 23
0.0
 33
0.0
 16
1.0
 26
0.0
 36
0.0
 17
0.0
 27
1.0
 37
0.0
 76
     0
330
73
  0
MLINESTYLE
  5
18
102
{ACAD_REACTORS
330
17
102
}
330
17
100
AcDbMlineStyle
  2
Standard
 70
     0
  3

 62
   256
 51
90.0
 52
90.0
 71
     2
 49
0.5
 62
   256
  6
BYLAYER
 49
-0.5
 62
   256
  6
BYLAYER
  0
ACDBPLACEHOLDER
  5
F
102
{ACAD_REACTORS
330
E
102
}
330
E
  0
XRECORD
  5
93F
102
{ACAD_REACTORS
330
93E
102
}
330
93E
100
AcDbXrecord
280
     1
340
6C
  0
XRECORD
  5
940
102
{ACAD_REACTORS
330
93E
102
}
330
93E
100
AcDbXrecord
280
     1
340
6B
  0
DICTIONARYVAR
  5
93D
102
{ACAD_REACTORS
330
59
102
}
330
59
100
DictionaryVariables
280
     0
  1
1
  0
ENDSEC
  0
EOF
