  0
SECTION
  2
HEADER
  9
$ACADVER
  1
AC1015
  9
$ACADMAINTVER
 70
     6
  9
$DWGCODEPAGE
  3
ANSI_932
  9
$INSBASE
 10
0.0
 20
0.0
 30
0.0
  9
$EXTMIN
 10
-182.0
 20
-140.6088174642937
 30
0.0
  9
$EXTMAX
 10
201.5
 20
140.5
 30
0.0
  9
$LIMMIN
 10
-210.0
 20
-148.5
  9
$LIMMAX
 10
210.0
 20
148.5
  9
$ORTHOMODE
 70
     0
  9
$REGENMODE
 70
     1
  9
$FILLMODE
 70
     1
  9
$QTEXTMODE
 70
     0
  9
$MIRRTEXT
 70
     1
  9
$LTSCALE
 40
0.2
  9
$ATTMODE
 70
     1
  9
$TEXTSIZE
 40
3.2
  9
$TRACEWID
 40
1.0
  9
$TEXTSTYLE
  7
KCADTEXTSTANDARD
  9
$CLAYER
  8
0
  9
$CELTYPE
  6
Continuous
  9
$CECOLOR
 62
   134
  9
$CELTSCALE
 40
1.0
  9
$DISPSILH
 70
     0
  9
$DIMSCALE
 40
1.0
  9
$DIMASZ
 40
3.0
  9
$DIMEXO
 40
1.0
  9
$DIMDLI
 40
8.0
  9
$DIMRND
 40
0.0
  9
$DIMDLE
 40
0.0
  9
$DIMEXE
 40
1.0
  9
$DIMTP
 40
0.0
  9
$DIMTM
 40
0.0
  9
$DIMTXT
 40
3.2
  9
$DIMCEN
 40
2.5
  9
$DIMTSZ
 40
0.0
  9
$DIMTOL
 70
     0
  9
$DIMLIM
 70
     0
  9
$DIMTIH
 70
     0
  9
$DIMTOH
 70
     0
  9
$DIMSE1
 70
     0
  9
$DIMSE2
 70
     0
  9
$DIMTAD
 70
     1
  9
$DIMZIN
 70
     8
  9
$DIMBLK
  1

  9
$DIMASO
 70
     1
  9
$DIMSHO
 70
     1
  9
$DIMPOST
  1

  9
$DIMAPOST
  1

  9
$DIMALT
 70
     0
  9
$DIMALTD
 70
     2
  9
$DIMALTF
 40
25.4
  9
$DIMLFAC
 40
1.0
  9
$DIMTOFL
 70
     1
  9
$DIMTVP
 40
0.0
  9
$DIMTIX
 70
     0
  9
$DIMSOXD
 70
     0
  9
$DIMSAH
 70
     1
  9
$DIMBLK1
  1
KCAD_OPEN30
  9
$DIMBLK2
  1
KCAD_OPEN30
  9
$DIMSTYLE
  2
Standard
  9
$DIMCLRD
 70
     0
  9
$DIMCLRE
 70
     0
  9
$DIMCLRT
 70
     0
  9
$DIMTFAC
 40
0.667
  9
$DIMGAP
 40
0.5333000000000001
  9
$DIMJUST
 70
     0
  9
$DIMSD1
 70
     0
  9
$DIMSD2
 70
     0
  9
$DIMTOLJ
 70
     1
  9
$DIMTZIN
 70
     8
  9
$DIMALTZ
 70
     0
  9
$DIMALTTZ
 70
     0
  9
$DIMUPT
 70
     0
  9
$DIMDEC
 70
     3
  9
$DIMTDEC
 70
     3
  9
$DIMALTU
 70
     2
  9
$DIMALTTD
 70
     2
  9
$DIMTXSTY
  7
KCADDIMSTANDARD
  9
$DIMAUNIT
 70
     0
  9
$DIMADEC
 70
     3
  9
$DIMALTRND
 40
0.0
  9
$DIMAZIN
 70
     2
  9
$DIMDSEP
 70
    46
  9
$DIMATFIT
 70
     3
  9
$DIMFRAC
 70
     0
  9
$DIMLDRBLK
  1
KCAD_OPEN
  9
$DIMLUNIT
 70
     2
  9
$DIMLWD
 70
    -2
  9
$DIMLWE
 70
    -2
  9
$DIMTMOVE
 70
     0
  9
$LUNITS
 70
     2
  9
$LUPREC
 70
     4
  9
$SKETCHINC
 40
1.0
  9
$FILLETRAD
 40
5.0
  9
$AUNITS
 70
     0
  9
$AUPREC
 70
     0
  9
$MENU
  1
.
  9
$ELEVATION
 40
0.0
  9
$PELEVATION
 40
0.0
  9
$THICKNESS
 40
0.0
  9
$LIMCHECK
 70
     0
  9
$CHAMFERA
 40
5.0
  9
$CHAMFERB
 40
5.0
  9
$CHAMFERC
 40
5.0
  9
$CHAMFERD
 40
0.7853981633974483
  9
$SKPOLY
 70
     0
  9
$TDCREATE
 40
2453354.092125822
  9
$TDUCREATE
 40
2453353.717125822
  9
$TDUPDATE
 40
2453294.43220485
  9
$TDUUPDATE
 40
2453294.05720485
  9
$TDINDWG
 40
0.1317244676
  9
$TDUSRTIMER
 40
0.1317012616
  9
$USRTIMER
 70
     1
  9
$ANGBASE
 50
0.0
  9
$ANGDIR
 70
     0
  9
$PDMODE
 70
     0
  9
$PDSIZE
 40
0.0
  9
$PLINEWID
 40
0.0
  9
$SPLFRAME
 70
     0
  9
$SPLINETYPE
 70
     6
  9
$SPLINESEGS
 70
     8
  9
$HANDSEED
  5
BB8
  9
$SURFTAB1
 70
     6
  9
$SURFTAB2
 70
     6
  9
$SURFTYPE
 70
     6
  9
$SURFU
 70
     6
  9
$SURFV
 70
     6
  9
$UCSBASE
  2

  9
$UCSNAME
  2

  9
$UCSORG
 10
0.0
 20
0.0
 30
0.0
  9
$UCSXDIR
 10
1.0
 20
0.0
 30
0.0
  9
$UCSYDIR
 10
0.0
 20
1.0
 30
0.0
  9
$UCSORTHOREF
  2

  9
$UCSORTHOVIEW
 70
     0
  9
$UCSORGTOP
 10
0.0
 20
0.0
 30
0.0
  9
$UCSORGBOTTOM
 10
0.0
 20
0.0
 30
0.0
  9
$UCSORGLEFT
 10
0.0
 20
0.0
 30
0.0
  9
$UCSORGRIGHT
 10
0.0
 20
0.0
 30
0.0
  9
$UCSORGFRONT
 10
0.0
 20
0.0
 30
0.0
  9
$UCSORGBACK
 10
0.0
 20
0.0
 30
0.0
  9
$PUCSBASE
  2

  9
$PUCSNAME
  2

  9
$PUCSORG
 10
0.0
 20
0.0
 30
0.0
  9
$PUCSXDIR
 10
1.0
 20
0.0
 30
0.0
  9
$PUCSYDIR
 10
0.0
 20
1.0
 30
0.0
  9
$PUCSORTHOREF
  2

  9
$PUCSORTHOVIEW
 70
     0
  9
$PUCSORGTOP
 10
0.0
 20
0.0
 30
0.0
  9
$PUCSORGBOTTOM
 10
0.0
 20
0.0
 30
0.0
  9
$PUCSORGLEFT
 10
0.0
 20
0.0
 30
0.0
  9
$PUCSORGRIGHT
 10
0.0
 20
0.0
 30
0.0
  9
$PUCSORGFRONT
 10
0.0
 20
0.0
 30
0.0
  9
$PUCSORGBACK
 10
0.0
 20
0.0
 30
0.0
  9
$USERI1
 70
     0
  9
$USERI2
 70
     0
  9
$USERI3
 70
     0
  9
$USERI4
 70
   257
  9
$USERI5
 70
     0
  9
$USERR1
 40
0.0
  9
$USERR2
 40
0.0
  9
$USERR3
 40
0.0
  9
$USERR4
 40
0.0
  9
$USERR5
 40
0.0
  9
$WORLDVIEW
 70
     1
  9
$SHADEDGE
 70
     3
  9
$SHADEDIF
 70
    70
  9
$TILEMODE
 70
     1
  9
$MAXACTVP
 70
    48
  9
$PINSBASE
 10
0.0
 20
0.0
 30
0.0
  9
$PLIMCHECK
 70
     0
  9
$PEXTMIN
 10
0.0
 20
0.0
 30
0.0
  9
$PEXTMAX
 10
0.0
 20
0.0
 30
0.0
  9
$PLIMMIN
 10
0.0
 20
0.0
  9
$PLIMMAX
 10
12.0
 20
9.0
  9
$UNITMODE
 70
     0
  9
$VISRETAIN
 70
     1
  9
$PLINEGEN
 70
     0
  9
$PSLTSCALE
 70
     1
  9
$TREEDEPTH
 70
  3020
  9
$CMLSTYLE
  2
Standard
  9
$CMLJUST
 70
     0
  9
$CMLSCALE
 40
20.0
  9
$PROXYGRAPHICS
 70
     1
  9
$MEASUREMENT
 70
     1
  9
$CELWEIGHT
370
    15
  9
$ENDCAPS
280
     0
  9
$JOINSTYLE
280
     0
  9
$LWDISPLAY
290
     0
  9
$INSUNITS
 70
     0
  9
$HYPERLINKBASE
  1

  9
$STYLESHEET
  1

  9
$XEDIT
290
     0
  9
$CEPSNTYPE
380
     0
  9
$PSTYLEMODE
290
     1
  9
$FINGERPRINTGUID
  2
{1989D620-E742-11D2-9219-00105A146177}
  9
$VERSIONGUID
  2
{225454FC-1AD4-4EF8-BFFF-CFE1980472DA}
  9
$EXTNAMES
290
     1
  9
$PSVPSCALE
 40
0.0
  9
$OLESTARTUP
290
     0
  0
ENDSEC
  0
SECTION
  2
CLASSES
  0
CLASS
  1
ACDBDICTIONARYWDFLT
  2
AcDbDictionaryWithDefault
  3
ObjectDBX Classes
 90
        0
280
     0
281
     0
  0
CLASS
  1
ACDBPLACEHOLDER
  2
AcDbPlaceHolder
  3
ObjectDBX Classes
 90
        0
280
     0
281
     0
  0
CLASS
  1
LAYOUT
  2
AcDbLayout
  3
ObjectDBX Classes
 90
        0
280
     0
281
     0
  0
CLASS
  1
DICTIONARYVAR
  2
AcDbDictionaryVar
  3
ObjectDBX Classes
 90
        0
280
     0
281
     0
  0
CLASS
  1
TABLESTYLE
  2
AcDbTableStyle
  3
ObjectDBX Classes
 90
     2047
280
     0
281
     0
  0
ENDSEC
  0
SECTION
  2
TABLES
  0
TABLE
  2
VPORT
  5
8
330
0
100
AcDbSymbolTable
 70
     2
  0
VPORT
  5
97
330
8
100
AcDbSymbolTableRecord
100
AcDbViewportTableRecord
  2
*Active
 70
     0
 10
0.0
 20
0.0
 11
1.0
 21
1.0
 12
9.75
 22
-0.0544087321468254
 13
0.0
 23
0.0
 14
10.0
 24
10.0
 15
10.0
 25
10.0
 16
0.0
 26
0.0
 36
1.0
 17
0.0
 27
0.0
 37
0.0
 40
246.4260205771454
 41
2.20035778175313
 42
50.0
 43
0.0
 44
0.0
 50
0.0
 51
0.0
 71
    16
 72
 20000
 73
     1
 74
     1
 75
     0
 76
     0
 77
     0
 78
     0
281
     0
 65
     0
110
0.0
120
0.0
130
0.0
111
1.0
121
0.0
131
0.0
112
0.0
122
1.0
132
0.0
 79
     0
146
0.0
  0
ENDTAB
  0
TABLE
  2
LTYPE
  5
5
330
0
100
AcDbSymbolTable
 70
     6
  0
LTYPE
  5
14
330
5
100
AcDbSymbolTableRecord
100
AcDbLinetypeTableRecord
  2
ByBlock
 70
     0
  3

 72
    65
 73
     0
 40
0.0
  0
LTYPE
  5
15
330
5
100
AcDbSymbolTableRecord
100
AcDbLinetypeTableRecord
  2
ByLayer
 70
     0
  3

 72
    65
 73
     0
 40
0.0
  0
LTYPE
  5
16
330
5
100
AcDbSymbolTableRecord
100
AcDbLinetypeTableRecord
  2
Continuous
 70
     0
  3
Solid line
 72
    65
 73
     0
 40
0.0
  0
LTYPE
  5
B4C
330
5
100
AcDbSymbolTableRecord
100
AcDbLinetypeTableRecord
  2
CENTER
 70
     0
  3
Center ____ _ ____ _ ____ _ ____ _ ____ _ ____
 72
    65
 73
     4
 40
50.8
 49
31.75
 74
     4
 75
     0
340
0
 46
1.0
 50
0.0
 44
0.0
 45
0.0
 49
-6.349999999999999
 74
     4
 75
     0
340
0
 46
1.0
 50
0.0
 44
0.0
 45
0.0
 49
6.349999999999999
 74
     4
 75
     0
340
0
 46
1.0
 50
0.0
 44
0.0
 45
0.0
 49
-6.349999999999999
 74
     4
 75
     0
340
0
 46
1.0
 50
0.0
 44
0.0
 45
0.0
  0
LTYPE
  5
B4D
330
5
100
AcDbSymbolTableRecord
100
AcDbLinetypeTableRecord
  2
DASHED
 70
     0
  3
Dashed __ __ __ __ __ __ __ __ __ __ __ __ __ _
 72
    65
 73
     2
 40
19.05
 49
12.7
 74
     4
 75
     0
340
0
 46
1.0
 50
0.0
 44
0.0
 45
0.0
 49
-6.349999999999999
 74
     4
 75
     0
340
0
 46
1.0
 50
0.0
 44
0.0
 45
0.0
  0
LTYPE
  5
B4E
330
5
100
AcDbSymbolTableRecord
100
AcDbLinetypeTableRecord
  2
HIDDEN
 70
     0
  3
Hidden __ __ __ __ __ __ __ __ __ __ __ __ __ _
 72
    65
 73
     2
 40
9.524999999999999
 49
6.349999999999999
 74
     4
 75
     0
340
0
 46
1.0
 50
0.0
 44
0.0
 45
0.0
 49
-3.174999999999999
 74
     4
 75
     0
340
0
 46
1.0
 50
0.0
 44
0.0
 45
0.0
  0
LTYPE
  5
B4F
330
5
100
AcDbSymbolTableRecord
100
AcDbLinetypeTableRecord
  2
PHANTOM
 70
     0
  3
Phantom ______  __  __  ______  __  __  ______
 72
    65
 73
     6
 40
63.50000000000001
 49
31.75
 74
     4
 75
     0
340
0
 46
1.0
 50
0.0
 44
0.0
 45
0.0
 49
-6.349999999999999
 74
     4
 75
     0
340
0
 46
1.0
 50
0.0
 44
0.0
 45
0.0
 49
6.349999999999999
 74
     4
 75
     0
340
0
 46
1.0
 50
0.0
 44
0.0
 45
0.0
 49
-6.349999999999999
 74
     4
 75
     0
340
0
 46
1.0
 50
0.0
 44
0.0
 45
0.0
 49
6.349999999999999
 74
     4
 75
     0
340
0
 46
1.0
 50
0.0
 44
0.0
 45
0.0
 49
-6.349999999999999
 74
     4
 75
     0
340
0
 46
1.0
 50
0.0
 44
0.0
 45
0.0
  0
LTYPE
  5
B50
330
5
100
AcDbSymbolTableRecord
100
AcDbLinetypeTableRecord
  2
RUPTURE
 70
     0
  3
Rupture line
 72
    65
 73
     4
 40
45.72
 49
25.4
 74
     4
 75
     0
340
0
 46
1.0
 50
0.0
 44
0.0
 45
0.0
 49
-5.08
 74
     4
 75
   131
340
11
 46
5.08
 50
0.0
 44
-5.08
 45
0.0
 49
-10.16
 74
     4
 75
   131
340
11
 46
5.08
 50
180.0
 44
5.08
 45
0.0
 49
-5.08
 74
     4
 75
     0
340
0
 46
1.0
 50
0.0
 44
0.0
 45
0.0
  0
ENDTAB
  0
TABLE
  2
LAYER
  5
2
330
0
100
AcDbSymbolTable
 70
    14
  0
LAYER
  5
10
330
2
100
AcDbSymbolTableRecord
100
AcDbLayerTableRecord
  2
0
 70
     0
 62
     7
  6
Continuous
370
    -3
390
F
  0
LAYER
  5
91B
330
2
100
AcDbSymbolTableRecord
100
AcDbLayerTableRecord
  2
KCAD_DIMS
 70
     0
 62
   134
  6
Continuous
370
    15
390
F
  0
LAYER
  5
4F
330
2
100
AcDbSymbolTableRecord
100
AcDbLayerTableRecord
  2
DEFPOINTS
 70
     0
 62
     7
  6
Continuous
290
     0
370
    -3
390
F
  0
LAYER
  5
20B
330
2
100
AcDbSymbolTableRecord
100
AcDbLayerTableRecord
  2
KCAD_ASST
 70
     0
 62
   134
  6
Continuous
370
    15
390
F
  0
LAYER
  5
20C
330
2
100
AcDbSymbolTableRecord
100
AcDbLayerTableRecord
  2
KCAD_RASTER
 70
     0
 62
     7
  6
Continuous
370
    30
390
F
  0
LAYER
  5
20D
330
2
100
AcDbSymbolTableRecord
100
AcDbLayerTableRecord
  2
SYBCENTER
 70
     0
 62
   134
  6
CENTER
370
    15
390
F
  0
LAYER
  5
20E
330
2
100
AcDbSymbolTableRecord
100
AcDbLayerTableRecord
  2
SYBHIDE
 70
     0
 62
   134
  6
HIDDEN
370
    15
390
F
  0
LAYER
  5
20F
330
2
100
AcDbSymbolTableRecord
100
AcDbLayerTableRecord
  2
SYBOUTLINE
 70
     0
 62
     7
  6
Continuous
370
    30
390
F
  0
LAYER
  5
210
330
2
100
AcDbSymbolTableRecord
100
AcDbLayerTableRecord
  2
SYBTHREAD
 70
     0
 62
   134
  6
Continuous
370
    15
390
F
  0
LAYER
  5
211
330
2
100
AcDbSymbolTableRecord
100
AcDbLayerTableRecord
  2
SYBTHRHID
 70
     0
 62
   134
  6
HIDDEN
370
    15
390
F
  0
LAYER
  5
282
330
2
100
AcDbSymbolTableRecord
100
AcDbLayerTableRecord
  2
KCAD_UIR_TMP_LAYER_
 70
     0
 62
     7
  6
Continuous
370
    -3
390
F
  0
LAYER
  5
2A8
330
2
100
AcDbSymbolTableRecord
100
AcDbLayerTableRecord
  2
KCAD_CPM_MAX_LAYER
 70
     3
 62
     7
  6
Continuous
370
    -3
390
F
  0
LAYER
  5
2EF
330
2
100
AcDbSymbolTableRecord
100
AcDbLayerTableRecord
  2
99
 70
     0
 62
     7
  6
Continuous
370
    -3
390
F
  0
LAYER
  5
823
330
2
100
AcDbSymbolTableRecord
100
AcDbLayerTableRecord
  2
1
 70
     0
 62
     7
  6
Continuous
370
    -3
390
F
  0
ENDTAB
  0
TABLE
  2
STYLE
  5
3
330
0
100
AcDbSymbolTable
 70
     5
  0
STYLE
  5
11
330
3
100
AcDbSymbolTableRecord
100
AcDbTextStyleTableRecord
  2
Standard
 70
     0
 40
0.0
 41
1.0
 50
0.0
 71
     0
 42
3.2
  3
txt.shx
  4
bigfont.shx
  0
STYLE
  5
17F
330
3
100
AcDbSymbolTableRecord
100
AcDbTextStyleTableRecord
  2

 70
     1
 40
0.0
 41
1.0
 50
0.0
 71
     0
 42
3.2
  3
ltypeshp.shx
  4

  0
STYLE
  5
189
330
3
100
AcDbSymbolTableRecord
100
AcDbTextStyleTableRecord
  2
KCADDIMSTANDARD
 70
     0
 40
0.0
 41
1.0
 50
0.0
 71
     0
 42
3.2
  3
txt.shx
  4
bigfont.shx
  0
STYLE
  5
18A
330
3
100
AcDbSymbolTableRecord
100
AcDbTextStyleTableRecord
  2
KCADTEXTSTANDARD
 70
     0
 40
0.0
 41
1.0
 50
0.0
 71
     0
 42
3.2
  3
txt.shx
  4
bigfont.shx
  0
STYLE
  5
1AD
330
3
100
AcDbSymbolTableRecord
100
AcDbTextStyleTableRecord
  2
KCADTEXT2
 70
     0
 40
0.0
 41
1.0
 50
0.0
 71
     0
 42
3.2
  3
txt.shx
  4
extfont.shx
  0
ENDTAB
  0
TABLE
  2
VIEW
  5
6
330
0
100
AcDbSymbolTable
 70
     0
  0
ENDTAB
  0
TABLE
  2
UCS
  5
7
330
0
100
AcDbSymbolTable
 70
     0
  0
ENDTAB
  0
TABLE
  2
APPID
  5
9
330
0
100
AcDbSymbolTable
 70
     3
  0
APPID
  5
12
330
9
100
AcDbSymbolTableRecord
100
AcDbRegAppTableRecord
  2
ACAD
 70
     0
  0
APPID
  5
B4A
330
9
100
AcDbSymbolTableRecord
100
AcDbRegAppTableRecord
  2
Sigma
 70
     0
  0
APPID
  5
B4B
330
9
100
AcDbSymbolTableRecord
100
AcDbRegAppTableRecord
  2
KCAD_DIM_EXT
 70
     0
  0
ENDTAB
  0
TABLE
  2
DIMSTYLE
  5
A
330
0
100
AcDbSymbolTable
 70
     1
100
AcDbDimStyleTable
  0
DIMSTYLE
105
27
102
{ACAD_REACTORS
330
540
330
588
330
5C4
330
600
330
63C
330
678
330
6B8
330
732
330
792
330
7DB
102
}
330
A
100
AcDbSymbolTableRecord
100
AcDbDimStyleTableRecord
  2
Standard
 70
     0
340
11
  0
ENDTAB
  0
TABLE
  2
BLOCK_RECORD
  5
1
330
0
100
AcDbSymbolTable
 70
    48
  0
BLOCK_RECORD
  5
1F
330
1
100
AcDbSymbolTableRecord
100
AcDbBlockTableRecord
  2
*Model_Space
340
22
  0
BLOCK_RECORD
  5
73
330
1
100
AcDbSymbolTableRecord
100
AcDbBlockTableRecord
  2
*Paper_Space
340
22F
  0
BLOCK_RECORD
  5
91C
330
1
100
AcDbSymbolTableRecord
100
AcDbBlockTableRecord
  2
KCAD_OPEN
340
0
  0
BLOCK_RECORD
  5
3C
330
1
100
AcDbSymbolTableRecord
100
AcDbBlockTableRecord
  2
KCAD_DOTSMALL
340
0
  0
BLOCK_RECORD
  5
44
330
1
100
AcDbSymbolTableRecord
100
AcDbBlockTableRecord
  2
KCAD_NONE
340
0
  0
BLOCK_RECORD
  5
FC
330
1
100
AcDbSymbolTableRecord
100
AcDbBlockTableRecord
  2
_CLOSED
340
0
  0
BLOCK_RECORD
  5
103
330
1
100
AcDbSymbolTableRecord
100
AcDbBlockTableRecord
  2
_DOT
340
0
  0
BLOCK_RECORD
  5
10B
330
1
100
AcDbSymbolTableRecord
100
AcDbBlockTableRecord
  2
_CLOSEDBLANK
340
0
  0
BLOCK_RECORD
  5
111
330
1
100
AcDbSymbolTableRecord
100
AcDbBlockTableRecord
  2
_OBLIQUE
340
0
  0
BLOCK_RECORD
  5
115
330
1
100
AcDbSymbolTableRecord
100
AcDbBlockTableRecord
  2
_ARCHTICK
340
0
  0
BLOCK_RECORD
  5
11C
330
1
100
AcDbSymbolTableRecord
100
AcDbBlockTableRecord
  2
_OPEN
340
0
  0
BLOCK_RECORD
  5
122
330
1
100
AcDbSymbolTableRecord
100
AcDbBlockTableRecord
  2
_ORIGIN
340
0
  0
BLOCK_RECORD
  5
127
330
1
100
AcDbSymbolTableRecord
100
AcDbBlockTableRecord
  2
_OPEN90
340
0
  0
BLOCK_RECORD
  5
12D
330
1
100
AcDbSymbolTableRecord
100
AcDbBlockTableRecord
  2
_OPEN30
340
0
102
{BLKREFS
331
57F
331
580
331
5BD
331
5BE
331
5F9
331
5FA
331
635
331
636
331
671
331
672
331
6AD
331
6AE
331
6ED
331
6EE
331
767
331
768
331
7C7
331
7C8
331
816
331
817
331
6F8
331
702
331
718
331
722
331
72C
331
7D2
102
}
  0
BLOCK_RECORD
  5
133
330
1
100
AcDbSymbolTableRecord
100
AcDbBlockTableRecord
  2
_DOTBLANK
340
0
  0
BLOCK_RECORD
  5
138
330
1
100
AcDbSymbolTableRecord
100
AcDbBlockTableRecord
  2
_DOTSMALL
340
0
  0
BLOCK_RECORD
  5
13F
330
1
100
AcDbSymbolTableRecord
100
AcDbBlockTableRecord
  2
_BOXFILLED
340
0
  0
BLOCK_RECORD
  5
144
330
1
100
AcDbSymbolTableRecord
100
AcDbBlockTableRecord
  2
_BOXBLANK
340
0
  0
BLOCK_RECORD
  5
14C
330
1
100
AcDbSymbolTableRecord
100
AcDbBlockTableRecord
  2
_DATUMFILLED
340
0
  0
BLOCK_RECORD
  5
150
330
1
100
AcDbSymbolTableRecord
100
AcDbBlockTableRecord
  2
_DATUMBLANK
340
0
  0
BLOCK_RECORD
  5
156
330
1
100
AcDbSymbolTableRecord
100
AcDbBlockTableRecord
  2
_INTEGRAL
340
0
  0
BLOCK_RECORD
  5
1F1
330
1
100
AcDbSymbolTableRecord
100
AcDbBlockTableRecord
  2
_Origin2
340
0
  0
BLOCK_RECORD
  5
1F7
330
1
100
AcDbSymbolTableRecord
100
AcDbBlockTableRecord
  2
KCAD_OPEN30
340
0
  0
BLOCK_RECORD
  5
222
330
1
100
AcDbSymbolTableRecord
100
AcDbBlockTableRecord
  2
_None
340
0
  0
BLOCK_RECORD
  5
283
330
1
100
AcDbSymbolTableRecord
100
AcDbBlockTableRecord
  2
_Small
340
0
  0
BLOCK_RECORD
  5
287
330
1
100
AcDbSymbolTableRecord
100
AcDbBlockTableRecord
  2
KCAD_OPEN_2
340
0
  0
BLOCK_RECORD
  5
28E
330
1
100
AcDbSymbolTableRecord
100
AcDbBlockTableRecord
  2
KCAD_OPEN30_2
340
0
  0
BLOCK_RECORD
  5
2AD
330
1
100
AcDbSymbolTableRecord
100
AcDbBlockTableRecord
  2
KCAD_OPEN30ANG
340
0
  0
BLOCK_RECORD
  5
2B6
330
1
100
AcDbSymbolTableRecord
100
AcDbBlockTableRecord
  2
KCAD_DOTANG
340
0
  0
BLOCK_RECORD
  5
541
330
1
100
AcDbSymbolTableRecord
100
AcDbBlockTableRecord
  2
*D27
340
0
  0
BLOCK_RECORD
  5
589
330
1
100
AcDbSymbolTableRecord
100
AcDbBlockTableRecord
  2
*D28
340
0
  0
BLOCK_RECORD
  5
5C5
330
1
100
AcDbSymbolTableRecord
100
AcDbBlockTableRecord
  2
*D29
340
0
  0
BLOCK_RECORD
  5
601
330
1
100
AcDbSymbolTableRecord
100
AcDbBlockTableRecord
  2
*D30
340
0
  0
BLOCK_RECORD
  5
63D
330
1
100
AcDbSymbolTableRecord
100
AcDbBlockTableRecord
  2
*D31
340
0
  0
BLOCK_RECORD
  5
679
330
1
100
AcDbSymbolTableRecord
100
AcDbBlockTableRecord
  2
*D32
340
0
  0
BLOCK_RECORD
  5
6B9
330
1
100
AcDbSymbolTableRecord
100
AcDbBlockTableRecord
  2
*D33
340
0
  0
BLOCK_RECORD
  5
733
330
1
100
AcDbSymbolTableRecord
100
AcDbBlockTableRecord
  2
*D34
340
0
  0
BLOCK_RECORD
  5
793
330
1
100
AcDbSymbolTableRecord
100
AcDbBlockTableRecord
  2
*D35
340
0
  0
BLOCK_RECORD
  5
7DC
330
1
100
AcDbSymbolTableRecord
100
AcDbBlockTableRecord
  2
*D36
340
0
  0
BLOCK_RECORD
  5
8A1
330
1
100
AcDbSymbolTableRecord
100
AcDbBlockTableRecord
  2
*D37
340
0
  0
BLOCK_RECORD
  5
8AD
330
1
100
AcDbSymbolTableRecord
100
AcDbBlockTableRecord
  2
*D38
340
0
  0
BLOCK_RECORD
  5
8B9
330
1
100
AcDbSymbolTableRecord
100
AcDbBlockTableRecord
  2
*D39
340
0
  0
BLOCK_RECORD
  5
8C5
330
1
100
AcDbSymbolTableRecord
100
AcDbBlockTableRecord
  2
*D40
340
0
  0
BLOCK_RECORD
  5
8D1
330
1
100
AcDbSymbolTableRecord
100
AcDbBlockTableRecord
  2
*D41
340
0
  0
BLOCK_RECORD
  5
8DD
330
1
100
AcDbSymbolTableRecord
100
AcDbBlockTableRecord
  2
*D42
340
0
  0
BLOCK_RECORD
  5
8E9
330
1
100
AcDbSymbolTableRecord
100
AcDbBlockTableRecord
  2
*D43
340
0
  0
BLOCK_RECORD
  5
8F5
330
1
100
AcDbSymbolTableRecord
100
AcDbBlockTableRecord
  2
*D44
340
0
  0
BLOCK_RECORD
  5
901
330
1
100
AcDbSymbolTableRecord
100
AcDbBlockTableRecord
  2
*D45
340
0
  0
BLOCK_RECORD
  5
90E
330
1
100
AcDbSymbolTableRecord
100
AcDbBlockTableRecord
  2
*D46
340
0
  0
BLOCK_RECORD
  5
9FC
330
1
100
AcDbSymbolTableRecord
100
AcDbBlockTableRecord
  2
*D47
340
0
  0
ENDTAB
  0
ENDSEC
  0
SECTION
  2
BLOCKS
  0
BLOCK
  5
20
330
1F
100
AcDbEntity
  8
0
100
AcDbBlockBegin
  2
*Model_Space
 70
     0
 71
     0
 10
0.0
 20
0.0
 30
0.0
  3
*Model_Space
  1

  0
ENDBLK
  5
21
330
1F
100
AcDbEntity
  8
0
100
AcDbBlockEnd
  0
BLOCK
  5
75
330
73
100
AcDbEntity
 67
     1
  8
0
100
AcDbBlockBegin
  2
*Paper_Space
 70
     0
 71
     0
 10
0.0
 20
0.0
 30
0.0
  3
*Paper_Space
  1

  0
ENDBLK
  5
76
330
73
100
AcDbEntity
 67
     1
  8
0
100
AcDbBlockEnd
  0
BLOCK
  5
B53
330
91C
100
AcDbEntity
  8
KCAD_DIMS
100
AcDbBlockBegin
  2
KCAD_OPEN
 70
     0
 71
     0
 10
0.0
 20
0.0
 30
0.0
  3
KCAD_OPEN
  1

  0
LINE
  5
97B
330
91C
100
AcDbEntity
  8
0
  6
Continuous
 62
     0
370
    -2
100
AcDbLine
 10
0.0
 20
0.0
 30
0.0
 11
-1.0
 21
0.0
 31
0.0
  0
LINE
  5
23
330
91C
100
AcDbEntity
  8
0
  6
Continuous
 62
     0
370
    -2
100
AcDbLine
 10
0.0
 20
0.0
 30
0.0
 11
-1.0
 21
0.158384
 31
0.0
  0
LINE
  5
24
330
91C
100
AcDbEntity
  8
0
  6
Continuous
 62
     0
370
    -2
100
AcDbLine
 10
0.0
 20
0.0
 30
0.0
 11
-1.0
 21
-0.158384
 31
0.0
  0
ENDBLK
  5
B54
330
91C
100
AcDbEntity
  8
KCAD_DIMS
100
AcDbBlockEnd
  0
BLOCK
  5
B55
330
3C
100
AcDbEntity
  8
KCAD_DIMS
100
AcDbBlockBegin
  2
KCAD_DOTSMALL
 70
     0
 71
     0
 10
0.0
 20
0.0
 30
0.0
  3
KCAD_DOTSMALL
  1

  0
LWPOLYLINE
  5
3D
330
3C
100
AcDbEntity
  8
KCAD_DIMS
 62
     0
100
AcDbPolyline
 90
        2
 70
     1
 43
0.5
 10
0.06252
 20
0.0
 42
1.0
 10
-0.06262
 20
0.0
 42
1.0
  0
LINE
  5
41
330
3C
100
AcDbEntity
  8
0
  6
Continuous
 62
     0
370
    -2
100
AcDbLine
 10
0.0
 20
0.0
 30
0.0
 11
-1.0
 21
0.0
 31
0.0
  0
ENDBLK
  5
B56
330
3C
100
AcDbEntity
  8
0
100
AcDbBlockEnd
  0
BLOCK
  5
B57
330
44
100
AcDbEntity
  8
KCAD_DIMS
100
AcDbBlockBegin
  2
KCAD_NONE
 70
     0
 71
     0
 10
0.0
 20
0.0
 30
0.0
  3
KCAD_NONE
  1

  0
LINE
  5
45
330
44
100
AcDbEntity
  8
0
  6
Continuous
 62
     0
370
    -2
100
AcDbLine
 10
0.0
 20
0.0
 30
0.0
 11
-1.0
 21
0.0
 31
0.0
  0
ENDBLK
  5
B58
330
44
100
AcDbEntity
  8
0
100
AcDbBlockEnd
  0
BLOCK
  5
B59
330
FC
100
AcDbEntity
  8
0
100
AcDbBlockBegin
  2
_CLOSED
 70
     0
 71
     0
 10
0.0
 20
0.0
 30
0.0
  3
_CLOSED
  1

  0
LINE
  5
FE
330
FC
100
AcDbEntity
  8
0
  6
Continuous
 62
     0
370
    -2
100
AcDbLine
 10
-1.0
 20
0.166667
 30
0.0
 11
0.0
 21
0.0
 31
0.0
  0
LINE
  5
FF
330
FC
100
AcDbEntity
  8
0
  6
Continuous
 62
     0
370
    -2
100
AcDbLine
 10
0.0
 20
0.0
 30
0.0
 11
-1.0
 21
-0.166667
 31
0.0
  0
LINE
  5
100
330
FC
100
AcDbEntity
  8
0
  6
Continuous
 62
     0
370
    -2
100
AcDbLine
 10
-1.0
 20
0.166667
 30
0.0
 11
-1.0
 21
-0.166667
 31
0.0
  0
LINE
  5
101
330
FC
100
AcDbEntity
  8
0
  6
Continuous
 62
     0
370
    -2
100
AcDbLine
 10
0.0
 20
0.0
 30
0.0
 11
-1.0
 21
0.0
 31
0.0
  0
ENDBLK
  5
B5A
330
FC
100
AcDbEntity
  8
0
100
AcDbBlockEnd
  0
BLOCK
  5
B5B
330
103
100
AcDbEntity
  8
0
100
AcDbBlockBegin
  2
_DOT
 70
     0
 71
     0
 10
0.0
 20
0.0
 30
0.0
  3
_DOT
  1

  0
LWPOLYLINE
  5
105
330
103
100
AcDbEntity
  8
0
  6
ByBlock
 62
     0
100
AcDbPolyline
 90
        2
 70
     1
 43
0.5
 10
-0.25
 20
0.0
 42
1.0
 10
0.25
 20
0.0
 42
1.0
  0
LINE
  5
109
330
103
100
AcDbEntity
  8
0
  6
Continuous
 62
     0
370
    -2
100
AcDbLine
 10
-0.5
 20
0.0
 30
0.0
 11
-1.0
 21
0.0
 31
0.0
  0
ENDBLK
  5
B5C
330
103
100
AcDbEntity
  8
0
100
AcDbBlockEnd
  0
BLOCK
  5
B5D
330
10B
100
AcDbEntity
  8
0
100
AcDbBlockBegin
  2
_CLOSEDBLANK
 70
     0
 71
     0
 10
0.0
 20
0.0
 30
0.0
  3
_CLOSEDBLANK
  1

  0
LINE
  5
10D
330
10B
100
AcDbEntity
  8
0
  6
Continuous
 62
     0
370
    -2
100
AcDbLine
 10
-1.0
 20
0.166667
 30
0.0
 11
0.0
 21
0.0
 31
0.0
  0
LINE
  5
10E
330
10B
100
AcDbEntity
  8
0
  6
Continuous
 62
     0
370
    -2
100
AcDbLine
 10
0.0
 20
0.0
 30
0.0
 11
-1.0
 21
-0.166667
 31
0.0
  0
LINE
  5
10F
330
10B
100
AcDbEntity
  8
0
  6
Continuous
 62
     0
370
    -2
100
AcDbLine
 10
-1.0
 20
0.166667
 30
0.0
 11
-1.0
 21
-0.166667
 31
0.0
  0
ENDBLK
  5
B5E
330
10B
100
AcDbEntity
  8
0
100
AcDbBlockEnd
  0
BLOCK
  5
B5F
330
111
100
AcDbEntity
  8
0
100
AcDbBlockBegin
  2
_OBLIQUE
 70
     0
 71
     0
 10
0.0
 20
0.0
 30
0.0
  3
_OBLIQUE
  1

  0
LINE
  5
113
330
111
100
AcDbEntity
  8
0
  6
Continuous
 62
     0
370
    -2
100
AcDbLine
 10
-0.5
 20
-0.5
 30
0.0
 11
0.5
 21
0.5
 31
0.0
  0
ENDBLK
  5
B60
330
111
100
AcDbEntity
  8
0
100
AcDbBlockEnd
  0
BLOCK
  5
B61
330
115
100
AcDbEntity
  8
0
100
AcDbBlockBegin
  2
_ARCHTICK
 70
     0
 71
     0
 10
0.0
 20
0.0
 30
0.0
  3
_ARCHTICK
  1

  0
LWPOLYLINE
  5
117
330
115
100
AcDbEntity
  8
0
  6
ByBlock
 62
     0
100
AcDbPolyline
 90
        2
 70
     0
 43
0.15
 10
-0.5
 20
-0.5
 10
0.5
 20
0.5
  0
ENDBLK
  5
B62
330
115
100
AcDbEntity
  8
0
100
AcDbBlockEnd
  0
BLOCK
  5
B63
330
11C
100
AcDbEntity
  8
0
100
AcDbBlockBegin
  2
_OPEN
 70
     0
 71
     0
 10
0.0
 20
0.0
 30
0.0
  3
_OPEN
  1

  0
LINE
  5
11E
330
11C
100
AcDbEntity
  8
0
  6
Continuous
 62
     0
370
    -2
100
AcDbLine
 10
-1.0
 20
0.166667
 30
0.0
 11
0.0
 21
0.0
 31
0.0
  0
LINE
  5
11F
330
11C
100
AcDbEntity
  8
0
  6
Continuous
 62
     0
370
    -2
100
AcDbLine
 10
0.0
 20
0.0
 30
0.0
 11
-1.0
 21
-0.166667
 31
0.0
  0
LINE
  5
120
330
11C
100
AcDbEntity
  8
0
  6
Continuous
 62
     0
370
    -2
100
AcDbLine
 10
0.0
 20
0.0
 30
0.0
 11
-1.0
 21
0.0
 31
0.0
  0
ENDBLK
  5
B64
330
11C
100
AcDbEntity
  8
0
100
AcDbBlockEnd
  0
BLOCK
  5
B65
330
122
100
AcDbEntity
  8
0
100
AcDbBlockBegin
  2
_ORIGIN
 70
     0
 71
     0
 10
0.0
 20
0.0
 30
0.0
  3
_ORIGIN
  1

  0
CIRCLE
  5
124
330
122
100
AcDbEntity
  8
0
  6
ByBlock
 62
     0
100
AcDbCircle
 10
0.0
 20
0.0
 30
0.0
 40
0.5
  0
LINE
  5
125
330
122
100
AcDbEntity
  8
0
  6
Continuous
 62
     0
370
    -2
100
AcDbLine
 10
0.0
 20
0.0
 30
0.0
 11
-1.0
 21
0.0
 31
0.0
  0
ENDBLK
  5
B66
330
122
100
AcDbEntity
  8
0
100
AcDbBlockEnd
  0
BLOCK
  5
B67
330
127
100
AcDbEntity
  8
0
100
AcDbBlockBegin
  2
_OPEN90
 70
     0
 71
     0
 10
0.0
 20
0.0
 30
0.0
  3
_OPEN90
  1

  0
LINE
  5
129
330
127
100
AcDbEntity
  8
0
  6
Continuous
 62
     0
370
    -2
100
AcDbLine
 10
-0.5
 20
0.5
 30
0.0
 11
0.0
 21
0.0
 31
0.0
  0
LINE
  5
12A
330
127
100
AcDbEntity
  8
0
  6
Continuous
 62
     0
370
    -2
100
AcDbLine
 10
0.0
 20
0.0
 30
0.0
 11
-0.5
 21
-0.5
 31
0.0
  0
LINE
  5
12B
330
127
100
AcDbEntity
  8
0
  6
Continuous
 62
     0
370
    -2
100
AcDbLine
 10
0.0
 20
0.0
 30
0.0
 11
-1.0
 21
0.0
 31
0.0
  0
ENDBLK
  5
B68
330
127
100
AcDbEntity
  8
0
100
AcDbBlockEnd
  0
BLOCK
  5
B69
330
12D
100
AcDbEntity
  8
0
100
AcDbBlockBegin
  2
_OPEN30
 70
     0
 71
     0
 10
0.0
 20
0.0
 30
0.0
  3
_OPEN30
  1

  0
LINE
  5
12F
330
12D
100
AcDbEntity
  8
0
  6
Continuous
 62
     0
370
    -2
100
AcDbLine
 10
-1.0
 20
0.267949
 30
0.0
 11
0.0
 21
0.0
 31
0.0
  0
LINE
  5
130
330
12D
100
AcDbEntity
  8
0
  6
Continuous
 62
     0
370
    -2
100
AcDbLine
 10
0.0
 20
0.0
 30
0.0
 11
-1.0
 21
-0.267949
 31
0.0
  0
LINE
  5
131
330
12D
100
AcDbEntity
  8
0
  6
Continuous
 62
     0
370
    -2
100
AcDbLine
 10
0.0
 20
0.0
 30
0.0
 11
-1.0
 21
0.0
 31
0.0
  0
ENDBLK
  5
B6A
330
12D
100
AcDbEntity
  8
0
100
AcDbBlockEnd
  0
BLOCK
  5
B6B
330
133
100
AcDbEntity
  8
0
100
AcDbBlockBegin
  2
_DOTBLANK
 70
     0
 71
     0
 10
0.0
 20
0.0
 30
0.0
  3
_DOTBLANK
  1

  0
CIRCLE
  5
135
330
133
100
AcDbEntity
  8
0
  6
ByBlock
 62
     0
100
AcDbCircle
 10
0.0
 20
0.0
 30
0.0
 40
0.5
  0
LINE
  5
136
330
133
100
AcDbEntity
  8
0
  6
Continuous
 62
     0
370
    -2
100
AcDbLine
 10
-0.5
 20
0.0
 30
0.0
 11
-1.0
 21
0.0
 31
0.0
  0
ENDBLK
  5
B6C
330
133
100
AcDbEntity
  8
0
100
AcDbBlockEnd
  0
BLOCK
  5
B6D
330
138
100
AcDbEntity
  8
0
100
AcDbBlockBegin
  2
_DOTSMALL
 70
     0
 71
     0
 10
0.0
 20
0.0
 30
0.0
  3
_DOTSMALL
  1

  0
LWPOLYLINE
  5
13A
330
138
100
AcDbEntity
  8
0
  6
ByBlock
 62
     0
100
AcDbPolyline
 90
        2
 70
     1
 43
0.5
 10
-0.0625
 20
0.0
 42
1.0
 10
0.0625
 20
0.0
 42
1.0
  0
ENDBLK
  5
B6E
330
138
100
AcDbEntity
  8
0
100
AcDbBlockEnd
  0
BLOCK
  5
B6F
330
13F
100
AcDbEntity
  8
0
100
AcDbBlockBegin
  2
_BOXFILLED
 70
     0
 71
     0
 10
0.0
 20
0.0
 30
0.0
  3
_BOXFILLED
  1

  0
SOLID
  5
141
330
13F
100
AcDbEntity
  8
0
  6
ByBlock
 62
     0
100
AcDbTrace
 10
-0.5
 20
0.5
 30
0.0
 11
0.5
 21
0.5
 31
0.0
 12
-0.5
 22
-0.5
 32
0.0
 13
0.5
 23
-0.5
 33
0.0
  0
LINE
  5
142
330
13F
100
AcDbEntity
  8
0
  6
Continuous
 62
     0
370
    -2
100
AcDbLine
 10
-0.5
 20
0.0
 30
0.0
 11
-1.0
 21
0.0
 31
0.0
  0
ENDBLK
  5
B70
330
13F
100
AcDbEntity
  8
0
100
AcDbBlockEnd
  0
BLOCK
  5
B71
330
144
100
AcDbEntity
  8
0
100
AcDbBlockBegin
  2
_BOXBLANK
 70
     0
 71
     0
 10
0.0
 20
0.0
 30
0.0
  3
_BOXBLANK
  1

  0
LINE
  5
146
330
144
100
AcDbEntity
  8
0
  6
Continuous
 62
     0
370
    -2
100
AcDbLine
 10
-0.5
 20
-0.5
 30
0.0
 11
0.5
 21
-0.5
 31
0.0
  0
LINE
  5
147
330
144
100
AcDbEntity
  8
0
  6
Continuous
 62
     0
370
    -2
100
AcDbLine
 10
0.5
 20
-0.5
 30
0.0
 11
0.5
 21
0.5
 31
0.0
  0
LINE
  5
148
330
144
100
AcDbEntity
  8
0
  6
Continuous
 62
     0
370
    -2
100
AcDbLine
 10
0.5
 20
0.5
 30
0.0
 11
-0.5
 21
0.5
 31
0.0
  0
LINE
  5
149
330
144
100
AcDbEntity
  8
0
  6
Continuous
 62
     0
370
    -2
100
AcDbLine
 10
-0.5
 20
0.5
 30
0.0
 11
-0.5
 21
-0.5
 31
0.0
  0
LINE
  5
14A
330
144
100
AcDbEntity
  8
0
  6
Continuous
 62
     0
370
    -2
100
AcDbLine
 10
-0.5
 20
0.0
 30
0.0
 11
-1.0
 21
0.0
 31
0.0
  0
ENDBLK
  5
B72
330
144
100
AcDbEntity
  8
0
100
AcDbBlockEnd
  0
BLOCK
  5
B73
330
14C
100
AcDbEntity
  8
0
100
AcDbBlockBegin
  2
_DATUMFILLED
 70
     0
 71
     0
 10
0.0
 20
0.0
 30
0.0
  3
_DATUMFILLED
  1

  0
SOLID
  5
14E
330
14C
100
AcDbEntity
  8
0
  6
ByBlock
 62
     0
100
AcDbTrace
 10
0.0
 20
0.5773500000000001
 30
0.0
 11
-1.0
 21
0.0
 31
0.0
 12
0.0
 22
-0.5773500000000001
 32
0.0
 13
0.0
 23
-0.5773500000000001
 33
0.0
  0
ENDBLK
  5
B74
330
14C
100
AcDbEntity
  8
0
100
AcDbBlockEnd
  0
BLOCK
  5
B75
330
150
100
AcDbEntity
  8
0
100
AcDbBlockBegin
  2
_DATUMBLANK
 70
     0
 71
     0
 10
0.0
 20
0.0
 30
0.0
  3
_DATUMBLANK
  1

  0
LINE
  5
152
330
150
100
AcDbEntity
  8
0
  6
Continuous
 62
     0
370
    -2
100
AcDbLine
 10
0.0
 20
0.5773500000000001
 30
0.0
 11
-1.0
 21
0.0
 31
0.0
  0
LINE
  5
153
330
150
100
AcDbEntity
  8
0
  6
Continuous
 62
     0
370
    -2
100
AcDbLine
 10
-1.0
 20
0.0
 30
0.0
 11
0.0
 21
-0.5773500000000001
 31
0.0
  0
LINE
  5
154
330
150
100
AcDbEntity
  8
0
  6
Continuous
 62
     0
370
    -2
100
AcDbLine
 10
0.0
 20
-0.5773500000000001
 30
0.0
 11
0.0
 21
0.5773500000000001
 31
0.0
  0
ENDBLK
  5
B76
330
150
100
AcDbEntity
  8
0
100
AcDbBlockEnd
  0
BLOCK
  5
B77
330
156
100
AcDbEntity
  8
0
100
AcDbBlockBegin
  2
_INTEGRAL
 70
     0
 71
     0
 10
0.0
 20
0.0
 30
0.0
  3
_INTEGRAL
  1

  0
ARC
  5
158
330
156
100
AcDbEntity
  8
0
  6
ByBlock
 62
     0
100
AcDbCircle
 10
0.444888
 20
-0.091335
 30
0.0
 40
0.454167
100
AcDbArc
 50
102.0
 51
168.0
  0
ARC
  5
159
330
156
100
AcDbEntity
  8
0
  6
ByBlock
 62
     0
100
AcDbCircle
 10
-0.444888
 20
0.091335
 30
0.0
 40
0.454167
100
AcDbArc
 50
282.0
 51
348.0
  0
ENDBLK
  5
B78
330
156
100
AcDbEntity
  8
0
100
AcDbBlockEnd
  0
BLOCK
  5
B79
330
1F1
100
AcDbEntity
  8
0
100
AcDbBlockBegin
  2
_Origin2
 70
     0
 71
     0
 10
0.0
 20
0.0
 30
0.0
  3
_Origin2
  1

  0
CIRCLE
  5
1F2
330
1F1
100
AcDbEntity
  8
0
  6
Continuous
 62
     0
370
    -2
100
AcDbCircle
 10
0.0
 20
0.0
 30
0.0
 40
0.5
  0
CIRCLE
  5
1F3
330
1F1
100
AcDbEntity
  8
0
  6
Continuous
 62
     0
370
    -2
100
AcDbCircle
 10
0.0
 20
0.0
 30
0.0
 40
0.25
  0
LINE
  5
1F4
330
1F1
100
AcDbEntity
  8
0
  6
Continuous
 62
     0
370
    -2
100
AcDbLine
 10
-0.5
 20
0.0
 30
0.0
 11
-1.0
 21
0.0
 31
0.0
  0
ENDBLK
  5
B7A
330
1F1
100
AcDbEntity
  8
0
100
AcDbBlockEnd
  0
BLOCK
  5
B7B
330
1F7
100
AcDbEntity
  8
0
100
AcDbBlockBegin
  2
KCAD_OPEN30
 70
     0
 71
     0
 10
0.0
 20
0.0
 30
0.0
  3
KCAD_OPEN30
  1

  0
LINE
  5
1F8
330
1F7
100
AcDbEntity
  8
0
  6
Continuous
 62
     0
370
    -2
100
AcDbLine
 10
0.0
 20
0.0
 30
0.0
 11
-1.0
 21
0.0
 31
0.0
  0
LINE
  5
1F9
330
1F7
100
AcDbEntity
  8
0
  6
Continuous
 62
     0
370
    -2
100
AcDbLine
 10
0.0
 20
0.0
 30
0.0
 11
-1.0
 21
0.2679491924311227
 31
0.0
  0
LINE
  5
1FA
330
1F7
100
AcDbEntity
  8
0
  6
Continuous
 62
     0
370
    -2
100
AcDbLine
 10
0.0
 20
0.0
 30
0.0
 11
-1.0
 21
-0.2679491924311227
 31
0.0
  0
ENDBLK
  5
B7C
330
1F7
100
AcDbEntity
  8
0
100
AcDbBlockEnd
  0
BLOCK
  5
B7D
330
222
100
AcDbEntity
  8
0
100
AcDbBlockBegin
  2
_None
 70
     0
 71
     0
 10
0.0
 20
0.0
 30
0.0
  3
_None
  1

  0
ENDBLK
  5
B7E
330
222
100
AcDbEntity
  8
0
100
AcDbBlockEnd
  0
BLOCK
  5
B7F
330
283
100
AcDbEntity
  8
0
100
AcDbBlockBegin
  2
_Small
 70
     0
 71
     0
 10
0.0
 20
0.0
 30
0.0
  3
_Small
  1

  0
CIRCLE
  5
284
330
283
100
AcDbEntity
  8
0
  6
ByBlock
 62
     0
370
    -2
100
AcDbCircle
 10
0.0
 20
0.0
 30
0.0
 40
0.25
  0
ENDBLK
  5
B80
330
283
100
AcDbEntity
  8
0
100
AcDbBlockEnd
  0
BLOCK
  5
B81
330
287
100
AcDbEntity
  8
0
100
AcDbBlockBegin
  2
KCAD_OPEN_2
 70
     0
 71
     0
 10
0.0
 20
0.0
 30
0.0
  3
KCAD_OPEN_2
  1

  0
LINE
  5
288
330
287
100
AcDbEntity
  8
0
  6
Continuous
 62
     0
370
    -2
100
AcDbLine
 10
0.0
 20
0.0
 30
0.0
 11
-2.0
 21
0.0
 31
0.0
  0
LINE
  5
289
330
287
100
AcDbEntity
  8
0
  6
Continuous
 62
     0
370
    -2
100
AcDbLine
 10
0.0
 20
0.0
 30
0.0
 11
-2.0
 21
0.3167688806490725
 31
0.0
  0
LINE
  5
28A
330
287
100
AcDbEntity
  8
0
  6
Continuous
 62
     0
370
    -2
100
AcDbLine
 10
0.0
 20
0.0
 30
0.0
 11
-2.0
 21
-0.3167688806490725
 31
0.0
  0
LINE
  5
28B
330
287
100
AcDbEntity
  8
0
  6
Continuous
 62
     0
370
    -2
100
AcDbLine
 10
-2.0
 20
0.0
 30
0.0
 11
-4.0
 21
0.0
 31
0.0
  0
ENDBLK
  5
B82
330
287
100
AcDbEntity
  8
0
100
AcDbBlockEnd
  0
BLOCK
  5
B83
330
28E
100
AcDbEntity
  8
0
100
AcDbBlockBegin
  2
KCAD_OPEN30_2
 70
     0
 71
     0
 10
0.0
 20
0.0
 30
0.0
  3
KCAD_OPEN30_2
  1

  0
LINE
  5
28F
330
28E
100
AcDbEntity
  8
0
  6
Continuous
 62
     0
370
    -2
100
AcDbLine
 10
0.0
 20
0.0
 30
0.0
 11
-2.0
 21
0.0
 31
0.0
  0
LINE
  5
290
330
28E
100
AcDbEntity
  8
0
  6
Continuous
 62
     0
370
    -2
100
AcDbLine
 10
0.0
 20
0.0
 30
0.0
 11
-2.0
 21
0.5358983848622455
 31
0.0
  0
LINE
  5
291
330
28E
100
AcDbEntity
  8
0
  6
Continuous
 62
     0
370
    -2
100
AcDbLine
 10
0.0
 20
0.0
 30
0.0
 11
-2.0
 21
-0.5358983848622455
 31
0.0
  0
LINE
  5
292
330
28E
100
AcDbEntity
  8
0
  6
Continuous
 62
     0
370
    -2
100
AcDbLine
 10
-2.0
 20
0.0
 30
0.0
 11
-4.0
 21
0.0
 31
0.0
  0
ENDBLK
  5
B84
330
28E
100
AcDbEntity
  8
0
100
AcDbBlockEnd
  0
BLOCK
  5
B85
330
2AD
100
AcDbEntity
  8
0
100
AcDbBlockBegin
  2
KCAD_OPEN30ANG
 70
     0
 71
     0
 10
0.0
 20
0.0
 30
0.0
  3
KCAD_OPEN30ANG
  1

  0
LINE
  5
2D7
330
2AD
100
AcDbEntity
  8
0
  6
Continuous
 62
     0
370
    -2
100
AcDbLine
 10
0.0
 20
0.0
 30
0.0
 11
-1.0
 21
-0.267949
 31
0.0
  0
LINE
  5
2D8
330
2AD
100
AcDbEntity
  8
0
  6
Continuous
 62
     0
370
    -2
100
AcDbLine
 10
-1.0
 20
0.267949
 30
0.0
 11
0.0
 21
0.0
 31
0.0
  0
ENDBLK
  5
B86
330
2AD
100
AcDbEntity
  8
0
100
AcDbBlockEnd
  0
BLOCK
  5
B87
330
2B6
100
AcDbEntity
  8
0
100
AcDbBlockBegin
  2
KCAD_DOTANG
 70
     0
 71
     0
 10
0.0
 20
0.0
 30
0.0
  3
KCAD_DOTANG
  1

  0
LWPOLYLINE
  5
2DD
330
2B6
100
AcDbEntity
  8
0
  6
ByBlock
 62
     0
100
AcDbPolyline
 90
        2
 70
     1
 43
0.5
 10
-0.25
 20
0.0
 42
1.0
 10
0.25
 20
0.0
 42
1.0
  0
ENDBLK
  5
B88
330
2B6
100
AcDbEntity
  8
0
100
AcDbBlockEnd
  0
BLOCK
  5
B89
330
541
100
AcDbEntity
  8
0
100
AcDbBlockBegin
  2
*D27
 70
     1
 71
     0
 10
0.0
 20
0.0
 30
0.0
  3
*D27
  1

  0
LINE
  5
57D
330
541
100
AcDbEntity
  8
KCAD_DIMS
 62
     0
370
    -2
100
AcDbLine
 10
105.0747883349
 20
83.938829787234
 30
0.0
 11
105.0747883349
 21
50.36835106383
 31
0.0
  0
LINE
  5
57E
330
541
100
AcDbEntity
  8
KCAD_DIMS
 62
     0
370
    -2
100
AcDbLine
 10
109.0747883349
 20
83.938829787234
 30
0.0
 11
109.0747883349
 21
48.31835106383
 31
0.0
  0
INSERT
  5
57F
330
541
100
AcDbEntity
  8
KCAD_DIMS
 62
     0
370
    -2
100
AcDbBlockReference
  2
_OPEN30
 10
105.0747883349
 20
82.938829787234
 30
0.0
 41
3.0
 42
3.0
 43
3.0
  0
INSERT
  5
580
330
541
100
AcDbEntity
  8
KCAD_DIMS
 62
     0
370
    -2
100
AcDbBlockReference
  2
_OPEN30
 10
109.0747883349
 20
82.938829787234
 30
0.0
 41
3.0
 42
3.0
 43
3.0
 50
180.0
  0
LINE
  5
581
330
541
100
AcDbEntity
  8
KCAD_DIMS
 62
     0
370
    -2
100
AcDbLine
 10
105.0747883349
 20
82.938829787234
 30
0.0
 11
109.0747883349
 21
82.938829787234
 31
0.0
  0
LINE
  5
582
330
541
100
AcDbEntity
  8
KCAD_DIMS
 62
     0
370
    -2
100
AcDbLine
 10
102.0747883349
 20
82.938829787234
 30
0.0
 11
100.0747883349
 21
82.938829787234
 31
0.0
  0
LINE
  5
583
330
541
100
AcDbEntity
  8
KCAD_DIMS
 62
     0
370
    -2
100
AcDbLine
 10
112.0747883349
 20
82.938829787234
 30
0.0
 11
116.1020704994434
 21
82.938829787234
 31
0.0
  0
POINT
  5
584
330
541
100
AcDbEntity
  8
DEFPOINTS
 62
     0
370
    15
100
AcDbPoint
 10
105.0747883349
 20
49.36835106383
 30
0.0
  0
POINT
  5
585
330
541
100
AcDbEntity
  8
DEFPOINTS
 62
     0
370
    15
100
AcDbPoint
 10
109.0747883349
 20
47.31835106383
 30
0.0
  0
POINT
  5
586
330
541
100
AcDbEntity
  8
DEFPOINTS
 62
     0
370
    15
100
AcDbPoint
 10
109.0747883349
 20
82.938829787234
 30
0.0
  0
MTEXT
  5
587
330
541
100
AcDbEntity
  8
KCAD_DIMS
 62
     0
100
AcDbMText
 10
114.92709313264
 20
85.07216278723399
 30
0.0
 40
3.2
 41
0.0
 71
     5
 72
     1
  1
\A1;4
  7
KCADDIMSTANDARD
 73
     1
 44
1.0
  0
ENDBLK
  5
B8A
330
541
100
AcDbEntity
  8
0
100
AcDbBlockEnd
  0
BLOCK
  5
B8B
330
589
100
AcDbEntity
  8
0
100
AcDbBlockBegin
  2
*D28
 70
     1
 71
     0
 10
0.0
 20
0.0
 30
0.0
  3
*D28
  1

  0
LINE
  5
5BB
330
589
100
AcDbEntity
  8
KCAD_DIMS
 62
     0
370
    -2
100
AcDbLine
 10
105.0747883349
 20
68.93085106383
 30
0.0
 11
105.0747883349
 21
50.36835106383
 31
0.0
  0
LINE
  5
5BC
330
589
100
AcDbEntity
  8
KCAD_DIMS
 62
     0
370
    -2
100
AcDbLine
 10
60.074788334901
 20
68.93085106383
 30
0.0
 11
60.074788334901
 21
48.96835106383
 31
0.0
  0
INSERT
  5
5BD
330
589
100
AcDbEntity
  8
KCAD_DIMS
 62
     0
370
    -2
100
AcDbBlockReference
  2
_OPEN30
 10
105.0747883349
 20
67.93085106383
 30
0.0
 41
3.0
 42
3.0
 43
3.0
  0
INSERT
  5
5BE
330
589
100
AcDbEntity
  8
KCAD_DIMS
 62
     0
370
    -2
100
AcDbBlockReference
  2
_OPEN30
 10
60.074788334901
 20
67.93085106383
 30
0.0
 41
3.0
 42
3.0
 43
3.0
 50
180.0
  0
LINE
  5
5BF
330
589
100
AcDbEntity
  8
KCAD_DIMS
 62
     0
370
    -2
100
AcDbLine
 10
102.0747883349
 20
67.93085106383
 30
0.0
 11
63.074788334901
 21
67.93085106383
 31
0.0
  0
POINT
  5
5C0
330
589
100
AcDbEntity
  8
DEFPOINTS
 62
     0
370
    15
100
AcDbPoint
 10
105.0747883349
 20
49.36835106383
 30
0.0
  0
POINT
  5
5C1
330
589
100
AcDbEntity
  8
DEFPOINTS
 62
     0
370
    15
100
AcDbPoint
 10
60.074788334901
 20
47.96835106382999
 30
0.0
  0
POINT
  5
5C2
330
589
100
AcDbEntity
  8
DEFPOINTS
 62
     0
370
    15
100
AcDbPoint
 10
60.074788334901
 20
67.93085106383
 30
0.0
  0
MTEXT
  5
5C3
330
589
100
AcDbEntity
  8
KCAD_DIMS
 62
     0
100
AcDbMText
 10
82.574788334901
 20
70.06418406383
 30
0.0
 40
3.2
 41
0.0
 71
     5
 72
     1
  1
\A1;45
  7
KCADDIMSTANDARD
 73
     1
 44
1.0
  0
ENDBLK
  5
B8C
330
589
100
AcDbEntity
  8
0
100
AcDbBlockEnd
  0
BLOCK
  5
B8D
330
5C5
100
AcDbEntity
  8
0
100
AcDbBlockBegin
  2
*D29
 70
     1
 71
     0
 10
0.0
 20
0.0
 30
0.0
  3
*D29
  1

  0
LINE
  5
5F7
330
5C5
100
AcDbEntity
  8
KCAD_DIMS
 62
     0
370
    -2
100
AcDbLine
 10
-46.42521166509999
 20
68.93085106383
 30
0.0
 11
-46.42521166509999
 21
48.36835106382999
 31
0.0
  0
LINE
  5
5F8
330
5C5
100
AcDbEntity
  8
KCAD_DIMS
 62
     0
370
    -2
100
AcDbLine
 10
-29.4252116651
 20
68.93085106383
 30
0.0
 11
-29.4252116651
 21
50.36835106383
 31
0.0
  0
INSERT
  5
5F9
330
5C5
100
AcDbEntity
  8
KCAD_DIMS
 62
     0
370
    -2
100
AcDbBlockReference
  2
_OPEN30
 10
-46.42521166509999
 20
67.93085106383
 30
0.0
 41
3.0
 42
3.0
 43
3.0
 50
180.0
  0
INSERT
  5
5FA
330
5C5
100
AcDbEntity
  8
KCAD_DIMS
 62
     0
370
    -2
100
AcDbBlockReference
  2
_OPEN30
 10
-29.4252116651
 20
67.93085106383
 30
0.0
 41
3.0
 42
3.0
 43
3.0
  0
LINE
  5
5FB
330
5C5
100
AcDbEntity
  8
KCAD_DIMS
 62
     0
370
    -2
100
AcDbLine
 10
-43.4252116651
 20
67.93085106383
 30
0.0
 11
-32.4252116651
 21
67.93085106383
 31
0.0
  0
POINT
  5
5FC
330
5C5
100
AcDbEntity
  8
DEFPOINTS
 62
     0
370
    15
100
AcDbPoint
 10
-46.42521166509999
 20
47.36835106383
 30
0.0
  0
POINT
  5
5FD
330
5C5
100
AcDbEntity
  8
DEFPOINTS
 62
     0
370
    15
100
AcDbPoint
 10
-29.4252116651
 20
49.36835106383
 30
0.0
  0
POINT
  5
5FE
330
5C5
100
AcDbEntity
  8
DEFPOINTS
 62
     0
370
    15
100
AcDbPoint
 10
-29.4252116651
 20
67.93085106383
 30
0.0
  0
MTEXT
  5
5FF
330
5C5
100
AcDbEntity
  8
KCAD_DIMS
 62
     0
100
AcDbMText
 10
-37.9252116651
 20
70.06418406383
 30
0.0
 40
3.2
 41
0.0
 71
     5
 72
     1
  1
\A1;17
  7
KCADDIMSTANDARD
 73
     1
 44
1.0
  0
ENDBLK
  5
B8E
330
5C5
100
AcDbEntity
  8
0
100
AcDbBlockEnd
  0
BLOCK
  5
B8F
330
601
100
AcDbEntity
  8
0
100
AcDbBlockBegin
  2
*D30
 70
     1
 71
     0
 10
0.0
 20
0.0
 30
0.0
  3
*D30
  1

  0
LINE
  5
633
330
601
100
AcDbEntity
  8
KCAD_DIMS
 62
     0
370
    -2
100
AcDbLine
 10
105.0747883349
 20
83.938829787234
 30
0.0
 11
105.0747883349
 21
50.36835106383
 31
0.0
  0
LINE
  5
634
330
601
100
AcDbEntity
  8
KCAD_DIMS
 62
     0
370
    -2
100
AcDbLine
 10
-46.42521166509999
 20
83.938829787234
 30
0.0
 11
-46.42521166509999
 21
48.36835106382999
 31
0.0
  0
INSERT
  5
635
330
601
100
AcDbEntity
  8
KCAD_DIMS
 62
     0
370
    -2
100
AcDbBlockReference
  2
_OPEN30
 10
105.0747883349
 20
82.938829787234
 30
0.0
 41
3.0
 42
3.0
 43
3.0
  0
INSERT
  5
636
330
601
100
AcDbEntity
  8
KCAD_DIMS
 62
     0
370
    -2
100
AcDbBlockReference
  2
_OPEN30
 10
-46.42521166509999
 20
82.938829787234
 30
0.0
 41
3.0
 42
3.0
 43
3.0
 50
180.0
  0
LINE
  5
637
330
601
100
AcDbEntity
  8
KCAD_DIMS
 62
     0
370
    -2
100
AcDbLine
 10
102.0747883349
 20
82.938829787234
 30
0.0
 11
-43.4252116651
 21
82.938829787234
 31
0.0
  0
POINT
  5
638
330
601
100
AcDbEntity
  8
DEFPOINTS
 62
     0
370
    15
100
AcDbPoint
 10
105.0747883349
 20
49.36835106383
 30
0.0
  0
POINT
  5
639
330
601
100
AcDbEntity
  8
DEFPOINTS
 62
     0
370
    15
100
AcDbPoint
 10
-46.42521166509999
 20
47.36835106383
 30
0.0
  0
POINT
  5
63A
330
601
100
AcDbEntity
  8
DEFPOINTS
 62
     0
370
    15
100
AcDbPoint
 10
-46.42521166509999
 20
82.938829787234
 30
0.0
  0
MTEXT
  5
63B
330
601
100
AcDbEntity
  8
KCAD_DIMS
 62
     0
100
AcDbMText
 10
29.324788334901
 20
85.07216278723399
 30
0.0
 40
3.2
 41
0.0
 71
     5
 72
     1
  1
\A1;151.5
  7
KCADDIMSTANDARD
 73
     1
 44
1.0
  0
ENDBLK
  5
B90
330
601
100
AcDbEntity
  8
0
100
AcDbBlockEnd
  0
BLOCK
  5
B91
330
63D
100
AcDbEntity
  8
0
100
AcDbBlockBegin
  2
*D31
 70
     1
 71
     0
 10
0.0
 20
0.0
 30
0.0
  3
*D31
  1

  0
LINE
  5
66F
330
63D
100
AcDbEntity
  8
KCAD_DIMS
 62
     0
370
    -2
100
AcDbLine
 10
-29.4252116651
 20
68.93085106383
 30
0.0
 11
-29.4252116651
 21
50.36835106383
 31
0.0
  0
LINE
  5
670
330
63D
100
AcDbEntity
  8
KCAD_DIMS
 62
     0
370
    -2
100
AcDbLine
 10
20.574788334901
 20
68.93085106383
 30
0.0
 11
20.574788334901
 21
51.11835106383
 31
0.0
  0
INSERT
  5
671
330
63D
100
AcDbEntity
  8
KCAD_DIMS
 62
     0
370
    -2
100
AcDbBlockReference
  2
_OPEN30
 10
-29.4252116651
 20
67.93085106383
 30
0.0
 41
3.0
 42
3.0
 43
3.0
 50
180.0
  0
INSERT
  5
672
330
63D
100
AcDbEntity
  8
KCAD_DIMS
 62
     0
370
    -2
100
AcDbBlockReference
  2
_OPEN30
 10
20.574788334901
 20
67.93085106383
 30
0.0
 41
3.0
 42
3.0
 43
3.0
  0
LINE
  5
673
330
63D
100
AcDbEntity
  8
KCAD_DIMS
 62
     0
370
    -2
100
AcDbLine
 10
-26.4252116651
 20
67.93085106383
 30
0.0
 11
17.574788334901
 21
67.93085106383
 31
0.0
  0
POINT
  5
674
330
63D
100
AcDbEntity
  8
DEFPOINTS
 62
     0
370
    15
100
AcDbPoint
 10
-29.4252116651
 20
49.36835106383
 30
0.0
  0
POINT
  5
675
330
63D
100
AcDbEntity
  8
DEFPOINTS
 62
     0
370
    15
100
AcDbPoint
 10
20.574788334901
 20
50.11835106382999
 30
0.0
  0
POINT
  5
676
330
63D
100
AcDbEntity
  8
DEFPOINTS
 62
     0
370
    15
100
AcDbPoint
 10
20.574788334901
 20
67.93085106383
 30
0.0
  0
MTEXT
  5
677
330
63D
100
AcDbEntity
  8
KCAD_DIMS
 62
     0
100
AcDbMText
 10
-4.425211665098999
 20
70.06418406383
 30
0.0
 40
3.2
 41
0.0
 71
     5
 72
     1
  1
\A1;50
  7
KCADDIMSTANDARD
 73
     1
 44
1.0
  0
ENDBLK
  5
B92
330
63D
100
AcDbEntity
  8
0
100
AcDbBlockEnd
  0
BLOCK
  5
B93
330
679
100
AcDbEntity
  8
0
100
AcDbBlockBegin
  2
*D32
 70
     1
 71
     0
 10
0.0
 20
0.0
 30
0.0
  3
*D32
  1

  0
LINE
  5
6AB
330
679
100
AcDbEntity
  8
KCAD_DIMS
 62
     0
370
    -2
100
AcDbLine
 10
122.6007883349
 20
2.445738926362601
 30
0.0
 11
122.6007883349
 21
31.416948970197
 31
0.0
  0
LINE
  5
6AC
330
679
100
AcDbEntity
  8
KCAD_DIMS
 62
     0
370
    -2
100
AcDbLine
 10
105.0747883349
 20
2.445738926362601
 30
0.0
 11
105.0747883349
 21
20.36835106383
 31
0.0
  0
INSERT
  5
6AD
330
679
100
AcDbEntity
  8
KCAD_DIMS
 62
     0
370
    -2
100
AcDbBlockReference
  2
_OPEN30
 10
122.6007883349
 20
3.445738926362601
 30
0.0
 41
3.0
 42
3.0
 43
3.0
 50
180.0
  0
INSERT
  5
6AE
330
679
100
AcDbEntity
  8
KCAD_DIMS
 62
     0
370
    -2
100
AcDbBlockReference
  2
_OPEN30
 10
105.0747883349
 20
3.445738926362601
 30
0.0
 41
3.0
 42
3.0
 43
3.0
  0
LINE
  5
6AF
330
679
100
AcDbEntity
  8
KCAD_DIMS
 62
     0
370
    -2
100
AcDbLine
 10
122.6007883349
 20
3.445738926362601
 30
0.0
 11
105.0747883349
 21
3.445738926362601
 31
0.0
  0
LINE
  5
6B0
330
679
100
AcDbEntity
  8
KCAD_DIMS
 62
     0
370
    -2
100
AcDbLine
 10
125.6007883349
 20
3.445738926362601
 30
0.0
 11
161.449681608425
 21
3.445738926362601
 31
0.0
  0
LINE
  5
6B1
330
679
100
AcDbEntity
  8
KCAD_DIMS
 62
     0
370
    -2
100
AcDbLine
 10
102.0747883349
 20
3.4457389263626
 30
0.0
 11
100.0747883349
 21
3.4457389263626
 31
0.0
  0
POINT
  5
6B2
330
679
100
AcDbEntity
  8
DEFPOINTS
 62
     0
370
    15
100
AcDbPoint
 10
122.6007883349
 20
32.416948970197
 30
0.0
  0
POINT
  5
6B3
330
679
100
AcDbEntity
  8
DEFPOINTS
 62
     0
370
    15
100
AcDbPoint
 10
105.0747883349
 20
21.36835106383
 30
0.0
  0
POINT
  5
6B4
330
679
100
AcDbEntity
  8
DEFPOINTS
 62
     0
370
    15
100
AcDbPoint
 10
105.0747883349
 20
3.445738926362599
 30
0.0
  0
MTEXT
  5
6B5
330
679
100
AcDbEntity
  8
KCAD_DIMS
 62
     0
100
AcDbMText
 10
145.27470366886
 20
5.579071926362599
 30
0.0
 40
3.2
 41
0.0
 71
     5
 72
     1
  1
\A1;F.B.=17.526
  7
KCADDIMSTANDARD
 73
     1
 44
1.0
  0
ENDBLK
  5
B94
330
679
100
AcDbEntity
  8
0
100
AcDbBlockEnd
  0
BLOCK
  5
B95
330
6B9
100
AcDbEntity
  8
0
100
AcDbBlockBegin
  2
*D33
 70
     1
 71
     0
 10
0.0
 20
0.0
 30
0.0
  3
*D33
  1

  0
LINE
  5
6EB
330
6B9
100
AcDbEntity
  8
KCAD_DIMS
 62
     0
370
    -2
100
AcDbLine
 10
-57.99435559736999
 20
21.36835106383
 30
0.0
 11
-45.4252116651
 21
21.36835106383
 31
0.0
  0
LINE
  5
6EC
330
6B9
100
AcDbEntity
  8
KCAD_DIMS
 62
     0
370
    -2
100
AcDbLine
 10
-57.99435559736999
 20
49.36835106383
 30
0.0
 11
-45.4252116651
 21
49.36835106383
 31
0.0
  0
INSERT
  5
6ED
330
6B9
100
AcDbEntity
  8
KCAD_DIMS
 62
     0
370
    -2
100
AcDbBlockReference
  2
_OPEN30
 10
-56.99435559737
 20
21.36835106383
 30
0.0
 41
3.0
 42
3.0
 43
3.0
 50
270.0
  0
INSERT
  5
6EE
330
6B9
100
AcDbEntity
  8
KCAD_DIMS
 62
     0
370
    -2
100
AcDbBlockReference
  2
_OPEN30
 10
-56.99435559737
 20
49.36835106383
 30
0.0
 41
3.0
 42
3.0
 43
3.0
 50
90.0
  0
LINE
  5
6EF
330
6B9
100
AcDbEntity
  8
KCAD_DIMS
 62
     0
370
    -2
100
AcDbLine
 10
-56.99435559737
 20
24.36835106383
 30
0.0
 11
-56.99435559737
 21
46.36835106382999
 31
0.0
  0
POINT
  5
6F0
330
6B9
100
AcDbEntity
  8
DEFPOINTS
 62
     0
370
    15
100
AcDbPoint
 10
-44.4252116651
 20
21.36835106383
 30
0.0
  0
POINT
  5
6F1
330
6B9
100
AcDbEntity
  8
DEFPOINTS
 62
     0
370
    15
100
AcDbPoint
 10
-44.4252116651
 20
49.36835106383
 30
0.0
  0
POINT
  5
6F2
330
6B9
100
AcDbEntity
  8
DEFPOINTS
 62
     0
370
    15
100
AcDbPoint
 10
-56.99435559737
 20
49.36835106383
 30
0.0
  0
MTEXT
  5
6F3
330
6B9
100
AcDbEntity
  8
KCAD_DIMS
 62
     0
100
AcDbMText
 10
-59.12768859737
 20
33.477995336362
 30
0.0
 40
3.2
 41
0.0
 71
     5
 72
     1
  1
\A1;%%c28
  7
KCADDIMSTANDARD
 11
1.000000000000000E-16
 21
1.0
 31
0.0
 73
     1
 44
1.0
  0
ENDBLK
  5
B96
330
6B9
100
AcDbEntity
  8
0
100
AcDbBlockEnd
  0
BLOCK
  5
B97
330
733
100
AcDbEntity
  8
0
100
AcDbBlockBegin
  2
*D34
 70
     1
 71
     0
 10
0.0
 20
0.0
 30
0.0
  3
*D34
  1

  0
LINE
  5
765
330
733
100
AcDbEntity
  8
KCAD_DIMS
 62
     0
370
    -2
100
AcDbLine
 10
137.0653809971799
 20
50.36835106383
 30
0.0
 11
105.0747883349
 21
50.36835106383
 31
0.0
  0
LINE
  5
766
330
733
100
AcDbEntity
  8
KCAD_DIMS
 62
     0
370
    -2
100
AcDbLine
 10
137.0653809971799
 20
20.36835106382999
 30
0.0
 11
105.0747883349
 21
20.36835106383
 31
0.0
  0
INSERT
  5
767
330
733
100
AcDbEntity
  8
KCAD_DIMS
 62
     0
370
    -2
100
AcDbBlockReference
  2
_OPEN30
 10
136.0653809971799
 20
50.36835106383
 30
0.0
 41
3.0
 42
3.0
 43
3.0
 50
90.0
  0
INSERT
  5
768
330
733
100
AcDbEntity
  8
KCAD_DIMS
 62
     0
370
    -2
100
AcDbBlockReference
  2
_OPEN30
 10
136.0653809971799
 20
20.36835106382999
 30
0.0
 41
3.0
 42
3.0
 43
3.0
 50
270.0
  0
LINE
  5
769
330
733
100
AcDbEntity
  8
KCAD_DIMS
 62
     0
370
    -2
100
AcDbLine
 10
136.0653809971799
 20
47.36835106383
 30
0.0
 11
136.0653809971799
 21
23.36835106382999
 31
0.0
  0
POINT
  5
76A
330
733
100
AcDbEntity
  8
DEFPOINTS
 62
     0
370
    15
100
AcDbPoint
 10
104.0747883349
 20
50.36835106383
 30
0.0
  0
POINT
  5
76B
330
733
100
AcDbEntity
  8
DEFPOINTS
 62
     0
370
    15
100
AcDbPoint
 10
104.0747883349
 20
20.36835106383
 30
0.0
  0
POINT
  5
76C
330
733
100
AcDbEntity
  8
DEFPOINTS
 62
     0
370
    15
100
AcDbPoint
 10
136.0653809971799
 20
20.36835106382999
 30
0.0
  0
MTEXT
  5
76D
330
733
100
AcDbEntity
  8
KCAD_DIMS
 62
     0
100
AcDbMText
 10
133.93204799718
 20
35.36835106383
 30
0.0
 40
3.2
 41
0.0
 71
     5
 72
     1
  1
\A1;%%c30
  7
KCADDIMSTANDARD
 11
1.000000000000000E-16
 21
1.0
 31
0.0
 73
     1
 44
1.0
  0
ENDBLK
  5
B98
330
733
100
AcDbEntity
  8
0
100
AcDbBlockEnd
  0
BLOCK
  5
B99
330
793
100
AcDbEntity
  8
0
100
AcDbBlockBegin
  2
*D35
 70
     1
 71
     0
 10
0.0
 20
0.0
 30
0.0
  3
*D35
  1

  0
LINE
  5
7C5
330
793
100
AcDbEntity
  8
KCAD_DIMS
 62
     0
370
    -2
100
AcDbLine
 10
-102.4252116650999
 20
1.7646276595745
 30
0.0
 11
-102.4252116650999
 21
27.142421088449
 31
0.0
  0
LINE
  5
7C6
330
793
100
AcDbEntity
  8
KCAD_DIMS
 62
     0
370
    -2
100
AcDbLine
 10
-46.42521166509999
 20
1.7646276595745
 30
0.0
 11
-46.42521166509999
 21
22.36835106383
 31
0.0
  0
INSERT
  5
7C7
330
793
100
AcDbEntity
  8
KCAD_DIMS
 62
     0
370
    -2
100
AcDbBlockReference
  2
_OPEN30
 10
-102.4252116650999
 20
2.7646276595745
 30
0.0
 41
3.0
 42
3.0
 43
3.0
 50
180.0
  0
INSERT
  5
7C8
330
793
100
AcDbEntity
  8
KCAD_DIMS
 62
     0
370
    -2
100
AcDbBlockReference
  2
_OPEN30
 10
-46.42521166509999
 20
2.7646276595745
 30
0.0
 41
3.0
 42
3.0
 43
3.0
  0
LINE
  5
7C9
330
793
100
AcDbEntity
  8
KCAD_DIMS
 62
     0
370
    -2
100
AcDbLine
 10
-99.4252116651
 20
2.7646276595745
 30
0.0
 11
-49.4252116651
 21
2.7646276595745
 31
0.0
  0
POINT
  5
7CA
330
793
100
AcDbEntity
  8
DEFPOINTS
 62
     0
370
    15
100
AcDbPoint
 10
-102.4252116650999
 20
28.142421088449
 30
0.0
  0
POINT
  5
7CB
330
793
100
AcDbEntity
  8
DEFPOINTS
 62
     0
370
    15
100
AcDbPoint
 10
-46.42521166509999
 20
23.36835106383
 30
0.0
  0
POINT
  5
7CC
330
793
100
AcDbEntity
  8
DEFPOINTS
 62
     0
370
    15
100
AcDbPoint
 10
-46.42521166509999
 20
2.764627659574499
 30
0.0
  0
MTEXT
  5
7CD
330
793
100
AcDbEntity
  8
KCAD_DIMS
 62
     0
100
AcDbMText
 10
-74.4252116651
 20
4.897960659574499
 30
0.0
 40
3.2
 41
0.0
 71
     5
 72
     1
  1
\A1;\A1;W.D.
  7
KCADDIMSTANDARD
 73
     1
 44
1.0
  0
ENDBLK
  5
B9A
330
793
100
AcDbEntity
  8
0
100
AcDbBlockEnd
  0
BLOCK
  5
B9B
330
7DC
100
AcDbEntity
  8
0
100
AcDbBlockBegin
  2
*D36
 70
     1
 71
     0
 10
0.0
 20
0.0
 30
0.0
  3
*D36
  1

  0
LINE
  5
814
330
7DC
100
AcDbEntity
  8
KCAD_DIMS
 62
     0
370
    -2
100
AcDbLine
 10
76.16933207902198
 20
49.21835106382999
 30
0.0
 11
62.324788334901
 21
49.21835106382999
 31
0.0
  0
LINE
  5
815
330
7DC
100
AcDbEntity
  8
KCAD_DIMS
 62
     0
370
    -2
100
AcDbLine
 10
76.16933207902198
 20
21.51835106382999
 30
0.0
 11
62.324788334901
 21
21.51835106382999
 31
0.0
  0
INSERT
  5
816
330
7DC
100
AcDbEntity
  8
KCAD_DIMS
 62
     0
370
    -2
100
AcDbBlockReference
  2
_OPEN30
 10
75.169332079022
 20
49.21835106382999
 30
0.0
 41
3.0
 42
3.0
 43
3.0
 50
90.0
  0
INSERT
  5
817
330
7DC
100
AcDbEntity
  8
KCAD_DIMS
 62
     0
370
    -2
100
AcDbBlockReference
  2
_OPEN30
 10
75.169332079022
 20
21.51835106382999
 30
0.0
 41
3.0
 42
3.0
 43
3.0
 50
270.0
  0
LINE
  5
818
330
7DC
100
AcDbEntity
  8
KCAD_DIMS
 62
     0
370
    -2
100
AcDbLine
 10
75.169332079022
 20
46.21835106383
 30
0.0
 11
75.169332079022
 21
24.51835106383
 31
0.0
  0
POINT
  5
819
330
7DC
100
AcDbEntity
  8
DEFPOINTS
 62
     0
370
    15
100
AcDbPoint
 10
61.324788334901
 20
49.21835106382999
 30
0.0
  0
POINT
  5
81A
330
7DC
100
AcDbEntity
  8
DEFPOINTS
 62
     0
370
    15
100
AcDbPoint
 10
61.324788334901
 20
21.51835106382999
 30
0.0
  0
POINT
  5
81B
330
7DC
100
AcDbEntity
  8
DEFPOINTS
 62
     0
370
    15
100
AcDbPoint
 10
75.169332079022
 20
21.51835106382999
 30
0.0
  0
MTEXT
  5
81C
330
7DC
100
AcDbEntity
  8
KCAD_DIMS
 62
     0
100
AcDbMText
 10
72.234949079022
 20
36.092520916315
 30
0.0
 40
3.2
 41
0.0
 71
     5
 72
     1
  1
\A1;%%c27.7{\H2.134400;\S 0^ -0.1;}
  7
KCADDIMSTANDARD
 11
1.000000000000000E-16
 21
1.0
 31
0.0
 73
     1
 44
1.0
  0
ENDBLK
  5
B9C
330
7DC
100
AcDbEntity
  8
0
100
AcDbBlockEnd
  0
BLOCK
  5
B9D
330
8A1
100
AcDbEntity
  8
0
100
AcDbBlockBegin
  2
*D37
 70
     1
 71
     0
 10
0.0
 20
0.0
 30
0.0
  3
*D37
  1

  0
POINT
  5
896
330
8A1
100
AcDbEntity
  8
DEFPOINTS
  6
ByBlock
 62
     0
370
    15
100
AcDbPoint
 10
105.0747883349
 20
49.36835106383
 30
0.0
  0
POINT
  5
897
330
8A1
100
AcDbEntity
  8
DEFPOINTS
  6
ByBlock
 62
     0
370
    15
100
AcDbPoint
 10
109.0747883349
 20
47.31835106383
 30
0.0
  0
LINE
  5
898
330
8A1
100
AcDbEntity
  8
0
  6
ByBlock
 62
     0
370
    -2
100
AcDbLine
 10
105.0747883349
 20
50.36835106383
 30
0.0
 11
105.0747883349
 21
83.938829787234
 31
0.0
  0
LINE
  5
899
330
8A1
100
AcDbEntity
  8
0
  6
ByBlock
 62
     0
370
    -2
100
AcDbLine
 10
109.0747883349
 20
48.31835106383
 30
0.0
 11
109.0747883349
 21
83.938829787234
 31
0.0
  0
LINE
  5
89A
330
8A1
100
AcDbEntity
  8
0
  6
ByBlock
 62
     0
370
    -2
100
AcDbLine
 10
102.0747883349
 20
82.938829787234
 30
0.0
 11
99.0747883349
 21
82.938829787234
 31
0.0
  0
SOLID
  5
89B
330
8A1
100
AcDbEntity
  8
0
  6
ByBlock
 62
     0
370
    15
100
AcDbTrace
 10
105.0747883349
 20
82.938829787234
 30
0.0
 11
102.0747883349
 21
82.4388297872339
 31
0.0
 12
102.0747883349
 22
83.4388297872341
 32
0.0
 13
102.0747883349
 23
83.4388297872341
 33
0.0
  0
LINE
  5
89C
330
8A1
100
AcDbEntity
  8
0
  6
ByBlock
 62
     0
370
    -2
100
AcDbLine
 10
112.0747883349
 20
82.938829787234
 30
0.0
 11
115.0747883349
 21
82.938829787234
 31
0.0
  0
SOLID
  5
89D
330
8A1
100
AcDbEntity
  8
0
  6
ByBlock
 62
     0
370
    15
100
AcDbTrace
 10
109.0747883349
 20
82.938829787234
 30
0.0
 11
112.0747883349
 21
82.4388297872339
 31
0.0
 12
112.0747883349
 22
83.4388297872341
 32
0.0
 13
112.0747883349
 23
83.4388297872341
 33
0.0
  0
LINE
  5
89E
330
8A1
100
AcDbEntity
  8
0
  6
ByBlock
 62
     0
370
    -2
100
AcDbLine
 10
105.0747883349
 20
82.938829787234
 30
0.0
 11
109.0747883349
 21
82.938829787234
 31
0.0
  0
MTEXT
  5
89F
330
8A1
100
AcDbEntity
  8
0
  6
ByBlock
 62
     0
100
AcDbMText
 10
114.92709313264
 20
85.07216278723399
 30
0.0
 40
3.2
 41
0.0
 71
     5
 72
     1
  1
4
  7
KCADDIMSTANDARD
 73
     1
 44
1.0
  0
ENDBLK
  5
B9E
330
8A1
100
AcDbEntity
  8
0
100
AcDbBlockEnd
  0
BLOCK
  5
B9F
330
8AD
100
AcDbEntity
  8
0
100
AcDbBlockBegin
  2
*D38
 70
     1
 71
     0
 10
0.0
 20
0.0
 30
0.0
  3
*D38
  1

  0
POINT
  5
8A3
330
8AD
100
AcDbEntity
  8
DEFPOINTS
  6
ByBlock
 62
     0
370
    15
100
AcDbPoint
 10
105.0747883349
 20
49.36835106383
 30
0.0
  0
POINT
  5
8A4
330
8AD
100
AcDbEntity
  8
DEFPOINTS
  6
ByBlock
 62
     0
370
    15
100
AcDbPoint
 10
60.074788334901
 20
47.96835106382999
 30
0.0
  0
LINE
  5
8A5
330
8AD
100
AcDbEntity
  8
0
  6
ByBlock
 62
     0
370
    -2
100
AcDbLine
 10
105.0747883349
 20
50.36835106383
 30
0.0
 11
105.0747883349
 21
68.93085106383
 31
0.0
  0
LINE
  5
8A6
330
8AD
100
AcDbEntity
  8
0
  6
ByBlock
 62
     0
370
    -2
100
AcDbLine
 10
60.074788334901
 20
48.96835106382999
 30
0.0
 11
60.074788334901
 21
68.93085106383
 31
0.0
  0
LINE
  5
8A7
330
8AD
100
AcDbEntity
  8
0
  6
ByBlock
 62
     0
370
    -2
100
AcDbLine
 10
105.0747883349
 20
67.93085106383
 30
0.0
 11
60.074788334901
 21
67.93085106383
 31
0.0
  0
SOLID
  5
8A8
330
8AD
100
AcDbEntity
  8
0
  6
ByBlock
 62
     0
370
    15
100
AcDbTrace
 10
105.0747883349
 20
67.93085106383
 30
0.0
 11
102.0747883349
 21
68.4308510638301
 31
0.0
 12
102.0747883349
 22
67.4308510638299
 32
0.0
 13
102.0747883349
 23
67.4308510638299
 33
0.0
  0
SOLID
  5
8A9
330
8AD
100
AcDbEntity
  8
0
  6
ByBlock
 62
     0
370
    15
100
AcDbTrace
 10
60.074788334901
 20
67.93085106383
 30
0.0
 11
63.074788334901
 21
68.4308510638301
 31
0.0
 12
63.074788334901
 22
67.4308510638299
 32
0.0
 13
63.074788334901
 23
67.4308510638299
 33
0.0
  0
LINE
  5
8AA
330
8AD
100
AcDbEntity
  8
0
  6
ByBlock
 62
     0
370
    -2
100
AcDbLine
 10
105.0747883349
 20
49.36835106383
 30
0.0
 11
105.0747883349
 21
49.36835106383
 31
0.0
  0
MTEXT
  5
8AB
330
8AD
100
AcDbEntity
  8
0
  6
ByBlock
 62
     0
100
AcDbMText
 10
82.574788334901
 20
70.06418406383
 30
0.0
 40
3.2
 41
0.0
 71
     5
 72
     1
  1
45
  7
KCADDIMSTANDARD
 73
     1
 44
1.0
  0
ENDBLK
  5
BA0
330
8AD
100
AcDbEntity
  8
0
100
AcDbBlockEnd
  0
BLOCK
  5
BA1
330
8B9
100
AcDbEntity
  8
0
100
AcDbBlockBegin
  2
*D39
 70
     1
 71
     0
 10
0.0
 20
0.0
 30
0.0
  3
*D39
  1

  0
POINT
  5
8AF
330
8B9
100
AcDbEntity
  8
DEFPOINTS
  6
ByBlock
 62
     0
370
    15
100
AcDbPoint
 10
-46.42521166509999
 20
47.36835106383
 30
0.0
  0
POINT
  5
8B0
330
8B9
100
AcDbEntity
  8
DEFPOINTS
  6
ByBlock
 62
     0
370
    15
100
AcDbPoint
 10
-29.4252116651
 20
49.36835106383
 30
0.0
  0
LINE
  5
8B1
330
8B9
100
AcDbEntity
  8
0
  6
ByBlock
 62
     0
370
    -2
100
AcDbLine
 10
-46.42521166509999
 20
48.36835106383
 30
0.0
 11
-46.42521166509999
 21
68.93085106383
 31
0.0
  0
LINE
  5
8B2
330
8B9
100
AcDbEntity
  8
0
  6
ByBlock
 62
     0
370
    -2
100
AcDbLine
 10
-29.4252116651
 20
50.36835106383
 30
0.0
 11
-29.4252116651
 21
68.93085106383
 31
0.0
  0
LINE
  5
8B3
330
8B9
100
AcDbEntity
  8
0
  6
ByBlock
 62
     0
370
    -2
100
AcDbLine
 10
-46.42521166509999
 20
67.93085106383
 30
0.0
 11
-29.4252116651
 21
67.93085106383
 31
0.0
  0
SOLID
  5
8B4
330
8B9
100
AcDbEntity
  8
0
  6
ByBlock
 62
     0
370
    15
100
AcDbTrace
 10
-46.42521166509999
 20
67.93085106383
 30
0.0
 11
-43.42521166509999
 21
67.4308510638299
 31
0.0
 12
-43.42521166509999
 22
68.4308510638301
 32
0.0
 13
-43.42521166509999
 23
68.4308510638301
 33
0.0
  0
SOLID
  5
8B5
330
8B9
100
AcDbEntity
  8
0
  6
ByBlock
 62
     0
370
    15
100
AcDbTrace
 10
-29.4252116651
 20
67.93085106383
 30
0.0
 11
-32.4252116651
 21
67.4308510638299
 31
0.0
 12
-32.4252116651
 22
68.4308510638301
 32
0.0
 13
-32.4252116651
 23
68.4308510638301
 33
0.0
  0
LINE
  5
8B6
330
8B9
100
AcDbEntity
  8
0
  6
ByBlock
 62
     0
370
    -2
100
AcDbLine
 10
-46.42521166509999
 20
47.36835106383
 30
0.0
 11
-46.42521166509999
 21
47.36835106383
 31
0.0
  0
MTEXT
  5
8B7
330
8B9
100
AcDbEntity
  8
0
  6
ByBlock
 62
     0
100
AcDbMText
 10
-37.9252116651
 20
70.06418406383
 30
0.0
 40
3.2
 41
0.0
 71
     5
 72
     1
  1
17
  7
KCADDIMSTANDARD
 73
     1
 44
1.0
  0
ENDBLK
  5
BA2
330
8B9
100
AcDbEntity
  8
0
100
AcDbBlockEnd
  0
BLOCK
  5
BA3
330
8C5
100
AcDbEntity
  8
0
100
AcDbBlockBegin
  2
*D40
 70
     1
 71
     0
 10
0.0
 20
0.0
 30
0.0
  3
*D40
  1

  0
POINT
  5
8BB
330
8C5
100
AcDbEntity
  8
DEFPOINTS
  6
ByBlock
 62
     0
370
    15
100
AcDbPoint
 10
105.0747883349
 20
49.36835106383
 30
0.0
  0
POINT
  5
8BC
330
8C5
100
AcDbEntity
  8
DEFPOINTS
  6
ByBlock
 62
     0
370
    15
100
AcDbPoint
 10
-46.42521166509999
 20
47.36835106383
 30
0.0
  0
LINE
  5
8BD
330
8C5
100
AcDbEntity
  8
0
  6
ByBlock
 62
     0
370
    -2
100
AcDbLine
 10
105.0747883349
 20
50.36835106383
 30
0.0
 11
105.0747883349
 21
83.938829787234
 31
0.0
  0
LINE
  5
8BE
330
8C5
100
AcDbEntity
  8
0
  6
ByBlock
 62
     0
370
    -2
100
AcDbLine
 10
-46.42521166509999
 20
48.36835106383
 30
0.0
 11
-46.42521166509999
 21
83.938829787234
 31
0.0
  0
LINE
  5
8BF
330
8C5
100
AcDbEntity
  8
0
  6
ByBlock
 62
     0
370
    -2
100
AcDbLine
 10
105.0747883349
 20
82.938829787234
 30
0.0
 11
-46.42521166509999
 21
82.938829787234
 31
0.0
  0
SOLID
  5
8C0
330
8C5
100
AcDbEntity
  8
0
  6
ByBlock
 62
     0
370
    15
100
AcDbTrace
 10
105.0747883349
 20
82.938829787234
 30
0.0
 11
102.0747883349
 21
83.4388297872341
 31
0.0
 12
102.0747883349
 22
82.4388297872339
 32
0.0
 13
102.0747883349
 23
82.4388297872339
 33
0.0
  0
SOLID
  5
8C1
330
8C5
100
AcDbEntity
  8
0
  6
ByBlock
 62
     0
370
    15
100
AcDbTrace
 10
-46.42521166509999
 20
82.938829787234
 30
0.0
 11
-43.42521166509999
 21
83.4388297872341
 31
0.0
 12
-43.42521166509999
 22
82.4388297872339
 32
0.0
 13
-43.42521166509999
 23
82.4388297872339
 33
0.0
  0
LINE
  5
8C2
330
8C5
100
AcDbEntity
  8
0
  6
ByBlock
 62
     0
370
    -2
100
AcDbLine
 10
105.0747883349
 20
49.36835106383
 30
0.0
 11
105.0747883349
 21
49.36835106383
 31
0.0
  0
MTEXT
  5
8C3
330
8C5
100
AcDbEntity
  8
0
  6
ByBlock
 62
     0
100
AcDbMText
 10
29.324788334901
 20
85.07216278723399
 30
0.0
 40
3.2
 41
0.0
 71
     5
 72
     1
  1
151.5
  7
KCADDIMSTANDARD
 73
     1
 44
1.0
  0
ENDBLK
  5
BA4
330
8C5
100
AcDbEntity
  8
0
100
AcDbBlockEnd
  0
BLOCK
  5
BA5
330
8D1
100
AcDbEntity
  8
0
100
AcDbBlockBegin
  2
*D41
 70
     1
 71
     0
 10
0.0
 20
0.0
 30
0.0
  3
*D41
  1

  0
POINT
  5
8C7
330
8D1
100
AcDbEntity
  8
DEFPOINTS
  6
ByBlock
 62
     0
370
    15
100
AcDbPoint
 10
-29.4252116651
 20
49.36835106383
 30
0.0
  0
POINT
  5
8C8
330
8D1
100
AcDbEntity
  8
DEFPOINTS
  6
ByBlock
 62
     0
370
    15
100
AcDbPoint
 10
20.574788334901
 20
50.11835106382999
 30
0.0
  0
LINE
  5
8C9
330
8D1
100
AcDbEntity
  8
0
  6
ByBlock
 62
     0
370
    -2
100
AcDbLine
 10
-29.4252116651
 20
50.36835106383
 30
0.0
 11
-29.4252116651
 21
68.93085106383
 31
0.0
  0
LINE
  5
8CA
330
8D1
100
AcDbEntity
  8
0
  6
ByBlock
 62
     0
370
    -2
100
AcDbLine
 10
20.574788334901
 20
51.11835106382999
 30
0.0
 11
20.574788334901
 21
68.93085106383
 31
0.0
  0
LINE
  5
8CB
330
8D1
100
AcDbEntity
  8
0
  6
ByBlock
 62
     0
370
    -2
100
AcDbLine
 10
-29.4252116651
 20
67.93085106383
 30
0.0
 11
20.574788334901
 21
67.93085106383
 31
0.0
  0
SOLID
  5
8CC
330
8D1
100
AcDbEntity
  8
0
  6
ByBlock
 62
     0
370
    15
100
AcDbTrace
 10
-29.4252116651
 20
67.93085106383
 30
0.0
 11
-26.4252116651
 21
67.4308510638299
 31
0.0
 12
-26.4252116651
 22
68.4308510638301
 32
0.0
 13
-26.4252116651
 23
68.4308510638301
 33
0.0
  0
SOLID
  5
8CD
330
8D1
100
AcDbEntity
  8
0
  6
ByBlock
 62
     0
370
    15
100
AcDbTrace
 10
20.574788334901
 20
67.93085106383
 30
0.0
 11
17.574788334901
 21
67.4308510638299
 31
0.0
 12
17.574788334901
 22
68.4308510638301
 32
0.0
 13
17.574788334901
 23
68.4308510638301
 33
0.0
  0
LINE
  5
8CE
330
8D1
100
AcDbEntity
  8
0
  6
ByBlock
 62
     0
370
    -2
100
AcDbLine
 10
-29.4252116651
 20
49.36835106383
 30
0.0
 11
-29.4252116651
 21
49.36835106383
 31
0.0
  0
MTEXT
  5
8CF
330
8D1
100
AcDbEntity
  8
0
  6
ByBlock
 62
     0
100
AcDbMText
 10
-4.425211665098999
 20
70.06418406383
 30
0.0
 40
3.2
 41
0.0
 71
     5
 72
     1
  1
50
  7
KCADDIMSTANDARD
 73
     1
 44
1.0
  0
ENDBLK
  5
BA6
330
8D1
100
AcDbEntity
  8
0
100
AcDbBlockEnd
  0
BLOCK
  5
BA7
330
8DD
100
AcDbEntity
  8
0
100
AcDbBlockBegin
  2
*D42
 70
     1
 71
     0
 10
0.0
 20
0.0
 30
0.0
  3
*D42
  1

  0
POINT
  5
8D3
330
8DD
100
AcDbEntity
  8
DEFPOINTS
  6
ByBlock
 62
     0
370
    15
100
AcDbPoint
 10
122.6007883349
 20
32.416948970197
 30
0.0
  0
POINT
  5
8D4
330
8DD
100
AcDbEntity
  8
DEFPOINTS
  6
ByBlock
 62
     0
370
    15
100
AcDbPoint
 10
105.0747883349
 20
21.36835106383
 30
0.0
  0
LINE
  5
8D5
330
8DD
100
AcDbEntity
  8
0
  6
ByBlock
 62
     0
370
    -2
100
AcDbLine
 10
122.6007883349
 20
31.416948970197
 30
0.0
 11
122.6007883349
 21
2.445738926362598
 31
0.0
  0
LINE
  5
8D6
330
8DD
100
AcDbEntity
  8
0
  6
ByBlock
 62
     0
370
    -2
100
AcDbLine
 10
105.0747883349
 20
20.36835106383
 30
0.0
 11
105.0747883349
 21
2.445738926362598
 31
0.0
  0
LINE
  5
8D7
330
8DD
100
AcDbEntity
  8
0
  6
ByBlock
 62
     0
370
    -2
100
AcDbLine
 10
122.6007883349
 20
3.445738926362598
 30
0.0
 11
105.0747883349
 21
3.445738926362598
 31
0.0
  0
SOLID
  5
8D8
330
8DD
100
AcDbEntity
  8
0
  6
ByBlock
 62
     0
370
    15
100
AcDbTrace
 10
122.6007883349
 20
3.445738926362598
 30
0.0
 11
119.6007883349
 21
3.945738926362697
 31
0.0
 12
119.6007883349
 22
2.945738926362498
 32
0.0
 13
119.6007883349
 23
2.945738926362498
 33
0.0
  0
SOLID
  5
8D9
330
8DD
100
AcDbEntity
  8
0
  6
ByBlock
 62
     0
370
    15
100
AcDbTrace
 10
105.0747883349
 20
3.445738926362598
 30
0.0
 11
108.0747883349
 21
3.945738926362697
 31
0.0
 12
108.0747883349
 22
2.945738926362498
 32
0.0
 13
108.0747883349
 23
2.945738926362498
 33
0.0
  0
LINE
  5
8DA
330
8DD
100
AcDbEntity
  8
0
  6
ByBlock
 62
     0
370
    -2
100
AcDbLine
 10
122.6007883349
 20
32.416948970197
 30
0.0
 11
122.6007883349
 21
32.416948970197
 31
0.0
  0
MTEXT
  5
8DB
330
8DD
100
AcDbEntity
  8
0
  6
ByBlock
 62
     0
100
AcDbMText
 10
145.27470366886
 20
5.579071926362598
 30
0.0
 40
3.2
 41
0.0
 71
     5
 72
     1
  1
\A1;F.B.=17.526
  7
KCADDIMSTANDARD
 73
     1
 44
1.0
  0
ENDBLK
  5
BA8
330
8DD
100
AcDbEntity
  8
0
100
AcDbBlockEnd
  0
BLOCK
  5
BA9
330
8E9
100
AcDbEntity
  8
0
100
AcDbBlockBegin
  2
*D43
 70
     1
 71
     0
 10
0.0
 20
0.0
 30
0.0
  3
*D43
  1

  0
POINT
  5
8DF
330
8E9
100
AcDbEntity
  8
DEFPOINTS
  6
ByBlock
 62
     0
370
    15
100
AcDbPoint
 10
-44.4252116651
 20
21.36835106383
 30
0.0
  0
POINT
  5
8E0
330
8E9
100
AcDbEntity
  8
DEFPOINTS
  6
ByBlock
 62
     0
370
    15
100
AcDbPoint
 10
-44.4252116651
 20
49.36835106383
 30
0.0
  0
LINE
  5
8E1
330
8E9
100
AcDbEntity
  8
0
  6
ByBlock
 62
     0
370
    -2
100
AcDbLine
 10
-45.4252116651
 20
21.36835106383
 30
0.0
 11
-57.99435559737
 21
21.36835106383
 31
0.0
  0
LINE
  5
8E2
330
8E9
100
AcDbEntity
  8
0
  6
ByBlock
 62
     0
370
    -2
100
AcDbLine
 10
-45.4252116651
 20
49.36835106383
 30
0.0
 11
-57.99435559737
 21
49.36835106383
 31
0.0
  0
LINE
  5
8E3
330
8E9
100
AcDbEntity
  8
0
  6
ByBlock
 62
     0
370
    -2
100
AcDbLine
 10
-56.99435559737
 20
21.36835106383
 30
0.0
 11
-56.99435559737
 21
49.36835106383
 31
0.0
  0
SOLID
  5
8E4
330
8E9
100
AcDbEntity
  8
0
  6
ByBlock
 62
     0
370
    15
100
AcDbTrace
 10
-56.99435559737
 20
21.36835106383
 30
0.0
 11
-56.4943555973699
 21
24.36835106383
 31
0.0
 12
-57.4943555973701
 22
24.36835106383
 32
0.0
 13
-57.4943555973701
 23
24.36835106383
 33
0.0
  0
SOLID
  5
8E5
330
8E9
100
AcDbEntity
  8
0
  6
ByBlock
 62
     0
370
    15
100
AcDbTrace
 10
-56.99435559737
 20
49.36835106383
 30
0.0
 11
-56.4943555973699
 21
46.36835106383
 31
0.0
 12
-57.4943555973701
 22
46.36835106383
 32
0.0
 13
-57.4943555973701
 23
46.36835106383
 33
0.0
  0
LINE
  5
8E6
330
8E9
100
AcDbEntity
  8
0
  6
ByBlock
 62
     0
370
    -2
100
AcDbLine
 10
-44.4252116651
 20
21.36835106383
 30
0.0
 11
-44.4252116651
 21
21.36835106383
 31
0.0
  0
MTEXT
  5
8E7
330
8E9
100
AcDbEntity
  8
0
  6
ByBlock
 62
     0
100
AcDbMText
 10
-59.12768859737
 20
33.477995336362
 30
0.0
 40
3.2
 41
0.0
 71
     5
 72
     1
  1
\A1;%%c28
  7
KCADDIMSTANDARD
 11
6.123031769111886E-17
 21
1.0
 31
0.0
 73
     1
 44
1.0
  0
ENDBLK
  5
BAA
330
8E9
100
AcDbEntity
  8
0
100
AcDbBlockEnd
  0
BLOCK
  5
BAB
330
8F5
100
AcDbEntity
  8
0
100
AcDbBlockBegin
  2
*D44
 70
     1
 71
     0
 10
0.0
 20
0.0
 30
0.0
  3
*D44
  1

  0
POINT
  5
8EB
330
8F5
100
AcDbEntity
  8
DEFPOINTS
  6
ByBlock
 62
     0
370
    15
100
AcDbPoint
 10
104.0747883349
 20
50.36835106383
 30
0.0
  0
POINT
  5
8EC
330
8F5
100
AcDbEntity
  8
DEFPOINTS
  6
ByBlock
 62
     0
370
    15
100
AcDbPoint
 10
104.0747883349
 20
20.36835106383
 30
0.0
  0
LINE
  5
8ED
330
8F5
100
AcDbEntity
  8
0
  6
ByBlock
 62
     0
370
    -2
100
AcDbLine
 10
105.0747883349
 20
50.36835106383
 30
0.0
 11
137.0653809971799
 21
50.36835106383
 31
0.0
  0
LINE
  5
8EE
330
8F5
100
AcDbEntity
  8
0
  6
ByBlock
 62
     0
370
    -2
100
AcDbLine
 10
105.0747883349
 20
20.36835106383
 30
0.0
 11
137.0653809971799
 21
20.36835106383
 31
0.0
  0
LINE
  5
8EF
330
8F5
100
AcDbEntity
  8
0
  6
ByBlock
 62
     0
370
    -2
100
AcDbLine
 10
136.0653809971799
 20
50.36835106383
 30
0.0
 11
136.0653809971799
 21
20.36835106383
 31
0.0
  0
SOLID
  5
8F0
330
8F5
100
AcDbEntity
  8
0
  6
ByBlock
 62
     0
370
    15
100
AcDbTrace
 10
136.0653809971799
 20
50.36835106383
 30
0.0
 11
135.5653809971798
 21
47.36835106383
 31
0.0
 12
136.56538099718
 22
47.36835106383
 32
0.0
 13
136.56538099718
 23
47.36835106383
 33
0.0
  0
SOLID
  5
8F1
330
8F5
100
AcDbEntity
  8
0
  6
ByBlock
 62
     0
370
    15
100
AcDbTrace
 10
136.0653809971799
 20
20.36835106383
 30
0.0
 11
135.5653809971798
 21
23.36835106383
 31
0.0
 12
136.56538099718
 22
23.36835106383
 32
0.0
 13
136.56538099718
 23
23.36835106383
 33
0.0
  0
LINE
  5
8F2
330
8F5
100
AcDbEntity
  8
0
  6
ByBlock
 62
     0
370
    -2
100
AcDbLine
 10
104.0747883349
 20
50.36835106383
 30
0.0
 11
104.0747883349
 21
50.36835106383
 31
0.0
  0
MTEXT
  5
8F3
330
8F5
100
AcDbEntity
  8
0
  6
ByBlock
 62
     0
100
AcDbMText
 10
133.93204799718
 20
35.36835106383
 30
0.0
 40
3.2
 41
0.0
 71
     5
 72
     1
  1
\A1;%%c30
  7
KCADDIMSTANDARD
 11
6.123031769111886E-17
 21
1.0
 31
0.0
 73
     1
 44
1.0
  0
ENDBLK
  5
BAC
330
8F5
100
AcDbEntity
  8
0
100
AcDbBlockEnd
  0
BLOCK
  5
BAD
330
901
100
AcDbEntity
  8
0
100
AcDbBlockBegin
  2
*D45
 70
     1
 71
     0
 10
0.0
 20
0.0
 30
0.0
  3
*D45
  1

  0
POINT
  5
8F7
330
901
100
AcDbEntity
  8
DEFPOINTS
  6
ByBlock
 62
     0
370
    15
100
AcDbPoint
 10
-102.4252116650999
 20
28.142421088449
 30
0.0
  0
POINT
  5
8F8
330
901
100
AcDbEntity
  8
DEFPOINTS
  6
ByBlock
 62
     0
370
    15
100
AcDbPoint
 10
-46.42521166509999
 20
23.36835106383
 30
0.0
  0
LINE
  5
8F9
330
901
100
AcDbEntity
  8
0
  6
ByBlock
 62
     0
370
    -2
100
AcDbLine
 10
-102.4252116650999
 20
27.142421088449
 30
0.0
 11
-102.4252116650999
 21
1.764627659574497
 31
0.0
  0
LINE
  5
8FA
330
901
100
AcDbEntity
  8
0
  6
ByBlock
 62
     0
370
    -2
100
AcDbLine
 10
-46.42521166509999
 20
22.36835106383
 30
0.0
 11
-46.42521166509999
 21
1.764627659574497
 31
0.0
  0
LINE
  5
8FB
330
901
100
AcDbEntity
  8
0
  6
ByBlock
 62
     0
370
    -2
100
AcDbLine
 10
-102.4252116650999
 20
2.764627659574497
 30
0.0
 11
-46.42521166509999
 21
2.764627659574497
 31
0.0
  0
SOLID
  5
8FC
330
901
100
AcDbEntity
  8
0
  6
ByBlock
 62
     0
370
    15
100
AcDbTrace
 10
-102.4252116650999
 20
2.764627659574497
 30
0.0
 11
-99.4252116650999
 21
2.264627659574398
 31
0.0
 12
-99.4252116650999
 22
3.264627659574597
 32
0.0
 13
-99.4252116650999
 23
3.264627659574597
 33
0.0
  0
SOLID
  5
8FD
330
901
100
AcDbEntity
  8
0
  6
ByBlock
 62
     0
370
    15
100
AcDbTrace
 10
-46.42521166509999
 20
2.764627659574497
 30
0.0
 11
-49.42521166509999
 21
2.264627659574398
 31
0.0
 12
-49.42521166509999
 22
3.264627659574597
 32
0.0
 13
-49.42521166509999
 23
3.264627659574597
 33
0.0
  0
LINE
  5
8FE
330
901
100
AcDbEntity
  8
0
  6
ByBlock
 62
     0
370
    -2
100
AcDbLine
 10
-102.4252116650999
 20
28.142421088449
 30
0.0
 11
-102.4252116650999
 21
28.142421088449
 31
0.0
  0
MTEXT
  5
8FF
330
901
100
AcDbEntity
  8
0
  6
ByBlock
 62
     0
100
AcDbMText
 10
-74.4252116651
 20
4.897960659574498
 30
0.0
 40
3.2
 41
0.0
 71
     5
 72
     1
  1
\A1;W.D.
  7
KCADDIMSTANDARD
 73
     1
 44
1.0
  0
ENDBLK
  5
BAE
330
901
100
AcDbEntity
  8
0
100
AcDbBlockEnd
  0
BLOCK
  5
BAF
330
90E
100
AcDbEntity
  8
0
100
AcDbBlockBegin
  2
*D46
 70
     1
 71
     0
 10
0.0
 20
0.0
 30
0.0
  3
*D46
  1

  0
POINT
  5
903
330
90E
100
AcDbEntity
  8
DEFPOINTS
  6
ByBlock
 62
     0
370
    15
100
AcDbPoint
 10
61.324788334901
 20
49.21835106382999
 30
0.0
  0
POINT
  5
904
330
90E
100
AcDbEntity
  8
DEFPOINTS
  6
ByBlock
 62
     0
370
    15
100
AcDbPoint
 10
61.324788334901
 20
21.51835106382999
 30
0.0
  0
LINE
  5
905
330
90E
100
AcDbEntity
  8
0
  6
ByBlock
 62
     0
370
    -2
100
AcDbLine
 10
62.324788334901
 20
49.21835106382999
 30
0.0
 11
76.169332079022
 21
49.21835106382999
 31
0.0
  0
LINE
  5
906
330
90E
100
AcDbEntity
  8
0
  6
ByBlock
 62
     0
370
    -2
100
AcDbLine
 10
62.324788334901
 20
21.51835106382999
 30
0.0
 11
76.169332079022
 21
21.51835106382999
 31
0.0
  0
LINE
  5
907
330
90E
100
AcDbEntity
  8
0
  6
ByBlock
 62
     0
370
    -2
100
AcDbLine
 10
75.169332079022
 20
49.21835106382999
 30
0.0
 11
75.169332079022
 21
46.21114891631501
 31
0.0
  0
SOLID
  5
908
330
90E
100
AcDbEntity
  8
0
  6
ByBlock
 62
     0
370
    15
100
AcDbTrace
 10
75.169332079022
 20
49.21835106382999
 30
0.0
 11
74.6693320790219
 21
46.21835106382999
 31
0.0
 12
75.6693320790221
 22
46.21835106382999
 32
0.0
 13
75.6693320790221
 23
46.21835106382999
 33
0.0
  0
LINE
  5
909
330
90E
100
AcDbEntity
  8
0
  6
ByBlock
 62
     0
370
    -2
100
AcDbLine
 10
75.169332079022
 20
21.51835106382999
 30
0.0
 11
75.169332079022
 21
25.973892916315
 31
0.0
  0
SOLID
  5
90A
330
90E
100
AcDbEntity
  8
0
  6
ByBlock
 62
     0
370
    15
100
AcDbTrace
 10
75.169332079022
 20
21.51835106382999
 30
0.0
 11
74.6693320790219
 21
24.51835106382999
 31
0.0
 12
75.6693320790221
 22
24.51835106382999
 32
0.0
 13
75.6693320790221
 23
24.51835106382999
 33
0.0
  0
LINE
  5
90B
330
90E
100
AcDbEntity
  8
0
  6
ByBlock
 62
     0
370
    -2
100
AcDbLine
 10
61.324788334901
 20
49.21835106382999
 30
0.0
 11
61.324788334901
 21
49.21835106382999
 31
0.0
  0
MTEXT
  5
90C
330
90E
100
AcDbEntity
  8
0
  6
ByBlock
 62
     0
100
AcDbMText
 10
72.234949079022
 20
36.092520916315
 30
0.0
 40
3.2
 41
0.0
 71
     5
 72
     1
  1
\A1;%%c27.7{\H2.134400;\S+0^ -0.1;}
  7
KCADDIMSTANDARD
 11
6.123031769111886E-17
 21
1.0
 31
0.0
 73
     1
 44
1.0
  0
ENDBLK
  5
BB0
330
90E
100
AcDbEntity
  8
0
100
AcDbBlockEnd
  0
BLOCK
  5
BB1
330
9FC
100
AcDbEntity
  8
0
100
AcDbBlockBegin
  2
*D47
 70
     1
 71
     0
 10
0.0
 20
0.0
 30
0.0
  3
*D47
  1

  0
POINT
  5
9F2
330
9FC
100
AcDbEntity
  8
DEFPOINTS
  6
ByBlock
 62
     0
370
    15
100
AcDbPoint
 10
122.6007883349
 20
32.416948970197
 30
0.0
  0
POINT
  5
9F3
330
9FC
100
AcDbEntity
  8
DEFPOINTS
  6
ByBlock
 62
     0
370
    15
100
AcDbPoint
 10
105.0747883349
 20
21.36835106383
 30
0.0
  0
LINE
  5
9F4
330
9FC
100
AcDbEntity
  8
0
  6
ByBlock
 62
     0
370
    -2
100
AcDbLine
 10
122.6007883349
 20
31.416948970197
 30
0.0
 11
122.6007883349
 21
2.445738926362598
 31
0.0
  0
LINE
  5
9F5
330
9FC
100
AcDbEntity
  8
0
  6
ByBlock
 62
     0
370
    -2
100
AcDbLine
 10
105.0747883349
 20
20.36835106383
 30
0.0
 11
105.0747883349
 21
2.445738926362598
 31
0.0
  0
LINE
  5
9F6
330
9FC
100
AcDbEntity
  8
0
  6
ByBlock
 62
     0
370
    -2
100
AcDbLine
 10
122.6007883349
 20
3.445738926362598
 30
0.0
 11
105.0747883349
 21
3.445738926362598
 31
0.0
  0
SOLID
  5
9F7
330
9FC
100
AcDbEntity
  8
0
  6
ByBlock
 62
     0
370
    15
100
AcDbTrace
 10
122.6007883349
 20
3.445738926362598
 30
0.0
 11
119.6007883349
 21
3.945738926362697
 31
0.0
 12
119.6007883349
 22
2.945738926362498
 32
0.0
 13
119.6007883349
 23
2.945738926362498
 33
0.0
  0
SOLID
  5
9F8
330
9FC
100
AcDbEntity
  8
0
  6
ByBlock
 62
     0
370
    15
100
AcDbTrace
 10
105.0747883349
 20
3.445738926362598
 30
0.0
 11
108.0747883349
 21
3.945738926362697
 31
0.0
 12
108.0747883349
 22
2.945738926362498
 32
0.0
 13
108.0747883349
 23
2.945738926362498
 33
0.0
  0
LINE
  5
9F9
330
9FC
100
AcDbEntity
  8
0
  6
ByBlock
 62
     0
370
    -2
100
AcDbLine
 10
122.6007883349
 20
32.416948970197
 30
0.0
 11
122.6007883349
 21
32.416948970197
 31
0.0
  0
MTEXT
  5
9FA
330
9FC
100
AcDbEntity
  8
0
  6
ByBlock
 62
     0
100
AcDbMText
 10
141.4360022044003
 20
6.123006797097855
 30
0.0
 40
3.2
 41
0.0
 71
     5
 72
     1
  1
\A1;F.B.=17.526
  7
KCADDIMSTANDARD
 73
     1
 44
1.0
  0
ENDBLK
  5
BB2
330
9FC
100
AcDbEntity
  8
0
100
AcDbBlockEnd
  0
ENDSEC
  0
SECTION
  2
ENTITIES
  0
LINE
  5
2F0
330
1F
100
AcDbEntity
  8
99
  6
Continuous
 62
     7
370
    30
100
AcDbLine
 10
200.0
 20
138.5
 30
0.0
 11
-180.0
 21
138.5
 31
0.0
1001
Sigma
1000

  0
LINE
  5
2F2
330
1F
100
AcDbEntity
  8
99
  6
Continuous
 62
     7
370
    30
100
AcDbLine
 10
-180.0
 20
138.5
 30
0.0
 11
-180.0
 21
-133.4999999999999
 31
0.0
1001
Sigma
1000

  0
LINE
  5
2F4
330
1F
100
AcDbEntity
  8
99
  6
Continuous
 62
     7
370
    30
100
AcDbLine
 10
200.0
 20
138.5
 30
0.0
 11
200.0
 21
-133.4999999999999
 31
0.0
1001
Sigma
1000

  0
LINE
  5
2F6
330
1F
100
AcDbEntity
  8
99
  6
Continuous
 62
     7
370
    15
100
AcDbLine
 10
3.1810012837
 20
138.0
 30
0.0
 11
3.1810012837
 21
140.5
 31
0.0
1001
Sigma
1000

  0
LINE
  5
2F8
330
1F
100
AcDbEntity
  8
99
  6
Continuous
 62
     7
370
    15
100
AcDbLine
 10
-179.4999999999999
 20
-7.4319419238
 30
0.0
 11
-182.0
 21
-7.4319419238
 31
0.0
1001
Sigma
1000

  0
LINE
  5
2FA
330
1F
100
AcDbEntity
  8
99
  6
Continuous
 62
     7
370
    15
100
AcDbLine
 10
199.0
 20
-7.4319419238
 30
0.0
 11
201.5
 21
-7.4319419238
 31
0.0
1001
Sigma
1000

  0
LINE
  5
2FC
330
1F
100
AcDbEntity
  8
99
  6
Continuous
 62
     7
370
    30
100
AcDbLine
 10
200.0
 20
-133.4999999999999
 30
0.0
 11
-180.0
 21
-133.4999999999999
 31
0.0
1001
Sigma
1000

  0
LINE
  5
2FE
330
1F
100
AcDbEntity
  8
99
  6
Continuous
 62
     7
370
    30
100
AcDbLine
 10
10.0
 20
-86.0
 30
0.0
 11
200.0
 21
-86.0
 31
0.0
1001
Sigma
1000

  0
LINE
  5
300
330
1F
100
AcDbEntity
  8
99
  6
Continuous
 62
     7
370
    30
100
AcDbLine
 10
139.0
 20
-133.4999999999999
 30
0.0
 11
139.0
 21
-86.0
 31
0.0
1001
Sigma
1000

  0
LINE
  5
302
330
1F
100
AcDbEntity
  8
99
  6
Continuous
 62
     7
370
    30
100
AcDbLine
 10
79.0
 20
-113.5
 30
0.0
 11
200.0
 21
-113.5
 31
0.0
1001
Sigma
1000

  0
LINE
  5
304
330
1F
100
AcDbEntity
  8
99
  6
Continuous
 62
     7
370
    30
100
AcDbLine
 10
124.0
 20
-133.4999999999999
 30
0.0
 11
124.0
 21
-113.5
 31
0.0
1001
Sigma
1000

  0
LINE
  5
306
330
1F
100
AcDbEntity
  8
99
  6
Continuous
 62
     7
370
    30
100
AcDbLine
 10
109.0
 20
-133.4999999999999
 30
0.0
 11
109.0
 21
-113.5
 31
0.0
1001
Sigma
1000

  0
LINE
  5
308
330
1F
100
AcDbEntity
  8
99
  6
Continuous
 62
     7
370
    30
100
AcDbLine
 10
94.0
 20
-133.4999999999999
 30
0.0
 11
94.0
 21
-86.0
 31
0.0
1001
Sigma
1000

  0
LINE
  5
30A
330
1F
100
AcDbEntity
  8
99
  6
Continuous
 62
     7
370
    30
100
AcDbLine
 10
79.0
 20
-133.4999999999999
 30
0.0
 11
79.0
 21
-86.0
 31
0.0
1001
Sigma
1000

  0
LINE
  5
30C
330
1F
100
AcDbEntity
  8
99
  6
Continuous
 62
     7
370
    15
100
AcDbLine
 10
10.0
 20
-128.4999999999999
 30
0.0
 11
79.0
 21
-128.4999999999999
 31
0.0
1001
Sigma
1000

  0
LINE
  5
30E
330
1F
100
AcDbEntity
  8
99
  6
Continuous
 62
     7
370
    15
100
AcDbLine
 10
10.0
 20
-123.5
 30
0.0
 11
79.0
 21
-123.5
 31
0.0
1001
Sigma
1000

  0
LINE
  5
310
330
1F
100
AcDbEntity
  8
99
  6
Continuous
 62
     7
370
    15
100
AcDbLine
 10
10.0
 20
-118.5
 30
0.0
 11
139.0
 21
-118.5
 31
0.0
1001
Sigma
1000

  0
LINE
  5
312
330
1F
100
AcDbEntity
  8
99
  6
Continuous
 62
     7
370
    15
100
AcDbLine
 10
10.0
 20
-113.5
 30
0.0
 11
79.0
 21
-113.5
 31
0.0
1001
Sigma
1000

  0
LINE
  5
314
330
1F
100
AcDbEntity
  8
99
  6
Continuous
 62
     7
370
    15
100
AcDbLine
 10
10.0
 20
-108.4999999999999
 30
0.0
 11
79.0
 21
-108.4999999999999
 31
0.0
1001
Sigma
1000

  0
LINE
  5
316
330
1F
100
AcDbEntity
  8
99
  6
Continuous
 62
     7
370
    30
100
AcDbLine
 10
94.0
 20
-106.0
 30
0.0
 11
200.0
 21
-106.0
 31
0.0
1001
Sigma
1000

  0
LINE
  5
318
330
1F
100
AcDbEntity
  8
99
  6
Continuous
 62
     7
370
    15
100
AcDbLine
 10
31.0
 20
-133.4999999999999
 30
0.0
 11
31.0
 21
-98.50000000000001
 31
0.0
1001
Sigma
1000

  0
LINE
  5
31A
330
1F
100
AcDbEntity
  8
99
  6
Continuous
 62
     7
370
    15
100
AcDbLine
 10
42.0
 20
-133.4999999999999
 30
0.0
 11
42.0
 21
-98.50000000000001
 31
0.0
1001
Sigma
1000

  0
LINE
  5
31C
330
1F
100
AcDbEntity
  8
99
  6
Continuous
 62
     7
370
    15
100
AcDbLine
 10
144.0
 20
-133.4999999999999
 30
0.0
 11
144.0
 21
-98.50000000000001
 31
0.0
1001
Sigma
1000

  0
LINE
  5
31E
330
1F
100
AcDbEntity
  8
99
  6
Continuous
 62
     7
370
    30
100
AcDbLine
 10
139.0
 20
-123.5
 30
0.0
 11
200.0
 21
-123.5
 31
0.0
1001
Sigma
1000

  0
TEXT
  5
320
330
1F
100
AcDbEntity
  8
99
  6
Continuous
 62
     7
370
    30
100
AcDbText
 10
139.72991426151
 20
-116.6144481624
 30
0.0
 40
2.7
  1
製
 41
1.266666666666666
  7
KCADTEXTSTANDARD
100
AcDbText
1001
Sigma
1000

  0
TEXT
  5
322
330
1F
100
AcDbEntity
  8
99
  6
Continuous
 62
     7
370
    30
100
AcDbText
 10
93.225
 20
-104.275
 30
0.0
 40
4.049999999999999
  1
 三角法
 41
0.7916666674531168
  7
KCADTEXTSTANDARD
100
AcDbText
1001
Sigma
1000

  0
TEXT
  5
324
330
1F
100
AcDbEntity
  8
99
  6
Continuous
 62
     7
370
    30
100
AcDbText
 10
139.72991426151
 20
-119.7144481624
 30
0.0
 40
2.7
  1
品
 41
1.266666666666666
  7
KCADTEXTSTANDARD
100
AcDbText
1001
Sigma
1000

  0
LINE
  5
326
330
1F
100
AcDbEntity
  8
99
  6
Continuous
 62
     7
370
    15
100
AcDbLine
 10
14.13219415271
 20
-127.7995271455
 30
0.0
 11
10.93219415270999
 21
-127.7995271455
 31
0.0
1001
Sigma
1000

  0
TEXT
  5
328
330
1F
100
AcDbEntity
  8
99
  6
Continuous
 62
     7
370
    30
100
AcDbText
 10
139.72991426151
 20
-122.8144481623999
 30
0.0
 40
2.7
  1
名
 41
1.266666666666666
  7
KCADTEXTSTANDARD
100
AcDbText
1001
Sigma
1000

  0
TEXT
  5
32A
330
1F
100
AcDbEntity
  8
99
  6
Continuous
 62
     7
370
    30
100
AcDbText
 10
78.84786821705
 20
-117.6989337568
 30
0.0
 40
3.6
  1
 設計  製図  検図  承認
 41
1.147916666666666
  7
KCADTEXTSTANDARD
100
AcDbText
1001
Sigma
1000

  0
TEXT
  5
32C
330
1F
100
AcDbEntity
  8
99
  6
Continuous
 62
     7
370
    30
100
AcDbText
 10
14.50728892210499
 20
-132.6966445597
 30
0.0
 40
3.6
  1
 年月日  担当    訂 正 記 事
 41
0.8102941176470586
  7
KCADTEXTSTANDARD
100
AcDbText
1001
Sigma
1000

  0
TEXT
  5
32E
330
1F
100
AcDbEntity
  8
99
  6
Continuous
 62
     7
370
    30
100
AcDbText
 10
10.70390624999999
 20
-132.5302445628
 30
0.0
 40
3.6
  1
符号
 41
0.4987500003539026
  7
KCADTEXTSTANDARD
100
AcDbText
1001
Sigma
1000

  0
LINE
  5
330
330
1F
100
AcDbEntity
  8
99
  6
Continuous
 62
     7
370
    15
100
AcDbLine
 10
14.13219415271
 20
-107.7995271455
 30
0.0
 11
10.93219415270999
 21
-107.7995271455
 31
0.0
1001
Sigma
1000

  0
LINE
  5
332
330
1F
100
AcDbEntity
  8
99
  6
Continuous
 62
     7
370
    15
100
AcDbLine
 10
12.53219415271
 20
-104.3354255302999
 30
0.0
 11
14.13219415271
 21
-107.7995271455
 31
0.0
1001
Sigma
1000

  0
TEXT
  5
334
330
1F
100
AcDbEntity
  8
99
  6
Continuous
 62
     7
370
    15
100
AcDbText
 10
12.13410353743747
 20
-107.2132222252728
 30
0.0
 40
2.082815953445434
  1
5
 41
0.577433628318584
  7
KCADTEXTSTANDARD
100
AcDbText
1001
Sigma
1000

  0
LINE
  5
336
330
1F
100
AcDbEntity
  8
99
  6
Continuous
 62
     7
370
    15
100
AcDbLine
 10
10.93219415270999
 20
-107.7995271455
 30
0.0
 11
12.53219415271
 21
-104.3354255302999
 31
0.0
1001
Sigma
1000

  0
LINE
  5
338
330
1F
100
AcDbEntity
  8
99
  6
Continuous
 62
     7
370
    15
100
AcDbLine
 10
14.13219415271
 20
-112.7995271454999
 30
0.0
 11
10.93219415270999
 21
-112.7995271454999
 31
0.0
1001
Sigma
1000

  0
LINE
  5
33A
330
1F
100
AcDbEntity
  8
99
  6
Continuous
 62
     7
370
    15
100
AcDbLine
 10
12.53219415271
 20
-109.3354255303
 30
0.0
 11
14.13219415271
 21
-112.7995271454999
 31
0.0
1001
Sigma
1000

  0
TEXT
  5
33C
330
1F
100
AcDbEntity
  8
99
  6
Continuous
 62
     7
370
    15
100
AcDbText
 10
12.13410353743747
 20
-112.2132222252728
 30
0.0
 40
2.082815953445434
  1
4
 41
0.577433628318584
  7
KCADTEXTSTANDARD
100
AcDbText
1001
Sigma
1000

  0
LINE
  5
33E
330
1F
100
AcDbEntity
  8
99
  6
Continuous
 62
     7
370
    15
100
AcDbLine
 10
10.93219415270999
 20
-112.7995271454999
 30
0.0
 11
12.53219415271
 21
-109.3354255303
 31
0.0
1001
Sigma
1000

  0
LINE
  5
340
330
1F
100
AcDbEntity
  8
99
  6
Continuous
 62
     7
370
    15
100
AcDbLine
 10
14.13219415271
 20
-117.7995271454999
 30
0.0
 11
10.93219415270999
 21
-117.7995271454999
 31
0.0
1001
Sigma
1000

  0
LINE
  5
342
330
1F
100
AcDbEntity
  8
99
  6
Continuous
 62
     7
370
    15
100
AcDbLine
 10
12.53219415271
 20
-114.3354255303
 30
0.0
 11
14.13219415271
 21
-117.7995271454999
 31
0.0
1001
Sigma
1000

  0
TEXT
  5
344
330
1F
100
AcDbEntity
  8
99
  6
Continuous
 62
     7
370
    15
100
AcDbText
 10
12.13410353743747
 20
-117.2132222252728
 30
0.0
 40
2.082815953445434
  1
3
 41
0.577433628318584
  7
KCADTEXTSTANDARD
100
AcDbText
1001
Sigma
1000

  0
LINE
  5
346
330
1F
100
AcDbEntity
  8
99
  6
Continuous
 62
     7
370
    15
100
AcDbLine
 10
12.53219415271
 20
-124.3354255302999
 30
0.0
 11
14.13219415271
 21
-127.7995271455
 31
0.0
1001
Sigma
1000

  0
LINE
  5
348
330
1F
100
AcDbEntity
  8
99
  6
Continuous
 62
     7
370
    15
100
AcDbLine
 10
10.93219415270999
 20
-127.7995271455
 30
0.0
 11
12.53219415271
 21
-124.3354255302999
 31
0.0
1001
Sigma
1000

  0
LINE
  5
34A
330
1F
100
AcDbEntity
  8
99
  6
Continuous
 62
     7
370
    15
100
AcDbLine
 10
10.93219415270999
 20
-117.7995271454999
 30
0.0
 11
12.53219415271
 21
-114.3354255303
 31
0.0
1001
Sigma
1000

  0
TEXT
  5
34C
330
1F
100
AcDbEntity
  8
99
  6
Continuous
 62
     7
370
    15
100
AcDbText
 10
12.13410353743747
 20
-122.2132222252728
 30
0.0
 40
2.082815953445434
  1
2
 41
0.577433628318584
  7
KCADTEXTSTANDARD
100
AcDbText
1001
Sigma
1000

  0
LINE
  5
34E
330
1F
100
AcDbEntity
  8
99
  6
Continuous
 62
     7
370
    15
100
AcDbLine
 10
14.13219415271
 20
-122.7995271454999
 30
0.0
 11
10.93219415270999
 21
-122.7995271454999
 31
0.0
1001
Sigma
1000

  0
LINE
  5
350
330
1F
100
AcDbEntity
  8
99
  6
Continuous
 62
     7
370
    15
100
AcDbLine
 10
12.53219415271
 20
-119.3354255303
 30
0.0
 11
14.13219415271
 21
-122.7995271454999
 31
0.0
1001
Sigma
1000

  0
LINE
  5
352
330
1F
100
AcDbEntity
  8
99
  6
Continuous
 62
     7
370
    15
100
AcDbLine
 10
10.93219415270999
 20
-122.7995271454999
 30
0.0
 11
12.53219415271
 21
-119.3354255303
 31
0.0
1001
Sigma
1000

  0
TEXT
  5
354
330
1F
100
AcDbEntity
  8
99
  6
Continuous
 62
     7
370
    15
100
AcDbText
 10
12.13410353743747
 20
-127.2132222252728
 30
0.0
 40
2.082815953445434
  1
1
 41
0.577433628318584
  7
KCADTEXTSTANDARD
100
AcDbText
1001
Sigma
1000

  0
TEXT
  5
356
330
1F
100
AcDbEntity
  8
99
  6
Continuous
 62
     7
370
    30
100
AcDbText
 10
139.71791405963
 20
-112.7381295371999
 30
0.0
 40
2.7
  1
差
 41
1.266666666666666
  7
KCADTEXTSTANDARD
100
AcDbText
1001
Sigma
1000

  0
TEXT
  5
358
330
1F
100
AcDbEntity
  8
99
  6
Continuous
 62
     7
370
    30
100
AcDbText
 10
139.71791405963
 20
-109.2381295372
 30
0.0
 40
2.7
  1
公
 41
1.266666666666666
  7
KCADTEXTSTANDARD
100
AcDbText
1001
Sigma
1000

  0
TEXT
  5
35A
330
1F
100
AcDbEntity
  8
99
  6
Continuous
 62
     7
370
    30
100
AcDbText
 10
109.8179140834718
 20
-101.7381295372
 30
0.0
 40
2.7
  1
面
 41
1.203333318233489
  7
KCADTEXTSTANDARD
100
AcDbText
1001
Sigma
1000

  0
TEXT
  5
35C
330
1F
100
AcDbEntity
  8
99
  6
Continuous
 62
     7
370
    30
100
AcDbText
 10
109.8179140834718
 20
-105.2381295371999
 30
0.0
 40
2.7
  1
取
 41
1.203333318233489
  7
KCADTEXTSTANDARD
100
AcDbText
1001
Sigma
1000

  0
TEXT
  5
35E
330
1F
100
AcDbEntity
  8
99
  6
Continuous
 62
     7
370
    30
100
AcDbText
 10
139.71791405963
 20
-105.2381295371999
 30
0.0
 40
2.7
  1
上
 41
1.266666666666666
  7
KCADTEXTSTANDARD
100
AcDbText
1001
Sigma
1000

  0
TEXT
  5
360
330
1F
100
AcDbEntity
  8
99
  6
Continuous
 62
     7
370
    30
100
AcDbText
 10
139.71791405963
 20
-101.7381295372
 30
0.0
 40
2.7
  1
仕
 41
1.266666666666666
  7
KCADTEXTSTANDARD
100
AcDbText
1001
Sigma
1000

  0
LINE
  5
362
330
1F
100
AcDbEntity
  8
99
  6
Continuous
 62
     7
370
    30
100
AcDbLine
 10
31.0
 20
-98.50000000000001
 30
0.0
 11
31.0
 21
-86.0
 31
0.0
1001
Sigma
1000

  0
TEXT
  5
364
330
1F
100
AcDbEntity
  8
99
  6
Continuous
 62
     7
370
    30
100
AcDbText
 10
139.65
 20
-127.35
 30
0.0
 40
2.7
  1
図
 41
1.266666666666666
  7
KCADTEXTSTANDARD
100
AcDbText
1001
Sigma
1000

  0
TEXT
  5
366
330
1F
100
AcDbEntity
  8
99
  6
Continuous
 62
     7
370
    30
100
AcDbText
 10
139.65
 20
-131.85
 30
0.0
 40
2.7
  1
番
 41
1.266666666666666
  7
KCADTEXTSTANDARD
100
AcDbText
1001
Sigma
1000

  0
LINE
  5
368
330
1F
100
AcDbEntity
  8
99
  6
Continuous
 62
     7
370
    15
100
AcDbLine
 10
10.0
 20
-93.49999999999999
 30
0.0
 11
200.0
 21
-93.49999999999999
 31
0.0
1001
Sigma
1000

  0
LINE
  5
36A
330
1F
100
AcDbEntity
  8
99
  6
Continuous
 62
     7
370
    15
100
AcDbLine
 10
114.0
 20
-98.50000000000001
 30
0.0
 11
114.0
 21
-106.0
 31
0.0
1001
Sigma
1000

  0
TEXT
  5
36C
330
1F
100
AcDbEntity
  8
99
  6
Continuous
 62
     7
370
    30
100
AcDbText
 10
81.39189189189
 20
-102.5978675136
 30
0.0
 40
3.6
  1
尺度
 41
1.1875
  7
KCADTEXTSTANDARD
100
AcDbText
1001
Sigma
1000

  0
LINE
  5
36E
330
1F
100
AcDbEntity
  8
99
  6
Continuous
 62
     7
370
    15
100
AcDbLine
 10
10.93219415270999
 20
-102.7995271455
 30
0.0
 11
12.53219415271
 21
-99.33542553032999
 31
0.0
1001
Sigma
1000

  0
TEXT
  5
370
330
1F
100
AcDbEntity
  8
99
  6
Continuous
 62
     7
370
    15
100
AcDbText
 10
12.13410353743747
 20
-102.2132222252728
 30
0.0
 40
2.082815953445434
  1
6
 41
0.577433628318584
  7
KCADTEXTSTANDARD
100
AcDbText
1001
Sigma
1000

  0
LINE
  5
372
330
1F
100
AcDbEntity
  8
99
  6
Continuous
 62
     7
370
    15
100
AcDbLine
 10
12.53219415271
 20
-99.33542553032999
 30
0.0
 11
14.13219415271
 21
-102.7995271455
 31
0.0
1001
Sigma
1000

  0
LINE
  5
374
330
1F
100
AcDbEntity
  8
99
  6
Continuous
 62
     7
370
    15
100
AcDbLine
 10
14.13219415271
 20
-102.7995271455
 30
0.0
 11
10.93219415270999
 21
-102.7995271455
 31
0.0
1001
Sigma
1000

  0
LINE
  5
376
330
1F
100
AcDbEntity
  8
99
  6
Continuous
 62
     7
370
    30
100
AcDbLine
 10
109.0
 20
-106.0
 30
0.0
 11
109.0
 21
-98.50000000000001
 31
0.0
1001
Sigma
1000

  0
LINE
  5
378
330
1F
100
AcDbEntity
  8
99
  6
Continuous
 62
     7
370
    30
100
AcDbLine
 10
10.0
 20
-98.50000000000001
 30
0.0
 11
200.0
 21
-98.50000000000001
 31
0.0
1001
Sigma
1000

  0
LINE
  5
37A
330
1F
100
AcDbEntity
  8
99
  6
Continuous
 62
     7
370
    15
100
AcDbLine
 10
10.0
 20
-103.4999999999999
 30
0.0
 11
94.0
 21
-103.4999999999999
 31
0.0
1001
Sigma
1000

  0
LINE
  5
37C
330
1F
100
AcDbEntity
  8
99
  6
Continuous
 62
     7
370
    15
100
AcDbLine
 10
15.0
 20
-133.4999999999999
 30
0.0
 11
15.0
 21
-98.50000000000001
 31
0.0
1001
Sigma
1000

  0
TEXT
  5
37E
330
1F
100
AcDbEntity
  8
99
  6
Continuous
 62
     7
370
    30
100
AcDbText
 10
11.834697944237
 20
-97.79526489509999
 30
0.0
 40
3.6
  1
部品番号     部   品   名
 41
0.7659374981911647
  7
KCADTEXTSTANDARD
100
AcDbText
1001
Sigma
1000

  0
TEXT
  5
380
330
1F
100
AcDbEntity
  8
99
  6
Continuous
 62
     7
370
    30
100
AcDbText
 10
81.39189189189
 20
-97.49786751361
 30
0.0
 40
3.6
  1
個数
 41
1.1875
  7
KCADTEXTSTANDARD
100
AcDbText
1001
Sigma
1000

  0
TEXT
  5
382
330
1F
100
AcDbEntity
  8
99
  6
Continuous
 62
     7
370
    30
100
AcDbText
 10
102.84786821706
 20
-97.49893375681
 30
0.0
 40
3.6
  1
材       質                表  面  処  理
 41
0.6678663776994779
  7
KCADTEXTSTANDARD
100
AcDbText
1001
Sigma
1000

  0
LINE
  5
384
330
1F
100
AcDbEntity
  8
99
  6
Continuous
 62
     7
370
    30
100
AcDbLine
 10
10.0
 20
-86.0
 30
0.0
 11
10.0
 21
-133.4999999999999
 31
0.0
1001
Sigma
1000

  0
TEXT
  5
386
330
1F
100
AcDbEntity
  8
99
  6
Continuous
 62
     7
370
    30
100
AcDbText
 10
81.634423935458
 20
-110.2302181985999
 30
0.0
 40
4.067999999999999
  1
1/1
 41
1.222959685349064
  7
KCADTEXTSTANDARD
100
AcDbText
1001
Sigma
1000

  0
TEXT
  5
388
330
1F
100
AcDbEntity
  8
99
  6
Continuous
 62
     7
370
    30
100
AcDbText
 10
152.34573028858
 20
-131.5103987444
 30
0.0
 40
5.695199999999999
  1
TSTM-095
 41
0.8493702299012035
  7
KCADTEXTSTANDARD
100
AcDbText
1001
Sigma
1000

  0
TEXT
  5
38A
330
1F
100
AcDbEntity
  8
99
  6
Continuous
 62
     7
370
    30
100
AcDbText
 10
16.93161113626259
 20
-127.8727274758
 30
0.0
 40
3.254399999999999
  1
93.11.20
 41
0.6625994463680394
  7
KCADTEXTSTANDARD
100
AcDbText
1001
Sigma
1000

  0
TEXT
  5
38C
330
1F
100
AcDbEntity
  8
99
  6
Continuous
 62
     7
370
    30
100
AcDbText
 10
115.63530089633
 20
-111.5121712973
 30
0.0
 40
3.254399999999999
  1
12
 41
1.246773598820061
  7
KCADTEXTSTANDARD
100
AcDbText
1001
Sigma
1000

  0
TEXT
  5
38E
330
1F
100
AcDbEntity
  8
99
  6
Continuous
 62
     7
370
    30
100
AcDbText
 10
129.3841477597999
 20
-111.557835504
 30
0.0
 40
3.254399999999999
  1
1
 41
0.866150442477876
  7
KCADTEXTSTANDARD
100
AcDbText
1001
Sigma
1000

  0
TEXT
  5
390
330
1F
100
AcDbEntity
  8
99
  6
Continuous
 62
     7
370
    30
100
AcDbText
 10
98.45
 20
-111.5499999999999
 30
0.0
 40
3.6
  1
       年     月     日
 41
0.4720312500000001
  7
KCADTEXTSTANDARD
100
AcDbText
1001
Sigma
1000

  0
LINE
  5
392
330
1F
100
AcDbEntity
  8
99
  6
Continuous
 62
     7
370
    30
100
AcDbLine
 10
-46.42521166509999
 20
23.36835106383
 30
0.0
 11
-46.42521166509999
 21
47.36835106383
 31
0.0
1001
Sigma
1000

  0
LINE
  5
394
330
1F
100
AcDbEntity
  8
99
  6
Continuous
 62
     7
370
    30
100
AcDbLine
 10
-44.4252116651
 20
21.36835106383
 30
0.0
 11
-29.4252116651
 21
21.36835106383
 31
0.0
1001
Sigma
1000

  0
LINE
  5
396
330
1F
100
AcDbEntity
  8
99
  6
Continuous
 62
     7
370
    30
100
AcDbLine
 10
-29.4252116651
 20
21.36835106383
 30
0.0
 11
-29.4252116651
 21
49.36835106383
 31
0.0
1001
Sigma
1000

  0
LINE
  5
398
330
1F
100
AcDbEntity
  8
99
  6
Continuous
 62
     7
370
    30
100
AcDbLine
 10
-44.4252116651
 20
49.36835106383
 30
0.0
 11
-29.4252116651
 21
49.36835106383
 31
0.0
1001
Sigma
1000

  0
LINE
  5
39A
330
1F
100
AcDbEntity
  8
99
  6
CENTER
 62
     7
370
    15
100
AcDbLine
 10
124.58091251176
 20
35.36835106383
 30
0.0
 11
-106.4609595484
 21
35.368351063829
 31
0.0
1001
Sigma
1000

  0
LINE
  5
39C
330
1F
100
AcDbEntity
  8
99
  6
Continuous
 62
     7
370
    30
100
AcDbLine
 10
-29.4252116651
 20
49.36835106383
 30
0.0
 11
-29.4252116651
 21
21.36835106383
 31
0.0
1001
Sigma
1000

  0
LINE
  5
39E
330
1F
100
AcDbEntity
  8
99
  6
Continuous
 62
     7
370
    30
100
AcDbLine
 10
-29.4252116651
 20
21.36835106383
 30
0.0
 11
1.0747883349014
 21
21.36835106383
 31
0.0
1001
Sigma
1000

  0
LINE
  5
3A0
330
1F
100
AcDbEntity
  8
99
  6
Continuous
 62
     7
370
    30
100
AcDbLine
 10
20.574788334901
 20
21.36835106383
 30
0.0
 11
20.574788334901
 21
49.36835106383
 31
0.0
1001
Sigma
1000

  0
LINE
  5
3A2
330
1F
100
AcDbEntity
  8
99
  6
Continuous
 62
     7
370
    30
100
AcDbLine
 10
-29.4252116651
 20
49.36835106383
 30
0.0
 11
1.0747883349013
 21
49.36835106383
 31
0.0
1001
Sigma
1000

  0
LINE
  5
3A4
330
1F
100
AcDbEntity
  8
99
  6
Continuous
 62
     7
370
    30
100
AcDbLine
 10
20.574788334901
 20
20.61835106383
 30
0.0
 11
20.574788334901
 21
50.11835106382999
 31
0.0
1001
Sigma
1000

  0
LINE
  5
3A6
330
1F
100
AcDbEntity
  8
99
  6
Continuous
 62
     7
370
    30
100
AcDbLine
 10
20.574788334901
 20
50.11835106382999
 30
0.0
 11
13.07478833490099
 21
50.11835106382999
 31
0.0
1001
Sigma
1000

  0
LINE
  5
3A8
330
1F
100
AcDbEntity
  8
99
  6
Continuous
 62
     7
370
    30
100
AcDbLine
 10
13.07478833490099
 20
50.11835106382999
 30
0.0
 11
13.07478833490099
 21
20.61835106383
 31
0.0
1001
Sigma
1000

  0
LINE
  5
3AA
330
1F
100
AcDbEntity
  8
99
  6
Continuous
 62
     7
370
    30
100
AcDbLine
 10
13.07478833490099
 20
20.61835106383
 30
0.0
 11
20.574788334901
 21
20.61835106383
 31
0.0
1001
Sigma
1000

  0
LINE
  5
3AC
330
1F
100
AcDbEntity
  8
99
  6
Continuous
 62
     7
370
    30
100
AcDbLine
 10
13.07478833490099
 20
20.61835106383
 30
0.0
 11
13.07478833490099
 21
50.11835106382999
 31
0.0
1001
Sigma
1000

  0
LINE
  5
3AE
330
1F
100
AcDbEntity
  8
99
  6
Continuous
 62
     7
370
    30
100
AcDbLine
 10
13.07478833490099
 20
50.11835106382999
 30
0.0
 11
12.324788334901
 21
50.86835106382999
 31
0.0
1001
Sigma
1000

  0
LINE
  5
3B0
330
1F
100
AcDbEntity
  8
99
  6
Continuous
 62
     7
370
    30
100
AcDbLine
 10
12.324788334901
 20
50.86835106382999
 30
0.0
 11
1.8247883349013
 21
50.86835106382999
 31
0.0
1001
Sigma
1000

  0
LINE
  5
3B2
330
1F
100
AcDbEntity
  8
99
  6
Continuous
 62
     7
370
    30
100
AcDbLine
 10
1.8247883349013
 20
50.86835106382999
 30
0.0
 11
1.0747883349013
 21
50.11835106382999
 31
0.0
1001
Sigma
1000

  0
LINE
  5
3B4
330
1F
100
AcDbEntity
  8
99
  6
Continuous
 62
     7
370
    30
100
AcDbLine
 10
1.0747883349013
 20
50.11835106382999
 30
0.0
 11
1.0747883349014
 21
20.61835106383
 31
0.0
1001
Sigma
1000

  0
LINE
  5
3B6
330
1F
100
AcDbEntity
  8
99
  6
Continuous
 62
     7
370
    30
100
AcDbLine
 10
1.0747883349014
 20
20.61835106383
 30
0.0
 11
1.824788334901399
 21
19.86835106383
 31
0.0
1001
Sigma
1000

  0
LINE
  5
3B8
330
1F
100
AcDbEntity
  8
99
  6
Continuous
 62
     7
370
    30
100
AcDbLine
 10
1.824788334901399
 20
19.86835106383
 30
0.0
 11
12.324788334901
 21
19.86835106383
 31
0.0
1001
Sigma
1000

  0
LINE
  5
3BA
330
1F
100
AcDbEntity
  8
99
  6
Continuous
 62
     7
370
    30
100
AcDbLine
 10
12.324788334901
 20
19.86835106383
 30
0.0
 11
13.07478833490099
 21
20.61835106383
 31
0.0
1001
Sigma
1000

  0
LINE
  5
3BC
330
1F
100
AcDbEntity
  8
99
  6
Continuous
 62
     7
370
    30
100
AcDbLine
 10
105.0747883349
 20
47.31835106383
 30
0.0
 11
105.0747883349
 21
23.41835106382999
 31
0.0
1001
Sigma
1000

  0
LINE
  5
3BE
330
1F
100
AcDbEntity
  8
99
  6
Continuous
 62
     7
370
    30
100
AcDbLine
 10
105.8247883349
 20
22.66835106383
 30
0.0
 11
108.3247883349
 21
22.66835106383
 31
0.0
1001
Sigma
1000

  0
LINE
  5
3C0
330
1F
100
AcDbEntity
  8
99
  6
Continuous
 62
     7
370
    30
100
AcDbLine
 10
108.3247883349
 20
22.66835106383
 30
0.0
 11
109.0747883349
 21
23.41835106382999
 31
0.0
1001
Sigma
1000

  0
LINE
  5
3C2
330
1F
100
AcDbEntity
  8
99
  6
Continuous
 62
     7
370
    30
100
AcDbLine
 10
109.0747883349
 20
23.41835106382999
 30
0.0
 11
109.0747883349
 21
47.31835106383
 31
0.0
1001
Sigma
1000

  0
LINE
  5
3C4
330
1F
100
AcDbEntity
  8
99
  6
Continuous
 62
     7
370
    30
100
AcDbLine
 10
109.0747883349
 20
47.31835106383
 30
0.0
 11
108.3247883349
 21
48.06835106383
 31
0.0
1001
Sigma
1000

  0
LINE
  5
3C6
330
1F
100
AcDbEntity
  8
99
  6
Continuous
 62
     7
370
    30
100
AcDbLine
 10
108.3247883349
 20
48.06835106383
 30
0.0
 11
105.8247883349
 21
48.06835106383
 31
0.0
1001
Sigma
1000

  0
LINE
  5
3C8
330
1F
100
AcDbEntity
  8
99
  6
Continuous
 62
     7
370
    30
100
AcDbLine
 10
105.0747883349
 20
21.36835106383
 30
0.0
 11
105.0747883349
 21
49.36835106383
 31
0.0
1001
Sigma
1000

  0
LINE
  5
3CA
330
1F
100
AcDbEntity
  8
99
  6
Continuous
 62
     7
370
    30
100
AcDbLine
 10
105.0747883349
 20
49.36835106383
 30
0.0
 11
104.0747883349
 21
50.36835106383
 31
0.0
1001
Sigma
1000

  0
LINE
  5
3CC
330
1F
100
AcDbEntity
  8
99
  6
Continuous
 62
     7
370
    30
100
AcDbLine
 10
104.0747883349
 20
50.36835106383
 30
0.0
 11
96.074788334901
 21
50.36835106383
 31
0.0
1001
Sigma
1000

  0
LINE
  5
3CE
330
1F
100
AcDbEntity
  8
99
  6
Continuous
 62
     7
370
    30
100
AcDbLine
 10
96.074788334901
 20
50.36835106383
 30
0.0
 11
95.074788334901
 21
49.36835106383
 31
0.0
1001
Sigma
1000

  0
LINE
  5
3D0
330
1F
100
AcDbEntity
  8
99
  6
Continuous
 62
     7
370
    30
100
AcDbLine
 10
95.074788334901
 20
49.36835106383
 30
0.0
 11
95.074788334901
 21
21.36835106383
 31
0.0
1001
Sigma
1000

  0
LINE
  5
3D2
330
1F
100
AcDbEntity
  8
99
  6
Continuous
 62
     7
370
    30
100
AcDbLine
 10
95.074788334901
 20
21.36835106383
 30
0.0
 11
96.074788334901
 21
20.36835106383
 31
0.0
1001
Sigma
1000

  0
LINE
  5
3D4
330
1F
100
AcDbEntity
  8
99
  6
Continuous
 62
     7
370
    30
100
AcDbLine
 10
96.074788334901
 20
20.36835106383
 30
0.0
 11
104.0747883349
 21
20.36835106383
 31
0.0
1001
Sigma
1000

  0
LINE
  5
3D6
330
1F
100
AcDbEntity
  8
99
  6
Continuous
 62
     7
370
    30
100
AcDbLine
 10
104.0747883349
 20
20.36835106383
 30
0.0
 11
105.0747883349
 21
21.36835106383
 31
0.0
1001
Sigma
1000

  0
LINE
  5
3D8
330
1F
100
AcDbEntity
  8
99
  6
Continuous
 62
     7
370
    30
100
AcDbLine
 10
95.074788334901
 20
21.86835106383
 30
0.0
 11
95.074788334901
 21
48.86835106382999
 31
0.0
1001
Sigma
1000

  0
LINE
  5
3DA
330
1F
100
AcDbEntity
  8
99
  6
Continuous
 62
     7
370
    30
100
AcDbLine
 10
37.824788334901
 20
21.51835106382999
 30
0.0
 11
37.824788334901
 21
49.21835106382999
 31
0.0
1001
Sigma
1000

  0
LINE
  5
3DC
330
1F
100
AcDbEntity
  8
99
  6
Continuous
 62
     7
370
    30
100
AcDbLine
 10
37.824788334901
 20
49.21835106382999
 30
0.0
 11
58.824788334901
 21
49.21835106382999
 31
0.0
1001
Sigma
1000

  0
LINE
  5
3DE
330
1F
100
AcDbEntity
  8
99
  6
Continuous
 62
     7
370
    30
100
AcDbLine
 10
37.824788334901
 20
21.51835106382999
 30
0.0
 11
58.824788334901
 21
21.51835106382999
 31
0.0
1001
Sigma
1000

  0
LINE
  5
3E0
330
1F
100
AcDbEntity
  8
99
  6
Continuous
 62
     7
370
    30
100
AcDbLine
 10
60.074788334901
 20
22.76835106382999
 30
0.0
 11
58.824788334901
 21
21.51835106382999
 31
0.0
1001
Sigma
1000

  0
LINE
  5
3E2
330
1F
100
AcDbEntity
  8
99
  6
Continuous
 62
     7
370
    30
100
AcDbLine
 10
60.074788334901
 20
22.76835106382999
 30
0.0
 11
61.324788334901
 21
21.51835106382999
 31
0.0
1001
Sigma
1000

  0
LINE
  5
3E4
330
1F
100
AcDbEntity
  8
99
  6
Continuous
 62
     7
370
    30
100
AcDbLine
 10
60.074788334901
 20
47.96835106382999
 30
0.0
 11
58.824788334901
 21
49.21835106382999
 31
0.0
1001
Sigma
1000

  0
LINE
  5
3E6
330
1F
100
AcDbEntity
  8
99
  6
Continuous
 62
     7
370
    30
100
AcDbLine
 10
60.074788334901
 20
47.96835106382999
 30
0.0
 11
61.324788334901
 21
49.21835106382999
 31
0.0
1001
Sigma
1000

  0
LINE
  5
3E8
330
1F
100
AcDbEntity
  8
99
  6
Continuous
 62
     7
370
    30
100
AcDbLine
 10
58.824788334901
 20
49.21835106382999
 30
0.0
 11
58.824788334901
 21
21.51835106382999
 31
0.0
1001
Sigma
1000

  0
LINE
  5
3EA
330
1F
100
AcDbEntity
  8
99
  6
Continuous
 62
     7
370
    30
100
AcDbLine
 10
61.324788334901
 20
21.51835106382999
 30
0.0
 11
61.324788334901
 21
49.21835106382999
 31
0.0
1001
Sigma
1000

  0
LINE
  5
3EC
330
1F
100
AcDbEntity
  8
99
  6
Continuous
 62
     7
370
    30
100
AcDbLine
 10
60.074788334901
 20
47.96835106382999
 30
0.0
 11
60.074788334901
 21
22.76835106382999
 31
0.0
1001
Sigma
1000

  0
LINE
  5
3EE
330
1F
100
AcDbEntity
  8
99
  6
Continuous
 62
     7
370
    30
100
AcDbLine
 10
61.324788334901
 20
49.21835106382999
 30
0.0
 11
95.074788334901
 21
49.21835106382999
 31
0.0
1001
Sigma
1000

  0
LINE
  5
3F0
330
1F
100
AcDbEntity
  8
99
  6
Continuous
 62
     7
370
    30
100
AcDbLine
 10
61.324788334901
 20
21.51835106382999
 30
0.0
 11
95.074788334901
 21
21.51835106382999
 31
0.0
1001
Sigma
1000

  0
LINE
  5
3F2
330
1F
100
AcDbEntity
  8
99
  6
Continuous
 62
     7
370
    30
100
AcDbLine
 10
37.824788334901
 20
20.36835106383
 30
0.0
 11
37.824788334901
 21
50.36835106383
 31
0.0
1001
Sigma
1000

  0
LINE
  5
3F4
330
1F
100
AcDbEntity
  8
99
  6
Continuous
 62
     7
370
    30
100
AcDbLine
 10
37.824788334901
 20
50.36835106383
 30
0.0
 11
37.324788334901
 21
50.86835106382999
 31
0.0
1001
Sigma
1000

  0
LINE
  5
3F6
330
1F
100
AcDbEntity
  8
99
  6
Continuous
 62
     7
370
    30
100
AcDbLine
 10
37.324788334901
 20
50.86835106382999
 30
0.0
 11
33.324788334901
 21
50.86835106382999
 31
0.0
1001
Sigma
1000

  0
LINE
  5
3F8
330
1F
100
AcDbEntity
  8
99
  6
Continuous
 62
     7
370
    30
100
AcDbLine
 10
33.324788334901
 20
50.86835106382999
 30
0.0
 11
32.824788334901
 21
50.36835106383
 31
0.0
1001
Sigma
1000

  0
LINE
  5
3FA
330
1F
100
AcDbEntity
  8
99
  6
Continuous
 62
     7
370
    30
100
AcDbLine
 10
32.824788334901
 20
50.36835106383
 30
0.0
 11
32.824788334901
 21
20.36835106383
 31
0.0
1001
Sigma
1000

  0
LINE
  5
3FC
330
1F
100
AcDbEntity
  8
99
  6
Continuous
 62
     7
370
    30
100
AcDbLine
 10
32.824788334901
 20
20.36835106383
 30
0.0
 11
33.324788334901
 21
19.86835106383
 31
0.0
1001
Sigma
1000

  0
LINE
  5
3FE
330
1F
100
AcDbEntity
  8
99
  6
Continuous
 62
     7
370
    30
100
AcDbLine
 10
33.324788334901
 20
19.86835106383
 30
0.0
 11
37.324788334901
 21
19.86835106383
 31
0.0
1001
Sigma
1000

  0
LINE
  5
400
330
1F
100
AcDbEntity
  8
99
  6
Continuous
 62
     7
370
    30
100
AcDbLine
 10
37.324788334901
 20
19.86835106383
 30
0.0
 11
37.824788334901
 21
20.36835106383
 31
0.0
1001
Sigma
1000

  0
LINE
  5
402
330
1F
100
AcDbEntity
  8
99
  6
Continuous
 62
     7
370
    30
100
AcDbLine
 10
20.574788334901
 20
50.11835106382999
 30
0.0
 11
32.824788334901
 21
50.11835106382999
 31
0.0
1001
Sigma
1000

  0
LINE
  5
404
330
1F
100
AcDbEntity
  8
99
  6
Continuous
 62
     7
370
    30
100
AcDbLine
 10
20.574788334901
 20
20.61835106383
 30
0.0
 11
32.824788334901
 21
20.61835106383
 31
0.0
1001
Sigma
1000

  0
LINE
  5
406
330
1F
100
AcDbEntity
  8
99
  6
Continuous
 62
     7
370
    30
100
AcDbLine
 10
108.3247883349
 20
48.06835106383
 30
0.0
 11
108.3247883349
 21
22.66835106383
 31
0.0
1001
Sigma
1000

  0
LINE
  5
408
330
1F
100
AcDbEntity
  8
99
  6
Continuous
 62
     7
370
    30
100
AcDbLine
 10
105.8247883349
 20
22.66835106383
 30
0.0
 11
105.8247883349
 21
48.06835106383
 31
0.0
1001
Sigma
1000

  0
LINE
  5
40A
330
1F
100
AcDbEntity
  8
99
  6
Continuous
 62
     7
370
    30
100
AcDbLine
 10
109.0747883349
 20
47.31835106383
 30
0.0
 11
105.0747883349
 21
47.31835106383
 31
0.0
1001
Sigma
1000

  0
LINE
  5
40C
330
1F
100
AcDbEntity
  8
99
  6
Continuous
 62
     7
370
    30
100
AcDbLine
 10
109.0747883349
 20
23.41835106382999
 30
0.0
 11
105.0747883349
 21
23.41835106382999
 31
0.0
1001
Sigma
1000

  0
LINE
  5
40E
330
1F
100
AcDbEntity
  8
99
  6
Continuous
 62
     7
370
    30
100
AcDbLine
 10
55.074788334901
 20
21.51835106382999
 30
0.0
 11
55.074788334901
 21
49.21835106382999
 31
0.0
1001
Sigma
1000

  0
LINE
  5
410
330
1F
100
AcDbEntity
  8
99
  6
Continuous
 62
     7
370
    30
100
AcDbLine
 10
54.824788334901
 20
21.51835106382999
 30
0.0
 11
54.824788334901
 21
49.21835106382999
 31
0.0
1001
Sigma
1000

  0
LINE
  5
412
330
1F
100
AcDbEntity
  8
99
  6
Continuous
 62
     7
370
    30
100
AcDbLine
 10
55.324788334901
 20
21.51835106382999
 30
0.0
 11
55.324788334901
 21
49.21835106382999
 31
0.0
1001
Sigma
1000

  0
LINE
  5
414
330
1F
100
AcDbEntity
  8
99
  6
Continuous
 62
     7
370
    30
100
AcDbLine
 10
-46.42521166509999
 20
47.36835106383
 30
0.0
 11
-44.4252116651
 21
49.36835106383
 31
0.0
1001
Sigma
1000

  0
LINE
  5
416
330
1F
100
AcDbEntity
  8
99
  6
Continuous
 62
     7
370
    30
100
AcDbLine
 10
-46.42521166509999
 20
23.36835106383
 30
0.0
 11
-44.4252116651
 21
21.36835106383
 31
0.0
1001
Sigma
1000

  0
LINE
  5
418
330
1F
100
AcDbEntity
  8
99
  6
Continuous
 62
     7
370
    30
100
AcDbLine
 10
-44.4252116651
 20
49.36835106383
 30
0.0
 11
-44.4252116651
 21
21.36835106383
 31
0.0
1001
Sigma
1000

  0
LINE
  5
41A
330
1F
100
AcDbEntity
  8
99
  6
Continuous
 62
     7
370
    30
100
AcDbLine
 10
12.324788334901
 20
35.36835106383
 30
0.0
 11
1.824788334901399
 21
35.36835106383
 31
0.0
1001
Sigma
1000

  0
LINE
  5
41C
330
1F
100
AcDbEntity
  8
99
  6
Continuous
 62
     7
370
    30
100
AcDbLine
 10
12.324788334901
 20
36.36835106382999
 30
0.0
 11
1.824788334901399
 21
36.36835106382999
 31
0.0
1001
Sigma
1000

  0
LINE
  5
41E
330
1F
100
AcDbEntity
  8
99
  6
Continuous
 62
     7
370
    30
100
AcDbLine
 10
12.324788334901
 20
34.36835106383
 30
0.0
 11
1.824788334901399
 21
34.36835106383
 31
0.0
1001
Sigma
1000

  0
LINE
  5
420
330
1F
100
AcDbEntity
  8
99
  6
Continuous
 62
     7
370
    30
100
AcDbLine
 10
12.324788334901
 20
37.36835106382999
 30
0.0
 11
1.824788334901399
 21
37.36835106382999
 31
0.0
1001
Sigma
1000

  0
LINE
  5
422
330
1F
100
AcDbEntity
  8
99
  6
Continuous
 62
     7
370
    30
100
AcDbLine
 10
12.324788334901
 20
33.36835106382999
 30
0.0
 11
1.824788334901399
 21
33.36835106382999
 31
0.0
1001
Sigma
1000

  0
LINE
  5
424
330
1F
100
AcDbEntity
  8
99
  6
Continuous
 62
     7
370
    30
100
AcDbLine
 10
12.324788334901
 20
38.36835106382999
 30
0.0
 11
1.824788334901399
 21
38.36835106382999
 31
0.0
1001
Sigma
1000

  0
LINE
  5
426
330
1F
100
AcDbEntity
  8
99
  6
Continuous
 62
     7
370
    30
100
AcDbLine
 10
12.324788334901
 20
32.36835106382999
 30
0.0
 11
1.824788334901399
 21
32.36835106382999
 31
0.0
1001
Sigma
1000

  0
LINE
  5
428
330
1F
100
AcDbEntity
  8
99
  6
Continuous
 62
     7
370
    30
100
AcDbLine
 10
12.324788334901
 20
39.36835106383
 30
0.0
 11
1.824788334901399
 21
39.36835106383
 31
0.0
1001
Sigma
1000

  0
LINE
  5
42A
330
1F
100
AcDbEntity
  8
99
  6
Continuous
 62
     7
370
    30
100
AcDbLine
 10
12.324788334901
 20
31.36835106383
 30
0.0
 11
1.824788334901399
 21
31.36835106383
 31
0.0
1001
Sigma
1000

  0
LINE
  5
42C
330
1F
100
AcDbEntity
  8
99
  6
Continuous
 62
     7
370
    30
100
AcDbLine
 10
12.324788334901
 20
40.26835106383
 30
0.0
 11
1.824788334901399
 21
40.26835106383
 31
0.0
1001
Sigma
1000

  0
LINE
  5
42E
330
1F
100
AcDbEntity
  8
99
  6
Continuous
 62
     7
370
    30
100
AcDbLine
 10
12.324788334901
 20
30.46835106382999
 30
0.0
 11
1.824788334901399
 21
30.46835106382999
 31
0.0
1001
Sigma
1000

  0
LINE
  5
430
330
1F
100
AcDbEntity
  8
99
  6
Continuous
 62
     7
370
    30
100
AcDbLine
 10
12.324788334901
 20
41.26835106383
 30
0.0
 11
1.824788334901399
 21
41.26835106383
 31
0.0
1001
Sigma
1000

  0
LINE
  5
432
330
1F
100
AcDbEntity
  8
99
  6
Continuous
 62
     7
370
    30
100
AcDbLine
 10
12.324788334901
 20
29.46835106383
 30
0.0
 11
1.824788334901399
 21
29.46835106383
 31
0.0
1001
Sigma
1000

  0
LINE
  5
434
330
1F
100
AcDbEntity
  8
99
  6
Continuous
 62
     7
370
    30
100
AcDbLine
 10
12.324788334901
 20
42.16835106383
 30
0.0
 11
1.824788334901399
 21
42.16835106383
 31
0.0
1001
Sigma
1000

  0
LINE
  5
436
330
1F
100
AcDbEntity
  8
99
  6
Continuous
 62
     7
370
    30
100
AcDbLine
 10
12.324788334901
 20
28.56835106383
 30
0.0
 11
1.824788334901399
 21
28.56835106383
 31
0.0
1001
Sigma
1000

  0
LINE
  5
438
330
1F
100
AcDbEntity
  8
99
  6
Continuous
 62
     7
370
    30
100
AcDbLine
 10
12.324788334901
 20
43.06835106383
 30
0.0
 11
1.824788334901399
 21
43.06835106383
 31
0.0
1001
Sigma
1000

  0
LINE
  5
43A
330
1F
100
AcDbEntity
  8
99
  6
Continuous
 62
     7
370
    30
100
AcDbLine
 10
12.324788334901
 20
27.66835106383
 30
0.0
 11
1.824788334901399
 21
27.66835106383
 31
0.0
1001
Sigma
1000

  0
LINE
  5
43C
330
1F
100
AcDbEntity
  8
99
  6
Continuous
 62
     7
370
    30
100
AcDbLine
 10
12.324788334901
 20
43.86835106382999
 30
0.0
 11
1.824788334901399
 21
43.86835106382999
 31
0.0
1001
Sigma
1000

  0
LINE
  5
43E
330
1F
100
AcDbEntity
  8
99
  6
Continuous
 62
     7
370
    30
100
AcDbLine
 10
12.324788334901
 20
26.86835106383
 30
0.0
 11
1.824788334901399
 21
26.86835106383
 31
0.0
1001
Sigma
1000

  0
LINE
  5
440
330
1F
100
AcDbEntity
  8
99
  6
Continuous
 62
     7
370
    30
100
AcDbLine
 10
12.324788334901
 20
44.66835106383
 30
0.0
 11
1.824788334901399
 21
44.66835106383
 31
0.0
1001
Sigma
1000

  0
LINE
  5
442
330
1F
100
AcDbEntity
  8
99
  6
Continuous
 62
     7
370
    30
100
AcDbLine
 10
12.324788334901
 20
26.06835106383
 30
0.0
 11
1.824788334901399
 21
26.06835106383
 31
0.0
1001
Sigma
1000

  0
LINE
  5
444
330
1F
100
AcDbEntity
  8
99
  6
Continuous
 62
     7
370
    30
100
AcDbLine
 10
12.324788334901
 20
45.46835106382999
 30
0.0
 11
1.824788334901399
 21
45.46835106382999
 31
0.0
1001
Sigma
1000

  0
LINE
  5
446
330
1F
100
AcDbEntity
  8
99
  6
Continuous
 62
     7
370
    30
100
AcDbLine
 10
12.324788334901
 20
25.26835106383
 30
0.0
 11
1.824788334901399
 21
25.26835106383
 31
0.0
1001
Sigma
1000

  0
LINE
  5
448
330
1F
100
AcDbEntity
  8
99
  6
Continuous
 62
     7
370
    30
100
AcDbLine
 10
12.324788334901
 20
46.16835106383
 30
0.0
 11
1.824788334901399
 21
46.16835106383
 31
0.0
1001
Sigma
1000

  0
LINE
  5
44A
330
1F
100
AcDbEntity
  8
99
  6
Continuous
 62
     7
370
    30
100
AcDbLine
 10
12.324788334901
 20
24.56835106383
 30
0.0
 11
1.824788334901399
 21
24.56835106383
 31
0.0
1001
Sigma
1000

  0
LINE
  5
44C
330
1F
100
AcDbEntity
  8
99
  6
Continuous
 62
     7
370
    30
100
AcDbLine
 10
12.324788334901
 20
46.86835106382999
 30
0.0
 11
1.824788334901399
 21
46.86835106382999
 31
0.0
1001
Sigma
1000

  0
LINE
  5
44E
330
1F
100
AcDbEntity
  8
99
  6
Continuous
 62
     7
370
    30
100
AcDbLine
 10
12.324788334901
 20
23.86835106383
 30
0.0
 11
1.824788334901399
 21
23.86835106383
 31
0.0
1001
Sigma
1000

  0
LINE
  5
450
330
1F
100
AcDbEntity
  8
99
  6
Continuous
 62
     7
370
    30
100
AcDbLine
 10
12.324788334901
 20
47.56835106382999
 30
0.0
 11
1.824788334901399
 21
47.56835106382999
 31
0.0
1001
Sigma
1000

  0
LINE
  5
452
330
1F
100
AcDbEntity
  8
99
  6
Continuous
 62
     7
370
    30
100
AcDbLine
 10
12.324788334901
 20
23.16835106382999
 30
0.0
 11
1.824788334901399
 21
23.16835106382999
 31
0.0
1001
Sigma
1000

  0
LINE
  5
454
330
1F
100
AcDbEntity
  8
99
  6
Continuous
 62
     7
370
    30
100
AcDbLine
 10
12.324788334901
 20
48.16835106383
 30
0.0
 11
1.824788334901399
 21
48.16835106383
 31
0.0
1001
Sigma
1000

  0
LINE
  5
456
330
1F
100
AcDbEntity
  8
99
  6
Continuous
 62
     7
370
    30
100
AcDbLine
 10
12.324788334901
 20
22.56835106383
 30
0.0
 11
1.824788334901399
 21
22.56835106383
 31
0.0
1001
Sigma
1000

  0
LINE
  5
458
330
1F
100
AcDbEntity
  8
99
  6
Continuous
 62
     7
370
    30
100
AcDbLine
 10
12.324788334901
 20
48.66835106383
 30
0.0
 11
1.824788334901399
 21
48.66835106383
 31
0.0
1001
Sigma
1000

  0
LINE
  5
45A
330
1F
100
AcDbEntity
  8
99
  6
Continuous
 62
     7
370
    30
100
AcDbLine
 10
12.324788334901
 20
22.06835106383
 30
0.0
 11
1.824788334901399
 21
22.06835106383
 31
0.0
1001
Sigma
1000

  0
LINE
  5
45C
330
1F
100
AcDbEntity
  8
99
  6
Continuous
 62
     7
370
    30
100
AcDbLine
 10
12.324788334901
 20
49.16835106383
 30
0.0
 11
1.824788334901399
 21
49.16835106383
 31
0.0
1001
Sigma
1000

  0
LINE
  5
45E
330
1F
100
AcDbEntity
  8
99
  6
Continuous
 62
     7
370
    30
100
AcDbLine
 10
12.324788334901
 20
21.56835106383
 30
0.0
 11
1.824788334901399
 21
21.56835106383
 31
0.0
1001
Sigma
1000

  0
LINE
  5
460
330
1F
100
AcDbEntity
  8
99
  6
Continuous
 62
     7
370
    30
100
AcDbLine
 10
12.324788334901
 20
49.56835106383
 30
0.0
 11
1.824788334901399
 21
49.56835106383
 31
0.0
1001
Sigma
1000

  0
LINE
  5
462
330
1F
100
AcDbEntity
  8
99
  6
Continuous
 62
     7
370
    30
100
AcDbLine
 10
12.324788334901
 20
21.16835106382999
 30
0.0
 11
1.824788334901399
 21
21.16835106382999
 31
0.0
1001
Sigma
1000

  0
LINE
  5
464
330
1F
100
AcDbEntity
  8
99
  6
Continuous
 62
     7
370
    30
100
AcDbLine
 10
12.324788334901
 20
49.96835106383
 30
0.0
 11
1.824788334901399
 21
49.96835106383
 31
0.0
1001
Sigma
1000

  0
LINE
  5
466
330
1F
100
AcDbEntity
  8
99
  6
Continuous
 62
     7
370
    30
100
AcDbLine
 10
12.324788334901
 20
20.76835106383
 30
0.0
 11
1.824788334901399
 21
20.76835106383
 31
0.0
1001
Sigma
1000

  0
LINE
  5
468
330
1F
100
AcDbEntity
  8
99
  6
Continuous
 62
     7
370
    30
100
AcDbLine
 10
12.324788334901
 20
50.26835106383
 30
0.0
 11
1.824788334901399
 21
50.26835106383
 31
0.0
1001
Sigma
1000

  0
LINE
  5
46A
330
1F
100
AcDbEntity
  8
99
  6
Continuous
 62
     7
370
    30
100
AcDbLine
 10
12.324788334901
 20
20.46835106382999
 30
0.0
 11
1.824788334901399
 21
20.46835106382999
 31
0.0
1001
Sigma
1000

  0
LINE
  5
46C
330
1F
100
AcDbEntity
  8
99
  6
Continuous
 62
     7
370
    30
100
AcDbLine
 10
12.324788334901
 20
50.46835106382999
 30
0.0
 11
1.824788334901399
 21
50.46835106382999
 31
0.0
1001
Sigma
1000

  0
LINE
  5
46E
330
1F
100
AcDbEntity
  8
99
  6
Continuous
 62
     7
370
    30
100
AcDbLine
 10
12.324788334901
 20
20.26835106382999
 30
0.0
 11
1.824788334901399
 21
20.26835106382999
 31
0.0
1001
Sigma
1000

  0
LINE
  5
470
330
1F
100
AcDbEntity
  8
99
  6
Continuous
 62
     7
370
    30
100
AcDbLine
 10
12.324788334901
 20
50.66835106383
 30
0.0
 11
1.824788334901399
 21
50.66835106383
 31
0.0
1001
Sigma
1000

  0
LINE
  5
472
330
1F
100
AcDbEntity
  8
99
  6
Continuous
 62
     7
370
    30
100
AcDbLine
 10
12.324788334901
 20
20.06835106383
 30
0.0
 11
1.824788334901399
 21
20.06835106383
 31
0.0
1001
Sigma
1000

  0
LINE
  5
474
330
1F
100
AcDbEntity
  8
99
  6
Continuous
 62
     7
370
    30
100
AcDbLine
 10
12.324788334901
 20
50.76835106383001
 30
0.0
 11
1.824788334901399
 21
50.76835106383001
 31
0.0
1001
Sigma
1000

  0
LINE
  5
476
330
1F
100
AcDbEntity
  8
99
  6
Continuous
 62
     7
370
    30
100
AcDbLine
 10
12.324788334901
 20
19.96835106383
 30
0.0
 11
1.824788334901399
 21
19.96835106383
 31
0.0
1001
Sigma
1000

  0
LINE
  5
478
330
1F
100
AcDbEntity
  8
99
  6
Continuous
 62
     7
370
    30
100
AcDbLine
 10
37.324788334901
 20
35.36835106383
 30
0.0
 11
33.324788334901
 21
35.36835106383
 31
0.0
1001
Sigma
1000

  0
LINE
  5
47A
330
1F
100
AcDbEntity
  8
99
  6
Continuous
 62
     7
370
    30
100
AcDbLine
 10
37.324788334901
 20
36.36835106382999
 30
0.0
 11
33.324788334901
 21
36.36835106382999
 31
0.0
1001
Sigma
1000

  0
LINE
  5
47C
330
1F
100
AcDbEntity
  8
99
  6
Continuous
 62
     7
370
    30
100
AcDbLine
 10
37.324788334901
 20
34.36835106383
 30
0.0
 11
33.324788334901
 21
34.36835106383
 31
0.0
1001
Sigma
1000

  0
LINE
  5
47E
330
1F
100
AcDbEntity
  8
99
  6
Continuous
 62
     7
370
    30
100
AcDbLine
 10
37.324788334901
 20
37.36835106382999
 30
0.0
 11
33.324788334901
 21
37.36835106382999
 31
0.0
1001
Sigma
1000

  0
LINE
  5
480
330
1F
100
AcDbEntity
  8
99
  6
Continuous
 62
     7
370
    30
100
AcDbLine
 10
37.324788334901
 20
33.36835106382999
 30
0.0
 11
33.324788334901
 21
33.36835106382999
 31
0.0
1001
Sigma
1000

  0
LINE
  5
482
330
1F
100
AcDbEntity
  8
99
  6
Continuous
 62
     7
370
    30
100
AcDbLine
 10
37.324788334901
 20
38.36835106382999
 30
0.0
 11
33.324788334901
 21
38.36835106382999
 31
0.0
1001
Sigma
1000

  0
LINE
  5
484
330
1F
100
AcDbEntity
  8
99
  6
Continuous
 62
     7
370
    30
100
AcDbLine
 10
37.324788334901
 20
32.36835106382999
 30
0.0
 11
33.324788334901
 21
32.36835106382999
 31
0.0
1001
Sigma
1000

  0
LINE
  5
486
330
1F
100
AcDbEntity
  8
99
  6
Continuous
 62
     7
370
    30
100
AcDbLine
 10
37.324788334901
 20
39.36835106383
 30
0.0
 11
33.324788334901
 21
39.36835106383
 31
0.0
1001
Sigma
1000

  0
LINE
  5
488
330
1F
100
AcDbEntity
  8
99
  6
Continuous
 62
     7
370
    30
100
AcDbLine
 10
37.324788334901
 20
31.36835106383
 30
0.0
 11
33.324788334901
 21
31.36835106383
 31
0.0
1001
Sigma
1000

  0
LINE
  5
48A
330
1F
100
AcDbEntity
  8
99
  6
Continuous
 62
     7
370
    30
100
AcDbLine
 10
37.324788334901
 20
40.26835106383
 30
0.0
 11
33.324788334901
 21
40.26835106383
 31
0.0
1001
Sigma
1000

  0
LINE
  5
48C
330
1F
100
AcDbEntity
  8
99
  6
Continuous
 62
     7
370
    30
100
AcDbLine
 10
37.324788334901
 20
30.46835106382999
 30
0.0
 11
33.324788334901
 21
30.46835106382999
 31
0.0
1001
Sigma
1000

  0
LINE
  5
48E
330
1F
100
AcDbEntity
  8
99
  6
Continuous
 62
     7
370
    30
100
AcDbLine
 10
37.324788334901
 20
41.26835106383
 30
0.0
 11
33.324788334901
 21
41.26835106383
 31
0.0
1001
Sigma
1000

  0
LINE
  5
490
330
1F
100
AcDbEntity
  8
99
  6
Continuous
 62
     7
370
    30
100
AcDbLine
 10
37.324788334901
 20
29.46835106383
 30
0.0
 11
33.324788334901
 21
29.46835106383
 31
0.0
1001
Sigma
1000

  0
LINE
  5
492
330
1F
100
AcDbEntity
  8
99
  6
Continuous
 62
     7
370
    30
100
AcDbLine
 10
37.324788334901
 20
42.16835106383
 30
0.0
 11
33.324788334901
 21
42.16835106383
 31
0.0
1001
Sigma
1000

  0
LINE
  5
494
330
1F
100
AcDbEntity
  8
99
  6
Continuous
 62
     7
370
    30
100
AcDbLine
 10
37.324788334901
 20
28.56835106383
 30
0.0
 11
33.324788334901
 21
28.56835106383
 31
0.0
1001
Sigma
1000

  0
LINE
  5
496
330
1F
100
AcDbEntity
  8
99
  6
Continuous
 62
     7
370
    30
100
AcDbLine
 10
37.324788334901
 20
43.06835106383
 30
0.0
 11
33.324788334901
 21
43.06835106383
 31
0.0
1001
Sigma
1000

  0
LINE
  5
498
330
1F
100
AcDbEntity
  8
99
  6
Continuous
 62
     7
370
    30
100
AcDbLine
 10
37.324788334901
 20
27.66835106383
 30
0.0
 11
33.324788334901
 21
27.66835106383
 31
0.0
1001
Sigma
1000

  0
LINE
  5
49A
330
1F
100
AcDbEntity
  8
99
  6
Continuous
 62
     7
370
    30
100
AcDbLine
 10
37.324788334901
 20
43.86835106382999
 30
0.0
 11
33.324788334901
 21
43.86835106382999
 31
0.0
1001
Sigma
1000

  0
LINE
  5
49C
330
1F
100
AcDbEntity
  8
99
  6
Continuous
 62
     7
370
    30
100
AcDbLine
 10
37.324788334901
 20
26.86835106383
 30
0.0
 11
33.324788334901
 21
26.86835106383
 31
0.0
1001
Sigma
1000

  0
LINE
  5
49E
330
1F
100
AcDbEntity
  8
99
  6
Continuous
 62
     7
370
    30
100
AcDbLine
 10
37.324788334901
 20
44.66835106383
 30
0.0
 11
33.324788334901
 21
44.66835106383
 31
0.0
1001
Sigma
1000

  0
LINE
  5
4A0
330
1F
100
AcDbEntity
  8
99
  6
Continuous
 62
     7
370
    30
100
AcDbLine
 10
37.324788334901
 20
26.06835106383
 30
0.0
 11
33.324788334901
 21
26.06835106383
 31
0.0
1001
Sigma
1000

  0
LINE
  5
4A2
330
1F
100
AcDbEntity
  8
99
  6
Continuous
 62
     7
370
    30
100
AcDbLine
 10
37.324788334901
 20
45.46835106382999
 30
0.0
 11
33.324788334901
 21
45.46835106382999
 31
0.0
1001
Sigma
1000

  0
LINE
  5
4A4
330
1F
100
AcDbEntity
  8
99
  6
Continuous
 62
     7
370
    30
100
AcDbLine
 10
37.324788334901
 20
25.26835106383
 30
0.0
 11
33.324788334901
 21
25.26835106383
 31
0.0
1001
Sigma
1000

  0
LINE
  5
4A6
330
1F
100
AcDbEntity
  8
99
  6
Continuous
 62
     7
370
    30
100
AcDbLine
 10
37.324788334901
 20
46.16835106383
 30
0.0
 11
33.324788334901
 21
46.16835106383
 31
0.0
1001
Sigma
1000

  0
LINE
  5
4A8
330
1F
100
AcDbEntity
  8
99
  6
Continuous
 62
     7
370
    30
100
AcDbLine
 10
37.324788334901
 20
24.56835106383
 30
0.0
 11
33.324788334901
 21
24.56835106383
 31
0.0
1001
Sigma
1000

  0
LINE
  5
4AA
330
1F
100
AcDbEntity
  8
99
  6
Continuous
 62
     7
370
    30
100
AcDbLine
 10
37.324788334901
 20
46.86835106382999
 30
0.0
 11
33.324788334901
 21
46.86835106382999
 31
0.0
1001
Sigma
1000

  0
LINE
  5
4AC
330
1F
100
AcDbEntity
  8
99
  6
Continuous
 62
     7
370
    30
100
AcDbLine
 10
37.324788334901
 20
23.86835106383
 30
0.0
 11
33.324788334901
 21
23.86835106383
 31
0.0
1001
Sigma
1000

  0
LINE
  5
4AE
330
1F
100
AcDbEntity
  8
99
  6
Continuous
 62
     7
370
    30
100
AcDbLine
 10
37.324788334901
 20
47.56835106382999
 30
0.0
 11
33.324788334901
 21
47.56835106382999
 31
0.0
1001
Sigma
1000

  0
LINE
  5
4B0
330
1F
100
AcDbEntity
  8
99
  6
Continuous
 62
     7
370
    30
100
AcDbLine
 10
37.324788334901
 20
23.16835106382999
 30
0.0
 11
33.324788334901
 21
23.16835106382999
 31
0.0
1001
Sigma
1000

  0
LINE
  5
4B2
330
1F
100
AcDbEntity
  8
99
  6
Continuous
 62
     7
370
    30
100
AcDbLine
 10
37.324788334901
 20
48.16835106383
 30
0.0
 11
33.324788334901
 21
48.16835106383
 31
0.0
1001
Sigma
1000

  0
LINE
  5
4B4
330
1F
100
AcDbEntity
  8
99
  6
Continuous
 62
     7
370
    30
100
AcDbLine
 10
37.324788334901
 20
22.56835106383
 30
0.0
 11
33.324788334901
 21
22.56835106383
 31
0.0
1001
Sigma
1000

  0
LINE
  5
4B6
330
1F
100
AcDbEntity
  8
99
  6
Continuous
 62
     7
370
    30
100
AcDbLine
 10
37.324788334901
 20
48.66835106383
 30
0.0
 11
33.324788334901
 21
48.66835106383
 31
0.0
1001
Sigma
1000

  0
LINE
  5
4B8
330
1F
100
AcDbEntity
  8
99
  6
Continuous
 62
     7
370
    30
100
AcDbLine
 10
37.324788334901
 20
22.06835106383
 30
0.0
 11
33.324788334901
 21
22.06835106383
 31
0.0
1001
Sigma
1000

  0
LINE
  5
4BA
330
1F
100
AcDbEntity
  8
99
  6
Continuous
 62
     7
370
    30
100
AcDbLine
 10
37.324788334901
 20
49.16835106383
 30
0.0
 11
33.324788334901
 21
49.16835106383
 31
0.0
1001
Sigma
1000

  0
LINE
  5
4BC
330
1F
100
AcDbEntity
  8
99
  6
Continuous
 62
     7
370
    30
100
AcDbLine
 10
37.324788334901
 20
21.56835106383
 30
0.0
 11
33.324788334901
 21
21.56835106383
 31
0.0
1001
Sigma
1000

  0
LINE
  5
4BE
330
1F
100
AcDbEntity
  8
99
  6
Continuous
 62
     7
370
    30
100
AcDbLine
 10
37.324788334901
 20
49.56835106383
 30
0.0
 11
33.324788334901
 21
49.56835106383
 31
0.0
1001
Sigma
1000

  0
LINE
  5
4C0
330
1F
100
AcDbEntity
  8
99
  6
Continuous
 62
     7
370
    30
100
AcDbLine
 10
37.324788334901
 20
21.16835106382999
 30
0.0
 11
33.324788334901
 21
21.16835106382999
 31
0.0
1001
Sigma
1000

  0
LINE
  5
4C2
330
1F
100
AcDbEntity
  8
99
  6
Continuous
 62
     7
370
    30
100
AcDbLine
 10
37.324788334901
 20
49.96835106383
 30
0.0
 11
33.324788334901
 21
49.96835106383
 31
0.0
1001
Sigma
1000

  0
LINE
  5
4C4
330
1F
100
AcDbEntity
  8
99
  6
Continuous
 62
     7
370
    30
100
AcDbLine
 10
37.324788334901
 20
20.76835106383
 30
0.0
 11
33.324788334901
 21
20.76835106383
 31
0.0
1001
Sigma
1000

  0
LINE
  5
4C6
330
1F
100
AcDbEntity
  8
99
  6
Continuous
 62
     7
370
    30
100
AcDbLine
 10
37.324788334901
 20
50.26835106383
 30
0.0
 11
33.324788334901
 21
50.26835106383
 31
0.0
1001
Sigma
1000

  0
LINE
  5
4C8
330
1F
100
AcDbEntity
  8
99
  6
Continuous
 62
     7
370
    30
100
AcDbLine
 10
37.324788334901
 20
20.46835106382999
 30
0.0
 11
33.324788334901
 21
20.46835106382999
 31
0.0
1001
Sigma
1000

  0
LINE
  5
4CA
330
1F
100
AcDbEntity
  8
99
  6
Continuous
 62
     7
370
    30
100
AcDbLine
 10
37.324788334901
 20
50.46835106382999
 30
0.0
 11
33.324788334901
 21
50.46835106382999
 31
0.0
1001
Sigma
1000

  0
LINE
  5
4CC
330
1F
100
AcDbEntity
  8
99
  6
Continuous
 62
     7
370
    30
100
AcDbLine
 10
37.324788334901
 20
20.26835106382999
 30
0.0
 11
33.324788334901
 21
20.26835106382999
 31
0.0
1001
Sigma
1000

  0
LINE
  5
4CE
330
1F
100
AcDbEntity
  8
99
  6
Continuous
 62
     7
370
    30
100
AcDbLine
 10
37.324788334901
 20
50.66835106383
 30
0.0
 11
33.324788334901
 21
50.66835106383
 31
0.0
1001
Sigma
1000

  0
LINE
  5
4D0
330
1F
100
AcDbEntity
  8
99
  6
Continuous
 62
     7
370
    30
100
AcDbLine
 10
37.324788334901
 20
20.06835106383
 30
0.0
 11
33.324788334901
 21
20.06835106383
 31
0.0
1001
Sigma
1000

  0
LINE
  5
4D2
330
1F
100
AcDbEntity
  8
99
  6
Continuous
 62
     7
370
    30
100
AcDbLine
 10
37.324788334901
 20
50.76835106383001
 30
0.0
 11
33.324788334901
 21
50.76835106383001
 31
0.0
1001
Sigma
1000

  0
LINE
  5
4D4
330
1F
100
AcDbEntity
  8
99
  6
Continuous
 62
     7
370
    30
100
AcDbLine
 10
37.324788334901
 20
19.96835106383
 30
0.0
 11
33.324788334901
 21
19.96835106383
 31
0.0
1001
Sigma
1000

  0
LINE
  5
4D6
330
1F
100
AcDbEntity
  8
99
  6
Continuous
 62
     7
370
    30
100
AcDbLine
 10
37.324788334901
 20
50.86835106382999
 30
0.0
 11
33.324788334901
 21
50.86835106382999
 31
0.0
1001
Sigma
1000

  0
LINE
  5
4D8
330
1F
100
AcDbEntity
  8
99
  6
Continuous
 62
     7
370
    30
100
AcDbLine
 10
37.324788334901
 20
19.86835106383
 30
0.0
 11
33.324788334901
 21
19.86835106383
 31
0.0
1001
Sigma
1000

  0
LINE
  5
4DA
330
1F
100
AcDbEntity
  8
99
  6
Continuous
 62
     7
370
    30
100
AcDbLine
 10
104.0747883349
 20
35.36835106383
 30
0.0
 11
96.074788334901
 21
35.36835106383
 31
0.0
1001
Sigma
1000

  0
LINE
  5
4DC
330
1F
100
AcDbEntity
  8
99
  6
Continuous
 62
     7
370
    30
100
AcDbLine
 10
104.0747883349
 20
36.36835106382999
 30
0.0
 11
96.074788334901
 21
36.36835106382999
 31
0.0
1001
Sigma
1000

  0
LINE
  5
4DE
330
1F
100
AcDbEntity
  8
99
  6
Continuous
 62
     7
370
    30
100
AcDbLine
 10
104.0747883349
 20
34.36835106383
 30
0.0
 11
96.074788334901
 21
34.36835106383
 31
0.0
1001
Sigma
1000

  0
LINE
  5
4E0
330
1F
100
AcDbEntity
  8
99
  6
Continuous
 62
     7
370
    30
100
AcDbLine
 10
104.0747883349
 20
37.36835106382999
 30
0.0
 11
96.074788334901
 21
37.36835106382999
 31
0.0
1001
Sigma
1000

  0
LINE
  5
4E2
330
1F
100
AcDbEntity
  8
99
  6
Continuous
 62
     7
370
    30
100
AcDbLine
 10
104.0747883349
 20
33.36835106382999
 30
0.0
 11
96.074788334901
 21
33.36835106382999
 31
0.0
1001
Sigma
1000

  0
LINE
  5
4E4
330
1F
100
AcDbEntity
  8
99
  6
Continuous
 62
     7
370
    30
100
AcDbLine
 10
104.0747883349
 20
38.36835106382999
 30
0.0
 11
96.074788334901
 21
38.36835106382999
 31
0.0
1001
Sigma
1000

  0
LINE
  5
4E6
330
1F
100
AcDbEntity
  8
99
  6
Continuous
 62
     7
370
    30
100
AcDbLine
 10
104.0747883349
 20
32.36835106382999
 30
0.0
 11
96.074788334901
 21
32.36835106382999
 31
0.0
1001
Sigma
1000

  0
LINE
  5
4E8
330
1F
100
AcDbEntity
  8
99
  6
Continuous
 62
     7
370
    30
100
AcDbLine
 10
104.0747883349
 20
39.36835106383
 30
0.0
 11
96.074788334901
 21
39.36835106383
 31
0.0
1001
Sigma
1000

  0
LINE
  5
4EA
330
1F
100
AcDbEntity
  8
99
  6
Continuous
 62
     7
370
    30
100
AcDbLine
 10
104.0747883349
 20
31.36835106383
 30
0.0
 11
96.074788334901
 21
31.36835106383
 31
0.0
1001
Sigma
1000

  0
LINE
  5
4EC
330
1F
100
AcDbEntity
  8
99
  6
Continuous
 62
     7
370
    30
100
AcDbLine
 10
104.0747883349
 20
40.36835106383
 30
0.0
 11
96.074788334901
 21
40.36835106383
 31
0.0
1001
Sigma
1000

  0
LINE
  5
4EE
330
1F
100
AcDbEntity
  8
99
  6
Continuous
 62
     7
370
    30
100
AcDbLine
 10
104.0747883349
 20
30.36835106383
 30
0.0
 11
96.074788334901
 21
30.36835106383
 31
0.0
1001
Sigma
1000

  0
LINE
  5
4F0
330
1F
100
AcDbEntity
  8
99
  6
Continuous
 62
     7
370
    30
100
AcDbLine
 10
104.0747883349
 20
41.16835106383
 30
0.0
 11
96.074788334901
 21
41.16835106383
 31
0.0
1001
Sigma
1000

  0
LINE
  5
4F2
330
1F
100
AcDbEntity
  8
99
  6
Continuous
 62
     7
370
    30
100
AcDbLine
 10
104.0747883349
 20
29.56835106383
 30
0.0
 11
96.074788334901
 21
29.56835106383
 31
0.0
1001
Sigma
1000

  0
LINE
  5
4F4
330
1F
100
AcDbEntity
  8
99
  6
Continuous
 62
     7
370
    30
100
AcDbLine
 10
104.0747883349
 20
42.16835106383
 30
0.0
 11
96.074788334901
 21
42.16835106383
 31
0.0
1001
Sigma
1000

  0
LINE
  5
4F6
330
1F
100
AcDbEntity
  8
99
  6
Continuous
 62
     7
370
    30
100
AcDbLine
 10
104.0747883349
 20
28.56835106383
 30
0.0
 11
96.074788334901
 21
28.56835106383
 31
0.0
1001
Sigma
1000

  0
LINE
  5
4F8
330
1F
100
AcDbEntity
  8
99
  6
Continuous
 62
     7
370
    30
100
AcDbLine
 10
104.0747883349
 20
42.96835106382999
 30
0.0
 11
96.074788334901
 21
42.96835106382999
 31
0.0
1001
Sigma
1000

  0
LINE
  5
4FA
330
1F
100
AcDbEntity
  8
99
  6
Continuous
 62
     7
370
    30
100
AcDbLine
 10
104.0747883349
 20
27.76835106383
 30
0.0
 11
96.074788334901
 21
27.76835106383
 31
0.0
1001
Sigma
1000

  0
LINE
  5
4FC
330
1F
100
AcDbEntity
  8
99
  6
Continuous
 62
     7
370
    30
100
AcDbLine
 10
104.0747883349
 20
43.86835106382999
 30
0.0
 11
96.074788334901
 21
43.86835106382999
 31
0.0
1001
Sigma
1000

  0
LINE
  5
4FE
330
1F
100
AcDbEntity
  8
99
  6
Continuous
 62
     7
370
    30
100
AcDbLine
 10
104.0747883349
 20
26.86835106383
 30
0.0
 11
96.074788334901
 21
26.86835106383
 31
0.0
1001
Sigma
1000

  0
LINE
  5
500
330
1F
100
AcDbEntity
  8
99
  6
Continuous
 62
     7
370
    30
100
AcDbLine
 10
104.0747883349
 20
44.66835106383
 30
0.0
 11
96.074788334901
 21
44.66835106383
 31
0.0
1001
Sigma
1000

  0
LINE
  5
502
330
1F
100
AcDbEntity
  8
99
  6
Continuous
 62
     7
370
    30
100
AcDbLine
 10
104.0747883349
 20
26.06835106383
 30
0.0
 11
96.074788334901
 21
26.06835106383
 31
0.0
1001
Sigma
1000

  0
LINE
  5
504
330
1F
100
AcDbEntity
  8
99
  6
Continuous
 62
     7
370
    30
100
AcDbLine
 10
104.0747883349
 20
45.36835106383
 30
0.0
 11
96.074788334901
 21
45.36835106383
 31
0.0
1001
Sigma
1000

  0
LINE
  5
506
330
1F
100
AcDbEntity
  8
99
  6
Continuous
 62
     7
370
    30
100
AcDbLine
 10
104.0747883349
 20
25.36835106383
 30
0.0
 11
96.074788334901
 21
25.36835106383
 31
0.0
1001
Sigma
1000

  0
LINE
  5
508
330
1F
100
AcDbEntity
  8
99
  6
Continuous
 62
     7
370
    30
100
AcDbLine
 10
104.0747883349
 20
46.16835106383
 30
0.0
 11
96.074788334901
 21
46.16835106383
 31
0.0
1001
Sigma
1000

  0
LINE
  5
50A
330
1F
100
AcDbEntity
  8
99
  6
Continuous
 62
     7
370
    30
100
AcDbLine
 10
104.0747883349
 20
24.56835106383
 30
0.0
 11
96.074788334901
 21
24.56835106383
 31
0.0
1001
Sigma
1000

  0
LINE
  5
50C
330
1F
100
AcDbEntity
  8
99
  6
Continuous
 62
     7
370
    30
100
AcDbLine
 10
104.0747883349
 20
46.76835106383
 30
0.0
 11
96.074788334901
 21
46.76835106383
 31
0.0
1001
Sigma
1000

  0
LINE
  5
50E
330
1F
100
AcDbEntity
  8
99
  6
Continuous
 62
     7
370
    30
100
AcDbLine
 10
104.0747883349
 20
23.96835106383
 30
0.0
 11
96.074788334901
 21
23.96835106383
 31
0.0
1001
Sigma
1000

  0
LINE
  5
510
330
1F
100
AcDbEntity
  8
99
  6
Continuous
 62
     7
370
    30
100
AcDbLine
 10
104.0747883349
 20
47.46835106383
 30
0.0
 11
96.074788334901
 21
47.46835106383
 31
0.0
1001
Sigma
1000

  0
LINE
  5
512
330
1F
100
AcDbEntity
  8
99
  6
Continuous
 62
     7
370
    30
100
AcDbLine
 10
104.0747883349
 20
23.26835106383
 30
0.0
 11
96.074788334901
 21
23.26835106383
 31
0.0
1001
Sigma
1000

  0
LINE
  5
514
330
1F
100
AcDbEntity
  8
99
  6
Continuous
 62
     7
370
    30
100
AcDbLine
 10
104.0747883349
 20
47.96835106382999
 30
0.0
 11
96.074788334901
 21
47.96835106382999
 31
0.0
1001
Sigma
1000

  0
LINE
  5
516
330
1F
100
AcDbEntity
  8
99
  6
Continuous
 62
     7
370
    30
100
AcDbLine
 10
104.0747883349
 20
22.76835106382999
 30
0.0
 11
96.074788334901
 21
22.76835106382999
 31
0.0
1001
Sigma
1000

  0
LINE
  5
518
330
1F
100
AcDbEntity
  8
99
  6
Continuous
 62
     7
370
    30
100
AcDbLine
 10
104.0747883349
 20
48.46835106383
 30
0.0
 11
96.074788334901
 21
48.46835106383
 31
0.0
1001
Sigma
1000

  0
LINE
  5
51A
330
1F
100
AcDbEntity
  8
99
  6
Continuous
 62
     7
370
    30
100
AcDbLine
 10
104.0747883349
 20
22.26835106383
 30
0.0
 11
96.074788334901
 21
22.26835106383
 31
0.0
1001
Sigma
1000

  0
LINE
  5
51C
330
1F
100
AcDbEntity
  8
99
  6
Continuous
 62
     7
370
    30
100
AcDbLine
 10
104.0747883349
 20
48.96835106383
 30
0.0
 11
96.074788334901
 21
48.96835106383
 31
0.0
1001
Sigma
1000

  0
LINE
  5
51E
330
1F
100
AcDbEntity
  8
99
  6
Continuous
 62
     7
370
    30
100
AcDbLine
 10
104.0747883349
 20
21.76835106383
 30
0.0
 11
96.074788334901
 21
21.76835106383
 31
0.0
1001
Sigma
1000

  0
LINE
  5
520
330
1F
100
AcDbEntity
  8
99
  6
Continuous
 62
     7
370
    30
100
AcDbLine
 10
104.0747883349
 20
49.36835106383
 30
0.0
 11
96.074788334901
 21
49.36835106383
 31
0.0
1001
Sigma
1000

  0
LINE
  5
522
330
1F
100
AcDbEntity
  8
99
  6
Continuous
 62
     7
370
    30
100
AcDbLine
 10
104.0747883349
 20
21.36835106383
 30
0.0
 11
96.074788334901
 21
21.36835106383
 31
0.0
1001
Sigma
1000

  0
LINE
  5
524
330
1F
100
AcDbEntity
  8
99
  6
Continuous
 62
     7
370
    30
100
AcDbLine
 10
104.0747883349
 20
49.66835106383
 30
0.0
 11
96.074788334901
 21
49.66835106383
 31
0.0
1001
Sigma
1000

  0
LINE
  5
526
330
1F
100
AcDbEntity
  8
99
  6
Continuous
 62
     7
370
    30
100
AcDbLine
 10
104.0747883349
 20
21.06835106382999
 30
0.0
 11
96.074788334901
 21
21.06835106382999
 31
0.0
1001
Sigma
1000

  0
LINE
  5
528
330
1F
100
AcDbEntity
  8
99
  6
Continuous
 62
     7
370
    30
100
AcDbLine
 10
104.0747883349
 20
49.96835106383
 30
0.0
 11
96.074788334901
 21
49.96835106383
 31
0.0
1001
Sigma
1000

  0
LINE
  5
52A
330
1F
100
AcDbEntity
  8
99
  6
Continuous
 62
     7
370
    30
100
AcDbLine
 10
104.0747883349
 20
20.76835106383
 30
0.0
 11
96.074788334901
 21
20.76835106383
 31
0.0
1001
Sigma
1000

  0
LINE
  5
52C
330
1F
100
AcDbEntity
  8
99
  6
Continuous
 62
     7
370
    30
100
AcDbLine
 10
104.0747883349
 20
50.16835106383
 30
0.0
 11
96.074788334901
 21
50.16835106383
 31
0.0
1001
Sigma
1000

  0
LINE
  5
52E
330
1F
100
AcDbEntity
  8
99
  6
Continuous
 62
     7
370
    30
100
AcDbLine
 10
104.0747883349
 20
20.56835106383
 30
0.0
 11
96.074788334901
 21
20.56835106383
 31
0.0
1001
Sigma
1000

  0
LINE
  5
530
330
1F
100
AcDbEntity
  8
99
  6
Continuous
 62
     7
370
    30
100
AcDbLine
 10
104.0747883349
 20
50.26835106383
 30
0.0
 11
96.074788334901
 21
50.26835106383
 31
0.0
1001
Sigma
1000

  0
LINE
  5
532
330
1F
100
AcDbEntity
  8
99
  6
Continuous
 62
     7
370
    30
100
AcDbLine
 10
104.0747883349
 20
20.46835106382999
 30
0.0
 11
96.074788334901
 21
20.46835106382999
 31
0.0
1001
Sigma
1000

  0
LINE
  5
534
330
1F
100
AcDbEntity
  8
99
  6
Continuous
 62
     7
370
    30
100
AcDbLine
 10
104.0747883349
 20
50.36835106383
 30
0.0
 11
96.074788334901
 21
50.36835106383
 31
0.0
1001
Sigma
1000

  0
LINE
  5
536
330
1F
100
AcDbEntity
  8
99
  6
Continuous
 62
     7
370
    30
100
AcDbLine
 10
104.0747883349
 20
20.36835106383
 30
0.0
 11
96.074788334901
 21
20.36835106383
 31
0.0
1001
Sigma
1000

  0
TEXT
  5
538
330
1F
100
AcDbEntity
  8
99
  6
Continuous
 62
     7
370
    30
100
AcDbText
 10
27.113064440263
 20
43.70477789663159
 30
0.0
 40
4.067999999999999
  1
O   C
 50
270.0
 41
1.23130020311232
  7
KCADTEXTSTANDARD
100
AcDbText
1001
Sigma
1000

  0
TEXT
  5
53A
330
1F
100
AcDbEntity
  8
99
  6
Continuous
 62
     7
370
    30
100
AcDbText
 10
14.863064440263
 20
36.1119199024924
 30
0.0
 40
4.067999999999999
  1
2X
 50
270.0
 41
0.321323303258525
  7
KCADTEXTSTANDARD
100
AcDbText
1001
Sigma
1000

  0
CIRCLE
  5
53C
330
1F
100
AcDbEntity
  8
99
  6
Continuous
 62
     7
370
    30
100
AcDbCircle
 10
22.496472248354
 20
35.316509377314
 30
0.0
 40
0.3761317855671
1001
Sigma
1000

  0
LINE
  5
53E
330
1F
100
AcDbEntity
  8
99
  6
CENTER
 62
     7
370
    15
100
AcDbLine
 10
122.6007883349
 20
32.416948970197
 30
0.0
 11
122.6007883349
 21
38.146017643762
 31
0.0
1001
Sigma
1000

  0
DIMENSION
  5
540
330
1F
100
AcDbEntity
  8
KCAD_DIMS
 62
     7
100
AcDbDimension
  2
*D37
 10
109.0747883349
 20
82.938829787234
 30
0.0
 11
114.92709313264
 21
85.07216278723399
 31
0.0
 70
    32
 71
     5
 42
-1.0
  3
Standard
100
AcDbAlignedDimension
 13
105.0747883349
 23
49.36835106383
 33
0.0
 14
109.0747883349
 24
47.31835106383
 34
0.0
100
AcDbRotatedDimension
1001
Sigma
1000
DIM_TPHO
1001
KCAD_DIM_EXT
1002
{
1071
 20001212
1070
     0
1070
     1
1070
     1
1040
3.0
1040
5.0
1040
7.0272821645435
1040
0.0
1040
0.0
1040
0.0
1040
0.0
1040
0.0
1070
     0
1040
50.0
1040
-1.0
1013
1.0
1023
0.0
1033
0.0
1040
0.0
1013
1.0
1023
0.0
1033
0.0
1000
_None
1040
1.0
1040
4.0
1070
     0
1070
     0
1070
     0
1012
1.0
1022
0.0
1032
0.0
1013
1.0
1023
0.0
1033
0.0
1002
}
1001
ACAD
1000
DSTYLE
1002
{
1070
    41
1040
3.0
1070
    42
1040
1.0
1070
    43
1040
8.0
1070
    44
1040
1.0
1070
    45
1040
0.0
1070
    73
1070
     0
1070
    74
1070
     0
1070
    77
1070
     1
1070
    78
1070
     8
1070
    79
1070
     2
1070
   140
1040
3.2
1070
   141
1040
2.5
1070
   145
1040
0.0001
1070
   146
1040
0.667
1070
   147
1040
0.5333000000000001
1070
   172
1070
     1
1070
   173
1070
     1
1070
   179
1070
     3
1070
   271
1070
     3
1070
   272
1070
     3
1070
   279
1070
     2
1070
   284
1070
     8
1070
   289
1070
     2
1070
   340
1005
189
1070
   341
1005
21
1070
   343
1005
12D
1070
   344
1005
12D
1002
}
  0
DIMENSION
  5
588
330
1F
100
AcDbEntity
  8
KCAD_DIMS
 62
     7
100
AcDbDimension
  2
*D38
 10
60.074788334901
 20
67.93085106383
 30
0.0
 11
82.574788334901
 21
70.06418406383
 31
0.0
 70
    32
 71
     5
 42
-1.0
  3
Standard
100
AcDbAlignedDimension
 13
105.0747883349
 23
49.36835106383
 33
0.0
 14
60.074788334901
 24
47.96835106382999
 34
0.0
100
AcDbRotatedDimension
1001
Sigma
1000
DIM_TPHO
1001
KCAD_DIM_EXT
1002
{
1071
 20001212
1070
     0
1070
     2
1070
     2
1040
3.0
1040
0.0
1040
0.0
1040
0.0
1040
0.0
1040
0.0
1040
0.0
1040
0.0
1070
     0
1040
50.0
1040
-1.0
1013
1.0
1023
0.0
1033
0.0
1040
0.0
1013
1.0
1023
0.0
1033
0.0
1000
_None
1040
1.0
1040
45.0
1070
     0
1070
     0
1070
     0
1012
1.0
1022
0.0
1032
0.0
1013
1.0
1023
0.0
1033
0.0
1002
}
1001
ACAD
1000
DSTYLE
1002
{
1070
    41
1040
3.0
1070
    42
1040
1.0
1070
    43
1040
8.0
1070
    44
1040
1.0
1070
    45
1040
0.0
1070
    73
1070
     0
1070
    74
1070
     0
1070
    77
1070
     1
1070
    78
1070
     8
1070
    79
1070
     2
1070
   140
1040
3.2
1070
   141
1040
2.5
1070
   145
1040
0.0001
1070
   146
1040
0.667
1070
   147
1040
0.5333000000000001
1070
   172
1070
     1
1070
   173
1070
     1
1070
   179
1070
     3
1070
   271
1070
     3
1070
   272
1070
     3
1070
   279
1070
     2
1070
   284
1070
     8
1070
   289
1070
     2
1070
   340
1005
189
1070
   341
1005
21
1070
   343
1005
12D
1070
   344
1005
12D
1002
}
  0
DIMENSION
  5
5C4
330
1F
100
AcDbEntity
  8
KCAD_DIMS
 62
     7
100
AcDbDimension
  2
*D39
 10
-29.4252116651
 20
67.93085106383
 30
0.0
 11
-37.9252116651
 21
70.06418406383
 31
0.0
 70
    32
 71
     5
 42
-1.0
  3
Standard
100
AcDbAlignedDimension
 13
-46.42521166509999
 23
47.36835106383
 33
0.0
 14
-29.4252116651
 24
49.36835106383
 34
0.0
100
AcDbRotatedDimension
1001
Sigma
1000
DIM_TPHO
1001
KCAD_DIM_EXT
1002
{
1071
 20001212
1070
     0
1070
     2
1070
     2
1040
3.0
1040
0.0
1040
0.0
1040
0.0
1040
0.0
1040
0.0
1040
0.0
1040
0.0
1070
     0
1040
50.0
1040
-1.0
1013
1.0
1023
0.0
1033
0.0
1040
0.0
1013
1.0
1023
0.0
1033
0.0
1000
_None
1040
1.0
1040
17.0
1070
     0
1070
     0
1070
     0
1012
1.0
1022
0.0
1032
0.0
1013
1.0
1023
0.0
1033
0.0
1002
}
1001
ACAD
1000
DSTYLE
1002
{
1070
    41
1040
3.0
1070
    42
1040
1.0
1070
    43
1040
8.0
1070
    44
1040
1.0
1070
    45
1040
0.0
1070
    73
1070
     0
1070
    74
1070
     0
1070
    77
1070
     1
1070
    78
1070
     8
1070
    79
1070
     2
1070
   140
1040
3.2
1070
   141
1040
2.5
1070
   145
1040
0.0001
1070
   146
1040
0.667
1070
   147
1040
0.5333000000000001
1070
   172
1070
     1
1070
   173
1070
     1
1070
   179
1070
     3
1070
   271
1070
     3
1070
   272
1070
     3
1070
   279
1070
     2
1070
   284
1070
     8
1070
   289
1070
     2
1070
   340
1005
189
1070
   341
1005
21
1070
   343
1005
12D
1070
   344
1005
12D
1002
}
  0
DIMENSION
  5
600
330
1F
100
AcDbEntity
  8
KCAD_DIMS
 62
     7
100
AcDbDimension
  2
*D40
 10
-46.42521166509999
 20
82.938829787234
 30
0.0
 11
29.324788334901
 21
85.07216278723399
 31
0.0
 70
    32
 71
     5
 42
-1.0
  3
Standard
100
AcDbAlignedDimension
 13
105.0747883349
 23
49.36835106383
 33
0.0
 14
-46.42521166509999
 24
47.36835106383
 34
0.0
100
AcDbRotatedDimension
1001
Sigma
1000
DIM_TPHO
1001
KCAD_DIM_EXT
1002
{
1071
 20001212
1070
     0
1070
     2
1070
     2
1040
3.0
1040
0.0
1040
0.0
1040
0.0
1040
0.0
1040
0.0
1040
0.0
1040
0.0
1070
     0
1040
50.0
1040
-1.0
1013
1.0
1023
0.0
1033
0.0
1040
0.0
1013
1.0
1023
0.0
1033
0.0
1000
_None
1040
1.0
1040
151.5
1070
     0
1070
     0
1070
     0
1012
1.0
1022
0.0
1032
0.0
1013
1.0
1023
0.0
1033
0.0
1002
}
1001
ACAD
1000
DSTYLE
1002
{
1070
    41
1040
3.0
1070
    42
1040
1.0
1070
    43
1040
8.0
1070
    44
1040
1.0
1070
    45
1040
0.0
1070
    73
1070
     0
1070
    74
1070
     0
1070
    77
1070
     1
1070
    78
1070
     8
1070
    79
1070
     2
1070
   140
1040
3.2
1070
   141
1040
2.5
1070
   145
1040
0.0001
1070
   146
1040
0.667
1070
   147
1040
0.5333000000000001
1070
   172
1070
     1
1070
   173
1070
     1
1070
   179
1070
     3
1070
   271
1070
     3
1070
   272
1070
     3
1070
   279
1070
     2
1070
   284
1070
     8
1070
   289
1070
     2
1070
   340
1005
189
1070
   341
1005
21
1070
   343
1005
12D
1070
   344
1005
12D
1002
}
  0
DIMENSION
  5
63C
330
1F
100
AcDbEntity
  8
KCAD_DIMS
 62
     7
100
AcDbDimension
  2
*D41
 10
20.574788334901
 20
67.93085106383
 30
0.0
 11
-4.425211665098999
 21
70.06418406383
 31
0.0
 70
    32
 71
     5
 42
-1.0
  3
Standard
100
AcDbAlignedDimension
 13
-29.4252116651
 23
49.36835106383
 33
0.0
 14
20.574788334901
 24
50.11835106382999
 34
0.0
100
AcDbRotatedDimension
1001
Sigma
1000
DIM_TPHO
1001
KCAD_DIM_EXT
1002
{
1071
 20001212
1070
     0
1070
     2
1070
     2
1040
3.0
1040
0.0
1040
0.0
1040
0.0
1040
0.0
1040
0.0
1040
0.0
1040
0.0
1070
     0
1040
50.0
1040
-1.0
1013
1.0
1023
0.0
1033
0.0
1040
0.0
1013
1.0
1023
0.0
1033
0.0
1000
_None
1040
1.0
1040
50.0
1070
     0
1070
     0
1070
     0
1012
1.0
1022
0.0
1032
0.0
1013
1.0
1023
0.0
1033
0.0
1002
}
1001
ACAD
1000
DSTYLE
1002
{
1070
    41
1040
3.0
1070
    42
1040
1.0
1070
    43
1040
8.0
1070
    44
1040
1.0
1070
    45
1040
0.0
1070
    73
1070
     0
1070
    74
1070
     0
1070
    77
1070
     1
1070
    78
1070
     8
1070
    79
1070
     2
1070
   140
1040
3.2
1070
   141
1040
2.5
1070
   145
1040
0.0001
1070
   146
1040
0.667
1070
   147
1040
0.5333000000000001
1070
   172
1070
     1
1070
   173
1070
     1
1070
   179
1070
     3
1070
   271
1070
     3
1070
   272
1070
     3
1070
   279
1070
     2
1070
   284
1070
     8
1070
   289
1070
     2
1070
   340
1005
189
1070
   341
1005
21
1070
   343
1005
12D
1070
   344
1005
12D
1002
}
  0
DIMENSION
  5
678
330
1F
100
AcDbEntity
  8
KCAD_DIMS
 62
     7
100
AcDbDimension
  2
*D47
 10
105.0747883349
 20
3.445738926362598
 30
0.0
 11
141.4360022044003
 21
6.123006797097855
 31
0.0
 70
    32
 71
     5
 42
-1.0
  3
Standard
100
AcDbAlignedDimension
 13
122.6007883349
 23
32.416948970197
 33
0.0
 14
105.0747883349
 24
21.36835106383
 34
0.0
100
AcDbRotatedDimension
1001
Sigma
1000
DIM_TPHO
1001
KCAD_DIM_EXT
1002
{
1071
 20001212
1070
     0
1070
     1
1070
     1
1040
3.0
1040
38.848893273525
1040
5.0
1040
0.0
1040
0.0
1040
0.0
1040
0.0
1040
0.0
1070
     0
1040
50.0
1040
-1.0
1013
1.0
1023
0.0
1033
0.0
1040
0.0
1013
1.0
1023
0.0
1033
0.0
1000
_None
1040
1.0
1040
17.526
1070
     0
1070
     0
1070
     0
1012
1.0
1022
0.0
1032
0.0
1013
1.0
1023
0.0
1033
0.0
1002
}
1001
ACAD
1000
DSTYLE
1002
{
1070
     3
1000
F.B.=<>
1070
    41
1040
3.0
1070
    42
1040
1.0
1070
    43
1040
8.0
1070
    44
1040
1.0
1070
    45
1040
0.0
1070
    73
1070
     0
1070
    74
1070
     0
1070
    77
1070
     1
1070
    78
1070
     8
1070
    79
1070
     2
1070
   140
1040
3.2
1070
   141
1040
2.5
1070
   145
1040
0.0001
1070
   146
1040
0.667
1070
   147
1040
0.5333000000000001
1070
   172
1070
     1
1070
   173
1070
     1
1070
   179
1070
     3
1070
   271
1070
     3
1070
   272
1070
     3
1070
   279
1070
     2
1070
   284
1070
     8
1070
   289
1070
     2
1070
   340
1005
189
1070
   341
1005
21
1070
   343
1005
12D
1070
   344
1005
12D
1002
}
  0
LINE
  5
6B6
330
1F
100
AcDbEntity
  8
99
  6
CENTER
 62
     7
370
    15
100
AcDbLine
 10
-102.4252116650999
 20
38.81034206681199
 30
0.0
 11
-102.4252116650999
 21
28.142421088449
 31
0.0
1001
Sigma
1000

  0
DIMENSION
  5
6B8
330
1F
100
AcDbEntity
  8
KCAD_DIMS
 62
     7
100
AcDbDimension
  2
*D43
 10
-56.99435559737
 20
49.36835106383
 30
0.0
 11
-59.12768859737
 21
33.477995336362
 31
0.0
 70
    32
 71
     5
 42
-1.0
 53
90.0
  3
Standard
100
AcDbAlignedDimension
 13
-44.4252116651
 23
21.36835106383
 33
0.0
 14
-44.4252116651
 24
49.36835106383
 34
0.0
 50
90.0
100
AcDbRotatedDimension
1001
Sigma
1000
DIM_TPVO
1001
KCAD_DIM_EXT
1002
{
1071
 20001212
1070
     0
1070
     2
1070
     2
1040
3.0
1040
0.0
1040
0.0
1040
0.0
1040
0.0
1040
0.0
1040
0.0
1040
0.0
1070
     0
1040
50.0
1040
-1.0
1013
1.0
1023
0.0
1033
0.0
1040
0.0
1013
1.0
1023
0.0
1033
0.0
1000
_None
1040
1.0
1040
28.0
1070
     0
1070
     0
1070
     0
1012
1.0
1022
0.0
1032
0.0
1013
1.0
1023
0.0
1033
0.0
1002
}
1001
ACAD
1000
DSTYLE
1002
{
1070
     3
1000
%%c<>
1070
    41
1040
3.0
1070
    42
1040
1.0
1070
    43
1040
8.0
1070
    44
1040
1.0
1070
    45
1040
0.0
1070
    73
1070
     0
1070
    74
1070
     0
1070
    77
1070
     1
1070
    78
1070
     8
1070
    79
1070
     2
1070
   140
1040
3.2
1070
   141
1040
2.5
1070
   145
1040
0.0001
1070
   146
1040
0.667
1070
   147
1040
0.5333000000000001
1070
   172
1070
     1
1070
   173
1070
     1
1070
   179
1070
     3
1070
   271
1070
     3
1070
   272
1070
     3
1070
   279
1070
     2
1070
   284
1070
     8
1070
   289
1070
     2
1070
   340
1005
189
1070
   341
1005
21
1070
   343
1005
12D
1070
   344
1005
12D
1002
}
  0
LINE
  5
6F6
102
{ACAD_REACTORS
330
6F4
330
6F5
102
}
330
1F
100
AcDbEntity
  8
99
  6
Continuous
 62
     7
370
    15
100
AcDbLine
 10
108.3247883349
 20
47.31835106383
 30
0.0
 11
114.1862652869199
 21
63.298657953204
 31
0.0
1001
Sigma
1000

  0
INSERT
  5
6F8
102
{ACAD_REACTORS
330
6F4
330
6F5
102
}
330
1F
100
AcDbEntity
  8
99
  6
Continuous
 62
     7
370
    15
100
AcDbBlockReference
  2
_OPEN30
 10
108.3247883349
 20
47.31835106383
 30
0.0
 41
3.0
 42
3.0
 43
3.0
 50
249.8572775896865
1001
Sigma
1000
_BRRS
  0
TEXT
  5
6FA
102
{ACAD_REACTORS
330
6F4
102
}
330
1F
100
AcDbEntity
  8
99
  6
Continuous
 62
     7
370
    15
100
AcDbText
 10
120.511631198012
 20
64.08198795320399
 30
0.0
 40
4.5
  1
Ｃマウント
 41
0.8294857373237609
  7
KCADTEXTSTANDARD
100
AcDbText
1001
Sigma
1000

  0
LINE
  5
6FC
102
{ACAD_REACTORS
330
6F4
102
}
330
1F
100
AcDbEntity
  8
99
  6
Continuous
 62
     7
370
    15
100
AcDbLine
 10
114.1862652869199
 20
63.298657953204
 30
0.0
 11
144.5902034880299
 21
63.298657953204
 31
0.0
1001
Sigma
1000

  0
LINE
  5
700
102
{ACAD_REACTORS
330
6FE
330
6FF
102
}
330
1F
100
AcDbEntity
  8
99
  6
Continuous
 62
     7
370
    15
100
AcDbLine
 10
91.67466708125
 20
21.756593680103
 30
0.0
 11
85.713781749765
 21
-11.49388773243
 31
0.0
1001
Sigma
1000

  0
INSERT
  5
702
102
{ACAD_REACTORS
330
6FE
330
6FF
102
}
330
1F
100
AcDbEntity
  8
99
  6
Continuous
 62
     7
370
    15
100
AcDbBlockReference
  2
_OPEN30
 10
91.67466708125
 20
21.756593680103
 30
0.0
 41
3.0
 42
3.0
 43
3.0
 50
79.83642529982383
1001
Sigma
1000
_BRRS
  0
TEXT
  5
704
102
{ACAD_REACTORS
330
6FE
102
}
330
1F
100
AcDbEntity
  8
99
  6
Continuous
 62
     7
370
    15
100
AcDbText
 10
92.39778115497796
 20
-10.71055773243
 30
0.0
 40
4.5
  1
Ｃマウント固定ネジ(3ヶ所)
 41
0.7530204461940697
  7
KCADTEXTSTANDARD
100
AcDbText
1001
Sigma
1000

  0
LINE
  5
706
102
{ACAD_REACTORS
330
6FE
102
}
330
1F
100
AcDbEntity
  8
99
  6
Continuous
 62
     7
370
    15
100
AcDbLine
 10
85.713781749765
 20
-11.49388773243
 30
0.0
 11
154.16627469426
 21
-11.49388773243
 31
0.0
1001
Sigma
1000

  0
LINE
  5
708
330
1F
100
AcDbEntity
  8
99
  6
Continuous
 62
     7
370
    30
100
AcDbLine
 10
29.312088428975
 20
39.232726526691
 30
0.0
 11
29.312088428975
 21
35.36835106383
 31
0.0
1001
Sigma
1000

  0
LINE
  5
70A
330
1F
100
AcDbEntity
  8
99
  6
Continuous
 62
     7
370
    30
100
AcDbLine
 10
29.312088428975
 20
39.232726526691
 30
0.0
 11
28.954021636877
 21
37.689335181442
 31
0.0
1001
Sigma
1000

  0
LINE
  5
70C
330
1F
100
AcDbEntity
  8
99
  6
Continuous
 62
     7
370
    30
100
AcDbLine
 10
29.312088428975
 20
39.232726526691
 30
0.0
 11
29.670155221072
 21
37.689335181442
 31
0.0
1001
Sigma
1000

  0
LINE
  5
70E
330
1F
100
AcDbEntity
  8
99
  6
Continuous
 62
     7
370
    30
100
AcDbLine
 10
29.312088428975
 20
31.503975600969
 30
0.0
 11
29.312088428975
 21
35.36835106383
 31
0.0
1001
Sigma
1000

  0
LINE
  5
710
330
1F
100
AcDbEntity
  8
99
  6
Continuous
 62
     7
370
    30
100
AcDbLine
 10
29.312088428975
 20
31.503975600969
 30
0.0
 11
28.954021636877
 21
33.047366946218
 31
0.0
1001
Sigma
1000

  0
LINE
  5
712
330
1F
100
AcDbEntity
  8
99
  6
Continuous
 62
     7
370
    30
100
AcDbLine
 10
29.312088428975
 20
31.503975600969
 30
0.0
 11
29.670155221072
 21
33.047366946218
 31
0.0
1001
Sigma
1000

  0
LINE
  5
716
102
{ACAD_REACTORS
330
714
330
715
102
}
330
1F
100
AcDbEntity
  8
99
  6
Continuous
 62
     7
370
    15
100
AcDbLine
 10
34.87723424271
 20
19.473242879446
 30
0.0
 11
28.75305738476
 21
-10.62240547627
 31
0.0
1001
Sigma
1000

  0
INSERT
  5
718
102
{ACAD_REACTORS
330
714
330
715
102
}
330
1F
100
AcDbEntity
  8
99
  6
Continuous
 62
     7
370
    15
100
AcDbBlockReference
  2
_OPEN30
 10
34.87723424271
 20
19.473242879446
 30
0.0
 41
3.0
 42
3.0
 43
3.0
 50
78.4979013404871
1001
Sigma
1000
_BRRS
  0
TEXT
  5
71A
102
{ACAD_REACTORS
330
714
102
}
330
1F
100
AcDbEntity
  8
99
  6
Continuous
 62
     7
370
    15
100
AcDbText
 10
0.5064571622620928
 20
-9.83907547627
 30
0.0
 40
4.5
  1
絞りリング
 41
0.8294857373237609
  7
KCADTEXTSTANDARD
100
AcDbText
1001
Sigma
1000

  0
LINE
  5
71C
102
{ACAD_REACTORS
330
714
102
}
330
1F
100
AcDbEntity
  8
99
  6
Continuous
 62
     7
370
    15
100
AcDbLine
 10
28.75305738476
 20
-10.62240547627
 30
0.0
 11
-2.243543092919999
 21
-10.62240547627
 31
0.0
1001
Sigma
1000

  0
LINE
  5
720
102
{ACAD_REACTORS
330
71E
330
71F
102
}
330
1F
100
AcDbEntity
  8
99
  6
Continuous
 62
     7
370
    15
100
AcDbLine
 10
-2.641110065851
 20
21.251229709173
 30
0.0
 11
-10.44449670742999
 21
-10.52653319588999
 31
0.0
1001
Sigma
1000

  0
INSERT
  5
722
102
{ACAD_REACTORS
330
71E
330
71F
102
}
330
1F
100
AcDbEntity
  8
99
  6
Continuous
 62
     7
370
    15
100
AcDbBlockReference
  2
_OPEN30
 10
-2.641110065851
 20
21.251229709173
 30
0.0
 41
3.0
 42
3.0
 43
3.0
 50
76.20336785092113
1001
Sigma
1000
_BRRS
  0
TEXT
  5
724
102
{ACAD_REACTORS
330
71E
102
}
330
1F
100
AcDbEntity
  8
99
  6
Continuous
 62
     7
370
    15
100
AcDbText
 10
-46.05607483128238
 20
-9.743203195893
 30
0.0
 40
4.5
  1
ズームリング
 41
0.8323809763789176
  7
KCADTEXTSTANDARD
100
AcDbText
1001
Sigma
1000

  0
LINE
  5
726
102
{ACAD_REACTORS
330
71E
102
}
330
1F
100
AcDbEntity
  8
99
  6
Continuous
 62
     7
370
    15
100
AcDbLine
 10
-10.44449670742999
 20
-10.52653319588999
 30
0.0
 11
-49.30607513861
 21
-10.52653319588999
 31
0.0
1001
Sigma
1000

  0
LINE
  5
72A
102
{ACAD_REACTORS
330
728
330
729
102
}
330
1F
100
AcDbEntity
  8
99
  6
Continuous
 62
     7
370
    15
100
AcDbLine
 10
60.074788334901
 20
22.76835106382999
 30
0.0
 11
52.104891815617
 21
-20.70024619203
 31
0.0
1001
Sigma
1000

  0
INSERT
  5
72C
102
{ACAD_REACTORS
330
728
330
729
102
}
330
1F
100
AcDbEntity
  8
99
  6
Continuous
 62
     7
370
    15
100
AcDbBlockReference
  2
_OPEN30
 10
60.074788334901
 20
22.76835106382999
 30
0.0
 41
3.0
 42
3.0
 43
3.0
 50
79.61030858034867
1001
Sigma
1000
_BRRS
  0
TEXT
  5
72E
102
{ACAD_REACTORS
330
728
102
}
330
1F
100
AcDbEntity
  8
99
  6
Continuous
 62
     7
370
    15
100
AcDbText
 10
60.04181508569967
 20
-19.91691619203
 30
0.0
 40
4.5
  1
台座リング取付溝
 41
0.8360000251978634
  7
KCADTEXTSTANDARD
100
AcDbText
1001
Sigma
1000

  0
LINE
  5
730
102
{ACAD_REACTORS
330
728
102
}
330
1F
100
AcDbEntity
  8
99
  6
Continuous
 62
     7
370
    15
100
AcDbLine
 10
52.104891815617
 20
-20.70024619203
 30
0.0
 11
98.991816558307
 21
-20.70024619203
 31
0.0
1001
Sigma
1000

  0
DIMENSION
  5
732
330
1F
100
AcDbEntity
  8
KCAD_DIMS
 62
     7
100
AcDbDimension
  2
*D44
 10
136.0653809971799
 20
20.36835106383
 30
0.0
 11
133.93204799718
 21
35.36835106383
 31
0.0
 70
    32
 71
     5
 42
-1.0
 53
90.0
  3
Standard
100
AcDbAlignedDimension
 13
104.0747883349
 23
50.36835106383
 33
0.0
 14
104.0747883349
 24
20.36835106383
 34
0.0
 50
90.0
100
AcDbRotatedDimension
1001
Sigma
1000
DIM_TPVO
1001
KCAD_DIM_EXT
1002
{
1071
 20001212
1070
     0
1070
     2
1070
     2
1040
3.0
1040
0.0
1040
0.0
1040
0.0
1040
0.0
1040
0.0
1040
0.0
1040
0.0
1070
     0
1040
50.0
1040
-1.0
1013
1.0
1023
0.0
1033
0.0
1040
0.0
1013
1.0
1023
0.0
1033
0.0
1000
_None
1040
1.0
1040
30.0
1070
     0
1070
     0
1070
     0
1012
1.0
1022
0.0
1032
0.0
1013
1.0
1023
0.0
1033
0.0
1002
}
1001
ACAD
1000
DSTYLE
1002
{
1070
     3
1000
%%c<>
1070
    41
1040
3.0
1070
    42
1040
1.0
1070
    43
1040
8.0
1070
    44
1040
1.0
1070
    45
1040
0.0
1070
    73
1070
     0
1070
    74
1070
     0
1070
    77
1070
     1
1070
    78
1070
     8
1070
    79
1070
     2
1070
   140
1040
3.2
1070
   141
1040
2.5
1070
   145
1040
0.0001
1070
   146
1040
0.667
1070
   147
1040
0.5333000000000001
1070
   172
1070
     1
1070
   173
1070
     1
1070
   179
1070
     3
1070
   271
1070
     3
1070
   272
1070
     3
1070
   279
1070
     2
1070
   284
1070
     8
1070
   289
1070
     2
1070
   340
1005
189
1070
   341
1005
21
1070
   343
1005
12D
1070
   344
1005
12D
1002
}
  0
TEXT
  5
76E
330
1F
100
AcDbEntity
  8
99
  6
Continuous
 62
     7
370
    30
100
AcDbText
 10
96.65398170814
 20
-111.3865947291
 30
0.0
 40
3.254399999999999
  1
1998
 41
1.097898230088496
  7
KCADTEXTSTANDARD
100
AcDbText
1001
Sigma
1000

  0
TEXT
  5
770
330
1F
100
AcDbEntity
  8
99
  6
Continuous
 62
     7
370
    30
100
AcDbText
 10
17.73161113700765
 20
-122.8727274758
 30
0.0
 40
3.254399999999999
  1
96.4.19
 41
0.6305309740007802
  7
KCADTEXTSTANDARD
100
AcDbText
1001
Sigma
1000

  0
TEXT
  5
772
330
1F
100
AcDbEntity
  8
99
  6
Continuous
 62
     7
370
    30
100
AcDbText
 10
18.53161113775271
 20
-117.8727274757999
 30
0.0
 40
3.254399999999999
  1
97.4.2
 41
0.6140798734577507
  7
KCADTEXTSTANDARD
100
AcDbText
1001
Sigma
1000

  0
TEXT
  5
774
330
1F
100
AcDbEntity
  8
99
  6
Continuous
 62
     7
370
    30
100
AcDbText
 10
32.17615063424
 20
-127.9553463470999
 30
0.0
 40
3.6
  1
浅見
 41
1.009374999999999
  7
KCADTEXTSTANDARD
100
AcDbText
1001
Sigma
1000

  0
TEXT
  5
776
330
1F
100
AcDbEntity
  8
99
  6
Continuous
 62
     7
370
    30
100
AcDbText
 10
32.17615063424
 20
-122.9553463470999
 30
0.0
 40
3.6
  1
浅見
 41
1.009374999999999
  7
KCADTEXTSTANDARD
100
AcDbText
1001
Sigma
1000

  0
TEXT
  5
778
330
1F
100
AcDbEntity
  8
99
  6
Continuous
 62
     7
370
    30
100
AcDbText
 10
32.17615063424
 20
-117.9553463470999
 30
0.0
 40
3.6
  1
井手
 41
1.009374999999999
  7
KCADTEXTSTANDARD
100
AcDbText
1001
Sigma
1000

  0
TEXT
  5
77A
330
1F
100
AcDbEntity
  8
99
  6
Continuous
 62
     7
370
    30
100
AcDbText
 10
148.84573028858
 20
-121.5103987444
 30
0.0
 40
5.695199999999999
  1
KCM-Z1/Z2/Z3
 41
0.6705337002057461
  7
KCADTEXTSTANDARD
100
AcDbText
1001
Sigma
1000

  0
LINE
  5
77C
330
1F
100
AcDbEntity
  8
99
  6
Continuous
 62
     7
370
    30
100
AcDbLine
 10
90.57478833490099
 20
49.21835106382999
 30
0.0
 11
93.574788334901
 21
49.21835106382999
 31
0.0
1001
Sigma
1000

  0
LINE
  5
77E
330
1F
100
AcDbEntity
  8
99
  6
Continuous
 62
     7
370
    30
100
AcDbLine
 10
93.574788334901
 20
49.21835106382999
 30
0.0
 11
93.574788334901
 21
51.86835106383
 31
0.0
1001
Sigma
1000

  0
LINE
  5
780
330
1F
100
AcDbEntity
  8
99
  6
Continuous
 62
     7
370
    30
100
AcDbLine
 10
93.574788334901
 20
51.86835106383
 30
0.0
 11
90.57478833490099
 21
51.86835106383
 31
0.0
1001
Sigma
1000

  0
LINE
  5
782
330
1F
100
AcDbEntity
  8
99
  6
Continuous
 62
     7
370
    30
100
AcDbLine
 10
90.57478833490099
 20
51.86835106383
 30
0.0
 11
90.57478833490099
 21
49.21835106382999
 31
0.0
1001
Sigma
1000

  0
ELLIPSE
  5
784
330
1F
100
AcDbEntity
  8
99
  6
Continuous
 62
     7
370
    30
100
AcDbEllipse
 10
92.074788334901
 20
24.11835106383
 30
0.0
 11
2.999999999999699
 21
0.0
 31
0.0
210
0.0
220
0.0
230
1.0
 40
0.8660254037845199
 41
0.0
 42
6.283185307179586
1001
Sigma
1000

  0
TEXT
  5
786
330
1F
100
AcDbEntity
  8
99
  6
Continuous
 62
     7
370
    30
100
AcDbText
 10
43.67615063424
 20
-117.9553463470999
 30
0.0
 40
3.6
  1
外観変更（書き直し)
 41
0.78375
  7
KCADTEXTSTANDARD
100
AcDbText
1001
Sigma
1000

  0
TEXT
  5
788
330
1F
100
AcDbEntity
  8
99
  6
Continuous
 62
     7
370
    30
100
AcDbText
 10
43.67615063424
 20
-122.9553463470999
 30
0.0
 40
3.6
  1
外観変更（書き直し）
 41
0.8193749999999999
  7
KCADTEXTSTANDARD
100
AcDbText
1001
Sigma
1000

  0
TEXT
  5
78A
330
1F
100
AcDbEntity
  8
99
  6
Continuous
 62
     7
370
    30
100
AcDbText
 10
43.67615063424
 20
-127.9553463470999
 30
0.0
 40
3.6
  1
新規
 41
0.771875
  7
KCADTEXTSTANDARD
100
AcDbText
1001
Sigma
1000

  0
TEXT
  5
78C
330
1F
100
AcDbEntity
  8
99
  6
Continuous
 62
     7
370
    30
100
AcDbText
 10
155.97540573543
 20
-92.46750128438
 30
0.0
 40
4.5
  1
梨地黒アルマイト
 41
0.653125
  7
KCADTEXTSTANDARD
100
AcDbText
1001
Sigma
1000

  0
TEXT
  5
78E
330
1F
100
AcDbEntity
  8
99
  6
Continuous
 62
     7
370
    30
100
AcDbText
 10
-117.7142521166
 20
-56.61835106383
 30
0.0
 40
4.5
  1
ＫＣＭ－Ｚ２　：　倍率＝０．５～２倍     Ｗ．Ｄ．＝９０
 41
0.7733905172000329
  7
KCADTEXTSTANDARD
100
AcDbText
1001
Sigma
1000

  0
TEXT
  5
790
330
1F
100
AcDbEntity
  8
99
  6
Continuous
 62
     7
370
    30
100
AcDbText
 10
-117.7142521166
 20
-67.87893431877
 30
0.0
 40
4.5
  1
ＫＣＭ－Ｚ３　：　倍率＝０．７５～３倍   Ｗ．Ｄ．＝５６
 41
0.8000591492807043
  7
KCADTEXTSTANDARD
100
AcDbText
1001
Sigma
1000

  0
DIMENSION
  5
792
330
1F
100
AcDbEntity
  8
KCAD_DIMS
 62
     7
100
AcDbDimension
  2
*D45
 10
-46.42521166509999
 20
2.764627659574497
 30
0.0
 11
-74.4252116651
 21
4.897960659574498
 31
0.0
 70
    32
  1
\A1;W.D.
 71
     5
 42
-1.0
  3
Standard
100
AcDbAlignedDimension
 13
-102.4252116650999
 23
28.142421088449
 33
0.0
 14
-46.42521166509999
 24
23.36835106383
 34
0.0
100
AcDbRotatedDimension
1001
Sigma
1000
DIM_TPHO
1001
KCAD_DIM_EXT
1002
{
1071
 20001212
1070
     0
1070
     2
1070
     2
1040
3.0
1040
0.0
1040
0.0
1040
0.0
1040
0.0
1040
0.0
1040
0.0
1040
0.0
1070
     0
1040
50.0
1040
-1.0
1013
1.0
1023
0.0
1033
0.0
1040
0.0
1013
1.0
1023
0.0
1033
0.0
1000
_None
1040
1.0
1040
56.0
1070
     1
1070
     0
1070
     0
1012
1.0
1022
0.0
1032
0.0
1013
1.0
1023
0.0
1033
0.0
1002
}
1001
ACAD
1000
DSTYLE
1002
{
1070
    41
1040
3.0
1070
    42
1040
1.0
1070
    43
1040
8.0
1070
    44
1040
1.0
1070
    45
1040
0.0
1070
    73
1070
     0
1070
    74
1070
     0
1070
    77
1070
     1
1070
    78
1070
     8
1070
    79
1070
     2
1070
   140
1040
3.2
1070
   141
1040
2.5
1070
   145
1040
0.0001
1070
   146
1040
0.667
1070
   147
1040
0.5333000000000001
1070
   172
1070
     1
1070
   173
1070
     1
1070
   179
1070
     3
1070
   271
1070
     3
1070
   272
1070
     3
1070
   279
1070
     2
1070
   284
1070
     8
1070
   289
1070
     2
1070
   340
1005
189
1070
   341
1005
21
1070
   343
1005
12D
1070
   344
1005
12D
1002
}
  0
LINE
  5
7D0
102
{ACAD_REACTORS
330
7CE
330
7CF
102
}
330
1F
100
AcDbEntity
  8
99
  6
Continuous
 62
     7
370
    15
100
AcDbLine
 10
-46.65980714957999
 20
45.043391345249
 30
0.0
 11
-50.58619473189
 21
40.47495296331099
 31
0.0
1001
Sigma
1000

  0
INSERT
  5
7D2
102
{ACAD_REACTORS
330
7CE
330
7CF
102
}
330
1F
100
AcDbEntity
  8
99
  6
Continuous
 62
     7
370
    15
100
AcDbBlockReference
  2
_OPEN30
 10
-46.65980714957999
 20
45.043391345249
 30
0.0
 41
3.0
 42
3.0
 43
3.0
 50
49.32227705952194
1001
Sigma
1000
_BRRS
  0
LINE
  5
7D4
102
{ACAD_REACTORS
330
7CE
102
}
330
1F
100
AcDbEntity
  8
99
  6
Continuous
 62
     7
370
    15
100
AcDbLine
 10
-50.58619473189
 20
40.47495296331099
 30
0.0
 11
-62.04433207902
 21
66.552093132644
 31
0.0
1001
Sigma
1000

  0
LINE
  5
7D6
102
{ACAD_REACTORS
330
7CE
102
}
330
1F
100
AcDbEntity
  8
99
  6
Continuous
 62
     7
370
    15
100
AcDbLine
 10
-62.04433207902
 20
66.552093132644
 30
0.0
 11
-126.1259407337999
 21
66.552093132643
 31
0.0
1001
Sigma
1000

  0
TEXT
  5
7D9
102
{ACAD_REACTORS
330
7D8
102
}
330
1F
100
AcDbEntity
  8
99
  6
Continuous
 62
     7
370
    15
100
AcDbText
 10
-121.0315618343672
 20
67.434200178739
 30
0.0
 40
4.5
  1
M22.5 P0.5 フィルターネジ
 41
0.583269916764564
  7
KCADTEXTSTANDARD
100
AcDbText
1001
Sigma
1000

  0
DIMENSION
  5
7DB
330
1F
100
AcDbEntity
  8
KCAD_DIMS
 62
     7
100
AcDbDimension
  2
*D46
 10
75.169332079022
 20
21.51835106382999
 30
0.0
 11
72.234949079022
 21
36.092520916315
 31
0.0
 70
    32
 71
     5
 42
-1.0
 53
90.0
  3
Standard
100
AcDbAlignedDimension
 13
61.324788334901
 23
49.21835106382999
 33
0.0
 14
61.324788334901
 24
21.51835106382999
 34
0.0
 50
90.0
100
AcDbRotatedDimension
1001
Sigma
1000
DIM_TPVO
1001
KCAD_DIM_EXT
1002
{
1071
 20001212
1070
     0
1070
     2
1070
     2
1040
3.0
1040
0.0
1040
0.0
1040
0.0
1040
0.0
1040
0.0
1040
0.0
1040
0.0
1070
     0
1040
50.0
1040
-1.0
1013
1.0
1023
0.0
1033
0.0
1040
0.0
1013
1.0
1023
0.0
1033
0.0
1000
_None
1040
1.0
1040
27.7
1070
     0
1070
     0
1070
     0
1012
1.0
1022
0.0
1032
0.0
1013
1.0
1023
0.0
1033
0.0
1002
}
1001
ACAD
1000
DSTYLE
1002
{
1070
     3
1000
%%c<>
1070
    41
1040
3.0
1070
    42
1040
1.0
1070
    43
1040
8.0
1070
    44
1040
1.0
1070
    45
1040
0.0
1070
    48
1040
0.1
1070
    71
1070
     1
1070
    73
1070
     0
1070
    74
1070
     0
1070
    77
1070
     1
1070
    78
1070
     8
1070
    79
1070
     2
1070
   140
1040
3.2
1070
   141
1040
2.5
1070
   145
1040
0.0001
1070
   146
1040
0.667
1070
   147
1040
0.5333000000000001
1070
   172
1070
     1
1070
   173
1070
     1
1070
   179
1070
     3
1070
   271
1070
     3
1070
   272
1070
     1
1070
   279
1070
     2
1070
   284
1070
     8
1070
   289
1070
     2
1070
   340
1005
189
1070
   341
1005
21
1070
   343
1005
12D
1070
   344
1005
12D
1002
}
  0
TEXT
  5
81D
330
1F
100
AcDbEntity
  8
99
  6
Continuous
 62
     7
370
    30
100
AcDbText
 10
18.53161113775271
 20
-112.8727274758
 30
0.0
 40
3.254399999999999
  1
98.5.2
 41
0.6140798734577505
  7
KCADTEXTSTANDARD
100
AcDbText
1001
Sigma
1000

  0
TEXT
  5
81F
330
1F
100
AcDbEntity
  8
99
  6
Continuous
 62
     7
370
    30
100
AcDbText
 10
32.17615063424
 20
-112.9553463470999
 30
0.0
 40
3.6
  1
井手
 41
1.009374999999999
  7
KCADTEXTSTANDARD
100
AcDbText
1001
Sigma
1000

  0
TEXT
  5
821
330
1F
100
AcDbEntity
  8
99
  6
Continuous
 62
     7
370
    30
100
AcDbText
 10
43.67615063424
 20
-112.9553463470999
 30
0.0
 40
3.6
  1
公差付加
 41
0.8015625
  7
KCADTEXTSTANDARD
100
AcDbText
1001
Sigma
1000

  0
LINE
  5
824
330
1F
100
AcDbEntity
  8
1
  6
Continuous
 62
     7
370
    30
100
AcDbLine
 10
93.574788334901
 20
57.86835106383
 30
0.0
 11
90.57478833490099
 21
57.86835106383
 31
0.0
1001
Sigma
1000

  0
LINE
  5
826
330
1F
100
AcDbEntity
  8
1
  6
Continuous
 62
     7
370
    30
100
AcDbLine
 10
94.774788334901
 20
57.86835106383
 30
0.0
 11
89.374788334901
 21
57.86835106383
 31
0.0
1001
Sigma
1000

  0
LINE
  5
828
330
1F
100
AcDbEntity
  8
1
  6
Continuous
 62
     7
370
    30
100
AcDbLine
 10
95.074788334901
 20
52.16835106383
 30
0.0
 11
95.074788334901
 21
57.56835106383
 31
0.0
1001
Sigma
1000

  0
LINE
  5
82A
330
1F
100
AcDbEntity
  8
1
  6
Continuous
 62
     7
370
    30
100
AcDbLine
 10
94.774788334901
 20
51.86835106383
 30
0.0
 11
89.374788334901
 21
51.86835106383
 31
0.0
1001
Sigma
1000

  0
LINE
  5
82C
330
1F
100
AcDbEntity
  8
1
  6
Continuous
 62
     7
370
    30
100
AcDbLine
 10
89.07478833490102
 20
52.16835106383
 30
0.0
 11
89.07478833490102
 21
57.56835106383
 31
0.0
1001
Sigma
1000

  0
LINE
  5
82E
330
1F
100
AcDbEntity
  8
1
  6
Continuous
 62
     7
370
    15
100
AcDbLine
 10
92.074788334901
 20
57.56835106383
 30
0.0
 11
92.074788334901
 21
52.16835106383
 31
0.0
1001
Sigma
1000

  0
LINE
  5
830
330
1F
100
AcDbEntity
  8
1
  6
Continuous
 62
     7
370
    15
100
AcDbLine
 10
91.57478833490102
 20
57.56835106383
 30
0.0
 11
91.57478833490102
 21
52.16835106383
 31
0.0
1001
Sigma
1000

  0
LINE
  5
832
330
1F
100
AcDbEntity
  8
1
  6
Continuous
 62
     7
370
    15
100
AcDbLine
 10
92.574788334901
 20
57.56835106383
 30
0.0
 11
92.574788334901
 21
52.16835106383
 31
0.0
1001
Sigma
1000

  0
LINE
  5
834
330
1F
100
AcDbEntity
  8
1
  6
Continuous
 62
     7
370
    15
100
AcDbLine
 10
91.074788334901
 20
57.56835106383
 30
0.0
 11
91.074788334901
 21
52.16835106383
 31
0.0
1001
Sigma
1000

  0
LINE
  5
836
330
1F
100
AcDbEntity
  8
1
  6
Continuous
 62
     7
370
    15
100
AcDbLine
 10
93.07478833490099
 20
57.56835106383
 30
0.0
 11
93.07478833490099
 21
52.16835106383
 31
0.0
1001
Sigma
1000

  0
LINE
  5
838
330
1F
100
AcDbEntity
  8
1
  6
Continuous
 62
     7
370
    15
100
AcDbLine
 10
90.674788334901
 20
57.56835106383
 30
0.0
 11
90.674788334901
 21
52.16835106383
 31
0.0
1001
Sigma
1000

  0
LINE
  5
83A
330
1F
100
AcDbEntity
  8
1
  6
Continuous
 62
     7
370
    15
100
AcDbLine
 10
93.474788334901
 20
57.56835106383
 30
0.0
 11
93.474788334901
 21
52.16835106383
 31
0.0
1001
Sigma
1000

  0
LINE
  5
83C
330
1F
100
AcDbEntity
  8
1
  6
Continuous
 62
     7
370
    15
100
AcDbLine
 10
90.174788334901
 20
57.56835106383
 30
0.0
 11
90.174788334901
 21
52.16835106383
 31
0.0
1001
Sigma
1000

  0
LINE
  5
83E
330
1F
100
AcDbEntity
  8
1
  6
Continuous
 62
     7
370
    15
100
AcDbLine
 10
93.974788334901
 20
57.56835106383
 30
0.0
 11
93.974788334901
 21
52.16835106383
 31
0.0
1001
Sigma
1000

  0
LINE
  5
840
330
1F
100
AcDbEntity
  8
1
  6
Continuous
 62
     7
370
    15
100
AcDbLine
 10
89.87478833490098
 20
57.56835106383
 30
0.0
 11
89.87478833490098
 21
52.16835106383
 31
0.0
1001
Sigma
1000

  0
LINE
  5
842
330
1F
100
AcDbEntity
  8
1
  6
Continuous
 62
     7
370
    15
100
AcDbLine
 10
94.274788334901
 20
57.56835106383
 30
0.0
 11
94.274788334901
 21
52.16835106383
 31
0.0
1001
Sigma
1000

  0
LINE
  5
844
330
1F
100
AcDbEntity
  8
1
  6
Continuous
 62
     7
370
    15
100
AcDbLine
 10
89.574788334901
 20
57.56835106383
 30
0.0
 11
89.574788334901
 21
52.16835106383
 31
0.0
1001
Sigma
1000

  0
LINE
  5
846
330
1F
100
AcDbEntity
  8
1
  6
Continuous
 62
     7
370
    15
100
AcDbLine
 10
94.574788334901
 20
57.56835106383
 30
0.0
 11
94.574788334901
 21
52.16835106383
 31
0.0
1001
Sigma
1000

  0
LINE
  5
848
330
1F
100
AcDbEntity
  8
1
  6
Continuous
 62
     7
370
    15
100
AcDbLine
 10
89.274788334901
 20
57.56835106383
 30
0.0
 11
89.274788334901
 21
52.16835106383
 31
0.0
1001
Sigma
1000

  0
LINE
  5
84A
330
1F
100
AcDbEntity
  8
1
  6
Continuous
 62
     7
370
    15
100
AcDbLine
 10
94.87478833490098
 20
57.56835106383
 30
0.0
 11
94.87478833490098
 21
52.16835106383
 31
0.0
1001
Sigma
1000

  0
LINE
  5
84C
330
1F
100
AcDbEntity
  8
1
  6
Continuous
 62
     7
370
    15
100
AcDbLine
 10
89.174788334901
 20
57.56835106383
 30
0.0
 11
89.174788334901
 21
52.16835106383
 31
0.0
1001
Sigma
1000

  0
LINE
  5
84E
330
1F
100
AcDbEntity
  8
1
  6
Continuous
 62
     7
370
    15
100
AcDbLine
 10
94.974788334901
 20
57.56835106383
 30
0.0
 11
94.974788334901
 21
52.16835106383
 31
0.0
1001
Sigma
1000

  0
LINE
  5
850
330
1F
100
AcDbEntity
  8
1
  6
Continuous
 62
     7
370
    30
100
AcDbLine
 10
89.07478833490102
 20
57.56835106383
 30
0.0
 11
89.374788334901
 21
57.86835106383
 31
0.0
1001
Sigma
1000

  0
LINE
  5
852
330
1F
100
AcDbEntity
  8
1
  6
Continuous
 62
     7
370
    30
100
AcDbLine
 10
94.774788334901
 20
57.86835106383
 30
0.0
 11
95.074788334901
 21
57.56835106383
 31
0.0
1001
Sigma
1000

  0
LINE
  5
854
330
1F
100
AcDbEntity
  8
1
  6
Continuous
 62
     7
370
    30
100
AcDbLine
 10
89.374788334901
 20
51.86835106383
 30
0.0
 11
89.07478833490102
 21
52.16835106383
 31
0.0
1001
Sigma
1000

  0
LINE
  5
856
330
1F
100
AcDbEntity
  8
1
  6
Continuous
 62
     7
370
    30
100
AcDbLine
 10
94.774788334901
 20
51.86835106383
 30
0.0
 11
95.074788334901
 21
52.16835106383
 31
0.0
1001
Sigma
1000

  0
LINE
  5
858
330
1F
100
AcDbEntity
  8
1
  6
Continuous
 62
     7
370
    30
100
AcDbLine
 10
95.074788334901
 20
52.16835106383
 30
0.0
 11
89.174788334901
 21
52.16835106383
 31
0.0
1001
Sigma
1000

  0
LINE
  5
85A
330
1F
100
AcDbEntity
  8
1
  6
Continuous
 62
     7
370
    30
100
AcDbLine
 10
89.07478833490102
 20
57.56835106383
 30
0.0
 11
95.074788334901
 21
57.56835106383
 31
0.0
1001
Sigma
1000

  0
ELLIPSE
  5
85C
330
1F
100
AcDbEntity
  8
1
  6
Continuous
 62
     7
370
    30
100
AcDbEllipse
 10
92.074788334901
 20
24.11835106383
 30
0.0
 11
2.999999999999699
 21
0.0
 31
0.0
210
0.0
220
0.0
230
1.0
 40
0.8660254037845199
 41
0.0
 42
6.283185307179586
1001
Sigma
1000

  0
ELLIPSE
  5
85E
330
1F
100
AcDbEntity
  8
1
  6
Continuous
 62
     7
370
    30
100
AcDbEllipse
 10
92.074788334901
 20
27.11835106383
 30
0.0
 11
2.999999999999699
 21
0.0
 31
0.0
210
0.0
220
0.0
230
1.0
 40
0.8660254037845199
 41
0.0
 42
3.141592653589793
1001
Sigma
1000

  0
LINE
  5
860
330
1F
100
AcDbEntity
  8
1
  6
Continuous
 62
     7
370
    30
100
AcDbLine
 10
89.07478833490102
 20
27.11835106383
 30
0.0
 11
89.07478833490102
 21
24.11835106383
 31
0.0
1001
Sigma
1000

  0
LINE
  5
862
330
1F
100
AcDbEntity
  8
1
  6
Continuous
 62
     7
370
    30
100
AcDbLine
 10
95.0747883349
 20
27.11835106383
 30
0.0
 11
95.0747883349
 21
24.11835106383
 31
0.0
1001
Sigma
1000

  0
LINE
  5
864
330
1F
100
AcDbEntity
  8
1
  6
Continuous
 62
     7
370
    30
100
AcDbLine
 10
95.074788334901
 20
24.11835106383
 30
0.0
 11
95.074788334901
 21
27.11835106383
 31
0.0
1001
Sigma
1000

  0
LINE
  5
866
330
1F
100
AcDbEntity
  8
1
  6
Continuous
 62
     7
370
    30
100
AcDbLine
 10
89.07478833490102
 20
24.11835106383
 30
0.0
 11
89.07478833490102
 21
27.11835106383
 31
0.0
1001
Sigma
1000

  0
LINE
  5
868
330
1F
100
AcDbEntity
  8
1
  6
Continuous
 62
     7
370
    15
100
AcDbLine
 10
92.074788334901
 20
26.716427275183
 30
0.0
 11
92.074788334901
 21
29.716427275183
 31
0.0
1001
Sigma
1000

  0
LINE
  5
86A
330
1F
100
AcDbEntity
  8
1
  6
Continuous
 62
     7
370
    15
100
AcDbLine
 10
91.57478833490102
 20
26.68008875532
 30
0.0
 11
91.57478833490102
 21
29.68008875531999
 31
0.0
1001
Sigma
1000

  0
LINE
  5
86C
330
1F
100
AcDbEntity
  8
1
  6
Continuous
 62
     7
370
    15
100
AcDbLine
 10
92.574788334901
 20
26.68008875532
 30
0.0
 11
92.574788334901
 21
29.68008875531999
 31
0.0
1001
Sigma
1000

  0
LINE
  5
86E
330
1F
100
AcDbEntity
  8
1
  6
Continuous
 62
     7
370
    15
100
AcDbLine
 10
91.074788334901
 20
26.56784080661299
 30
0.0
 11
91.074788334901
 21
29.567840806613
 31
0.0
1001
Sigma
1000

  0
LINE
  5
870
330
1F
100
AcDbEntity
  8
1
  6
Continuous
 62
     7
370
    15
100
AcDbLine
 10
93.07478833490099
 20
26.56784080661299
 30
0.0
 11
93.07478833490099
 21
29.567840806613
 31
0.0
1001
Sigma
1000

  0
LINE
  5
872
330
1F
100
AcDbEntity
  8
1
  6
Continuous
 62
     7
370
    15
100
AcDbLine
 10
90.674788334901
 20
26.416176122445
 30
0.0
 11
90.674788334901
 21
29.41617612244499
 31
0.0
1001
Sigma
1000

  0
LINE
  5
874
330
1F
100
AcDbEntity
  8
1
  6
Continuous
 62
     7
370
    15
100
AcDbLine
 10
93.474788334901
 20
26.416176122445
 30
0.0
 11
93.474788334901
 21
29.41617612244499
 31
0.0
1001
Sigma
1000

  0
LINE
  5
876
330
1F
100
AcDbEntity
  8
1
  6
Continuous
 62
     7
370
    15
100
AcDbLine
 10
90.174788334901
 20
26.128947990118
 30
0.0
 11
90.174788334901
 21
29.128947990118
 31
0.0
1001
Sigma
1000

  0
LINE
  5
878
330
1F
100
AcDbEntity
  8
1
  6
Continuous
 62
     7
370
    15
100
AcDbLine
 10
93.974788334901
 20
26.128947990118
 30
0.0
 11
93.974788334901
 21
29.128947990118
 31
0.0
1001
Sigma
1000

  0
LINE
  5
87A
330
1F
100
AcDbEntity
  8
1
  6
Continuous
 62
     7
370
    15
100
AcDbLine
 10
89.87478833490098
 20
25.884703237095
 30
0.0
 11
89.87478833490098
 21
28.88470323709499
 31
0.0
1001
Sigma
1000

  0
LINE
  5
87C
330
1F
100
AcDbEntity
  8
1
  6
Continuous
 62
     7
370
    15
100
AcDbLine
 10
94.274788334901
 20
25.884703237095
 30
0.0
 11
94.274788334901
 21
28.88470323709499
 31
0.0
1001
Sigma
1000

  0
LINE
  5
87E
330
1F
100
AcDbEntity
  8
1
  6
Continuous
 62
     7
370
    15
100
AcDbLine
 10
89.574788334901
 20
25.554491725464
 30
0.0
 11
89.574788334901
 21
28.554491725464
 31
0.0
1001
Sigma
1000

  0
LINE
  5
880
330
1F
100
AcDbEntity
  8
1
  6
Continuous
 62
     7
370
    15
100
AcDbLine
 10
94.574788334901
 20
25.554491725464
 30
0.0
 11
94.574788334901
 21
28.554491725464
 31
0.0
1001
Sigma
1000

  0
LINE
  5
882
330
1F
100
AcDbEntity
  8
1
  6
Continuous
 62
     7
370
    15
100
AcDbLine
 10
89.274788334901
 20
25.051088969138
 30
0.0
 11
89.274788334901
 21
28.051088969138
 31
0.0
1001
Sigma
1000

  0
LINE
  5
884
330
1F
100
AcDbEntity
  8
1
  6
Continuous
 62
     7
370
    15
100
AcDbLine
 10
94.87478833490098
 20
25.051088969138
 30
0.0
 11
94.87478833490098
 21
28.051088969138
 31
0.0
1001
Sigma
1000

  0
LINE
  5
886
330
1F
100
AcDbEntity
  8
1
  6
Continuous
 62
     7
370
    15
100
AcDbLine
 10
89.174788334901
 20
24.783557798611
 30
0.0
 11
89.174788334901
 21
27.783557798611
 31
0.0
1001
Sigma
1000

  0
LINE
  5
888
330
1F
100
AcDbEntity
  8
1
  6
Continuous
 62
     7
370
    15
100
AcDbLine
 10
94.974788334901
 20
24.783557798612
 30
0.0
 11
94.974788334901
 21
27.783557798612
 31
0.0
1001
Sigma
1000

  0
TEXT
  5
88A
330
1F
100
AcDbEntity
  8
99
  6
Continuous
 62
     7
370
    30
100
AcDbText
 10
-117.7142521166
 20
-44.66632848622
 30
0.0
 40
4.5
  1
ＫＣＭ－Ｚ１　：　倍率＝０．２５～１倍   Ｗ．Ｄ．＝１７５
 41
0.8016190833598376
  7
KCADTEXTSTANDARD
100
AcDbText
1001
Sigma
1000

  0
TEXT
  5
88C
330
1F
100
AcDbEntity
  8
99
  6
Continuous
 62
     7
370
    30
100
AcDbText
 10
17.73161113700765
 20
-107.8727274758
 30
0.0
 40
3.254399999999999
  1
98.12.1
 41
0.6755689007151218
  7
KCADTEXTSTANDARD
100
AcDbText
1001
Sigma
1000

  0
TEXT
  5
88E
330
1F
100
AcDbEntity
  8
99
  6
Continuous
 62
     7
370
    30
100
AcDbText
 10
32.17615063424
 20
-107.9553463471
 30
0.0
 40
3.6
  1
井手
 41
1.009374999999999
  7
KCADTEXTSTANDARD
100
AcDbText
1001
Sigma
1000

  0
TEXT
  5
890
330
1F
100
AcDbEntity
  8
99
  6
Continuous
 62
     7
370
    30
100
AcDbText
 10
43.67615063424
 20
-107.9553463471
 30
0.0
 40
3.6
  1
機種追加(書き直し)
 41
0.7421875
  7
KCADTEXTSTANDARD
100
AcDbText
1001
Sigma
1000

  0
TEXT
  5
90F
330
1F
100
AcDbEntity
  8
99
  6
Continuous
 62
     7
370
    30
100
AcDbText
 10
118.1164807864533
 20
-139.1439289198936
 30
0.0
 40
4.0
  1
株式会社トキナー
  7
KCADTEXTSTANDARD
100
AcDbText
1001
Sigma
1000

  0
TEXT
  5
910
330
1F
100
AcDbEntity
  8
99
  6
Continuous
 62
     7
370
    30
100
AcDbText
 10
165.6327625739866
 20
-139.045221670927
 30
0.0
 40
4.0
  1
Tokina Co.,Ltd.
 41
0.7000000000000001
  7
KCADTEXTSTANDARD
100
AcDbText
1001
Sigma
1000

  0
OLE2FRAME
  5
912
330
1F
100
AcDbEntity
  8
0
  6
Continuous
 62
   134
370
    15
100
AcDbOle2Frame
 70
     2
 10
-5.658306773872813
 20
-134.8533017282423
 30
0.0
 11
31.75254551046137
 21
-140.6088174642937
 31
0.0
 72
     0
 73
   205
 90
     9344
310
00557413C22B1BA216C0770D6D3F4EDB60C00000000000000000E82E94D2A6C0
310
3F40770D6D3F4EDB60C00000000000000000E82E94D2A6C03F40FF4BC36E7B93
310
61C000000000000000007413C22B1BA216C0FF4BC36E7B9361C0000000000000
310
0000000000000100000000010000010000000100000000000100000000240000
310
D0CF11E0A1B11AE1000000000000000000000000000000003E000300FEFF0900
310
0600000000000000000000000100000001000000000000000010000002000000
310
01000000FEFFFFFF0000000000000000FFFFFFFFFFFFFFFFFFFFFFFFFFFFFFFF
310
FFFFFFFFFFFFFFFFFFFFFFFFFFFFFFFFFFFFFFFFFFFFFFFFFFFFFFFFFFFFFFFF
310
FFFFFFFFFFFFFFFFFFFFFFFFFFFFFFFFFFFFFFFFFFFFFFFFFFFFFFFFFFFFFFFF
310
FFFFFFFFFFFFFFFFFFFFFFFFFFFFFFFFFFFFFFFFFFFFFFFFFFFFFFFFFFFFFFFF
310
FFFFFFFFFFFFFFFFFFFFFFFFFFFFFFFFFFFFFFFFFFFFFFFFFFFFFFFFFFFFFFFF
310
FFFFFFFFFFFFFFFFFFFFFFFFFFFFFFFFFFFFFFFFFFFFFFFFFFFFFFFFFFFFFFFF
310
FFFFFFFFFFFFFFFFFFFFFFFFFFFFFFFFFFFFFFFFFFFFFFFFFFFFFFFFFFFFFFFF
310
FFFFFFFFFFFFFFFFFFFFFFFFFFFFFFFFFFFFFFFFFFFFFFFFFFFFFFFFFFFFFFFF
310
FFFFFFFFFFFFFFFFFFFFFFFFFFFFFFFFFFFFFFFFFFFFFFFFFFFFFFFFFFFFFFFF
310
FFFFFFFFFFFFFFFFFFFFFFFFFFFFFFFFFFFFFFFFFFFFFFFFFFFFFFFFFFFFFFFF
310
FFFFFFFFFFFFFFFFFFFFFFFFFFFFFFFFFFFFFFFFFFFFFFFFFFFFFFFFFFFFFFFF
310
FFFFFFFFFFFFFFFFFFFFFFFFFFFFFFFFFFFFFFFFFFFFFFFFFFFFFFFFFFFFFFFF
310
FFFFFFFFFFFFFFFFFFFFFFFFFFFFFFFFFFFFFFFFFFFFFFFFFFFFFFFFFFFFFFFF
310
FFFFFFFFFFFFFFFFFFFFFFFFFFFFFFFFFFFFFFFFFFFFFFFFFFFFFFFFFFFFFFFF
310
FDFFFFFFFEFFFFFFFEFFFFFFFEFFFFFF05000000060000000700000008000000
310
090000000A0000000B0000000C0000000D0000000E0000000F00000010000000
310
FEFFFFFFFFFFFFFFFFFFFFFFFFFFFFFFFFFFFFFFFFFFFFFFFFFFFFFFFFFFFFFF
310
FFFFFFFFFFFFFFFFFFFFFFFFFFFFFFFFFFFFFFFFFFFFFFFFFFFFFFFFFFFFFFFF
310
FFFFFFFFFFFFFFFFFFFFFFFFFFFFFFFFFFFFFFFFFFFFFFFFFFFFFFFFFFFFFFFF
310
FFFFFFFFFFFFFFFFFFFFFFFFFFFFFFFFFFFFFFFFFFFFFFFFFFFFFFFFFFFFFFFF
310
FFFFFFFFFFFFFFFFFFFFFFFFFFFFFFFFFFFFFFFFFFFFFFFFFFFFFFFFFFFFFFFF
310
FFFFFFFFFFFFFFFFFFFFFFFFFFFFFFFFFFFFFFFFFFFFFFFFFFFFFFFFFFFFFFFF
310
FFFFFFFFFFFFFFFFFFFFFFFFFFFFFFFFFFFFFFFFFFFFFFFFFFFFFFFFFFFFFFFF
310
FFFFFFFFFFFFFFFFFFFFFFFFFFFFFFFFFFFFFFFFFFFFFFFFFFFFFFFFFFFFFFFF
310
FFFFFFFFFFFFFFFFFFFFFFFFFFFFFFFFFFFFFFFFFFFFFFFFFFFFFFFFFFFFFFFF
310
FFFFFFFFFFFFFFFFFFFFFFFFFFFFFFFFFFFFFFFFFFFFFFFFFFFFFFFFFFFFFFFF
310
FFFFFFFFFFFFFFFFFFFFFFFFFFFFFFFFFFFFFFFFFFFFFFFFFFFFFFFFFFFFFFFF
310
FFFFFFFFFFFFFFFFFFFFFFFFFFFFFFFFFFFFFFFFFFFFFFFFFFFFFFFFFFFFFFFF
310
FFFFFFFFFFFFFFFFFFFFFFFFFFFFFFFFFFFFFFFFFFFFFFFFFFFFFFFFFFFFFFFF
310
FFFFFFFFFFFFFFFFFFFFFFFFFFFFFFFFFFFFFFFFFFFFFFFFFFFFFFFFFFFFFFFF
310
52006F006F007400200045006E00740072007900000000000000000000000000
310
0000000000000000000000000000000000000000000000000000000000000000
310
16000500FFFFFFFFFFFFFFFF020000000A00030000000000C000000000000046
310
000000000000000000000000D0860499249AC80103000000C000000000000000
310
01004F006C006500000000000000000000000000000000000000000000000000
310
0000000000000000000000000000000000000000000000000000000000000000
310
0A000200FFFFFFFFFFFFFFFFFFFFFFFF00000000000000000000000000000000
310
0000000000000000000000000000000000000000000000001400000000000000
310
010043006F006D0070004F0062006A0000000000000000000000000000000000
310
0000000000000000000000000000000000000000000000000000000000000000
310
120002010100000003000000FFFFFFFF00000000000000000000000000000000
310
0000000000000000000000000000000000000000010000004D00000000000000
310
01004F006C006500310030004E00610074006900760065000000000000000000
310
0000000000000000000000000000000000000000000000000000000000000000
310
1A000200FFFFFFFFFFFFFFFFFFFFFFFF00000000000000000000000000000000
310
0000000000000000000000000000000000000000040000000419000000000000
310
FEFFFFFF02000000FEFFFFFFFFFFFFFFFFFFFFFFFFFFFFFFFFFFFFFFFFFFFFFF
310
FFFFFFFFFFFFFFFFFFFFFFFFFFFFFFFFFFFFFFFFFFFFFFFFFFFFFFFFFFFFFFFF
310
FFFFFFFFFFFFFFFFFFFFFFFFFFFFFFFFFFFFFFFFFFFFFFFFFFFFFFFFFFFFFFFF
310
FFFFFFFFFFFFFFFFFFFFFFFFFFFFFFFFFFFFFFFFFFFFFFFFFFFFFFFFFFFFFFFF
310
FFFFFFFFFFFFFFFFFFFFFFFFFFFFFFFFFFFFFFFFFFFFFFFFFFFFFFFFFFFFFFFF
310
FFFFFFFFFFFFFFFFFFFFFFFFFFFFFFFFFFFFFFFFFFFFFFFFFFFFFFFFFFFFFFFF
310
FFFFFFFFFFFFFFFFFFFFFFFFFFFFFFFFFFFFFFFFFFFFFFFFFFFFFFFFFFFFFFFF
310
FFFFFFFFFFFFFFFFFFFFFFFFFFFFFFFFFFFFFFFFFFFFFFFFFFFFFFFFFFFFFFFF
310
FFFFFFFFFFFFFFFFFFFFFFFFFFFFFFFFFFFFFFFFFFFFFFFFFFFFFFFFFFFFFFFF
310
FFFFFFFFFFFFFFFFFFFFFFFFFFFFFFFFFFFFFFFFFFFFFFFFFFFFFFFFFFFFFFFF
310
FFFFFFFFFFFFFFFFFFFFFFFFFFFFFFFFFFFFFFFFFFFFFFFFFFFFFFFFFFFFFFFF
310
FFFFFFFFFFFFFFFFFFFFFFFFFFFFFFFFFFFFFFFFFFFFFFFFFFFFFFFFFFFFFFFF
310
FFFFFFFFFFFFFFFFFFFFFFFFFFFFFFFFFFFFFFFFFFFFFFFFFFFFFFFFFFFFFFFF
310
FFFFFFFFFFFFFFFFFFFFFFFFFFFFFFFFFFFFFFFFFFFFFFFFFFFFFFFFFFFFFFFF
310
FFFFFFFFFFFFFFFFFFFFFFFFFFFFFFFFFFFFFFFFFFFFFFFFFFFFFFFFFFFFFFFF
310
FFFFFFFFFFFFFFFFFFFFFFFFFFFFFFFFFFFFFFFFFFFFFFFFFFFFFFFFFFFFFFFF
310
0100000200000000000000000000000000000000006C00500072006F00640075
310
006300740073004400690076000000240038003500000000000000000010007A
310
0100FEFF030A0000FFFFFFFF0A00030000000000C00000000000004607000000
310
5042727573680007000000504272757368000700000050427275736800F439B2
310
71000000000000000000000000F35662970000320003000400EFBE0000000000
310
000000140000003000380030003200300036004B0065006E006B006F00F35662
310
9700002A007000350000000000000000001000FD88C154F35662974400580046
310
0020005000440046002000FD88C15483FF9EFF70FF80FF00003C0003000400EF
310
BE000000000000000014000000FD88C154F35662974400580046002000500044
310
0046002000FD88C15483FF9EFF70FF80FF000034004800350000000000000000
310
001000DE30AF30ED30EC30F330BA302C67534F0000280003000400EFBE000000
310
000000000014000000DE30AF30ED30EC30F330BA302C67534F00002000480035
310
00000000000000000010007DFF9EFF70FF91FF9AFF9DFF7DFF9EFF0000280003
310
000400EFBE0000000000000000140000007DFF9EFF70FF91FF9AFF9DFF7DFF9E
310
FF000020006A003100000000000000000010004B434D2D5A312C5A322C5A3328
310
4B564B2D31303535290000440003000400EFBE0000000000000000140000004B
310
00190000424DF618000000000000360000002800000075000000120000000100
310
180000000000C018000000000000000000000000000000000000FFFFFFFFFFFF
310
FFFFFFFFFFFFFFFFFFFFFFFFFFFFFFFFFFFF6666660808081212120C0C0C3535
310
35FFFFFFFFFFFFFFFFFFFFFFFFFFFFFFFFFFFFFFFFFFFFFFFFFFFFFFC0C0C045
310
4545151515121212121212121212131313141414151515151515161616181818
310
1818181919191919191E1E1E484848B0B0B0FFFFFFFFFFFFFFFFFFD4D4D42424
310
242424242424242E2E2EF1F1F1FFFFFFFFFFFFFFFFFFFFFFFFFFFFFFFFFFFFFF
310
FFFFDEDEDE4B4B4B3333333838383A3A3A3838382C2C2C5E5E5EEBEBEBFFFFFF
310
F1F1F14949494242424444444D4D4DF5F5F5FFFFFFA5A5A54343435050504848
310
48999999FFFFFFFFFFFFFFFFFFFFFFFFFFFFFFFFFFFFFFFFFFFFFFFFFFFFFFFF
310
FFFFFFFFFFBCBCBC6666667171716C6C6C9A9A9AFFFFFFFFFFFFFFFFFFE9E9E9
310
9393938181818080808282828484848484848585858888888888888989898B8B
310
8B8C8C8C8D8D8D8F8F8F90909090909092929291919199999900FFFFFFFFFFFF
310
FFFFFFFFFFFFFFFFFFFFFFFFFFFFFFFFFFFF5D5D5D0000000202020000002727
310
27FFFFFFFFFFFFFFFFFFFFFFFFFFFFFFFFFFFFFFFFFFFFFFFFA6A6A600000000
310
0000020202030303020202030303020202020202020202020202020202020202
310
0202020202020101010000000000000000006B6B6BFFFFFFFFFFFFCECECE0000
310
00000000000000080808EDEDEDFFFFFFFFFFFFFFFFFFFFFFFFFFFFFFFFFFFF9B
310
9B9B000000000000000000000000000000000000838383FFFFFFFFFFFFFFFFFF
310
ECECEC060606000000000000050505EEEEEEFFFFFF7B7B7B0000000000000000
310
00656565FFFFFFFFFFFFFFFFFFFFFFFFFFFFFFFFFFFFFFFFFFFFFFFFFFFFFFFF
310
FFFFFFFFFF8888880000000000000000003F3F3FFFFFFFFFFFFFC1C1C1000000
310
0000000000000000000000000000000000000000000000000000000000000000
310
0000000000000000000000000000000000000000000003030300FFFFFFFFFFFF
310
FFFFFFFFFFFFFFFFFFFFFFFFFFFFFFFFFFFF5E5E5E0000000404040000002525
310
25FFFFFFFFFFFFFFFFFFFFFFFFFFFFFFFFFFFFFFFFFFFEFEFE13131300000005
310
0505030303000000000000000000000000000000000000000000000000000000
310
000000000000000000000000050505010101000000CDCDCDFFFFFFCECECE0303
310
030202020101010B0B0BEDEDEDFFFFFFFFFFFFFFFFFFFFFFFFF7F7F759595900
310
0000000000050505000000000000383838D8D8D8FFFFFFFFFFFFFFFFFFFFFFFF
310
EDEDED0B0B0B0101010101010B0B0BEFEFEFFFFFFF7F7F7F0000000505050000
310
00686868FFFFFFFFFFFFFFFFFFFFFFFFFFFFFFFFFFFFFFFFFFFFFFFFFFFFFFFF
310
FFFFFFFFFF8D8D8D000000040404000000464646FFFFFFFFFFFF2E2E2E000000
310
0404040404040000000000000000000000000000000000000000000000000000
310
0000000000000000000000000003030305050503030312121200FFFFFFFFFFFF
310
FFFFFFFFFFFFFFFFFFFFFFFFFFFFFFFFFFFF5F5F5F0000000505050000002424
310
24FFFFFFFFFFFFFFFFFFFFFFFFFFFFFFFFFFFFFFFFFFD9D9D900000003030304
310
04040000007070709D9D9D9797979797979696969393939292928F8F8F8C8C8C
310
8A8A8A8B8B8B7E7E7E131313010101040404000000858585FFFFFFCECECE0404
310
040202020101010C0C0CEDEDEDFFFFFFFFFFFFFFFFFFCBCBCB23232300000003
310
03030404040000000606068D8D8DFFFFFFFFFFFFFFFFFFFFFFFFFFFFFFFFFFFF
310
EDEDED0C0C0C0101010101010B0B0BEFEFEFFFFFFF7F7F7F0000000505050000
310
00686868FFFFFFFFFFFFFFFFFFFFFFFFFFFFFFFFFFFFFFFFFFFFFFFFFFFFFFFF
310
FFFFFFFFFF8D8D8D000000050505000000444444FFFFFFFEFEFE050505010101
310
0404040101015A5A5A6666666464646464646464646464646363636262626262
310
626060606060606060605E5E5E00000004040403030312121200FFFFFFFFFFFF
310
FFFFFFFFFFFFFFFFFFFFFFFFFFFFFFFFFFFF5F5F5F0000000404040000002323
310
23FFFFFFFFFFFFFFFFFFFFFFFFFFFFFFFFFFFFFFFFFFD2D2D200000003030302
310
0202060606FFFFFFFFFFFFFFFFFFFFFFFFFFFFFFFFFFFFFFFFFFFFFFFFFFFFFF
310
FFFFFFFFFFFFFFFFFF666666000000040404000000808080FFFFFFCECECE0404
310
040202020101010B0B0BEDEDEDFFFFFFFFFFFF8C8C8C03030300000003030300
310
00000000003E3E3ED9D9D9FFFFFFFFFFFFFFFFFFFFFFFFFFFFFFFFFFFFFFFFFF
310
EDEDED0C0C0C0101010101010B0B0BEFEFEFFFFFFF7F7F7F0000000505050000
310
00676767FFFFFFFFFFFFFFFFFFFFFFFFFFFFFFFFFFFFFFFFFFFFFFFFFFFFFFFF
310
FFFFFFFFFF8D8D8D000000040404000000444444FFFFFFFFFFFF070707010101
310
030303000000F7F7F7FFFFFFFFFFFFFFFFFFFFFFFFFFFFFFFFFFFFFFFFFFFFFF
310
FFFFFFFFFFFFFFFFFFFFFFFFFF00000003030303030311111100FFFFFFFFFFFF
310
FFFFFFFFFFFFFFFFFFFFFFFFFFFFFFFFFFFF6161610000000404040000002222
310
22FFFFFFFFFFFFFFFFFFFFFFFFFFFFFFFFFFFFFFFFFFD3D3D300000002020202
310
0202070707FCFCFCFFFFFFFFFFFFFFFFFFFFFFFFFFFFFFFFFFFFFFFFFFFFFFFF
310
FFFFFFFFFFFFFFFFFF696969000000040404000000818181FFFFFFCECECE0404
310
040202020101010D0D0DFAFAFAEEEEEE4D4D4D0000000000000303030000000D
310
0D0D949494FFFFFFFFFFFFFFFFFFFFFFFFFFFFFFFFFFFFFFFFFFFFFFFFFFFFFF
310
EDEDED0C0C0C0101010101010B0B0BEFEFEFFFFFFF7F7F7F0000000505050000
310
00676767FFFFFFFFFFFFFFFFFFFFFFFFFFFFFFFFFFFFFFFFFFFFFFFFFFFFFFFF
310
FFFFFFFFFF8D8D8D000000040404000000434343FFFFFFFEFEFE050505010101
310
030303010101A9A9A9C1C1C1BEBEBEC1C1C1C1C1C1C2C2C2C3C3C3C4C4C4C5C5
310
C5C5C5C5C8C8C8CACACACCCCCC00000003030303030311111100FFFFFFFFFFFF
310
FFFFFFFFFFFFFFFFFFFFFFFFFFFFFFFFFFFF6161610000000404040000002121
310
21FFFFFFFFFFFFFFFFFFFFFFFFFFFFFFFFFFFFFFFFFFD5D5D500000002020202
310
0202060606FCFCFCFFFFFFFFFFFFFFFFFFFFFFFFFFFFFFFFFFFFFFFFFFFFFFFF
310
FFFFFFFFFFFFFFFFFF686868000000050505000000818181FFFFFFCCCCCC0303
310
030202020202020D0D0D9898981D1D1D000000030303040404010101545454E1
310
E1E1FFFFFFFFFFFFFFFFFFFFFFFFFFFFFFFFFFFFFFFFFFFFFFFFFFFFFFFFFFFF
310
EDEDED0C0C0C0101010101010B0B0BEFEFEFFFFFFF7F7F7F0000000505050000
310
00666666FFFFFFFFFFFFFFFFFFFFFFFFFFFFFFFFFFFFFFFFFFFFFFFFFFFFFFFF
310
FFFFFFFFFF8D8D8D000000040404000000424242FFFFFFFFFFFF1E1E1E000000
310
0505050303030000000000000000000000000000000101010101010101010202
310
0202020203030304040405050502020204040403030311111100FFFFFFFFFFFF
310
FFFFFFFFFFFFFFFFFFFFFFFFFFFFFFFFFFFF6363630000000505050000001F1F
310
1FFFFFFFFFFFFFFFFFFFFFFFFFFFFFFFFEFEFEFFFFFFD5D5D500000003030302
310
0202050505FCFCFCFFFFFFFFFFFFFFFFFFFFFFFFFFFFFFFFFFFFFFFFFFFFFFFF
310
FFFFFFFFFFFFFFFFFF686868000000040404000000818181FFFFFFCDCDCD0303
310
030202020303030707074545450000000000000404040303030303039E9E9EFF
310
FFFFFFFFFFFFFFFFFFFFFFFFFFFFFFFFFFFFFFFFFFFFFFFFFFFFFFFFFFFFFFFF
310
EDEDED0C0C0C0101010101010B0B0BEEEEEEFFFFFF7F7F7F0000000505050000
310
00666666FFFFFFFFFFFFFFFFFFFFFFFFFFFFFFFFFFFFFFFFFFFFFFFFFFFFFFFF
310
FFFFFFFFFF8D8D8D000000040404000000434343FFFFFFFFFFFF9C9C9C000000
310
0000000000000000000000000000000000000000000000000000000000000000
310
0000000000000000000000000004040405050503030311111100FFFFFFFFFFFF
310
FFFFFFFFFFFFFFFFFFFFFFFFFFFFFFFFFFFF6262620000000505050000002121
310
21FFFFFFFFFFFFFFFFFFFFFFFFFFFFFFFEFEFEFFFFFFD5D5D500000002020201
310
0101070707FDFDFDFFFFFFFFFFFFFFFFFFFFFFFFFFFFFFFFFFFFFFFFFFFFFFFF
310
FFFFFFFFFFFFFFFFFF696969000000050505000000818181FFFFFFCCCCCC0303
310
030202020101010D0D0DF6F6F6B3B3B319191900000003030302020200000057
310
5757E8E8E8FFFFFFFFFFFFFFFFFFFFFFFFFFFFFFFFFFFFFFFFFFFFFFFFFFFFFF
310
EDEDED0C0C0C0101010101010C0C0CEDEDEDFFFFFF7F7F7F0000000505050000
310
00666666FFFFFFFFFFFFFFFFFFFFFFFFFFFFFFFFFFFFFFFFFFFFFFFFFFFFFFFF
310
FFFFFFFFFF8D8D8D000000040404000000434343FFFFFFFFFFFFFFFFFFA8A8A8
310
3C3C3C2E2E2E2C2C2C2B2B2B2A2A2A2A2A2A2929292828282727272727272626
310
2626262625252525252524242400000004040403030311111100FFFFFFFFFFFF
310
FFFFFFFFFFFFFFFFFFFFFFFFFFFFFFFFFFFF6161610000000505050000002121
310
21FFFFFFFFFFFFFFFFFFFFFFFFFFFFFFFFFFFFFFFFFFD2D2D200000003030302
310
0202060606FFFFFFFFFFFFFFFFFFFFFFFFFFFFFFFFFFFFFFFFFFFFFFFFFFFFFF
310
FFFFFFFFFFFFFFFFFF666666000000050505000000808080FFFFFFCCCCCC0202
310
020202020101010B0B0BECECECFFFFFFE5E5E54D4D4D00000000000003030300
310
00001B1B1BABABABFFFFFFFFFFFFFFFFFFFFFFFFFFFFFFFFFFFFFFFFFFFFFFFF
310
EDEDED0C0C0C0101010101010B0B0BEEEEEEFFFFFF7F7F7F0000000505050000
310
00696969FFFFFFFFFFFFFFFFFFFFFFFFFFFFFFFFFFFFFFFFFFFFFFFFFFFFFFFF
310
FFFFFFFFFF909090000000040404000000414141FFFFFFFFFFFFFFFFFFFFFFFF
310
FFFFFFFDFDFDFAFAFAF9F9F9F9F9F9F7F7F7F7F7F7F7F7F7F5F5F5F5F5F5F4F4
310
F4F4F4F4F2F2F2F4F4F4F7F7F700000004040403030311111100FFFFFFFFFFFF
310
FFFFFFFFFFFFFFFFFFFFFFFFFFFFFFFFFFFF5F5F5F0000000505050000002222
310
22FFFFFFFFFFFFFFFFFFFFFFFFFFFFFFFFFFFFFFFFFFDBDBDB00000003030304
310
04040000005858588585858383838585858686868989898989898D8D8D8E8E8E
310
919191949494898989161616010101040404000000828282FFFFFFCCCCCC0303
310
030202020101010B0B0BECECECFFFFFFFFFFFFFFFFFF8F8F8F0A0A0A00000003
310
0303000000000000636363EDEDEDFFFFFFFFFFFFFFFFFFFFFFFFFFFFFFFFFFFF
310
ECECEC0C0C0C0101010101010B0B0BEFEFEFFFFFFF7F7F7F0000000505050000
310
00555555D8D8D8D1D1D1D1D1D1D2D2D2D2D2D2D2D2D2D4D4D4D4D4D4D4D4D4D5
310
D5D5DCDCDC565656000000050505000000424242FFFFFFFFFFFFFFFFFFFFFFFF
310
FFFFFFFFFFFFFFFFFFFFFFFFFFFFFFFFFFFFFFFFFFFFFFFFFFFFFFFFFFFFFFFF
310
FFFFFFFFFFFFFFFFFFFFFDFDFD00000003030303030310101000FFFFFFFFFFFF
310
FFFFFFFFFFFFFFFFFFFFFFFFFFFFFFFFFFFF5F5F5F0000000505050000002121
310
21FFFFFFFFFFFFFFFFFFFFFFFFFFFFFFFFFFFFFFFFFFFFFFFF1D1D1D00000004
310
0404040404000000000000000000000000000000000000000000000000000000
310
000000000000000000000000050505020202000000BFBFBFFFFFFFCBCBCB0202
310
020202020101010C0C0CECECECFFFFFFFFFFFFFFFFFFFFFFFFD2D2D235353500
310
00000101010202020000001F1F1FB5B5B5FFFFFFFFFFFFFFFFFFFFFFFFFFFFFF
310
ECECEC0C0C0C0101010101010B0B0BEFEFEFFFFFFF7F7F7F0000000505050404
310
0400000000000000000000000000000000000000000000000000000000000000
310
00000000000000000404040404040000006E6E6EFFFFFFFFFFFF7C7C7C464646
310
4D4D4D4D4D4D4D4D4D4D4D4D4D4D4D4D4D4D4D4D4D4D4D4D4C4C4C4D4D4D4E4E
310
4E4F4F4F50505055555530303000000004040401010115151500FFFFFFFFFFFF
310
FFFFFFFFFFFFFFFFFFFFFFFFFFFFFFFFFFFF6060600000000505050000001F1F
310
1FFFFFFFFFFFFFFFFFFFFFFFFFFFFFFFFFFFFFFFFFFFFFFFFFB3B3B300000000
310
0000000000000000000000000000000000000000000000000000000000000000
310
000000000000000000000000000000000000585858FFFFFFFFFFFFCCCCCC0303
310
030202020101010B0B0BEAEAEAFFFFFFFFFFFFFFFFFFFFFFFFFFFFFFFEFEFE77
310
7777010101000000010101000000000000656565F0F0F0FFFFFFFFFFFFFFFFFF
310
EDEDED0A0A0A0000000000000A0A0AEDEDEDFFFFFF7E7E7E0000000303030303
310
0303030302020202020202020202020202020202020202020202020202020202
310
0202020202030303020202000000040404DADADAFFFFFFFFFFFF3F3F3F000000
310
0000000000000000000000000000000000000000000000000000000000000000
310
0000000000000000000000000004040402020200000082828200F1F1F1F1F1F1
310
F1F1F1F1F1F1F2F2F2F2F2F2F3F3F3FFFFFF5F5F5F0000000505050000001E1E
310
1EFFFFFFFCFCFCFCFCFCFBFBFBFDFDFDFDFDFDFEFEFEFEFEFEFFFFFFC6C6C646
310
4646131313131313131313131313121212121212121212111111111111111111
310
1010101010101010100F0F0F1C1C1C848484FEFEFEFFFFFFFFFFFFCDCDCD0404
310
040202020101010B0B0BEBEBEBFFFFFFFFFFFFFFFFFFFFFFFFFFFFFFFFFFFFFF
310
FFFFC0C0C0222222030303060606030303000000222222BCBCBCFFFFFFFFFFFF
310
ECECEC0D0D0D0000000000000B0B0BECECECFFFFFF7E7E7E0000000000000000
310
0000000000000000000000000000000000000000000000000000000000000000
310
00000000000000000000001C1C1CBBBBBBFFFFFFFFFFFFFFFFFF3F3F3F000000
310
0000000000000000000000000000000000000000000000000000000000000000
310
000000000000000000000000000000000000004F4F4FFFFFFF00111111101010
310
1010101111111313131313131515151919190909090303030505050404040404
310
043030302E2E2E2F2F2F3131313333333333333636362F2F2F7F7F7FFFFFFFFF
310
FFFFFFFFFFFDFDFDFCFCFCFBFBFBFAFAFAF8F8F8F7F7F7F7F7F7F6F6F6F5F5F5
310
F3F3F3F3F3F3F0F0F0F4F4F4FFFFFFFFFFFFFFFFFFFFFFFFFFFFFFCECECE0404
310
040303030000000B0B0BEBEBEBFFFFFFFFFFFFFFFFFFFFFFFFFFFFFFFFFFFFFF
310
FFFFFFFFFFF5F5F5D3D3D3D5D5D5D3D3D3D1D1D1C6C6C6C9C9C9FCFCFCFFFFFF
310
FFFFFFD5D5D5D4D4D4D4D4D4D1D1D1FDFDFDFFFFFFDFDFDFBBBBBBBDBDBDBDBD
310
BDBBBBBBB9B9B9B8B8B8B5B5B5B4B4B4B3B3B3B1B1B1AFAFAFAEAEAEADADADAB
310
ABABA9A9A9A9A9A9C4C4C4FDFDFDFFFFFFFFFFFFFFFFFFFFFFFFB8B8B89B9B9B
310
9D9D9D9B9B9B9B9B9B9999999999999999999999999999999999999999999999
310
999A9A9A989898979797979797989898CCCCCCFFFFFFFFFFFF00010101000000
310
0000000000000000000000000000000000000303030505050505050404040404
310
04000000000000000000000000000000000000000000000000555555FFFFFFFF
310
FFFFFFFFFFFFFFFFFFFFFFFFFFFFFFFFFFFFFFFFFFFFFFFFFFFFFFFFFFFFFFFF
310
FFFFFFFFFFFFFFFFFFFFFFFFFFFFFFFFFFFFFFFFFFFFFFFFFFFFFFCECECE0404
310
040101010101010B0B0BEBEBEBFFFFFFFFFFFFFFFFFFFFFFFFFFFFFFFFFFFFFF
310
FFFFFFFFFFFFFFFFFFFFFFFFFFFFFFFFFFFFFFFFFFFFFFFFFFFFFFFFFFFFFFFF
310
F5F5F57979797272727373737A7A7AF6F6F6FFFFFFFFFFFFFFFFFFFFFFFFFFFF
310
FFFFFFFFFFFFFFFFFFFFFFFFFFFFFFFFFFFFFFFFFFFFFFFFFFFFFFFFFFFFFFFF
310
FFFFFFFFFFFFFFFFFFFFFFFFFFFFFFFFFFFFFFFFFFFFFFFFFFFFFFFFFFFFFFFF
310
FFFFFFFFFFFFFFFFFFFFFFFFFFFFFFFFFFFFFFFFFFFFFFFFFFFFFFFFFFFFFFFF
310
FFFFFFFFFFFFFFFFFFFFFFFFFFFFFFFFFFFFFFFFFFFFFFFFFF00030303020202
310
0303030202020303030303030303030303030303030303030303030303030303
310
030303030303030303030303030303030303030303030000005A5A5AFFFFFFFF
310
FFFFFFFFFFFFFFFFFFFFFFFFFFFFFFFFFFFFFFFFFFFFFFFFFFFFFFFFFFFFFFFF
310
FFFFFFFFFFFFFFFFFFFFFFFFFFFFFFFFFFFFFFFFFFFFFFFFFFFFFFCECECE0303
310
030202020101010A0A0AEBEBEBFFFFFFFFFFFFFFFFFFFFFFFFFFFFFFFFFFFFFF
310
FFFFFFFFFFFFFFFFFFFFFFFFFFFFFFFFFFFFFFFFFFFFFFFFFFFFFFFFFFFFFFFF
310
EDEDED000000000000000000000000EDEDEDFFFFFFFFFFFFFFFFFFFFFFFFFFFF
310
FFFFFFFFFFFFFFFFFFFFFFFFFFFFFFFFFFFFFFFFFFFFFFFFFFFFFFFFFFFFFFFF
310
FFFFFFFFFFFFFFFFFFFFFFFFFFFFFFFFFFFFFFFFFFFFFFFFFFFFFFFFFFFFFFFF
310
FFFFFFFFFFFFFFFFFFFFFFFFFFFFFFFFFFFFFFFFFFFFFFFFFFFFFFFFFFFFFFFF
310
FFFFFFFFFFFFFFFFFFFFFFFFFFFFFFFFFFFFFFFFFFFFFFFFFF00141414121212
310
1212121212121111111212121111111111111111111111111111111010101010
310
101010100F0F0F1010101010100F0F0F0F0F0F0F0F0F030303646464FFFFFFFF
310
FFFFFFFFFFFFFFFFFFFFFFFFFFFFFFFFFFFFFFFFFFFFFFFFFFFFFFFFFFFFFFFF
310
FFFFFFFFFFFFFFFFFFFFFFFFFFFFFFFFFFFFFFFFFFFFFFFFFFFFFFD0D0D00A0A
310
0A070707060606111111ECECECFFFFFFFFFFFFFFFFFFFFFFFFFFFFFFFFFFFFFF
310
FFFFFFFFFFFFFFFFFFFFFFFFFFFFFFFFFFFFFFFFFFFFFFFFFFFFFFFFFFFFFFFF
310
F0F0F00E0E0E0000000101010C0C0CEFEFEFFFFFFFFFFFFFFFFFFFFFFFFFFFFF
310
FFFFFFFFFFFFFFFFFFFFFFFFFFFFFFFFFFFFFFFFFFFFFFFFFFFFFFFFFFFFFFFF
310
FFFFFFFFFFFFFFFFFFFFFFFFFFFFFFFFFFFFFFFFFFFFFFFFFFFFFFFFFFFFFFFF
310
FFFFFFFFFFFFFFFFFFFFFFFFFFFFFFFFFFFFFFFFFFFFFFFFFFFFFFFFFFFFFFFF
310
FFFFFFFFFFFFFFFFFFFFFFFFFFFFFFFFFFFFFFFFFFFFFFFFFF00000000000000
310
0000000015000000E28D746D388DC34CAC60F009B057C557030000001F000000
310
00001E00000011000000D730ED30B030E930E0306E30AC8A0E66000000000000
310
0000000000000000000000000000000000000000000000000000000000000000
310
0000000000000000000000000000000000000000000000000000000000000000
310
0000000000000000000000000000000000000000000000000000000000000000
310
0000000000000000000000000000000000000000000000000000000000000000
310
0000000000000000000000000000000000000000000000000000000000000000
310
0000000000000000000000000000000000000000000000000000000000000000
  1
OLE
  0
LINE
  5
9F0
330
1F
100
AcDbEntity
  8
0
  6
Continuous
 62
     7
370
    15
100
AcDbLine
 10
122.6007883349
 20
3.445738926362598
 30
0.0
 11
155.782750949951
 21
3.51450702517954
 31
0.0
  0
TEXT
  5
A6B
330
1F
100
AcDbEntity
  8
99
  6
Continuous
 62
     7
370
    30
100
AcDbText
 10
97.96232845831761
 20
-126.6430420263698
 30
0.0
 40
2.5
  1
図番登録
 41
0.7000000000000001
  7
KCADTEXTSTANDARD
100
AcDbText
1001
Sigma
1000

  0
TEXT
  5
A6C
330
1F
100
AcDbEntity
  8
99
  6
Continuous
 62
     7
370
    30
100
AcDbText
 10
97.50587739154396
 20
-131.8186909800841
 30
0.0
 40
2.0
  1
2008.5.15
 41
0.7000000000000001
  7
KCADTEXTSTANDARD
100
AcDbText
1001
Sigma
1000

  0
ENDSEC
  0
SECTION
  2
OBJECTS
  0
DICTIONARY
  5
C
330
0
100
AcDbDictionary
281
     1
  3
ACAD_COLOR
350
6C
  3
ACAD_GROUP
350
D
  3
ACAD_LAYOUT
350
1A
  3
ACAD_MATERIAL
350
6B
  3
ACAD_MLINESTYLE
350
17
  3
ACAD_PLOTSETTINGS
350
19
  3
ACAD_PLOTSTYLENAME
350
E
  3
ACAD_TABLESTYLE
350
92
  3
ACDBHEADERROUNDTRIPXREC
350
BB4
  3
AcDbVariableDictionary
350
59
  3
DWGPROPS
350
BB7
  3
KCADFRAMEINFO
350
2A7
  0
DICTIONARY
  5
6C
102
{ACAD_REACTORS
330
C
102
}
330
C
100
AcDbDictionary
281
     1
  0
DICTIONARY
  5
D
102
{ACAD_REACTORS
330
C
102
}
330
C
100
AcDbDictionary
281
     1
  3
*A1
350
6F4
  3
*A10
350
729
  3
*A11
350
7CE
  3
*A12
350
7CF
  3
*A13
350
7D8
  3
*A2
350
6F5
  3
*A3
350
6FE
  3
*A4
350
6FF
  3
*A5
350
714
  3
*A6
350
715
  3
*A7
350
71E
  3
*A8
350
71F
  3
*A9
350
728
  0
DICTIONARY
  5
1A
102
{ACAD_REACTORS
330
C
102
}
330
C
100
AcDbDictionary
281
     1
  3
Model
350
22
  3
ﾚｲｱｳﾄ1
350
22F
  0
DICTIONARY
  5
6B
102
{ACAD_REACTORS
330
C
102
}
330
C
100
AcDbDictionary
281
     1
  0
DICTIONARY
  5
17
102
{ACAD_REACTORS
330
C
102
}
330
C
100
AcDbDictionary
281
     1
  3
Standard
350
18
  0
DICTIONARY
  5
19
102
{ACAD_REACTORS
330
C
102
}
330
C
100
AcDbDictionary
281
     1
  0
ACDBDICTIONARYWDFLT
  5
E
102
{ACAD_REACTORS
330
C
102
}
330
C
100
AcDbDictionary
281
     1
  3
Normal
350
F
100
AcDbDictionaryWithDefault
340
F
  0
DICTIONARY
  5
92
102
{ACAD_REACTORS
330
C
102
}
330
C
100
AcDbDictionary
281
     1
  0
DICTIONARY
  5
BB4
102
{ACAD_REACTORS
330
C
102
}
330
C
100
AcDbDictionary
281
     1
  3
COLORDICT
350
BB5
  3
MATERIALDICT
350
BB6
  0
DICTIONARY
  5
59
102
{ACAD_REACTORS
330
C
102
}
330
C
100
AcDbDictionary
281
     1
  3
DIMASSOC
350
BB3
  0
XRECORD
  5
BB7
102
{ACAD_REACTORS
330
C
102
}
330
C
100
AcDbXrecord
280
     1
  1
DWGPROPS COOKIE
  2

  3

  4

  6

  7

  8
fottrem
  9

300
=
301
=
302
=
303
=
304
=
305
=
306
=
307
=
308
=
309
=
 40
0.0
 41
2453353.717125822
 42
2453294.05720485
  1

 90
        0
  0
XRECORD
  5
2A7
102
{ACAD_REACTORS
330
C
102
}
330
C
100
AcDbXrecord
280
     1
  1
A3
 40
420.0
 40
297.0
 90
        1
 90
        1
  0
GROUP
  5
6F4
102
{ACAD_REACTORS
330
D
102
}
330
D
100
AcDbGroup
300
group from kcad family
 70
     1
 71
     1
340
6F6
340
6F8
340
6FA
340
6FC
  0
GROUP
  5
729
102
{ACAD_REACTORS
330
D
102
}
330
D
100
AcDbGroup
300
line with arrowBlockRef from kcad family
 70
     1
 71
     1
340
72A
340
72C
  0
GROUP
  5
7CE
102
{ACAD_REACTORS
330
D
102
}
330
D
100
AcDbGroup
300
group from kcad family
 70
     1
 71
     1
340
7D0
340
7D2
340
7D4
340
7D6
  0
GROUP
  5
7CF
102
{ACAD_REACTORS
330
D
102
}
330
D
100
AcDbGroup
300
line with arrowBlockRef from kcad family
 70
     1
 71
     1
340
7D0
340
7D2
  0
GROUP
  5
7D8
102
{ACAD_REACTORS
330
D
102
}
330
D
100
AcDbGroup
300
group from kcad family
 70
     1
 71
     1
340
7D9
  0
GROUP
  5
6F5
102
{ACAD_REACTORS
330
D
102
}
330
D
100
AcDbGroup
300
line with arrowBlockRef from kcad family
 70
     1
 71
     1
340
6F6
340
6F8
  0
GROUP
  5
6FE
102
{ACAD_REACTORS
330
D
102
}
330
D
100
AcDbGroup
300
group from kcad family
 70
     1
 71
     1
340
700
340
702
340
704
340
706
  0
GROUP
  5
6FF
102
{ACAD_REACTORS
330
D
102
}
330
D
100
AcDbGroup
300
line with arrowBlockRef from kcad family
 70
     1
 71
     1
340
700
340
702
  0
GROUP
  5
714
102
{ACAD_REACTORS
330
D
102
}
330
D
100
AcDbGroup
300
group from kcad family
 70
     1
 71
     1
340
716
340
718
340
71A
340
71C
  0
GROUP
  5
715
102
{ACAD_REACTORS
330
D
102
}
330
D
100
AcDbGroup
300
line with arrowBlockRef from kcad family
 70
     1
 71
     1
340
716
340
718
  0
GROUP
  5
71E
102
{ACAD_REACTORS
330
D
102
}
330
D
100
AcDbGroup
300
group from kcad family
 70
     1
 71
     1
340
720
340
722
340
724
340
726
  0
GROUP
  5
71F
102
{ACAD_REACTORS
330
D
102
}
330
D
100
AcDbGroup
300
line with arrowBlockRef from kcad family
 70
     1
 71
     1
340
720
340
722
  0
GROUP
  5
728
102
{ACAD_REACTORS
330
D
102
}
330
D
100
AcDbGroup
300
group from kcad family
 70
     1
 71
     1
340
72A
340
72C
340
72E
340
730
  0
LAYOUT
  5
22
102
{ACAD_REACTORS
330
1A
102
}
330
1A
100
AcDbPlotSettings
  1

  2
DWF ePlot.pc3
  4
ISO_A3_(297.00_x_420.00_MM)
  6

 40
5.793749809265136
 41
17.79375076293945
 42
5.79376220703125
 43
17.79376220703125
 44
297.0
 45
420.0
 46
0.0
 47
0.0
 48
0.0
 49
0.0
140
0.0
141
0.0
142
0.0
143
0.0
 70
 11952
 72
     1
 73
     0
 74
     2
  7

 75
     0
147
1.0
148
0.0
149
0.0
100
AcDbLayout
  1
Model
 70
     1
 71
     0
 10
-210.0
 20
-148.5
 11
210.0
 21
148.5
 12
0.0
 22
0.0
 32
0.0
 14
-182.0
 24
-140.6088174642937
 34
0.0
 15
201.5
 25
140.5
 35
0.0
146
0.0
 13
0.0
 23
0.0
 33
0.0
 16
1.0
 26
0.0
 36
0.0
 17
0.0
 27
1.0
 37
0.0
 76
     0
330
1F
  0
LAYOUT
  5
22F
102
{ACAD_REACTORS
330
1A
102
}
330
1A
100
AcDbPlotSettings
  1

  2
D:\ACAD2000\plotters\HP DesignJet 700(System).pc3
  4

  6

 40
0.0
 41
0.0
 42
0.0
 43
0.0
 44
0.0
 45
0.0
 46
0.0
 47
0.0
 48
0.0
 49
0.0
140
0.0
141
0.0
142
1.0
143
1.0
 70
   688
 72
     0
 73
     0
 74
     5
  7
monochrome.ctb
 75
    16
147
1.0
148
0.0
149
0.0
100
AcDbLayout
  1
ﾚｲｱｳﾄ1
 70
     1
 71
     1
 10
0.0
 20
0.0
 11
12.0
 21
9.0
 12
0.0
 22
0.0
 32
0.0
 14
0.0
 24
0.0
 34
0.0
 15
0.0
 25
0.0
 35
0.0
146
0.0
 13
0.0
 23
0.0
 33
0.0
 16
1.0
 26
0.0
 36
0.0
 17
0.0
 27
1.0
 37
0.0
 76
     0
330
73
  0
MLINESTYLE
  5
18
102
{ACAD_REACTORS
330
17
102
}
330
17
100
AcDbMlineStyle
  2
Standard
 70
     0
  3

 62
   256
 51
90.0
 52
90.0
 71
     2
 49
0.5
 62
   256
  6
BYLAYER
 49
-0.5
 62
   256
  6
BYLAYER
  0
ACDBPLACEHOLDER
  5
F
102
{ACAD_REACTORS
330
E
102
}
330
E
  0
XRECORD
  5
BB5
102
{ACAD_REACTORS
330
BB4
102
}
330
BB4
100
AcDbXrecord
280
     1
340
6C
  0
XRECORD
  5
BB6
102
{ACAD_REACTORS
330
BB4
102
}
330
BB4
100
AcDbXrecord
280
     1
340
6B
  0
DICTIONARYVAR
  5
BB3
102
{ACAD_REACTORS
330
59
102
}
330
59
100
DictionaryVariables
280
     0
  1
1
  0
ENDSEC
  0
EOF
