  0
SECTION
  2
HEADER
  9
$ACADVER
  1
AC1015
  9
$ACADMAINTVER
 70
     6
  9
$DWGCODEPAGE
  3
ANSI_932
  9
$INSBASE
 10
0.0
 20
0.0
 30
0.0
  9
$EXTMIN
 10
-182.0
 20
-141.1730858749083
 30
0.0
  9
$EXTMAX
 10
201.5
 20
140.5
 30
0.0
  9
$LIMMIN
 10
-210.0
 20
-148.5
  9
$LIMMAX
 10
210.0
 20
148.5
  9
$ORTHOMODE
 70
     0
  9
$REGENMODE
 70
     1
  9
$FILLMODE
 70
     1
  9
$QTEXTMODE
 70
     0
  9
$MIRRTEXT
 70
     1
  9
$LTSCALE
 40
0.2
  9
$ATTMODE
 70
     1
  9
$TEXTSIZE
 40
3.2
  9
$TRACEWID
 40
1.0
  9
$TEXTSTYLE
  7
KCADTEXTSTANDARD
  9
$CLAYER
  8
0
  9
$CELTYPE
  6
Continuous
  9
$CECOLOR
 62
   134
  9
$CELTSCALE
 40
1.0
  9
$DISPSILH
 70
     0
  9
$DIMSCALE
 40
1.0
  9
$DIMASZ
 40
3.0
  9
$DIMEXO
 40
1.0
  9
$DIMDLI
 40
8.0
  9
$DIMRND
 40
0.0
  9
$DIMDLE
 40
0.0
  9
$DIMEXE
 40
1.0
  9
$DIMTP
 40
0.0
  9
$DIMTM
 40
0.0
  9
$DIMTXT
 40
3.2
  9
$DIMCEN
 40
2.5
  9
$DIMTSZ
 40
0.0
  9
$DIMTOL
 70
     0
  9
$DIMLIM
 70
     0
  9
$DIMTIH
 70
     0
  9
$DIMTOH
 70
     0
  9
$DIMSE1
 70
     0
  9
$DIMSE2
 70
     0
  9
$DIMTAD
 70
     1
  9
$DIMZIN
 70
     8
  9
$DIMBLK
  1

  9
$DIMASO
 70
     1
  9
$DIMSHO
 70
     1
  9
$DIMPOST
  1

  9
$DIMAPOST
  1

  9
$DIMALT
 70
     0
  9
$DIMALTD
 70
     2
  9
$DIMALTF
 40
25.4
  9
$DIMLFAC
 40
1.0
  9
$DIMTOFL
 70
     1
  9
$DIMTVP
 40
0.0
  9
$DIMTIX
 70
     0
  9
$DIMSOXD
 70
     0
  9
$DIMSAH
 70
     1
  9
$DIMBLK1
  1
KCAD_OPEN30
  9
$DIMBLK2
  1
KCAD_OPEN30
  9
$DIMSTYLE
  2
Standard
  9
$DIMCLRD
 70
     0
  9
$DIMCLRE
 70
     0
  9
$DIMCLRT
 70
     0
  9
$DIMTFAC
 40
0.667
  9
$DIMGAP
 40
0.5333000000000001
  9
$DIMJUST
 70
     0
  9
$DIMSD1
 70
     0
  9
$DIMSD2
 70
     0
  9
$DIMTOLJ
 70
     1
  9
$DIMTZIN
 70
     8
  9
$DIMALTZ
 70
     0
  9
$DIMALTTZ
 70
     0
  9
$DIMUPT
 70
     0
  9
$DIMDEC
 70
     3
  9
$DIMTDEC
 70
     3
  9
$DIMALTU
 70
     2
  9
$DIMALTTD
 70
     2
  9
$DIMTXSTY
  7
KCADDIMSTANDARD
  9
$DIMAUNIT
 70
     0
  9
$DIMADEC
 70
     3
  9
$DIMALTRND
 40
0.0
  9
$DIMAZIN
 70
     2
  9
$DIMDSEP
 70
    46
  9
$DIMATFIT
 70
     3
  9
$DIMFRAC
 70
     0
  9
$DIMLDRBLK
  1
KCAD_OPEN
  9
$DIMLUNIT
 70
     2
  9
$DIMLWD
 70
    -2
  9
$DIMLWE
 70
    -2
  9
$DIMTMOVE
 70
     0
  9
$LUNITS
 70
     2
  9
$LUPREC
 70
     4
  9
$SKETCHINC
 40
1.0
  9
$FILLETRAD
 40
5.0
  9
$AUNITS
 70
     0
  9
$AUPREC
 70
     0
  9
$MENU
  1
.
  9
$ELEVATION
 40
0.0
  9
$PELEVATION
 40
0.0
  9
$THICKNESS
 40
0.0
  9
$LIMCHECK
 70
     0
  9
$CHAMFERA
 40
5.0
  9
$CHAMFERB
 40
5.0
  9
$CHAMFERC
 40
5.0
  9
$CHAMFERD
 40
0.7853981633974483
  9
$SKPOLY
 70
     0
  9
$TDCREATE
 40
2453354.092125822
  9
$TDUCREATE
 40
2453353.717125822
  9
$TDUPDATE
 40
2453295.437172465
  9
$TDUUPDATE
 40
2453295.062172465
  9
$TDINDWG
 40
0.0500589815
  9
$TDUSRTIMER
 40
0.0500358333
  9
$USRTIMER
 70
     1
  9
$ANGBASE
 50
0.0
  9
$ANGDIR
 70
     0
  9
$PDMODE
 70
     0
  9
$PDSIZE
 40
0.0
  9
$PLINEWID
 40
0.0
  9
$SPLFRAME
 70
     0
  9
$SPLINETYPE
 70
     6
  9
$SPLINESEGS
 70
     8
  9
$HANDSEED
  5
8DF
  9
$SURFTAB1
 70
     6
  9
$SURFTAB2
 70
     6
  9
$SURFTYPE
 70
     6
  9
$SURFU
 70
     6
  9
$SURFV
 70
     6
  9
$UCSBASE
  2

  9
$UCSNAME
  2

  9
$UCSORG
 10
0.0
 20
0.0
 30
0.0
  9
$UCSXDIR
 10
1.0
 20
0.0
 30
0.0
  9
$UCSYDIR
 10
0.0
 20
1.0
 30
0.0
  9
$UCSORTHOREF
  2

  9
$UCSORTHOVIEW
 70
     0
  9
$UCSORGTOP
 10
0.0
 20
0.0
 30
0.0
  9
$UCSORGBOTTOM
 10
0.0
 20
0.0
 30
0.0
  9
$UCSORGLEFT
 10
0.0
 20
0.0
 30
0.0
  9
$UCSORGRIGHT
 10
0.0
 20
0.0
 30
0.0
  9
$UCSORGFRONT
 10
0.0
 20
0.0
 30
0.0
  9
$UCSORGBACK
 10
0.0
 20
0.0
 30
0.0
  9
$PUCSBASE
  2

  9
$PUCSNAME
  2

  9
$PUCSORG
 10
0.0
 20
0.0
 30
0.0
  9
$PUCSXDIR
 10
1.0
 20
0.0
 30
0.0
  9
$PUCSYDIR
 10
0.0
 20
1.0
 30
0.0
  9
$PUCSORTHOREF
  2

  9
$PUCSORTHOVIEW
 70
     0
  9
$PUCSORGTOP
 10
0.0
 20
0.0
 30
0.0
  9
$PUCSORGBOTTOM
 10
0.0
 20
0.0
 30
0.0
  9
$PUCSORGLEFT
 10
0.0
 20
0.0
 30
0.0
  9
$PUCSORGRIGHT
 10
0.0
 20
0.0
 30
0.0
  9
$PUCSORGFRONT
 10
0.0
 20
0.0
 30
0.0
  9
$PUCSORGBACK
 10
0.0
 20
0.0
 30
0.0
  9
$USERI1
 70
     0
  9
$USERI2
 70
     0
  9
$USERI3
 70
     0
  9
$USERI4
 70
   257
  9
$USERI5
 70
     0
  9
$USERR1
 40
0.0
  9
$USERR2
 40
0.0
  9
$USERR3
 40
0.0
  9
$USERR4
 40
0.0
  9
$USERR5
 40
0.0
  9
$WORLDVIEW
 70
     1
  9
$SHADEDGE
 70
     3
  9
$SHADEDIF
 70
    70
  9
$TILEMODE
 70
     1
  9
$MAXACTVP
 70
    48
  9
$PINSBASE
 10
0.0
 20
0.0
 30
0.0
  9
$PLIMCHECK
 70
     0
  9
$PEXTMIN
 10
0.0
 20
0.0
 30
0.0
  9
$PEXTMAX
 10
0.0
 20
0.0
 30
0.0
  9
$PLIMMIN
 10
0.0
 20
0.0
  9
$PLIMMAX
 10
12.0
 20
9.0
  9
$UNITMODE
 70
     0
  9
$VISRETAIN
 70
     1
  9
$PLINEGEN
 70
     0
  9
$PSLTSCALE
 70
     1
  9
$TREEDEPTH
 70
  3020
  9
$CMLSTYLE
  2
Standard
  9
$CMLJUST
 70
     0
  9
$CMLSCALE
 40
20.0
  9
$PROXYGRAPHICS
 70
     1
  9
$MEASUREMENT
 70
     1
  9
$CELWEIGHT
370
    15
  9
$ENDCAPS
280
     0
  9
$JOINSTYLE
280
     0
  9
$LWDISPLAY
290
     0
  9
$INSUNITS
 70
     0
  9
$HYPERLINKBASE
  1

  9
$STYLESHEET
  1

  9
$XEDIT
290
     0
  9
$CEPSNTYPE
380
     0
  9
$PSTYLEMODE
290
     1
  9
$FINGERPRINTGUID
  2
{1989D620-E742-11D2-9219-00105A146177}
  9
$VERSIONGUID
  2
{A6AB62EA-ED68-4D03-AE56-73C30EA224BC}
  9
$EXTNAMES
290
     1
  9
$PSVPSCALE
 40
0.0
  9
$OLESTARTUP
290
     0
  0
ENDSEC
  0
SECTION
  2
CLASSES
  0
CLASS
  1
ACDBDICTIONARYWDFLT
  2
AcDbDictionaryWithDefault
  3
ObjectDBX Classes
 90
        0
280
     0
281
     0
  0
CLASS
  1
ACDBPLACEHOLDER
  2
AcDbPlaceHolder
  3
ObjectDBX Classes
 90
        0
280
     0
281
     0
  0
CLASS
  1
LAYOUT
  2
AcDbLayout
  3
ObjectDBX Classes
 90
        0
280
     0
281
     0
  0
CLASS
  1
DICTIONARYVAR
  2
AcDbDictionaryVar
  3
ObjectDBX Classes
 90
        0
280
     0
281
     0
  0
CLASS
  1
TABLESTYLE
  2
AcDbTableStyle
  3
ObjectDBX Classes
 90
     2047
280
     0
281
     0
  0
ENDSEC
  0
SECTION
  2
TABLES
  0
TABLE
  2
VPORT
  5
8
330
0
100
AcDbSymbolTable
 70
     2
  0
VPORT
  5
97
330
8
100
AcDbSymbolTableRecord
100
AcDbViewportTableRecord
  2
*Active
 70
     0
 10
0.0
 20
0.0
 11
1.0
 21
1.0
 12
9.75
 22
-0.3365429374541407
 13
0.0
 23
0.0
 14
10.0
 24
10.0
 15
10.0
 25
10.0
 16
0.0
 26
0.0
 36
1.0
 17
0.0
 27
0.0
 37
0.0
 40
246.9206703722653
 41
2.203935599284436
 42
50.0
 43
0.0
 44
0.0
 50
0.0
 51
0.0
 71
    16
 72
 20000
 73
     1
 74
     1
 75
     0
 76
     0
 77
     0
 78
     0
281
     0
 65
     0
110
0.0
120
0.0
130
0.0
111
1.0
121
0.0
131
0.0
112
0.0
122
1.0
132
0.0
 79
     0
146
0.0
  0
ENDTAB
  0
TABLE
  2
LTYPE
  5
5
330
0
100
AcDbSymbolTable
 70
     6
  0
LTYPE
  5
14
330
5
100
AcDbSymbolTableRecord
100
AcDbLinetypeTableRecord
  2
ByBlock
 70
     0
  3

 72
    65
 73
     0
 40
0.0
  0
LTYPE
  5
15
330
5
100
AcDbSymbolTableRecord
100
AcDbLinetypeTableRecord
  2
ByLayer
 70
     0
  3

 72
    65
 73
     0
 40
0.0
  0
LTYPE
  5
16
330
5
100
AcDbSymbolTableRecord
100
AcDbLinetypeTableRecord
  2
Continuous
 70
     0
  3
Solid line
 72
    65
 73
     0
 40
0.0
  0
LTYPE
  5
87B
330
5
100
AcDbSymbolTableRecord
100
AcDbLinetypeTableRecord
  2
CENTER
 70
     0
  3
Center ____ _ ____ _ ____ _ ____ _ ____ _ ____
 72
    65
 73
     4
 40
50.8
 49
31.75
 74
     4
 75
     0
340
0
 46
1.0
 50
0.0
 44
0.0
 45
0.0
 49
-6.349999999999999
 74
     4
 75
     0
340
0
 46
1.0
 50
0.0
 44
0.0
 45
0.0
 49
6.349999999999999
 74
     4
 75
     0
340
0
 46
1.0
 50
0.0
 44
0.0
 45
0.0
 49
-6.349999999999999
 74
     4
 75
     0
340
0
 46
1.0
 50
0.0
 44
0.0
 45
0.0
  0
LTYPE
  5
87C
330
5
100
AcDbSymbolTableRecord
100
AcDbLinetypeTableRecord
  2
DASHED
 70
     0
  3
Dashed __ __ __ __ __ __ __ __ __ __ __ __ __ _
 72
    65
 73
     2
 40
19.05
 49
12.7
 74
     4
 75
     0
340
0
 46
1.0
 50
0.0
 44
0.0
 45
0.0
 49
-6.349999999999999
 74
     4
 75
     0
340
0
 46
1.0
 50
0.0
 44
0.0
 45
0.0
  0
LTYPE
  5
87D
330
5
100
AcDbSymbolTableRecord
100
AcDbLinetypeTableRecord
  2
HIDDEN
 70
     0
  3
Hidden __ __ __ __ __ __ __ __ __ __ __ __ __ _
 72
    65
 73
     2
 40
9.524999999999999
 49
6.349999999999999
 74
     4
 75
     0
340
0
 46
1.0
 50
0.0
 44
0.0
 45
0.0
 49
-3.174999999999999
 74
     4
 75
     0
340
0
 46
1.0
 50
0.0
 44
0.0
 45
0.0
  0
LTYPE
  5
87E
330
5
100
AcDbSymbolTableRecord
100
AcDbLinetypeTableRecord
  2
PHANTOM
 70
     0
  3
Phantom ______  __  __  ______  __  __  ______
 72
    65
 73
     6
 40
63.50000000000001
 49
31.75
 74
     4
 75
     0
340
0
 46
1.0
 50
0.0
 44
0.0
 45
0.0
 49
-6.349999999999999
 74
     4
 75
     0
340
0
 46
1.0
 50
0.0
 44
0.0
 45
0.0
 49
6.349999999999999
 74
     4
 75
     0
340
0
 46
1.0
 50
0.0
 44
0.0
 45
0.0
 49
-6.349999999999999
 74
     4
 75
     0
340
0
 46
1.0
 50
0.0
 44
0.0
 45
0.0
 49
6.349999999999999
 74
     4
 75
     0
340
0
 46
1.0
 50
0.0
 44
0.0
 45
0.0
 49
-6.349999999999999
 74
     4
 75
     0
340
0
 46
1.0
 50
0.0
 44
0.0
 45
0.0
  0
LTYPE
  5
87F
330
5
100
AcDbSymbolTableRecord
100
AcDbLinetypeTableRecord
  2
RUPTURE
 70
     0
  3
Rupture line
 72
    65
 73
     4
 40
45.72
 49
25.4
 74
     4
 75
     0
340
0
 46
1.0
 50
0.0
 44
0.0
 45
0.0
 49
-5.08
 74
     4
 75
   131
340
11
 46
5.08
 50
0.0
 44
-5.08
 45
0.0
 49
-10.16
 74
     4
 75
   131
340
11
 46
5.08
 50
180.0
 44
5.08
 45
0.0
 49
-5.08
 74
     4
 75
     0
340
0
 46
1.0
 50
0.0
 44
0.0
 45
0.0
  0
ENDTAB
  0
TABLE
  2
LAYER
  5
2
330
0
100
AcDbSymbolTable
 70
    13
  0
LAYER
  5
10
330
2
100
AcDbSymbolTableRecord
100
AcDbLayerTableRecord
  2
0
 70
     0
 62
     7
  6
Continuous
370
    -3
390
F
  0
LAYER
  5
6DB
330
2
100
AcDbSymbolTableRecord
100
AcDbLayerTableRecord
  2
KCAD_DIMS
 70
     0
 62
   134
  6
Continuous
370
    15
390
F
  0
LAYER
  5
4F
330
2
100
AcDbSymbolTableRecord
100
AcDbLayerTableRecord
  2
DEFPOINTS
 70
     0
 62
     7
  6
Continuous
290
     0
370
    -3
390
F
  0
LAYER
  5
20B
330
2
100
AcDbSymbolTableRecord
100
AcDbLayerTableRecord
  2
KCAD_ASST
 70
     0
 62
   134
  6
Continuous
370
    15
390
F
  0
LAYER
  5
20C
330
2
100
AcDbSymbolTableRecord
100
AcDbLayerTableRecord
  2
KCAD_RASTER
 70
     0
 62
     7
  6
Continuous
370
    30
390
F
  0
LAYER
  5
20D
330
2
100
AcDbSymbolTableRecord
100
AcDbLayerTableRecord
  2
SYBCENTER
 70
     0
 62
   134
  6
CENTER
370
    15
390
F
  0
LAYER
  5
20E
330
2
100
AcDbSymbolTableRecord
100
AcDbLayerTableRecord
  2
SYBHIDE
 70
     0
 62
   134
  6
HIDDEN
370
    15
390
F
  0
LAYER
  5
20F
330
2
100
AcDbSymbolTableRecord
100
AcDbLayerTableRecord
  2
SYBOUTLINE
 70
     0
 62
     7
  6
Continuous
370
    30
390
F
  0
LAYER
  5
210
330
2
100
AcDbSymbolTableRecord
100
AcDbLayerTableRecord
  2
SYBTHREAD
 70
     0
 62
   134
  6
Continuous
370
    15
390
F
  0
LAYER
  5
211
330
2
100
AcDbSymbolTableRecord
100
AcDbLayerTableRecord
  2
SYBTHRHID
 70
     0
 62
   134
  6
HIDDEN
370
    15
390
F
  0
LAYER
  5
282
330
2
100
AcDbSymbolTableRecord
100
AcDbLayerTableRecord
  2
KCAD_UIR_TMP_LAYER_
 70
     0
 62
     7
  6
Continuous
370
    -3
390
F
  0
LAYER
  5
2A8
330
2
100
AcDbSymbolTableRecord
100
AcDbLayerTableRecord
  2
KCAD_CPM_MAX_LAYER
 70
     3
 62
     7
  6
Continuous
370
    -3
390
F
  0
LAYER
  5
2EF
330
2
100
AcDbSymbolTableRecord
100
AcDbLayerTableRecord
  2
99
 70
     0
 62
     7
  6
Continuous
370
    -3
390
F
  0
ENDTAB
  0
TABLE
  2
STYLE
  5
3
330
0
100
AcDbSymbolTable
 70
     5
  0
STYLE
  5
11
330
3
100
AcDbSymbolTableRecord
100
AcDbTextStyleTableRecord
  2
Standard
 70
     0
 40
0.0
 41
1.0
 50
0.0
 71
     0
 42
3.2
  3
txt.shx
  4
bigfont.shx
  0
STYLE
  5
17F
330
3
100
AcDbSymbolTableRecord
100
AcDbTextStyleTableRecord
  2

 70
     1
 40
0.0
 41
1.0
 50
0.0
 71
     0
 42
3.2
  3
ltypeshp.shx
  4

  0
STYLE
  5
189
330
3
100
AcDbSymbolTableRecord
100
AcDbTextStyleTableRecord
  2
KCADDIMSTANDARD
 70
     0
 40
0.0
 41
1.0
 50
0.0
 71
     0
 42
3.2
  3
txt.shx
  4
bigfont.shx
  0
STYLE
  5
18A
330
3
100
AcDbSymbolTableRecord
100
AcDbTextStyleTableRecord
  2
KCADTEXTSTANDARD
 70
     0
 40
0.0
 41
1.0
 50
0.0
 71
     0
 42
3.2
  3
txt.shx
  4
bigfont.shx
  0
STYLE
  5
1AD
330
3
100
AcDbSymbolTableRecord
100
AcDbTextStyleTableRecord
  2
KCADTEXT2
 70
     0
 40
0.0
 41
1.0
 50
0.0
 71
     0
 42
3.2
  3
txt.shx
  4
extfont.shx
  0
ENDTAB
  0
TABLE
  2
VIEW
  5
6
330
0
100
AcDbSymbolTable
 70
     0
  0
ENDTAB
  0
TABLE
  2
UCS
  5
7
330
0
100
AcDbSymbolTable
 70
     0
  0
ENDTAB
  0
TABLE
  2
APPID
  5
9
330
0
100
AcDbSymbolTable
 70
     3
  0
APPID
  5
12
330
9
100
AcDbSymbolTableRecord
100
AcDbRegAppTableRecord
  2
ACAD
 70
     0
  0
APPID
  5
879
330
9
100
AcDbSymbolTableRecord
100
AcDbRegAppTableRecord
  2
Sigma
 70
     0
  0
APPID
  5
87A
330
9
100
AcDbSymbolTableRecord
100
AcDbRegAppTableRecord
  2
KCAD_DIM_EXT
 70
     0
  0
ENDTAB
  0
TABLE
  2
DIMSTYLE
  5
A
330
0
100
AcDbSymbolTable
 70
     1
100
AcDbDimStyleTable
  0
DIMSTYLE
105
27
102
{ACAD_REACTORS
330
3EC
330
428
330
464
330
4A0
330
518
330
554
330
590
330
5D8
330
61D
102
}
330
A
100
AcDbSymbolTableRecord
100
AcDbDimStyleTableRecord
  2
Standard
 70
     0
340
11
  0
ENDTAB
  0
TABLE
  2
BLOCK_RECORD
  5
1
330
0
100
AcDbSymbolTable
 70
    45
  0
BLOCK_RECORD
  5
1F
330
1
100
AcDbSymbolTableRecord
100
AcDbBlockTableRecord
  2
*Model_Space
340
22
  0
BLOCK_RECORD
  5
73
330
1
100
AcDbSymbolTableRecord
100
AcDbBlockTableRecord
  2
*Paper_Space
340
22F
  0
BLOCK_RECORD
  5
6DC
330
1
100
AcDbSymbolTableRecord
100
AcDbBlockTableRecord
  2
KCAD_OPEN
340
0
  0
BLOCK_RECORD
  5
3C
330
1
100
AcDbSymbolTableRecord
100
AcDbBlockTableRecord
  2
KCAD_DOTSMALL
340
0
  0
BLOCK_RECORD
  5
44
330
1
100
AcDbSymbolTableRecord
100
AcDbBlockTableRecord
  2
KCAD_NONE
340
0
  0
BLOCK_RECORD
  5
FC
330
1
100
AcDbSymbolTableRecord
100
AcDbBlockTableRecord
  2
_CLOSED
340
0
  0
BLOCK_RECORD
  5
103
330
1
100
AcDbSymbolTableRecord
100
AcDbBlockTableRecord
  2
_DOT
340
0
  0
BLOCK_RECORD
  5
10B
330
1
100
AcDbSymbolTableRecord
100
AcDbBlockTableRecord
  2
_CLOSEDBLANK
340
0
  0
BLOCK_RECORD
  5
111
330
1
100
AcDbSymbolTableRecord
100
AcDbBlockTableRecord
  2
_OBLIQUE
340
0
  0
BLOCK_RECORD
  5
115
330
1
100
AcDbSymbolTableRecord
100
AcDbBlockTableRecord
  2
_ARCHTICK
340
0
  0
BLOCK_RECORD
  5
11C
330
1
100
AcDbSymbolTableRecord
100
AcDbBlockTableRecord
  2
_OPEN
340
0
  0
BLOCK_RECORD
  5
122
330
1
100
AcDbSymbolTableRecord
100
AcDbBlockTableRecord
  2
_ORIGIN
340
0
  0
BLOCK_RECORD
  5
127
330
1
100
AcDbSymbolTableRecord
100
AcDbBlockTableRecord
  2
_OPEN90
340
0
  0
BLOCK_RECORD
  5
12D
330
1
100
AcDbSymbolTableRecord
100
AcDbBlockTableRecord
  2
_OPEN30
340
0
102
{BLKREFS
331
421
331
422
331
45D
331
45E
331
499
331
49A
331
4D5
331
4D6
331
54D
331
54E
331
589
331
58A
331
5CF
331
5D0
331
617
331
618
331
652
331
653
331
3E0
331
3EA
331
4EE
102
}
  0
BLOCK_RECORD
  5
133
330
1
100
AcDbSymbolTableRecord
100
AcDbBlockTableRecord
  2
_DOTBLANK
340
0
  0
BLOCK_RECORD
  5
138
330
1
100
AcDbSymbolTableRecord
100
AcDbBlockTableRecord
  2
_DOTSMALL
340
0
  0
BLOCK_RECORD
  5
13F
330
1
100
AcDbSymbolTableRecord
100
AcDbBlockTableRecord
  2
_BOXFILLED
340
0
  0
BLOCK_RECORD
  5
144
330
1
100
AcDbSymbolTableRecord
100
AcDbBlockTableRecord
  2
_BOXBLANK
340
0
  0
BLOCK_RECORD
  5
14C
330
1
100
AcDbSymbolTableRecord
100
AcDbBlockTableRecord
  2
_DATUMFILLED
340
0
  0
BLOCK_RECORD
  5
150
330
1
100
AcDbSymbolTableRecord
100
AcDbBlockTableRecord
  2
_DATUMBLANK
340
0
  0
BLOCK_RECORD
  5
156
330
1
100
AcDbSymbolTableRecord
100
AcDbBlockTableRecord
  2
_INTEGRAL
340
0
  0
BLOCK_RECORD
  5
1F1
330
1
100
AcDbSymbolTableRecord
100
AcDbBlockTableRecord
  2
_Origin2
340
0
  0
BLOCK_RECORD
  5
1F7
330
1
100
AcDbSymbolTableRecord
100
AcDbBlockTableRecord
  2
KCAD_OPEN30
340
0
  0
BLOCK_RECORD
  5
222
330
1
100
AcDbSymbolTableRecord
100
AcDbBlockTableRecord
  2
_None
340
0
  0
BLOCK_RECORD
  5
283
330
1
100
AcDbSymbolTableRecord
100
AcDbBlockTableRecord
  2
_Small
340
0
  0
BLOCK_RECORD
  5
287
330
1
100
AcDbSymbolTableRecord
100
AcDbBlockTableRecord
  2
KCAD_OPEN_2
340
0
  0
BLOCK_RECORD
  5
28E
330
1
100
AcDbSymbolTableRecord
100
AcDbBlockTableRecord
  2
KCAD_OPEN30_2
340
0
  0
BLOCK_RECORD
  5
2AD
330
1
100
AcDbSymbolTableRecord
100
AcDbBlockTableRecord
  2
KCAD_OPEN30ANG
340
0
  0
BLOCK_RECORD
  5
2B6
330
1
100
AcDbSymbolTableRecord
100
AcDbBlockTableRecord
  2
KCAD_DOTANG
340
0
  0
BLOCK_RECORD
  5
3ED
330
1
100
AcDbSymbolTableRecord
100
AcDbBlockTableRecord
  2
*D27
340
0
  0
BLOCK_RECORD
  5
429
330
1
100
AcDbSymbolTableRecord
100
AcDbBlockTableRecord
  2
*D28
340
0
  0
BLOCK_RECORD
  5
465
330
1
100
AcDbSymbolTableRecord
100
AcDbBlockTableRecord
  2
*D29
340
0
  0
BLOCK_RECORD
  5
4A1
330
1
100
AcDbSymbolTableRecord
100
AcDbBlockTableRecord
  2
*D30
340
0
  0
BLOCK_RECORD
  5
519
330
1
100
AcDbSymbolTableRecord
100
AcDbBlockTableRecord
  2
*D31
340
0
  0
BLOCK_RECORD
  5
555
330
1
100
AcDbSymbolTableRecord
100
AcDbBlockTableRecord
  2
*D32
340
0
  0
BLOCK_RECORD
  5
591
330
1
100
AcDbSymbolTableRecord
100
AcDbBlockTableRecord
  2
*D33
340
0
  0
BLOCK_RECORD
  5
5D9
330
1
100
AcDbSymbolTableRecord
100
AcDbBlockTableRecord
  2
*D34
340
0
  0
BLOCK_RECORD
  5
61E
330
1
100
AcDbSymbolTableRecord
100
AcDbBlockTableRecord
  2
*D35
340
0
  0
BLOCK_RECORD
  5
66D
330
1
100
AcDbSymbolTableRecord
100
AcDbBlockTableRecord
  2
*D36
340
0
  0
BLOCK_RECORD
  5
679
330
1
100
AcDbSymbolTableRecord
100
AcDbBlockTableRecord
  2
*D37
340
0
  0
BLOCK_RECORD
  5
685
330
1
100
AcDbSymbolTableRecord
100
AcDbBlockTableRecord
  2
*D38
340
0
  0
BLOCK_RECORD
  5
691
330
1
100
AcDbSymbolTableRecord
100
AcDbBlockTableRecord
  2
*D39
340
0
  0
BLOCK_RECORD
  5
69D
330
1
100
AcDbSymbolTableRecord
100
AcDbBlockTableRecord
  2
*D40
340
0
  0
BLOCK_RECORD
  5
6A9
330
1
100
AcDbSymbolTableRecord
100
AcDbBlockTableRecord
  2
*D41
340
0
  0
BLOCK_RECORD
  5
6B6
330
1
100
AcDbSymbolTableRecord
100
AcDbBlockTableRecord
  2
*D42
340
0
  0
BLOCK_RECORD
  5
6C3
330
1
100
AcDbSymbolTableRecord
100
AcDbBlockTableRecord
  2
*D43
340
0
  0
BLOCK_RECORD
  5
6CF
330
1
100
AcDbSymbolTableRecord
100
AcDbBlockTableRecord
  2
*D44
340
0
  0
ENDTAB
  0
ENDSEC
  0
SECTION
  2
BLOCKS
  0
BLOCK
  5
20
330
1F
100
AcDbEntity
  8
0
100
AcDbBlockBegin
  2
*Model_Space
 70
     0
 71
     0
 10
0.0
 20
0.0
 30
0.0
  3
*Model_Space
  1

  0
ENDBLK
  5
21
330
1F
100
AcDbEntity
  8
0
100
AcDbBlockEnd
  0
BLOCK
  5
75
330
73
100
AcDbEntity
 67
     1
  8
0
100
AcDbBlockBegin
  2
*Paper_Space
 70
     0
 71
     0
 10
0.0
 20
0.0
 30
0.0
  3
*Paper_Space
  1

  0
ENDBLK
  5
76
330
73
100
AcDbEntity
 67
     1
  8
0
100
AcDbBlockEnd
  0
BLOCK
  5
880
330
6DC
100
AcDbEntity
  8
KCAD_DIMS
100
AcDbBlockBegin
  2
KCAD_OPEN
 70
     0
 71
     0
 10
0.0
 20
0.0
 30
0.0
  3
KCAD_OPEN
  1

  0
LINE
  5
737
330
6DC
100
AcDbEntity
  8
0
  6
Continuous
 62
     0
370
    -2
100
AcDbLine
 10
0.0
 20
0.0
 30
0.0
 11
-1.0
 21
0.0
 31
0.0
  0
LINE
  5
23
330
6DC
100
AcDbEntity
  8
0
  6
Continuous
 62
     0
370
    -2
100
AcDbLine
 10
0.0
 20
0.0
 30
0.0
 11
-1.0
 21
0.158384
 31
0.0
  0
LINE
  5
24
330
6DC
100
AcDbEntity
  8
0
  6
Continuous
 62
     0
370
    -2
100
AcDbLine
 10
0.0
 20
0.0
 30
0.0
 11
-1.0
 21
-0.158384
 31
0.0
  0
ENDBLK
  5
881
330
6DC
100
AcDbEntity
  8
KCAD_DIMS
100
AcDbBlockEnd
  0
BLOCK
  5
882
330
3C
100
AcDbEntity
  8
KCAD_DIMS
100
AcDbBlockBegin
  2
KCAD_DOTSMALL
 70
     0
 71
     0
 10
0.0
 20
0.0
 30
0.0
  3
KCAD_DOTSMALL
  1

  0
LWPOLYLINE
  5
3D
330
3C
100
AcDbEntity
  8
KCAD_DIMS
 62
     0
100
AcDbPolyline
 90
        2
 70
     1
 43
0.5
 10
0.06252
 20
0.0
 42
1.0
 10
-0.06262
 20
0.0
 42
1.0
  0
LINE
  5
41
330
3C
100
AcDbEntity
  8
0
  6
Continuous
 62
     0
370
    -2
100
AcDbLine
 10
0.0
 20
0.0
 30
0.0
 11
-1.0
 21
0.0
 31
0.0
  0
ENDBLK
  5
883
330
3C
100
AcDbEntity
  8
0
100
AcDbBlockEnd
  0
BLOCK
  5
884
330
44
100
AcDbEntity
  8
KCAD_DIMS
100
AcDbBlockBegin
  2
KCAD_NONE
 70
     0
 71
     0
 10
0.0
 20
0.0
 30
0.0
  3
KCAD_NONE
  1

  0
LINE
  5
45
330
44
100
AcDbEntity
  8
0
  6
Continuous
 62
     0
370
    -2
100
AcDbLine
 10
0.0
 20
0.0
 30
0.0
 11
-1.0
 21
0.0
 31
0.0
  0
ENDBLK
  5
885
330
44
100
AcDbEntity
  8
0
100
AcDbBlockEnd
  0
BLOCK
  5
886
330
FC
100
AcDbEntity
  8
0
100
AcDbBlockBegin
  2
_CLOSED
 70
     0
 71
     0
 10
0.0
 20
0.0
 30
0.0
  3
_CLOSED
  1

  0
LINE
  5
FE
330
FC
100
AcDbEntity
  8
0
  6
Continuous
 62
     0
370
    -2
100
AcDbLine
 10
-1.0
 20
0.166667
 30
0.0
 11
0.0
 21
0.0
 31
0.0
  0
LINE
  5
FF
330
FC
100
AcDbEntity
  8
0
  6
Continuous
 62
     0
370
    -2
100
AcDbLine
 10
0.0
 20
0.0
 30
0.0
 11
-1.0
 21
-0.166667
 31
0.0
  0
LINE
  5
100
330
FC
100
AcDbEntity
  8
0
  6
Continuous
 62
     0
370
    -2
100
AcDbLine
 10
-1.0
 20
0.166667
 30
0.0
 11
-1.0
 21
-0.166667
 31
0.0
  0
LINE
  5
101
330
FC
100
AcDbEntity
  8
0
  6
Continuous
 62
     0
370
    -2
100
AcDbLine
 10
0.0
 20
0.0
 30
0.0
 11
-1.0
 21
0.0
 31
0.0
  0
ENDBLK
  5
887
330
FC
100
AcDbEntity
  8
0
100
AcDbBlockEnd
  0
BLOCK
  5
888
330
103
100
AcDbEntity
  8
0
100
AcDbBlockBegin
  2
_DOT
 70
     0
 71
     0
 10
0.0
 20
0.0
 30
0.0
  3
_DOT
  1

  0
LWPOLYLINE
  5
105
330
103
100
AcDbEntity
  8
0
  6
ByBlock
 62
     0
100
AcDbPolyline
 90
        2
 70
     1
 43
0.5
 10
-0.25
 20
0.0
 42
1.0
 10
0.25
 20
0.0
 42
1.0
  0
LINE
  5
109
330
103
100
AcDbEntity
  8
0
  6
Continuous
 62
     0
370
    -2
100
AcDbLine
 10
-0.5
 20
0.0
 30
0.0
 11
-1.0
 21
0.0
 31
0.0
  0
ENDBLK
  5
889
330
103
100
AcDbEntity
  8
0
100
AcDbBlockEnd
  0
BLOCK
  5
88A
330
10B
100
AcDbEntity
  8
0
100
AcDbBlockBegin
  2
_CLOSEDBLANK
 70
     0
 71
     0
 10
0.0
 20
0.0
 30
0.0
  3
_CLOSEDBLANK
  1

  0
LINE
  5
10D
330
10B
100
AcDbEntity
  8
0
  6
Continuous
 62
     0
370
    -2
100
AcDbLine
 10
-1.0
 20
0.166667
 30
0.0
 11
0.0
 21
0.0
 31
0.0
  0
LINE
  5
10E
330
10B
100
AcDbEntity
  8
0
  6
Continuous
 62
     0
370
    -2
100
AcDbLine
 10
0.0
 20
0.0
 30
0.0
 11
-1.0
 21
-0.166667
 31
0.0
  0
LINE
  5
10F
330
10B
100
AcDbEntity
  8
0
  6
Continuous
 62
     0
370
    -2
100
AcDbLine
 10
-1.0
 20
0.166667
 30
0.0
 11
-1.0
 21
-0.166667
 31
0.0
  0
ENDBLK
  5
88B
330
10B
100
AcDbEntity
  8
0
100
AcDbBlockEnd
  0
BLOCK
  5
88C
330
111
100
AcDbEntity
  8
0
100
AcDbBlockBegin
  2
_OBLIQUE
 70
     0
 71
     0
 10
0.0
 20
0.0
 30
0.0
  3
_OBLIQUE
  1

  0
LINE
  5
113
330
111
100
AcDbEntity
  8
0
  6
Continuous
 62
     0
370
    -2
100
AcDbLine
 10
-0.5
 20
-0.5
 30
0.0
 11
0.5
 21
0.5
 31
0.0
  0
ENDBLK
  5
88D
330
111
100
AcDbEntity
  8
0
100
AcDbBlockEnd
  0
BLOCK
  5
88E
330
115
100
AcDbEntity
  8
0
100
AcDbBlockBegin
  2
_ARCHTICK
 70
     0
 71
     0
 10
0.0
 20
0.0
 30
0.0
  3
_ARCHTICK
  1

  0
LWPOLYLINE
  5
117
330
115
100
AcDbEntity
  8
0
  6
ByBlock
 62
     0
100
AcDbPolyline
 90
        2
 70
     0
 43
0.15
 10
-0.5
 20
-0.5
 10
0.5
 20
0.5
  0
ENDBLK
  5
88F
330
115
100
AcDbEntity
  8
0
100
AcDbBlockEnd
  0
BLOCK
  5
890
330
11C
100
AcDbEntity
  8
0
100
AcDbBlockBegin
  2
_OPEN
 70
     0
 71
     0
 10
0.0
 20
0.0
 30
0.0
  3
_OPEN
  1

  0
LINE
  5
11E
330
11C
100
AcDbEntity
  8
0
  6
Continuous
 62
     0
370
    -2
100
AcDbLine
 10
-1.0
 20
0.166667
 30
0.0
 11
0.0
 21
0.0
 31
0.0
  0
LINE
  5
11F
330
11C
100
AcDbEntity
  8
0
  6
Continuous
 62
     0
370
    -2
100
AcDbLine
 10
0.0
 20
0.0
 30
0.0
 11
-1.0
 21
-0.166667
 31
0.0
  0
LINE
  5
120
330
11C
100
AcDbEntity
  8
0
  6
Continuous
 62
     0
370
    -2
100
AcDbLine
 10
0.0
 20
0.0
 30
0.0
 11
-1.0
 21
0.0
 31
0.0
  0
ENDBLK
  5
891
330
11C
100
AcDbEntity
  8
0
100
AcDbBlockEnd
  0
BLOCK
  5
892
330
122
100
AcDbEntity
  8
0
100
AcDbBlockBegin
  2
_ORIGIN
 70
     0
 71
     0
 10
0.0
 20
0.0
 30
0.0
  3
_ORIGIN
  1

  0
CIRCLE
  5
124
330
122
100
AcDbEntity
  8
0
  6
ByBlock
 62
     0
100
AcDbCircle
 10
0.0
 20
0.0
 30
0.0
 40
0.5
  0
LINE
  5
125
330
122
100
AcDbEntity
  8
0
  6
Continuous
 62
     0
370
    -2
100
AcDbLine
 10
0.0
 20
0.0
 30
0.0
 11
-1.0
 21
0.0
 31
0.0
  0
ENDBLK
  5
893
330
122
100
AcDbEntity
  8
0
100
AcDbBlockEnd
  0
BLOCK
  5
894
330
127
100
AcDbEntity
  8
0
100
AcDbBlockBegin
  2
_OPEN90
 70
     0
 71
     0
 10
0.0
 20
0.0
 30
0.0
  3
_OPEN90
  1

  0
LINE
  5
129
330
127
100
AcDbEntity
  8
0
  6
Continuous
 62
     0
370
    -2
100
AcDbLine
 10
-0.5
 20
0.5
 30
0.0
 11
0.0
 21
0.0
 31
0.0
  0
LINE
  5
12A
330
127
100
AcDbEntity
  8
0
  6
Continuous
 62
     0
370
    -2
100
AcDbLine
 10
0.0
 20
0.0
 30
0.0
 11
-0.5
 21
-0.5
 31
0.0
  0
LINE
  5
12B
330
127
100
AcDbEntity
  8
0
  6
Continuous
 62
     0
370
    -2
100
AcDbLine
 10
0.0
 20
0.0
 30
0.0
 11
-1.0
 21
0.0
 31
0.0
  0
ENDBLK
  5
895
330
127
100
AcDbEntity
  8
0
100
AcDbBlockEnd
  0
BLOCK
  5
896
330
12D
100
AcDbEntity
  8
0
100
AcDbBlockBegin
  2
_OPEN30
 70
     0
 71
     0
 10
0.0
 20
0.0
 30
0.0
  3
_OPEN30
  1

  0
LINE
  5
12F
330
12D
100
AcDbEntity
  8
0
  6
Continuous
 62
     0
370
    -2
100
AcDbLine
 10
-1.0
 20
0.267949
 30
0.0
 11
0.0
 21
0.0
 31
0.0
  0
LINE
  5
130
330
12D
100
AcDbEntity
  8
0
  6
Continuous
 62
     0
370
    -2
100
AcDbLine
 10
0.0
 20
0.0
 30
0.0
 11
-1.0
 21
-0.267949
 31
0.0
  0
LINE
  5
131
330
12D
100
AcDbEntity
  8
0
  6
Continuous
 62
     0
370
    -2
100
AcDbLine
 10
0.0
 20
0.0
 30
0.0
 11
-1.0
 21
0.0
 31
0.0
  0
ENDBLK
  5
897
330
12D
100
AcDbEntity
  8
0
100
AcDbBlockEnd
  0
BLOCK
  5
898
330
133
100
AcDbEntity
  8
0
100
AcDbBlockBegin
  2
_DOTBLANK
 70
     0
 71
     0
 10
0.0
 20
0.0
 30
0.0
  3
_DOTBLANK
  1

  0
CIRCLE
  5
135
330
133
100
AcDbEntity
  8
0
  6
ByBlock
 62
     0
100
AcDbCircle
 10
0.0
 20
0.0
 30
0.0
 40
0.5
  0
LINE
  5
136
330
133
100
AcDbEntity
  8
0
  6
Continuous
 62
     0
370
    -2
100
AcDbLine
 10
-0.5
 20
0.0
 30
0.0
 11
-1.0
 21
0.0
 31
0.0
  0
ENDBLK
  5
899
330
133
100
AcDbEntity
  8
0
100
AcDbBlockEnd
  0
BLOCK
  5
89A
330
138
100
AcDbEntity
  8
0
100
AcDbBlockBegin
  2
_DOTSMALL
 70
     0
 71
     0
 10
0.0
 20
0.0
 30
0.0
  3
_DOTSMALL
  1

  0
LWPOLYLINE
  5
13A
330
138
100
AcDbEntity
  8
0
  6
ByBlock
 62
     0
100
AcDbPolyline
 90
        2
 70
     1
 43
0.5
 10
-0.0625
 20
0.0
 42
1.0
 10
0.0625
 20
0.0
 42
1.0
  0
ENDBLK
  5
89B
330
138
100
AcDbEntity
  8
0
100
AcDbBlockEnd
  0
BLOCK
  5
89C
330
13F
100
AcDbEntity
  8
0
100
AcDbBlockBegin
  2
_BOXFILLED
 70
     0
 71
     0
 10
0.0
 20
0.0
 30
0.0
  3
_BOXFILLED
  1

  0
SOLID
  5
141
330
13F
100
AcDbEntity
  8
0
  6
ByBlock
 62
     0
100
AcDbTrace
 10
-0.5
 20
0.5
 30
0.0
 11
0.5
 21
0.5
 31
0.0
 12
-0.5
 22
-0.5
 32
0.0
 13
0.5
 23
-0.5
 33
0.0
  0
LINE
  5
142
330
13F
100
AcDbEntity
  8
0
  6
Continuous
 62
     0
370
    -2
100
AcDbLine
 10
-0.5
 20
0.0
 30
0.0
 11
-1.0
 21
0.0
 31
0.0
  0
ENDBLK
  5
89D
330
13F
100
AcDbEntity
  8
0
100
AcDbBlockEnd
  0
BLOCK
  5
89E
330
144
100
AcDbEntity
  8
0
100
AcDbBlockBegin
  2
_BOXBLANK
 70
     0
 71
     0
 10
0.0
 20
0.0
 30
0.0
  3
_BOXBLANK
  1

  0
LINE
  5
146
330
144
100
AcDbEntity
  8
0
  6
Continuous
 62
     0
370
    -2
100
AcDbLine
 10
-0.5
 20
-0.5
 30
0.0
 11
0.5
 21
-0.5
 31
0.0
  0
LINE
  5
147
330
144
100
AcDbEntity
  8
0
  6
Continuous
 62
     0
370
    -2
100
AcDbLine
 10
0.5
 20
-0.5
 30
0.0
 11
0.5
 21
0.5
 31
0.0
  0
LINE
  5
148
330
144
100
AcDbEntity
  8
0
  6
Continuous
 62
     0
370
    -2
100
AcDbLine
 10
0.5
 20
0.5
 30
0.0
 11
-0.5
 21
0.5
 31
0.0
  0
LINE
  5
149
330
144
100
AcDbEntity
  8
0
  6
Continuous
 62
     0
370
    -2
100
AcDbLine
 10
-0.5
 20
0.5
 30
0.0
 11
-0.5
 21
-0.5
 31
0.0
  0
LINE
  5
14A
330
144
100
AcDbEntity
  8
0
  6
Continuous
 62
     0
370
    -2
100
AcDbLine
 10
-0.5
 20
0.0
 30
0.0
 11
-1.0
 21
0.0
 31
0.0
  0
ENDBLK
  5
89F
330
144
100
AcDbEntity
  8
0
100
AcDbBlockEnd
  0
BLOCK
  5
8A0
330
14C
100
AcDbEntity
  8
0
100
AcDbBlockBegin
  2
_DATUMFILLED
 70
     0
 71
     0
 10
0.0
 20
0.0
 30
0.0
  3
_DATUMFILLED
  1

  0
SOLID
  5
14E
330
14C
100
AcDbEntity
  8
0
  6
ByBlock
 62
     0
100
AcDbTrace
 10
0.0
 20
0.5773500000000001
 30
0.0
 11
-1.0
 21
0.0
 31
0.0
 12
0.0
 22
-0.5773500000000001
 32
0.0
 13
0.0
 23
-0.5773500000000001
 33
0.0
  0
ENDBLK
  5
8A1
330
14C
100
AcDbEntity
  8
0
100
AcDbBlockEnd
  0
BLOCK
  5
8A2
330
150
100
AcDbEntity
  8
0
100
AcDbBlockBegin
  2
_DATUMBLANK
 70
     0
 71
     0
 10
0.0
 20
0.0
 30
0.0
  3
_DATUMBLANK
  1

  0
LINE
  5
152
330
150
100
AcDbEntity
  8
0
  6
Continuous
 62
     0
370
    -2
100
AcDbLine
 10
0.0
 20
0.5773500000000001
 30
0.0
 11
-1.0
 21
0.0
 31
0.0
  0
LINE
  5
153
330
150
100
AcDbEntity
  8
0
  6
Continuous
 62
     0
370
    -2
100
AcDbLine
 10
-1.0
 20
0.0
 30
0.0
 11
0.0
 21
-0.5773500000000001
 31
0.0
  0
LINE
  5
154
330
150
100
AcDbEntity
  8
0
  6
Continuous
 62
     0
370
    -2
100
AcDbLine
 10
0.0
 20
-0.5773500000000001
 30
0.0
 11
0.0
 21
0.5773500000000001
 31
0.0
  0
ENDBLK
  5
8A3
330
150
100
AcDbEntity
  8
0
100
AcDbBlockEnd
  0
BLOCK
  5
8A4
330
156
100
AcDbEntity
  8
0
100
AcDbBlockBegin
  2
_INTEGRAL
 70
     0
 71
     0
 10
0.0
 20
0.0
 30
0.0
  3
_INTEGRAL
  1

  0
ARC
  5
158
330
156
100
AcDbEntity
  8
0
  6
ByBlock
 62
     0
100
AcDbCircle
 10
0.444888
 20
-0.091335
 30
0.0
 40
0.454167
100
AcDbArc
 50
102.0
 51
168.0
  0
ARC
  5
159
330
156
100
AcDbEntity
  8
0
  6
ByBlock
 62
     0
100
AcDbCircle
 10
-0.444888
 20
0.091335
 30
0.0
 40
0.454167
100
AcDbArc
 50
282.0
 51
348.0
  0
ENDBLK
  5
8A5
330
156
100
AcDbEntity
  8
0
100
AcDbBlockEnd
  0
BLOCK
  5
8A6
330
1F1
100
AcDbEntity
  8
0
100
AcDbBlockBegin
  2
_Origin2
 70
     0
 71
     0
 10
0.0
 20
0.0
 30
0.0
  3
_Origin2
  1

  0
CIRCLE
  5
1F2
330
1F1
100
AcDbEntity
  8
0
  6
Continuous
 62
     0
370
    -2
100
AcDbCircle
 10
0.0
 20
0.0
 30
0.0
 40
0.5
  0
CIRCLE
  5
1F3
330
1F1
100
AcDbEntity
  8
0
  6
Continuous
 62
     0
370
    -2
100
AcDbCircle
 10
0.0
 20
0.0
 30
0.0
 40
0.25
  0
LINE
  5
1F4
330
1F1
100
AcDbEntity
  8
0
  6
Continuous
 62
     0
370
    -2
100
AcDbLine
 10
-0.5
 20
0.0
 30
0.0
 11
-1.0
 21
0.0
 31
0.0
  0
ENDBLK
  5
8A7
330
1F1
100
AcDbEntity
  8
0
100
AcDbBlockEnd
  0
BLOCK
  5
8A8
330
1F7
100
AcDbEntity
  8
0
100
AcDbBlockBegin
  2
KCAD_OPEN30
 70
     0
 71
     0
 10
0.0
 20
0.0
 30
0.0
  3
KCAD_OPEN30
  1

  0
LINE
  5
1F8
330
1F7
100
AcDbEntity
  8
0
  6
Continuous
 62
     0
370
    -2
100
AcDbLine
 10
0.0
 20
0.0
 30
0.0
 11
-1.0
 21
0.0
 31
0.0
  0
LINE
  5
1F9
330
1F7
100
AcDbEntity
  8
0
  6
Continuous
 62
     0
370
    -2
100
AcDbLine
 10
0.0
 20
0.0
 30
0.0
 11
-1.0
 21
0.2679491924311227
 31
0.0
  0
LINE
  5
1FA
330
1F7
100
AcDbEntity
  8
0
  6
Continuous
 62
     0
370
    -2
100
AcDbLine
 10
0.0
 20
0.0
 30
0.0
 11
-1.0
 21
-0.2679491924311227
 31
0.0
  0
ENDBLK
  5
8A9
330
1F7
100
AcDbEntity
  8
0
100
AcDbBlockEnd
  0
BLOCK
  5
8AA
330
222
100
AcDbEntity
  8
0
100
AcDbBlockBegin
  2
_None
 70
     0
 71
     0
 10
0.0
 20
0.0
 30
0.0
  3
_None
  1

  0
ENDBLK
  5
8AB
330
222
100
AcDbEntity
  8
0
100
AcDbBlockEnd
  0
BLOCK
  5
8AC
330
283
100
AcDbEntity
  8
0
100
AcDbBlockBegin
  2
_Small
 70
     0
 71
     0
 10
0.0
 20
0.0
 30
0.0
  3
_Small
  1

  0
CIRCLE
  5
284
330
283
100
AcDbEntity
  8
0
  6
ByBlock
 62
     0
370
    -2
100
AcDbCircle
 10
0.0
 20
0.0
 30
0.0
 40
0.25
  0
ENDBLK
  5
8AD
330
283
100
AcDbEntity
  8
0
100
AcDbBlockEnd
  0
BLOCK
  5
8AE
330
287
100
AcDbEntity
  8
0
100
AcDbBlockBegin
  2
KCAD_OPEN_2
 70
     0
 71
     0
 10
0.0
 20
0.0
 30
0.0
  3
KCAD_OPEN_2
  1

  0
LINE
  5
288
330
287
100
AcDbEntity
  8
0
  6
Continuous
 62
     0
370
    -2
100
AcDbLine
 10
0.0
 20
0.0
 30
0.0
 11
-2.0
 21
0.0
 31
0.0
  0
LINE
  5
289
330
287
100
AcDbEntity
  8
0
  6
Continuous
 62
     0
370
    -2
100
AcDbLine
 10
0.0
 20
0.0
 30
0.0
 11
-2.0
 21
0.3167688806490725
 31
0.0
  0
LINE
  5
28A
330
287
100
AcDbEntity
  8
0
  6
Continuous
 62
     0
370
    -2
100
AcDbLine
 10
0.0
 20
0.0
 30
0.0
 11
-2.0
 21
-0.3167688806490725
 31
0.0
  0
LINE
  5
28B
330
287
100
AcDbEntity
  8
0
  6
Continuous
 62
     0
370
    -2
100
AcDbLine
 10
-2.0
 20
0.0
 30
0.0
 11
-4.0
 21
0.0
 31
0.0
  0
ENDBLK
  5
8AF
330
287
100
AcDbEntity
  8
0
100
AcDbBlockEnd
  0
BLOCK
  5
8B0
330
28E
100
AcDbEntity
  8
0
100
AcDbBlockBegin
  2
KCAD_OPEN30_2
 70
     0
 71
     0
 10
0.0
 20
0.0
 30
0.0
  3
KCAD_OPEN30_2
  1

  0
LINE
  5
28F
330
28E
100
AcDbEntity
  8
0
  6
Continuous
 62
     0
370
    -2
100
AcDbLine
 10
0.0
 20
0.0
 30
0.0
 11
-2.0
 21
0.0
 31
0.0
  0
LINE
  5
290
330
28E
100
AcDbEntity
  8
0
  6
Continuous
 62
     0
370
    -2
100
AcDbLine
 10
0.0
 20
0.0
 30
0.0
 11
-2.0
 21
0.5358983848622455
 31
0.0
  0
LINE
  5
291
330
28E
100
AcDbEntity
  8
0
  6
Continuous
 62
     0
370
    -2
100
AcDbLine
 10
0.0
 20
0.0
 30
0.0
 11
-2.0
 21
-0.5358983848622455
 31
0.0
  0
LINE
  5
292
330
28E
100
AcDbEntity
  8
0
  6
Continuous
 62
     0
370
    -2
100
AcDbLine
 10
-2.0
 20
0.0
 30
0.0
 11
-4.0
 21
0.0
 31
0.0
  0
ENDBLK
  5
8B1
330
28E
100
AcDbEntity
  8
0
100
AcDbBlockEnd
  0
BLOCK
  5
8B2
330
2AD
100
AcDbEntity
  8
0
100
AcDbBlockBegin
  2
KCAD_OPEN30ANG
 70
     0
 71
     0
 10
0.0
 20
0.0
 30
0.0
  3
KCAD_OPEN30ANG
  1

  0
LINE
  5
2D7
330
2AD
100
AcDbEntity
  8
0
  6
Continuous
 62
     0
370
    -2
100
AcDbLine
 10
0.0
 20
0.0
 30
0.0
 11
-1.0
 21
-0.267949
 31
0.0
  0
LINE
  5
2D8
330
2AD
100
AcDbEntity
  8
0
  6
Continuous
 62
     0
370
    -2
100
AcDbLine
 10
-1.0
 20
0.267949
 30
0.0
 11
0.0
 21
0.0
 31
0.0
  0
ENDBLK
  5
8B3
330
2AD
100
AcDbEntity
  8
0
100
AcDbBlockEnd
  0
BLOCK
  5
8B4
330
2B6
100
AcDbEntity
  8
0
100
AcDbBlockBegin
  2
KCAD_DOTANG
 70
     0
 71
     0
 10
0.0
 20
0.0
 30
0.0
  3
KCAD_DOTANG
  1

  0
LWPOLYLINE
  5
2DD
330
2B6
100
AcDbEntity
  8
0
  6
ByBlock
 62
     0
100
AcDbPolyline
 90
        2
 70
     1
 43
0.5
 10
-0.25
 20
0.0
 42
1.0
 10
0.25
 20
0.0
 42
1.0
  0
ENDBLK
  5
8B5
330
2B6
100
AcDbEntity
  8
0
100
AcDbBlockEnd
  0
BLOCK
  5
8B6
330
3ED
100
AcDbEntity
  8
0
100
AcDbBlockBegin
  2
*D27
 70
     1
 71
     0
 10
0.0
 20
0.0
 30
0.0
  3
*D27
  1

  0
LINE
  5
41F
330
3ED
100
AcDbEntity
  8
KCAD_DIMS
 62
     0
370
    -2
100
AcDbLine
 10
-14.93273753528
 20
5.127762857425498
 30
0.0
 11
-14.93273753528
 21
25.659296469956
 31
0.0
  0
LINE
  5
420
330
3ED
100
AcDbEntity
  8
KCAD_DIMS
 62
     0
370
    -2
100
AcDbLine
 10
-101.0752587018
 20
5.127762857425498
 30
0.0
 11
-101.0752587018
 21
27.93336649457399
 31
0.0
  0
INSERT
  5
421
330
3ED
100
AcDbEntity
  8
KCAD_DIMS
 62
     0
370
    -2
100
AcDbBlockReference
  2
_OPEN30
 10
-14.93273753528
 20
6.127762857425498
 30
0.0
 41
3.0
 42
3.0
 43
3.0
  0
INSERT
  5
422
330
3ED
100
AcDbEntity
  8
KCAD_DIMS
 62
     0
370
    -2
100
AcDbBlockReference
  2
_OPEN30
 10
-101.0752587018
 20
6.127762857425498
 30
0.0
 41
3.0
 42
3.0
 43
3.0
 50
180.0
  0
LINE
  5
423
330
3ED
100
AcDbEntity
  8
KCAD_DIMS
 62
     0
370
    -2
100
AcDbLine
 10
-17.93273753527999
 20
6.127762857425498
 30
0.0
 11
-98.0752587018
 21
6.127762857425498
 31
0.0
  0
POINT
  5
424
330
3ED
100
AcDbEntity
  8
DEFPOINTS
 62
     0
370
    15
100
AcDbPoint
 10
-14.93273753528
 20
26.659296469956
 30
0.0
  0
POINT
  5
425
330
3ED
100
AcDbEntity
  8
DEFPOINTS
 62
     0
370
    15
100
AcDbPoint
 10
-101.0752587018
 20
28.93336649457399
 30
0.0
  0
POINT
  5
426
330
3ED
100
AcDbEntity
  8
DEFPOINTS
 62
     0
370
    15
100
AcDbPoint
 10
-101.0752587018
 20
6.1277628574255
 30
0.0
  0
MTEXT
  5
427
330
3ED
100
AcDbEntity
  8
KCAD_DIMS
 62
     0
100
AcDbMText
 10
-58.00399811855
 20
8.2610958574255
 30
0.0
 40
3.2
 41
0.0
 71
     5
 72
     1
  1
\A1;\A1;W.D
  7
KCADDIMSTANDARD
 73
     1
 44
1.0
  0
ENDBLK
  5
8B7
330
3ED
100
AcDbEntity
  8
0
100
AcDbBlockEnd
  0
BLOCK
  5
8B8
330
429
100
AcDbEntity
  8
0
100
AcDbBlockBegin
  2
*D28
 70
     1
 71
     0
 10
0.0
 20
0.0
 30
0.0
  3
*D28
  1

  0
LINE
  5
45B
330
429
100
AcDbEntity
  8
KCAD_DIMS
 62
     0
370
    -2
100
AcDbLine
 10
52.067262464722
 20
5.1277628574255
 30
0.0
 11
52.067262464722
 21
20.659296469956
 31
0.0
  0
LINE
  5
45C
330
429
100
AcDbEntity
  8
KCAD_DIMS
 62
     0
370
    -2
100
AcDbLine
 10
69.593262464721
 20
5.127762857425501
 30
0.0
 11
69.593262464721
 21
32.207894376322
 31
0.0
  0
INSERT
  5
45D
330
429
100
AcDbEntity
  8
KCAD_DIMS
 62
     0
370
    -2
100
AcDbBlockReference
  2
_OPEN30
 10
52.067262464722
 20
6.1277628574255
 30
0.0
 41
3.0
 42
3.0
 43
3.0
 50
180.0
  0
INSERT
  5
45E
330
429
100
AcDbEntity
  8
KCAD_DIMS
 62
     0
370
    -2
100
AcDbBlockReference
  2
_OPEN30
 10
69.593262464721
 20
6.127762857425501
 30
0.0
 41
3.0
 42
3.0
 43
3.0
  0
LINE
  5
45F
330
429
100
AcDbEntity
  8
KCAD_DIMS
 62
     0
370
    -2
100
AcDbLine
 10
55.067262464722
 20
6.1277628574255
 30
0.0
 11
66.593262464721
 21
6.1277628574255
 31
0.0
  0
POINT
  5
460
330
429
100
AcDbEntity
  8
DEFPOINTS
 62
     0
370
    15
100
AcDbPoint
 10
52.067262464722
 20
21.65929646995599
 30
0.0
  0
POINT
  5
461
330
429
100
AcDbEntity
  8
DEFPOINTS
 62
     0
370
    15
100
AcDbPoint
 10
69.593262464721
 20
33.207894376322
 30
0.0
  0
POINT
  5
462
330
429
100
AcDbEntity
  8
DEFPOINTS
 62
     0
370
    15
100
AcDbPoint
 10
69.593262464721
 20
6.1277628574255
 30
0.0
  0
MTEXT
  5
463
330
429
100
AcDbEntity
  8
KCAD_DIMS
 62
     0
100
AcDbMText
 10
60.830262464721
 20
8.2610958574255
 30
0.0
 40
3.2
 41
0.0
 71
     5
 72
     1
  1
\A1;17.526
  7
KCADDIMSTANDARD
 73
     1
 44
1.0
  0
ENDBLK
  5
8B9
330
429
100
AcDbEntity
  8
0
100
AcDbBlockEnd
  0
BLOCK
  5
8BA
330
465
100
AcDbEntity
  8
0
100
AcDbBlockBegin
  2
*D29
 70
     1
 71
     0
 10
0.0
 20
0.0
 30
0.0
  3
*D29
  1

  0
LINE
  5
497
330
465
100
AcDbEntity
  8
KCAD_DIMS
 62
     0
370
    -2
100
AcDbLine
 10
-44.16556914392999
 20
25.159296469956
 30
0.0
 11
14.567262464722
 21
25.159296469956
 31
0.0
  0
LINE
  5
498
330
465
100
AcDbEntity
  8
KCAD_DIMS
 62
     0
370
    -2
100
AcDbLine
 10
-44.16556914392999
 20
47.159296469956
 30
0.0
 11
14.567262464722
 21
47.159296469956
 31
0.0
  0
INSERT
  5
499
330
465
100
AcDbEntity
  8
KCAD_DIMS
 62
     0
370
    -2
100
AcDbBlockReference
  2
_OPEN30
 10
-43.16556914392999
 20
25.159296469956
 30
0.0
 41
3.0
 42
3.0
 43
3.0
 50
270.0
  0
INSERT
  5
49A
330
465
100
AcDbEntity
  8
KCAD_DIMS
 62
     0
370
    -2
100
AcDbBlockReference
  2
_OPEN30
 10
-43.16556914392999
 20
47.159296469956
 30
0.0
 41
3.0
 42
3.0
 43
3.0
 50
90.0
  0
LINE
  5
49B
330
465
100
AcDbEntity
  8
KCAD_DIMS
 62
     0
370
    -2
100
AcDbLine
 10
-43.16556914392999
 20
28.159296469956
 30
0.0
 11
-43.16556914392999
 21
44.159296469956
 31
0.0
  0
POINT
  5
49C
330
465
100
AcDbEntity
  8
DEFPOINTS
 62
     0
370
    15
100
AcDbPoint
 10
15.567262464722
 20
25.159296469956
 30
0.0
  0
POINT
  5
49D
330
465
100
AcDbEntity
  8
DEFPOINTS
 62
     0
370
    15
100
AcDbPoint
 10
15.567262464722
 20
47.159296469956
 30
0.0
  0
POINT
  5
49E
330
465
100
AcDbEntity
  8
DEFPOINTS
 62
     0
370
    15
100
AcDbPoint
 10
-43.16556914392999
 20
47.15929646995601
 30
0.0
  0
MTEXT
  5
49F
330
465
100
AcDbEntity
  8
KCAD_DIMS
 62
     0
100
AcDbMText
 10
-45.29890214393
 20
37.354033677893
 30
0.0
 40
3.2
 41
0.0
 71
     5
 72
     1
  1
\A1;%%c22
  7
KCADDIMSTANDARD
 11
1.000000000000000E-16
 21
1.0
 31
0.0
 73
     1
 44
1.0
  0
ENDBLK
  5
8BB
330
465
100
AcDbEntity
  8
0
100
AcDbBlockEnd
  0
BLOCK
  5
8BC
330
4A1
100
AcDbEntity
  8
0
100
AcDbBlockBegin
  2
*D30
 70
     1
 71
     0
 10
0.0
 20
0.0
 30
0.0
  3
*D30
  1

  0
LINE
  5
4D3
330
4A1
100
AcDbEntity
  8
KCAD_DIMS
 62
     0
370
    -2
100
AcDbLine
 10
-31.32455315145999
 20
45.65929646995599
 30
0.0
 11
-15.93273753527999
 21
45.65929646995599
 31
0.0
  0
LINE
  5
4D4
330
4A1
100
AcDbEntity
  8
KCAD_DIMS
 62
     0
370
    -2
100
AcDbLine
 10
-31.32455315146
 20
26.659296469956
 30
0.0
 11
-15.93273753527999
 21
26.659296469956
 31
0.0
  0
INSERT
  5
4D5
330
4A1
100
AcDbEntity
  8
KCAD_DIMS
 62
     0
370
    -2
100
AcDbBlockReference
  2
_OPEN30
 10
-30.32455315145999
 20
45.65929646995599
 30
0.0
 41
3.0
 42
3.0
 43
3.0
 50
89.99999999999999
  0
INSERT
  5
4D6
330
4A1
100
AcDbEntity
  8
KCAD_DIMS
 62
     0
370
    -2
100
AcDbBlockReference
  2
_OPEN30
 10
-30.32455315146
 20
26.659296469956
 30
0.0
 41
3.0
 42
3.0
 43
3.0
 50
270.0
  0
LINE
  5
4D7
330
4A1
100
AcDbEntity
  8
KCAD_DIMS
 62
     0
370
    -2
100
AcDbLine
 10
-30.32455315145999
 20
42.659296469956
 30
0.0
 11
-30.32455315146
 21
29.659296469956
 31
0.0
  0
POINT
  5
4D8
330
4A1
100
AcDbEntity
  8
DEFPOINTS
 62
     0
370
    15
100
AcDbPoint
 10
-14.93273753528
 20
45.65929646995599
 30
0.0
  0
POINT
  5
4D9
330
4A1
100
AcDbEntity
  8
DEFPOINTS
 62
     0
370
    15
100
AcDbPoint
 10
-14.93273753528
 20
26.659296469956
 30
0.0
  0
POINT
  5
4DA
330
4A1
100
AcDbEntity
  8
DEFPOINTS
 62
     0
370
    15
100
AcDbPoint
 10
-30.32455315146
 20
26.659296469956
 30
0.0
  0
MTEXT
  5
4DB
330
4A1
100
AcDbEntity
  8
KCAD_DIMS
 62
     0
100
AcDbMText
 10
-32.45788615146
 20
37.057349764441
 30
0.0
 40
3.2
 41
0.0
 71
     5
 72
     1
  1
\A1;%%c19
  7
KCADDIMSTANDARD
 11
1.000000000000000E-16
 21
1.0
 31
0.0
 73
     1
 44
1.0
  0
ENDBLK
  5
8BD
330
4A1
100
AcDbEntity
  8
0
100
AcDbBlockEnd
  0
BLOCK
  5
8BE
330
519
100
AcDbEntity
  8
0
100
AcDbBlockBegin
  2
*D31
 70
     1
 71
     0
 10
0.0
 20
0.0
 30
0.0
  3
*D31
  1

  0
LINE
  5
54B
330
519
100
AcDbEntity
  8
KCAD_DIMS
 62
     0
370
    -2
100
AcDbLine
 10
15.567262464722
 20
60.426468534272
 30
0.0
 11
15.567262464722
 21
46.65929646995599
 31
0.0
  0
LINE
  5
54C
330
519
100
AcDbEntity
  8
KCAD_DIMS
 62
     0
370
    -2
100
AcDbLine
 10
-14.93273753528
 20
60.426468534272
 30
0.0
 11
-14.93273753528
 21
46.65929646995599
 31
0.0
  0
INSERT
  5
54D
330
519
100
AcDbEntity
  8
KCAD_DIMS
 62
     0
370
    -2
100
AcDbBlockReference
  2
_OPEN30
 10
15.567262464722
 20
59.42646853427199
 30
0.0
 41
3.0
 42
3.0
 43
3.0
  0
INSERT
  5
54E
330
519
100
AcDbEntity
  8
KCAD_DIMS
 62
     0
370
    -2
100
AcDbBlockReference
  2
_OPEN30
 10
-14.93273753528
 20
59.42646853427199
 30
0.0
 41
3.0
 42
3.0
 43
3.0
 50
180.0
  0
LINE
  5
54F
330
519
100
AcDbEntity
  8
KCAD_DIMS
 62
     0
370
    -2
100
AcDbLine
 10
12.567262464722
 20
59.42646853427199
 30
0.0
 11
-11.93273753528
 21
59.42646853427199
 31
0.0
  0
POINT
  5
550
330
519
100
AcDbEntity
  8
DEFPOINTS
 62
     0
370
    15
100
AcDbPoint
 10
15.567262464722
 20
45.65929646995599
 30
0.0
  0
POINT
  5
551
330
519
100
AcDbEntity
  8
DEFPOINTS
 62
     0
370
    15
100
AcDbPoint
 10
-14.93273753528
 20
45.65929646995599
 30
0.0
  0
POINT
  5
552
330
519
100
AcDbEntity
  8
DEFPOINTS
 62
     0
370
    15
100
AcDbPoint
 10
-14.93273753528
 20
59.42646853427199
 30
0.0
  0
MTEXT
  5
553
330
519
100
AcDbEntity
  8
KCAD_DIMS
 62
     0
100
AcDbMText
 10
0.3172624647214
 20
61.559801534272
 30
0.0
 40
3.2
 41
0.0
 71
     5
 72
     1
  1
\A1;30.5
  7
KCADDIMSTANDARD
 73
     1
 44
1.0
  0
ENDBLK
  5
8BF
330
519
100
AcDbEntity
  8
0
100
AcDbBlockEnd
  0
BLOCK
  5
8C0
330
555
100
AcDbEntity
  8
0
100
AcDbBlockBegin
  2
*D32
 70
     1
 71
     0
 10
0.0
 20
0.0
 30
0.0
  3
*D32
  1

  0
LINE
  5
587
330
555
100
AcDbEntity
  8
KCAD_DIMS
 62
     0
370
    -2
100
AcDbLine
 10
-14.93273753528
 20
77.929337553065
 30
0.0
 11
-14.93273753528
 21
46.65929646995599
 31
0.0
  0
LINE
  5
588
330
555
100
AcDbEntity
  8
KCAD_DIMS
 62
     0
370
    -2
100
AcDbLine
 10
52.067262464722
 20
77.929337553065
 30
0.0
 11
52.067262464722
 21
51.659296469956
 31
0.0
  0
INSERT
  5
589
330
555
100
AcDbEntity
  8
KCAD_DIMS
 62
     0
370
    -2
100
AcDbBlockReference
  2
_OPEN30
 10
-14.93273753528
 20
76.929337553065
 30
0.0
 41
3.0
 42
3.0
 43
3.0
 50
180.0
  0
INSERT
  5
58A
330
555
100
AcDbEntity
  8
KCAD_DIMS
 62
     0
370
    -2
100
AcDbBlockReference
  2
_OPEN30
 10
52.067262464722
 20
76.929337553065
 30
0.0
 41
3.0
 42
3.0
 43
3.0
  0
LINE
  5
58B
330
555
100
AcDbEntity
  8
KCAD_DIMS
 62
     0
370
    -2
100
AcDbLine
 10
-11.93273753528
 20
76.929337553065
 30
0.0
 11
49.06726246472199
 21
76.929337553065
 31
0.0
  0
POINT
  5
58C
330
555
100
AcDbEntity
  8
DEFPOINTS
 62
     0
370
    15
100
AcDbPoint
 10
-14.93273753528
 20
45.65929646995599
 30
0.0
  0
POINT
  5
58D
330
555
100
AcDbEntity
  8
DEFPOINTS
 62
     0
370
    15
100
AcDbPoint
 10
52.067262464722
 20
50.65929646995599
 30
0.0
  0
POINT
  5
58E
330
555
100
AcDbEntity
  8
DEFPOINTS
 62
     0
370
    15
100
AcDbPoint
 10
52.067262464722
 20
76.929337553065
 30
0.0
  0
MTEXT
  5
58F
330
555
100
AcDbEntity
  8
KCAD_DIMS
 62
     0
100
AcDbMText
 10
18.567262464721
 20
79.06267055306499
 30
0.0
 40
3.2
 41
0.0
 71
     5
 72
     1
  1
\A1;67
  7
KCADDIMSTANDARD
 73
     1
 44
1.0
  0
ENDBLK
  5
8C1
330
555
100
AcDbEntity
  8
0
100
AcDbBlockEnd
  0
BLOCK
  5
8C2
330
591
100
AcDbEntity
  8
0
100
AcDbBlockBegin
  2
*D33
 70
     1
 71
     0
 10
0.0
 20
0.0
 30
0.0
  3
*D33
  1

  0
LINE
  5
5CD
330
591
100
AcDbEntity
  8
KCAD_DIMS
 62
     0
370
    -2
100
AcDbLine
 10
52.067262464722
 20
77.929337553065
 30
0.0
 11
52.067262464722
 21
51.659296469956
 31
0.0
  0
LINE
  5
5CE
330
591
100
AcDbEntity
  8
KCAD_DIMS
 62
     0
370
    -2
100
AcDbLine
 10
56.067262464722
 20
77.929337553065
 30
0.0
 11
56.067262464722
 21
49.109296469955
 31
0.0
  0
INSERT
  5
5CF
330
591
100
AcDbEntity
  8
KCAD_DIMS
 62
     0
370
    -2
100
AcDbBlockReference
  2
_OPEN30
 10
52.067262464722
 20
76.929337553065
 30
0.0
 41
3.0
 42
3.0
 43
3.0
  0
INSERT
  5
5D0
330
591
100
AcDbEntity
  8
KCAD_DIMS
 62
     0
370
    -2
100
AcDbBlockReference
  2
_OPEN30
 10
56.067262464722
 20
76.929337553065
 30
0.0
 41
3.0
 42
3.0
 43
3.0
 50
180.0
  0
LINE
  5
5D1
330
591
100
AcDbEntity
  8
KCAD_DIMS
 62
     0
370
    -2
100
AcDbLine
 10
52.067262464722
 20
76.929337553065
 30
0.0
 11
56.067262464722
 21
76.929337553065
 31
0.0
  0
LINE
  5
5D2
330
591
100
AcDbEntity
  8
KCAD_DIMS
 62
     0
370
    -2
100
AcDbLine
 10
49.06726246472199
 20
76.929337553065
 30
0.0
 11
47.06726246472199
 21
76.929337553065
 31
0.0
  0
LINE
  5
5D3
330
591
100
AcDbEntity
  8
KCAD_DIMS
 62
     0
370
    -2
100
AcDbLine
 10
59.06726246472199
 20
76.929337553065
 30
0.0
 11
65.1826198839519
 21
76.929337553065
 31
0.0
  0
POINT
  5
5D4
330
591
100
AcDbEntity
  8
DEFPOINTS
 62
     0
370
    15
100
AcDbPoint
 10
52.067262464722
 20
50.65929646995599
 30
0.0
  0
POINT
  5
5D5
330
591
100
AcDbEntity
  8
DEFPOINTS
 62
     0
370
    15
100
AcDbPoint
 10
56.067262464722
 20
48.109296469955
 30
0.0
  0
POINT
  5
5D6
330
591
100
AcDbEntity
  8
DEFPOINTS
 62
     0
370
    15
100
AcDbPoint
 10
56.067262464722
 20
76.929337553065
 30
0.0
  0
MTEXT
  5
5D7
330
591
100
AcDbEntity
  8
KCAD_DIMS
 62
     0
100
AcDbMText
 10
64.182619943556
 20
79.06267055306499
 30
0.0
 40
3.2
 41
0.0
 71
     5
 72
     1
  1
\A1;4
  7
KCADDIMSTANDARD
 73
     1
 44
1.0
  0
ENDBLK
  5
8C3
330
591
100
AcDbEntity
  8
0
100
AcDbBlockEnd
  0
BLOCK
  5
8C4
330
5D9
100
AcDbEntity
  8
0
100
AcDbBlockBegin
  2
*D34
 70
     1
 71
     0
 10
0.0
 20
0.0
 30
0.0
  3
*D34
  1

  0
LINE
  5
615
330
5D9
100
AcDbEntity
  8
KCAD_DIMS
 62
     0
370
    -2
100
AcDbLine
 10
52.067262464722
 20
60.926468534272
 30
0.0
 11
52.067262464722
 21
51.659296469956
 31
0.0
  0
LINE
  5
616
330
5D9
100
AcDbEntity
  8
KCAD_DIMS
 62
     0
370
    -2
100
AcDbLine
 10
46.067262464722
 20
60.926468534272
 30
0.0
 11
46.067262464722
 21
51.659296469956
 31
0.0
  0
INSERT
  5
617
330
5D9
100
AcDbEntity
  8
KCAD_DIMS
 62
     0
370
    -2
100
AcDbBlockReference
  2
_OPEN30
 10
52.067262464722
 20
59.92646853427199
 30
0.0
 41
3.0
 42
3.0
 43
3.0
  0
INSERT
  5
618
330
5D9
100
AcDbEntity
  8
KCAD_DIMS
 62
     0
370
    -2
100
AcDbBlockReference
  2
_OPEN30
 10
46.067262464722
 20
59.92646853427199
 30
0.0
 41
3.0
 42
3.0
 43
3.0
 50
180.0
  0
POINT
  5
619
330
5D9
100
AcDbEntity
  8
DEFPOINTS
 62
     0
370
    15
100
AcDbPoint
 10
52.067262464722
 20
50.65929646995599
 30
0.0
  0
POINT
  5
61A
330
5D9
100
AcDbEntity
  8
DEFPOINTS
 62
     0
370
    15
100
AcDbPoint
 10
46.067262464722
 20
50.65929646995599
 30
0.0
  0
POINT
  5
61B
330
5D9
100
AcDbEntity
  8
DEFPOINTS
 62
     0
370
    15
100
AcDbPoint
 10
46.067262464722
 20
59.92646853427199
 30
0.0
  0
MTEXT
  5
61C
330
5D9
100
AcDbEntity
  8
KCAD_DIMS
 62
     0
100
AcDbMText
 10
49.067262464721
 20
62.059801534272
 30
0.0
 40
3.2
 41
0.0
 71
     5
 72
     1
  1
\A1;6
  7
KCADDIMSTANDARD
 73
     1
 44
1.0
  0
ENDBLK
  5
8C5
330
5D9
100
AcDbEntity
  8
0
100
AcDbBlockEnd
  0
BLOCK
  5
8C6
330
61E
100
AcDbEntity
  8
0
100
AcDbBlockBegin
  2
*D35
 70
     1
 71
     0
 10
0.0
 20
0.0
 30
0.0
  3
*D35
  1

  0
LINE
  5
650
330
61E
100
AcDbEntity
  8
KCAD_DIMS
 62
     0
370
    -2
100
AcDbLine
 10
86.741650987771
 20
21.65929646995599
 30
0.0
 11
53.067262464722
 21
21.65929646995599
 31
0.0
  0
LINE
  5
651
330
61E
100
AcDbEntity
  8
KCAD_DIMS
 62
     0
370
    -2
100
AcDbLine
 10
86.741650987771
 20
50.65929646995599
 30
0.0
 11
53.067262464722
 21
50.65929646995599
 31
0.0
  0
INSERT
  5
652
330
61E
100
AcDbEntity
  8
KCAD_DIMS
 62
     0
370
    -2
100
AcDbBlockReference
  2
_OPEN30
 10
85.741650987771
 20
21.65929646995599
 30
0.0
 41
3.0
 42
3.0
 43
3.0
 50
270.0
  0
INSERT
  5
653
330
61E
100
AcDbEntity
  8
KCAD_DIMS
 62
     0
370
    -2
100
AcDbBlockReference
  2
_OPEN30
 10
85.741650987771
 20
50.65929646995599
 30
0.0
 41
3.0
 42
3.0
 43
3.0
 50
90.0
  0
LINE
  5
654
330
61E
100
AcDbEntity
  8
KCAD_DIMS
 62
     0
370
    -2
100
AcDbLine
 10
85.741650987771
 20
24.65929646995599
 30
0.0
 11
85.741650987771
 21
47.659296469956
 31
0.0
  0
POINT
  5
655
330
61E
100
AcDbEntity
  8
DEFPOINTS
 62
     0
370
    15
100
AcDbPoint
 10
52.067262464722
 20
21.65929646995599
 30
0.0
  0
POINT
  5
656
330
61E
100
AcDbEntity
  8
DEFPOINTS
 62
     0
370
    15
100
AcDbPoint
 10
52.067262464722
 20
50.65929646995599
 30
0.0
  0
POINT
  5
657
330
61E
100
AcDbEntity
  8
DEFPOINTS
 62
     0
370
    15
100
AcDbPoint
 10
85.741650987771
 20
50.65929646995599
 30
0.0
  0
MTEXT
  5
658
330
61E
100
AcDbEntity
  8
KCAD_DIMS
 62
     0
100
AcDbMText
 10
83.608317987771
 20
36.15929646995599
 30
0.0
 40
3.2
 41
0.0
 71
     5
 72
     1
  1
\A1;%%c29
  7
KCADDIMSTANDARD
 11
1.000000000000000E-16
 21
1.0
 31
0.0
 73
     1
 44
1.0
  0
ENDBLK
  5
8C7
330
61E
100
AcDbEntity
  8
0
100
AcDbBlockEnd
  0
BLOCK
  5
8C8
330
66D
100
AcDbEntity
  8
0
100
AcDbBlockBegin
  2
*D36
 70
     1
 71
     0
 10
0.0
 20
0.0
 30
0.0
  3
*D36
  1

  0
POINT
  5
663
330
66D
100
AcDbEntity
  8
DEFPOINTS
  6
ByBlock
 62
     0
370
    15
100
AcDbPoint
 10
-14.93273753528
 20
26.659296469956
 30
0.0
  0
POINT
  5
664
330
66D
100
AcDbEntity
  8
DEFPOINTS
  6
ByBlock
 62
     0
370
    15
100
AcDbPoint
 10
-101.0752587018
 20
28.93336649457399
 30
0.0
  0
LINE
  5
665
330
66D
100
AcDbEntity
  8
0
  6
ByBlock
 62
     0
370
    -2
100
AcDbLine
 10
-14.93273753528
 20
25.659296469956
 30
0.0
 11
-14.93273753528
 21
5.127762857425498
 31
0.0
  0
LINE
  5
666
330
66D
100
AcDbEntity
  8
0
  6
ByBlock
 62
     0
370
    -2
100
AcDbLine
 10
-101.0752587018
 20
27.93336649457399
 30
0.0
 11
-101.0752587018
 21
5.127762857425498
 31
0.0
  0
LINE
  5
667
330
66D
100
AcDbEntity
  8
0
  6
ByBlock
 62
     0
370
    -2
100
AcDbLine
 10
-14.93273753528
 20
6.127762857425498
 30
0.0
 11
-101.0752587018
 21
6.127762857425498
 31
0.0
  0
SOLID
  5
668
330
66D
100
AcDbEntity
  8
0
  6
ByBlock
 62
     0
370
    15
100
AcDbTrace
 10
-14.93273753528
 20
6.127762857425498
 30
0.0
 11
-17.93273753528
 21
6.627762857425598
 31
0.0
 12
-17.93273753528
 22
5.627762857425399
 32
0.0
 13
-17.93273753528
 23
5.627762857425399
 33
0.0
  0
SOLID
  5
669
330
66D
100
AcDbEntity
  8
0
  6
ByBlock
 62
     0
370
    15
100
AcDbTrace
 10
-101.0752587018
 20
6.127762857425498
 30
0.0
 11
-98.0752587018
 21
6.627762857425598
 31
0.0
 12
-98.0752587018
 22
5.627762857425399
 32
0.0
 13
-98.0752587018
 23
5.627762857425399
 33
0.0
  0
LINE
  5
66A
330
66D
100
AcDbEntity
  8
0
  6
ByBlock
 62
     0
370
    -2
100
AcDbLine
 10
-14.93273753528
 20
26.659296469956
 30
0.0
 11
-14.93273753528
 21
26.659296469956
 31
0.0
  0
MTEXT
  5
66B
330
66D
100
AcDbEntity
  8
0
  6
ByBlock
 62
     0
100
AcDbMText
 10
-58.00399811855
 20
8.261095857425499
 30
0.0
 40
3.2
 41
0.0
 71
     5
 72
     1
  1
\A1;W.D
  7
KCADDIMSTANDARD
 73
     1
 44
1.0
  0
ENDBLK
  5
8C9
330
66D
100
AcDbEntity
  8
0
100
AcDbBlockEnd
  0
BLOCK
  5
8CA
330
679
100
AcDbEntity
  8
0
100
AcDbBlockBegin
  2
*D37
 70
     1
 71
     0
 10
0.0
 20
0.0
 30
0.0
  3
*D37
  1

  0
POINT
  5
66F
330
679
100
AcDbEntity
  8
DEFPOINTS
  6
ByBlock
 62
     0
370
    15
100
AcDbPoint
 10
52.067262464722
 20
21.65929646995599
 30
0.0
  0
POINT
  5
670
330
679
100
AcDbEntity
  8
DEFPOINTS
  6
ByBlock
 62
     0
370
    15
100
AcDbPoint
 10
69.593262464721
 20
33.207894376322
 30
0.0
  0
LINE
  5
671
330
679
100
AcDbEntity
  8
0
  6
ByBlock
 62
     0
370
    -2
100
AcDbLine
 10
52.067262464722
 20
20.65929646995599
 30
0.0
 11
52.067262464722
 21
5.127762857425502
 31
0.0
  0
LINE
  5
672
330
679
100
AcDbEntity
  8
0
  6
ByBlock
 62
     0
370
    -2
100
AcDbLine
 10
69.593262464721
 20
32.207894376322
 30
0.0
 11
69.593262464721
 21
5.127762857425502
 31
0.0
  0
LINE
  5
673
330
679
100
AcDbEntity
  8
0
  6
ByBlock
 62
     0
370
    -2
100
AcDbLine
 10
52.067262464722
 20
6.1277628574255
 30
0.0
 11
69.593262464721
 21
6.1277628574255
 31
0.0
  0
SOLID
  5
674
330
679
100
AcDbEntity
  8
0
  6
ByBlock
 62
     0
370
    15
100
AcDbTrace
 10
52.067262464722
 20
6.1277628574255
 30
0.0
 11
55.067262464722
 21
5.627762857425399
 31
0.0
 12
55.067262464722
 22
6.6277628574256
 32
0.0
 13
55.067262464722
 23
6.6277628574256
 33
0.0
  0
SOLID
  5
675
330
679
100
AcDbEntity
  8
0
  6
ByBlock
 62
     0
370
    15
100
AcDbTrace
 10
69.593262464721
 20
6.1277628574255
 30
0.0
 11
66.593262464721
 21
5.627762857425399
 31
0.0
 12
66.593262464721
 22
6.6277628574256
 32
0.0
 13
66.593262464721
 23
6.6277628574256
 33
0.0
  0
LINE
  5
676
330
679
100
AcDbEntity
  8
0
  6
ByBlock
 62
     0
370
    -2
100
AcDbLine
 10
52.067262464722
 20
21.65929646995599
 30
0.0
 11
52.067262464722
 21
21.65929646995599
 31
0.0
  0
MTEXT
  5
677
330
679
100
AcDbEntity
  8
0
  6
ByBlock
 62
     0
100
AcDbMText
 10
60.830262464721
 20
8.2610958574255
 30
0.0
 40
3.2
 41
0.0
 71
     5
 72
     1
  1
17.526
  7
KCADDIMSTANDARD
 73
     1
 44
1.0
  0
ENDBLK
  5
8CB
330
679
100
AcDbEntity
  8
0
100
AcDbBlockEnd
  0
BLOCK
  5
8CC
330
685
100
AcDbEntity
  8
0
100
AcDbBlockBegin
  2
*D38
 70
     1
 71
     0
 10
0.0
 20
0.0
 30
0.0
  3
*D38
  1

  0
POINT
  5
67B
330
685
100
AcDbEntity
  8
DEFPOINTS
  6
ByBlock
 62
     0
370
    15
100
AcDbPoint
 10
15.567262464722
 20
25.159296469956
 30
0.0
  0
POINT
  5
67C
330
685
100
AcDbEntity
  8
DEFPOINTS
  6
ByBlock
 62
     0
370
    15
100
AcDbPoint
 10
15.567262464722
 20
47.159296469956
 30
0.0
  0
LINE
  5
67D
330
685
100
AcDbEntity
  8
0
  6
ByBlock
 62
     0
370
    -2
100
AcDbLine
 10
14.567262464722
 20
25.159296469956
 30
0.0
 11
-44.16556914392999
 21
25.159296469956
 31
0.0
  0
LINE
  5
67E
330
685
100
AcDbEntity
  8
0
  6
ByBlock
 62
     0
370
    -2
100
AcDbLine
 10
14.567262464722
 20
47.159296469956
 30
0.0
 11
-44.16556914392999
 21
47.159296469956
 31
0.0
  0
LINE
  5
67F
330
685
100
AcDbEntity
  8
0
  6
ByBlock
 62
     0
370
    -2
100
AcDbLine
 10
-43.16556914392999
 20
25.159296469956
 30
0.0
 11
-43.16556914392999
 21
47.159296469956
 31
0.0
  0
SOLID
  5
680
330
685
100
AcDbEntity
  8
0
  6
ByBlock
 62
     0
370
    15
100
AcDbTrace
 10
-43.16556914392999
 20
25.159296469956
 30
0.0
 11
-42.66556914392989
 21
28.159296469956
 31
0.0
 12
-43.66556914393009
 22
28.159296469956
 32
0.0
 13
-43.66556914393009
 23
28.159296469956
 33
0.0
  0
SOLID
  5
681
330
685
100
AcDbEntity
  8
0
  6
ByBlock
 62
     0
370
    15
100
AcDbTrace
 10
-43.16556914392999
 20
47.159296469956
 30
0.0
 11
-42.66556914392989
 21
44.159296469956
 31
0.0
 12
-43.66556914393009
 22
44.159296469956
 32
0.0
 13
-43.66556914393009
 23
44.159296469956
 33
0.0
  0
LINE
  5
682
330
685
100
AcDbEntity
  8
0
  6
ByBlock
 62
     0
370
    -2
100
AcDbLine
 10
15.567262464722
 20
25.159296469956
 30
0.0
 11
15.567262464722
 21
25.159296469956
 31
0.0
  0
MTEXT
  5
683
330
685
100
AcDbEntity
  8
0
  6
ByBlock
 62
     0
100
AcDbMText
 10
-45.29890214393
 20
37.354033677893
 30
0.0
 40
3.2
 41
0.0
 71
     5
 72
     1
  1
\A1;%%c22
  7
KCADDIMSTANDARD
 11
6.123031769111886E-17
 21
1.0
 31
0.0
 73
     1
 44
1.0
  0
ENDBLK
  5
8CD
330
685
100
AcDbEntity
  8
0
100
AcDbBlockEnd
  0
BLOCK
  5
8CE
330
691
100
AcDbEntity
  8
0
100
AcDbBlockBegin
  2
*D39
 70
     1
 71
     0
 10
0.0
 20
0.0
 30
0.0
  3
*D39
  1

  0
POINT
  5
687
330
691
100
AcDbEntity
  8
DEFPOINTS
  6
ByBlock
 62
     0
370
    15
100
AcDbPoint
 10
-14.93273753528
 20
45.65929646995599
 30
0.0
  0
POINT
  5
688
330
691
100
AcDbEntity
  8
DEFPOINTS
  6
ByBlock
 62
     0
370
    15
100
AcDbPoint
 10
-14.93273753528
 20
26.659296469956
 30
0.0
  0
LINE
  5
689
330
691
100
AcDbEntity
  8
0
  6
ByBlock
 62
     0
370
    -2
100
AcDbLine
 10
-15.93273753528
 20
45.65929646995599
 30
0.0
 11
-31.32455315146
 21
45.65929646995599
 31
0.0
  0
LINE
  5
68A
330
691
100
AcDbEntity
  8
0
  6
ByBlock
 62
     0
370
    -2
100
AcDbLine
 10
-15.93273753528
 20
26.659296469956
 30
0.0
 11
-31.32455315146
 21
26.659296469956
 31
0.0
  0
LINE
  5
68B
330
691
100
AcDbEntity
  8
0
  6
ByBlock
 62
     0
370
    -2
100
AcDbLine
 10
-30.32455315146
 20
45.65929646995599
 30
0.0
 11
-30.32455315146
 21
26.659296469956
 31
0.0
  0
SOLID
  5
68C
330
691
100
AcDbEntity
  8
0
  6
ByBlock
 62
     0
370
    15
100
AcDbTrace
 10
-30.32455315146
 20
45.65929646995599
 30
0.0
 11
-30.8245531514601
 21
42.65929646995599
 31
0.0
 12
-29.8245531514599
 22
42.65929646995599
 32
0.0
 13
-29.8245531514599
 23
42.65929646995599
 33
0.0
  0
SOLID
  5
68D
330
691
100
AcDbEntity
  8
0
  6
ByBlock
 62
     0
370
    15
100
AcDbTrace
 10
-30.32455315146
 20
26.659296469956
 30
0.0
 11
-30.8245531514601
 21
29.659296469956
 31
0.0
 12
-29.8245531514599
 22
29.659296469956
 32
0.0
 13
-29.8245531514599
 23
29.659296469956
 33
0.0
  0
LINE
  5
68E
330
691
100
AcDbEntity
  8
0
  6
ByBlock
 62
     0
370
    -2
100
AcDbLine
 10
-14.93273753528
 20
45.65929646995599
 30
0.0
 11
-14.93273753528
 21
45.65929646995599
 31
0.0
  0
MTEXT
  5
68F
330
691
100
AcDbEntity
  8
0
  6
ByBlock
 62
     0
100
AcDbMText
 10
-32.45788615146
 20
37.057349764441
 30
0.0
 40
3.2
 41
0.0
 71
     5
 72
     1
  1
\A1;%%c19
  7
KCADDIMSTANDARD
 11
6.123031769111886E-17
 21
1.0
 31
0.0
 73
     1
 44
1.0
  0
ENDBLK
  5
8CF
330
691
100
AcDbEntity
  8
0
100
AcDbBlockEnd
  0
BLOCK
  5
8D0
330
69D
100
AcDbEntity
  8
0
100
AcDbBlockBegin
  2
*D40
 70
     1
 71
     0
 10
0.0
 20
0.0
 30
0.0
  3
*D40
  1

  0
POINT
  5
693
330
69D
100
AcDbEntity
  8
DEFPOINTS
  6
ByBlock
 62
     0
370
    15
100
AcDbPoint
 10
15.567262464722
 20
45.65929646995599
 30
0.0
  0
POINT
  5
694
330
69D
100
AcDbEntity
  8
DEFPOINTS
  6
ByBlock
 62
     0
370
    15
100
AcDbPoint
 10
-14.93273753528
 20
45.65929646995599
 30
0.0
  0
LINE
  5
695
330
69D
100
AcDbEntity
  8
0
  6
ByBlock
 62
     0
370
    -2
100
AcDbLine
 10
15.567262464722
 20
46.65929646995599
 30
0.0
 11
15.567262464722
 21
60.42646853427199
 31
0.0
  0
LINE
  5
696
330
69D
100
AcDbEntity
  8
0
  6
ByBlock
 62
     0
370
    -2
100
AcDbLine
 10
-14.93273753528
 20
46.65929646995599
 30
0.0
 11
-14.93273753528
 21
60.42646853427199
 31
0.0
  0
LINE
  5
697
330
69D
100
AcDbEntity
  8
0
  6
ByBlock
 62
     0
370
    -2
100
AcDbLine
 10
15.567262464722
 20
59.42646853427199
 30
0.0
 11
-14.93273753528
 21
59.42646853427199
 31
0.0
  0
SOLID
  5
698
330
69D
100
AcDbEntity
  8
0
  6
ByBlock
 62
     0
370
    15
100
AcDbTrace
 10
15.567262464722
 20
59.42646853427199
 30
0.0
 11
12.567262464722
 21
59.92646853427209
 31
0.0
 12
12.567262464722
 22
58.92646853427189
 32
0.0
 13
12.567262464722
 23
58.92646853427189
 33
0.0
  0
SOLID
  5
699
330
69D
100
AcDbEntity
  8
0
  6
ByBlock
 62
     0
370
    15
100
AcDbTrace
 10
-14.93273753528
 20
59.42646853427199
 30
0.0
 11
-11.93273753528
 21
59.92646853427209
 31
0.0
 12
-11.93273753528
 22
58.92646853427189
 32
0.0
 13
-11.93273753528
 23
58.92646853427189
 33
0.0
  0
LINE
  5
69A
330
69D
100
AcDbEntity
  8
0
  6
ByBlock
 62
     0
370
    -2
100
AcDbLine
 10
15.567262464722
 20
45.65929646995599
 30
0.0
 11
15.567262464722
 21
45.65929646995599
 31
0.0
  0
MTEXT
  5
69B
330
69D
100
AcDbEntity
  8
0
  6
ByBlock
 62
     0
100
AcDbMText
 10
0.3172624647214004
 20
61.559801534272
 30
0.0
 40
3.2
 41
0.0
 71
     5
 72
     1
  1
30.5
  7
KCADDIMSTANDARD
 73
     1
 44
1.0
  0
ENDBLK
  5
8D1
330
69D
100
AcDbEntity
  8
0
100
AcDbBlockEnd
  0
BLOCK
  5
8D2
330
6A9
100
AcDbEntity
  8
0
100
AcDbBlockBegin
  2
*D41
 70
     1
 71
     0
 10
0.0
 20
0.0
 30
0.0
  3
*D41
  1

  0
POINT
  5
69F
330
6A9
100
AcDbEntity
  8
DEFPOINTS
  6
ByBlock
 62
     0
370
    15
100
AcDbPoint
 10
-14.93273753528
 20
45.65929646995599
 30
0.0
  0
POINT
  5
6A0
330
6A9
100
AcDbEntity
  8
DEFPOINTS
  6
ByBlock
 62
     0
370
    15
100
AcDbPoint
 10
52.067262464722
 20
50.65929646995599
 30
0.0
  0
LINE
  5
6A1
330
6A9
100
AcDbEntity
  8
0
  6
ByBlock
 62
     0
370
    -2
100
AcDbLine
 10
-14.93273753528
 20
46.65929646995599
 30
0.0
 11
-14.93273753528
 21
77.929337553065
 31
0.0
  0
LINE
  5
6A2
330
6A9
100
AcDbEntity
  8
0
  6
ByBlock
 62
     0
370
    -2
100
AcDbLine
 10
52.06726246472201
 20
51.65929646995599
 30
0.0
 11
52.06726246472201
 21
77.929337553065
 31
0.0
  0
LINE
  5
6A3
330
6A9
100
AcDbEntity
  8
0
  6
ByBlock
 62
     0
370
    -2
100
AcDbLine
 10
-14.93273753528
 20
76.929337553065
 30
0.0
 11
52.06726246472201
 21
76.929337553065
 31
0.0
  0
SOLID
  5
6A4
330
6A9
100
AcDbEntity
  8
0
  6
ByBlock
 62
     0
370
    15
100
AcDbTrace
 10
-14.93273753528
 20
76.929337553065
 30
0.0
 11
-11.93273753528
 21
76.4293375530649
 31
0.0
 12
-11.93273753528
 22
77.4293375530651
 32
0.0
 13
-11.93273753528
 23
77.4293375530651
 33
0.0
  0
SOLID
  5
6A5
330
6A9
100
AcDbEntity
  8
0
  6
ByBlock
 62
     0
370
    15
100
AcDbTrace
 10
52.06726246472201
 20
76.929337553065
 30
0.0
 11
49.06726246472201
 21
76.4293375530649
 31
0.0
 12
49.06726246472201
 22
77.4293375530651
 32
0.0
 13
49.06726246472201
 23
77.4293375530651
 33
0.0
  0
LINE
  5
6A6
330
6A9
100
AcDbEntity
  8
0
  6
ByBlock
 62
     0
370
    -2
100
AcDbLine
 10
-14.93273753528
 20
45.65929646995599
 30
0.0
 11
-14.93273753528
 21
45.65929646995599
 31
0.0
  0
MTEXT
  5
6A7
330
6A9
100
AcDbEntity
  8
0
  6
ByBlock
 62
     0
100
AcDbMText
 10
18.567262464721
 20
79.06267055306499
 30
0.0
 40
3.2
 41
0.0
 71
     5
 72
     1
  1
67
  7
KCADDIMSTANDARD
 73
     1
 44
1.0
  0
ENDBLK
  5
8D3
330
6A9
100
AcDbEntity
  8
0
100
AcDbBlockEnd
  0
BLOCK
  5
8D4
330
6B6
100
AcDbEntity
  8
0
100
AcDbBlockBegin
  2
*D42
 70
     1
 71
     0
 10
0.0
 20
0.0
 30
0.0
  3
*D42
  1

  0
POINT
  5
6AB
330
6B6
100
AcDbEntity
  8
DEFPOINTS
  6
ByBlock
 62
     0
370
    15
100
AcDbPoint
 10
52.067262464722
 20
50.65929646995599
 30
0.0
  0
POINT
  5
6AC
330
6B6
100
AcDbEntity
  8
DEFPOINTS
  6
ByBlock
 62
     0
370
    15
100
AcDbPoint
 10
56.067262464722
 20
48.109296469955
 30
0.0
  0
LINE
  5
6AD
330
6B6
100
AcDbEntity
  8
0
  6
ByBlock
 62
     0
370
    -2
100
AcDbLine
 10
52.067262464722
 20
51.65929646995599
 30
0.0
 11
52.067262464722
 21
77.929337553065
 31
0.0
  0
LINE
  5
6AE
330
6B6
100
AcDbEntity
  8
0
  6
ByBlock
 62
     0
370
    -2
100
AcDbLine
 10
56.067262464722
 20
49.109296469955
 30
0.0
 11
56.067262464722
 21
77.929337553065
 31
0.0
  0
LINE
  5
6AF
330
6B6
100
AcDbEntity
  8
0
  6
ByBlock
 62
     0
370
    -2
100
AcDbLine
 10
49.067262464722
 20
76.929337553065
 30
0.0
 11
46.067262464722
 21
76.929337553065
 31
0.0
  0
SOLID
  5
6B0
330
6B6
100
AcDbEntity
  8
0
  6
ByBlock
 62
     0
370
    15
100
AcDbTrace
 10
52.067262464722
 20
76.929337553065
 30
0.0
 11
49.067262464722
 21
76.4293375530649
 31
0.0
 12
49.067262464722
 22
77.4293375530651
 32
0.0
 13
49.067262464722
 23
77.4293375530651
 33
0.0
  0
LINE
  5
6B1
330
6B6
100
AcDbEntity
  8
0
  6
ByBlock
 62
     0
370
    -2
100
AcDbLine
 10
59.067262464722
 20
76.929337553065
 30
0.0
 11
62.067262464722
 21
76.929337553065
 31
0.0
  0
SOLID
  5
6B2
330
6B6
100
AcDbEntity
  8
0
  6
ByBlock
 62
     0
370
    15
100
AcDbTrace
 10
56.067262464722
 20
76.929337553065
 30
0.0
 11
59.067262464722
 21
76.4293375530649
 31
0.0
 12
59.067262464722
 22
77.4293375530651
 32
0.0
 13
59.067262464722
 23
77.4293375530651
 33
0.0
  0
LINE
  5
6B3
330
6B6
100
AcDbEntity
  8
0
  6
ByBlock
 62
     0
370
    -2
100
AcDbLine
 10
52.067262464722
 20
76.929337553065
 30
0.0
 11
56.067262464722
 21
76.929337553065
 31
0.0
  0
MTEXT
  5
6B4
330
6B6
100
AcDbEntity
  8
0
  6
ByBlock
 62
     0
100
AcDbMText
 10
64.182619943556
 20
79.06267055306499
 30
0.0
 40
3.2
 41
0.0
 71
     5
 72
     1
  1
4
  7
KCADDIMSTANDARD
 73
     1
 44
1.0
  0
ENDBLK
  5
8D5
330
6B6
100
AcDbEntity
  8
0
100
AcDbBlockEnd
  0
BLOCK
  5
8D6
330
6C3
100
AcDbEntity
  8
0
100
AcDbBlockBegin
  2
*D43
 70
     1
 71
     0
 10
0.0
 20
0.0
 30
0.0
  3
*D43
  1

  0
POINT
  5
6B8
330
6C3
100
AcDbEntity
  8
DEFPOINTS
  6
ByBlock
 62
     0
370
    15
100
AcDbPoint
 10
52.067262464722
 20
50.65929646995599
 30
0.0
  0
POINT
  5
6B9
330
6C3
100
AcDbEntity
  8
DEFPOINTS
  6
ByBlock
 62
     0
370
    15
100
AcDbPoint
 10
46.067262464722
 20
50.65929646995599
 30
0.0
  0
LINE
  5
6BA
330
6C3
100
AcDbEntity
  8
0
  6
ByBlock
 62
     0
370
    -2
100
AcDbLine
 10
52.067262464722
 20
51.65929646995599
 30
0.0
 11
52.067262464722
 21
60.92646853427199
 31
0.0
  0
LINE
  5
6BB
330
6C3
100
AcDbEntity
  8
0
  6
ByBlock
 62
     0
370
    -2
100
AcDbLine
 10
46.067262464722
 20
51.65929646995599
 30
0.0
 11
46.067262464722
 21
60.92646853427199
 31
0.0
  0
LINE
  5
6BC
330
6C3
100
AcDbEntity
  8
0
  6
ByBlock
 62
     0
370
    -2
100
AcDbLine
 10
55.067262464722
 20
59.92646853427199
 30
0.0
 11
58.067262464722
 21
59.92646853427199
 31
0.0
  0
SOLID
  5
6BD
330
6C3
100
AcDbEntity
  8
0
  6
ByBlock
 62
     0
370
    15
100
AcDbTrace
 10
52.067262464722
 20
59.92646853427199
 30
0.0
 11
55.067262464722
 21
60.42646853427209
 31
0.0
 12
55.067262464722
 22
59.42646853427189
 32
0.0
 13
55.067262464722
 23
59.42646853427189
 33
0.0
  0
LINE
  5
6BE
330
6C3
100
AcDbEntity
  8
0
  6
ByBlock
 62
     0
370
    -2
100
AcDbLine
 10
43.067262464722
 20
59.92646853427199
 30
0.0
 11
40.067262464722
 21
59.92646853427199
 31
0.0
  0
SOLID
  5
6BF
330
6C3
100
AcDbEntity
  8
0
  6
ByBlock
 62
     0
370
    15
100
AcDbTrace
 10
46.067262464722
 20
59.92646853427199
 30
0.0
 11
43.067262464722
 21
60.42646853427209
 31
0.0
 12
43.067262464722
 22
59.42646853427189
 32
0.0
 13
43.067262464722
 23
59.42646853427189
 33
0.0
  0
LINE
  5
6C0
330
6C3
100
AcDbEntity
  8
0
  6
ByBlock
 62
     0
370
    -2
100
AcDbLine
 10
52.067262464722
 20
59.92646853427199
 30
0.0
 11
46.067262464722
 21
59.92646853427199
 31
0.0
  0
MTEXT
  5
6C1
330
6C3
100
AcDbEntity
  8
0
  6
ByBlock
 62
     0
100
AcDbMText
 10
49.067262464721
 20
62.059801534272
 30
0.0
 40
3.2
 41
0.0
 71
     5
 72
     1
  1
6
  7
KCADDIMSTANDARD
 73
     1
 44
1.0
  0
ENDBLK
  5
8D7
330
6C3
100
AcDbEntity
  8
0
100
AcDbBlockEnd
  0
BLOCK
  5
8D8
330
6CF
100
AcDbEntity
  8
0
100
AcDbBlockBegin
  2
*D44
 70
     1
 71
     0
 10
0.0
 20
0.0
 30
0.0
  3
*D44
  1

  0
POINT
  5
6C5
330
6CF
100
AcDbEntity
  8
DEFPOINTS
  6
ByBlock
 62
     0
370
    15
100
AcDbPoint
 10
52.067262464722
 20
21.65929646995599
 30
0.0
  0
POINT
  5
6C6
330
6CF
100
AcDbEntity
  8
DEFPOINTS
  6
ByBlock
 62
     0
370
    15
100
AcDbPoint
 10
52.067262464722
 20
50.65929646995599
 30
0.0
  0
LINE
  5
6C7
330
6CF
100
AcDbEntity
  8
0
  6
ByBlock
 62
     0
370
    -2
100
AcDbLine
 10
53.067262464722
 20
21.65929646995599
 30
0.0
 11
86.741650987771
 21
21.65929646995599
 31
0.0
  0
LINE
  5
6C8
330
6CF
100
AcDbEntity
  8
0
  6
ByBlock
 62
     0
370
    -2
100
AcDbLine
 10
53.067262464722
 20
50.65929646995599
 30
0.0
 11
86.741650987771
 21
50.65929646995599
 31
0.0
  0
LINE
  5
6C9
330
6CF
100
AcDbEntity
  8
0
  6
ByBlock
 62
     0
370
    -2
100
AcDbLine
 10
85.741650987771
 20
21.65929646995599
 30
0.0
 11
85.741650987771
 21
50.65929646995599
 31
0.0
  0
SOLID
  5
6CA
330
6CF
100
AcDbEntity
  8
0
  6
ByBlock
 62
     0
370
    15
100
AcDbTrace
 10
85.741650987771
 20
21.65929646995599
 30
0.0
 11
86.2416509877711
 21
24.65929646995599
 31
0.0
 12
85.2416509877709
 22
24.65929646995599
 32
0.0
 13
85.2416509877709
 23
24.65929646995599
 33
0.0
  0
SOLID
  5
6CB
330
6CF
100
AcDbEntity
  8
0
  6
ByBlock
 62
     0
370
    15
100
AcDbTrace
 10
85.741650987771
 20
50.65929646995599
 30
0.0
 11
86.2416509877711
 21
47.65929646995599
 31
0.0
 12
85.2416509877709
 22
47.65929646995599
 32
0.0
 13
85.2416509877709
 23
47.65929646995599
 33
0.0
  0
LINE
  5
6CC
330
6CF
100
AcDbEntity
  8
0
  6
ByBlock
 62
     0
370
    -2
100
AcDbLine
 10
52.067262464722
 20
21.65929646995599
 30
0.0
 11
52.067262464722
 21
21.65929646995599
 31
0.0
  0
MTEXT
  5
6CD
330
6CF
100
AcDbEntity
  8
0
  6
ByBlock
 62
     0
100
AcDbMText
 10
83.608317987771
 20
36.15929646995599
 30
0.0
 40
3.2
 41
0.0
 71
     5
 72
     1
  1
\A1;%%c29
  7
KCADDIMSTANDARD
 11
6.123031769111886E-17
 21
1.0
 31
0.0
 73
     1
 44
1.0
  0
ENDBLK
  5
8D9
330
6CF
100
AcDbEntity
  8
0
100
AcDbBlockEnd
  0
ENDSEC
  0
SECTION
  2
ENTITIES
  0
LINE
  5
2F0
330
1F
100
AcDbEntity
  8
99
  6
Continuous
 62
     7
370
    30
100
AcDbLine
 10
200.0
 20
138.5
 30
0.0
 11
-180.0
 21
138.5
 31
0.0
1001
Sigma
1000

  0
LINE
  5
2F2
330
1F
100
AcDbEntity
  8
99
  6
Continuous
 62
     7
370
    30
100
AcDbLine
 10
-180.0
 20
138.5
 30
0.0
 11
-180.0
 21
-133.4999999999999
 31
0.0
1001
Sigma
1000

  0
LINE
  5
2F4
330
1F
100
AcDbEntity
  8
99
  6
Continuous
 62
     7
370
    30
100
AcDbLine
 10
200.0
 20
138.5
 30
0.0
 11
200.0
 21
-133.4999999999999
 31
0.0
1001
Sigma
1000

  0
LINE
  5
2F6
330
1F
100
AcDbEntity
  8
99
  6
Continuous
 62
     7
370
    15
100
AcDbLine
 10
3.1810012837
 20
138.0
 30
0.0
 11
3.1810012837
 21
140.5
 31
0.0
1001
Sigma
1000

  0
LINE
  5
2F8
330
1F
100
AcDbEntity
  8
99
  6
Continuous
 62
     7
370
    15
100
AcDbLine
 10
-179.4999999999999
 20
-7.4319419238
 30
0.0
 11
-182.0
 21
-7.4319419238
 31
0.0
1001
Sigma
1000

  0
LINE
  5
2FA
330
1F
100
AcDbEntity
  8
99
  6
Continuous
 62
     7
370
    15
100
AcDbLine
 10
199.0
 20
-7.4319419238
 30
0.0
 11
201.5
 21
-7.4319419238
 31
0.0
1001
Sigma
1000

  0
LINE
  5
2FC
330
1F
100
AcDbEntity
  8
99
  6
Continuous
 62
     7
370
    30
100
AcDbLine
 10
200.0
 20
-133.4999999999999
 30
0.0
 11
-180.0
 21
-133.4999999999999
 31
0.0
1001
Sigma
1000

  0
LINE
  5
2FE
330
1F
100
AcDbEntity
  8
99
  6
Continuous
 62
     7
370
    30
100
AcDbLine
 10
10.0
 20
-86.0
 30
0.0
 11
200.0
 21
-86.0
 31
0.0
1001
Sigma
1000

  0
LINE
  5
300
330
1F
100
AcDbEntity
  8
99
  6
Continuous
 62
     7
370
    30
100
AcDbLine
 10
139.0
 20
-133.4999999999999
 30
0.0
 11
139.0
 21
-86.0
 31
0.0
1001
Sigma
1000

  0
LINE
  5
302
330
1F
100
AcDbEntity
  8
99
  6
Continuous
 62
     7
370
    30
100
AcDbLine
 10
79.0
 20
-113.5
 30
0.0
 11
200.0
 21
-113.5
 31
0.0
1001
Sigma
1000

  0
LINE
  5
304
330
1F
100
AcDbEntity
  8
99
  6
Continuous
 62
     7
370
    30
100
AcDbLine
 10
124.0
 20
-133.4999999999999
 30
0.0
 11
124.0
 21
-113.5
 31
0.0
1001
Sigma
1000

  0
LINE
  5
306
330
1F
100
AcDbEntity
  8
99
  6
Continuous
 62
     7
370
    30
100
AcDbLine
 10
109.0
 20
-133.4999999999999
 30
0.0
 11
109.0
 21
-113.5
 31
0.0
1001
Sigma
1000

  0
LINE
  5
308
330
1F
100
AcDbEntity
  8
99
  6
Continuous
 62
     7
370
    30
100
AcDbLine
 10
94.0
 20
-133.4999999999999
 30
0.0
 11
94.0
 21
-86.0
 31
0.0
1001
Sigma
1000

  0
LINE
  5
30A
330
1F
100
AcDbEntity
  8
99
  6
Continuous
 62
     7
370
    30
100
AcDbLine
 10
79.0
 20
-133.4999999999999
 30
0.0
 11
79.0
 21
-86.0
 31
0.0
1001
Sigma
1000

  0
LINE
  5
30C
330
1F
100
AcDbEntity
  8
99
  6
Continuous
 62
     7
370
    15
100
AcDbLine
 10
10.0
 20
-128.4999999999999
 30
0.0
 11
79.0
 21
-128.4999999999999
 31
0.0
1001
Sigma
1000

  0
LINE
  5
30E
330
1F
100
AcDbEntity
  8
99
  6
Continuous
 62
     7
370
    15
100
AcDbLine
 10
10.0
 20
-123.5
 30
0.0
 11
79.0
 21
-123.5
 31
0.0
1001
Sigma
1000

  0
LINE
  5
310
330
1F
100
AcDbEntity
  8
99
  6
Continuous
 62
     7
370
    15
100
AcDbLine
 10
10.0
 20
-118.5
 30
0.0
 11
139.0
 21
-118.5
 31
0.0
1001
Sigma
1000

  0
LINE
  5
312
330
1F
100
AcDbEntity
  8
99
  6
Continuous
 62
     7
370
    15
100
AcDbLine
 10
10.0
 20
-113.5
 30
0.0
 11
79.0
 21
-113.5
 31
0.0
1001
Sigma
1000

  0
LINE
  5
314
330
1F
100
AcDbEntity
  8
99
  6
Continuous
 62
     7
370
    15
100
AcDbLine
 10
10.0
 20
-108.4999999999999
 30
0.0
 11
79.0
 21
-108.4999999999999
 31
0.0
1001
Sigma
1000

  0
LINE
  5
316
330
1F
100
AcDbEntity
  8
99
  6
Continuous
 62
     7
370
    30
100
AcDbLine
 10
94.0
 20
-106.0
 30
0.0
 11
200.0
 21
-106.0
 31
0.0
1001
Sigma
1000

  0
LINE
  5
318
330
1F
100
AcDbEntity
  8
99
  6
Continuous
 62
     7
370
    15
100
AcDbLine
 10
31.0
 20
-133.4999999999999
 30
0.0
 11
31.0
 21
-98.50000000000001
 31
0.0
1001
Sigma
1000

  0
LINE
  5
31A
330
1F
100
AcDbEntity
  8
99
  6
Continuous
 62
     7
370
    15
100
AcDbLine
 10
42.0
 20
-133.4999999999999
 30
0.0
 11
42.0
 21
-98.50000000000001
 31
0.0
1001
Sigma
1000

  0
LINE
  5
31C
330
1F
100
AcDbEntity
  8
99
  6
Continuous
 62
     7
370
    15
100
AcDbLine
 10
144.0
 20
-133.4999999999999
 30
0.0
 11
144.0
 21
-98.50000000000001
 31
0.0
1001
Sigma
1000

  0
LINE
  5
31E
330
1F
100
AcDbEntity
  8
99
  6
Continuous
 62
     7
370
    30
100
AcDbLine
 10
139.0
 20
-123.5
 30
0.0
 11
200.0
 21
-123.5
 31
0.0
1001
Sigma
1000

  0
TEXT
  5
320
330
1F
100
AcDbEntity
  8
99
  6
Continuous
 62
     7
370
    30
100
AcDbText
 10
139.72991426151
 20
-116.6144481624
 30
0.0
 40
2.7
  1
製
 41
1.266666666666666
  7
KCADTEXTSTANDARD
100
AcDbText
1001
Sigma
1000

  0
TEXT
  5
322
330
1F
100
AcDbEntity
  8
99
  6
Continuous
 62
     7
370
    30
100
AcDbText
 10
93.225
 20
-104.275
 30
0.0
 40
4.049999999999999
  1
 三角法
 41
0.7916666674531168
  7
KCADTEXTSTANDARD
100
AcDbText
1001
Sigma
1000

  0
TEXT
  5
324
330
1F
100
AcDbEntity
  8
99
  6
Continuous
 62
     7
370
    30
100
AcDbText
 10
139.72991426151
 20
-119.7144481624
 30
0.0
 40
2.7
  1
品
 41
1.266666666666666
  7
KCADTEXTSTANDARD
100
AcDbText
1001
Sigma
1000

  0
LINE
  5
326
330
1F
100
AcDbEntity
  8
99
  6
Continuous
 62
     7
370
    15
100
AcDbLine
 10
14.13219415271
 20
-127.7995271455
 30
0.0
 11
10.93219415270999
 21
-127.7995271455
 31
0.0
1001
Sigma
1000

  0
TEXT
  5
328
330
1F
100
AcDbEntity
  8
99
  6
Continuous
 62
     7
370
    30
100
AcDbText
 10
139.72991426151
 20
-122.8144481623999
 30
0.0
 40
2.7
  1
名
 41
1.266666666666666
  7
KCADTEXTSTANDARD
100
AcDbText
1001
Sigma
1000

  0
TEXT
  5
32A
330
1F
100
AcDbEntity
  8
99
  6
Continuous
 62
     7
370
    30
100
AcDbText
 10
78.84786821705
 20
-117.6989337568
 30
0.0
 40
3.6
  1
 設計  製図  検図  承認
 41
1.147916666666666
  7
KCADTEXTSTANDARD
100
AcDbText
1001
Sigma
1000

  0
TEXT
  5
32C
330
1F
100
AcDbEntity
  8
99
  6
Continuous
 62
     7
370
    30
100
AcDbText
 10
14.50728892210499
 20
-132.6966445597
 30
0.0
 40
3.6
  1
 年月日  担当    訂 正 記 事
 41
0.8102941176470586
  7
KCADTEXTSTANDARD
100
AcDbText
1001
Sigma
1000

  0
TEXT
  5
32E
330
1F
100
AcDbEntity
  8
99
  6
Continuous
 62
     7
370
    30
100
AcDbText
 10
10.70390624999999
 20
-132.5302445628
 30
0.0
 40
3.6
  1
符号
 41
0.4987500003539026
  7
KCADTEXTSTANDARD
100
AcDbText
1001
Sigma
1000

  0
LINE
  5
330
330
1F
100
AcDbEntity
  8
99
  6
Continuous
 62
     7
370
    15
100
AcDbLine
 10
14.13219415271
 20
-107.7995271455
 30
0.0
 11
10.93219415270999
 21
-107.7995271455
 31
0.0
1001
Sigma
1000

  0
LINE
  5
332
330
1F
100
AcDbEntity
  8
99
  6
Continuous
 62
     7
370
    15
100
AcDbLine
 10
12.53219415271
 20
-104.3354255302999
 30
0.0
 11
14.13219415271
 21
-107.7995271455
 31
0.0
1001
Sigma
1000

  0
TEXT
  5
334
330
1F
100
AcDbEntity
  8
99
  6
Continuous
 62
     7
370
    15
100
AcDbText
 10
12.13410353743747
 20
-107.2132222252728
 30
0.0
 40
2.082815953445434
  1
5
 41
0.577433628318584
  7
KCADTEXTSTANDARD
100
AcDbText
1001
Sigma
1000

  0
LINE
  5
336
330
1F
100
AcDbEntity
  8
99
  6
Continuous
 62
     7
370
    15
100
AcDbLine
 10
10.93219415270999
 20
-107.7995271455
 30
0.0
 11
12.53219415271
 21
-104.3354255302999
 31
0.0
1001
Sigma
1000

  0
LINE
  5
338
330
1F
100
AcDbEntity
  8
99
  6
Continuous
 62
     7
370
    15
100
AcDbLine
 10
14.13219415271
 20
-112.7995271454999
 30
0.0
 11
10.93219415270999
 21
-112.7995271454999
 31
0.0
1001
Sigma
1000

  0
LINE
  5
33A
330
1F
100
AcDbEntity
  8
99
  6
Continuous
 62
     7
370
    15
100
AcDbLine
 10
12.53219415271
 20
-109.3354255303
 30
0.0
 11
14.13219415271
 21
-112.7995271454999
 31
0.0
1001
Sigma
1000

  0
TEXT
  5
33C
330
1F
100
AcDbEntity
  8
99
  6
Continuous
 62
     7
370
    15
100
AcDbText
 10
12.13410353743747
 20
-112.2132222252728
 30
0.0
 40
2.082815953445434
  1
4
 41
0.577433628318584
  7
KCADTEXTSTANDARD
100
AcDbText
1001
Sigma
1000

  0
LINE
  5
33E
330
1F
100
AcDbEntity
  8
99
  6
Continuous
 62
     7
370
    15
100
AcDbLine
 10
10.93219415270999
 20
-112.7995271454999
 30
0.0
 11
12.53219415271
 21
-109.3354255303
 31
0.0
1001
Sigma
1000

  0
LINE
  5
340
330
1F
100
AcDbEntity
  8
99
  6
Continuous
 62
     7
370
    15
100
AcDbLine
 10
14.13219415271
 20
-117.7995271454999
 30
0.0
 11
10.93219415270999
 21
-117.7995271454999
 31
0.0
1001
Sigma
1000

  0
LINE
  5
342
330
1F
100
AcDbEntity
  8
99
  6
Continuous
 62
     7
370
    15
100
AcDbLine
 10
12.53219415271
 20
-114.3354255303
 30
0.0
 11
14.13219415271
 21
-117.7995271454999
 31
0.0
1001
Sigma
1000

  0
TEXT
  5
344
330
1F
100
AcDbEntity
  8
99
  6
Continuous
 62
     7
370
    15
100
AcDbText
 10
12.13410353743747
 20
-117.2132222252728
 30
0.0
 40
2.082815953445434
  1
3
 41
0.577433628318584
  7
KCADTEXTSTANDARD
100
AcDbText
1001
Sigma
1000

  0
LINE
  5
346
330
1F
100
AcDbEntity
  8
99
  6
Continuous
 62
     7
370
    15
100
AcDbLine
 10
12.53219415271
 20
-124.3354255302999
 30
0.0
 11
14.13219415271
 21
-127.7995271455
 31
0.0
1001
Sigma
1000

  0
LINE
  5
348
330
1F
100
AcDbEntity
  8
99
  6
Continuous
 62
     7
370
    15
100
AcDbLine
 10
10.93219415270999
 20
-127.7995271455
 30
0.0
 11
12.53219415271
 21
-124.3354255302999
 31
0.0
1001
Sigma
1000

  0
LINE
  5
34A
330
1F
100
AcDbEntity
  8
99
  6
Continuous
 62
     7
370
    15
100
AcDbLine
 10
10.93219415270999
 20
-117.7995271454999
 30
0.0
 11
12.53219415271
 21
-114.3354255303
 31
0.0
1001
Sigma
1000

  0
TEXT
  5
34C
330
1F
100
AcDbEntity
  8
99
  6
Continuous
 62
     7
370
    15
100
AcDbText
 10
12.13410353743747
 20
-122.2132222252728
 30
0.0
 40
2.082815953445434
  1
2
 41
0.577433628318584
  7
KCADTEXTSTANDARD
100
AcDbText
1001
Sigma
1000

  0
LINE
  5
34E
330
1F
100
AcDbEntity
  8
99
  6
Continuous
 62
     7
370
    15
100
AcDbLine
 10
14.13219415271
 20
-122.7995271454999
 30
0.0
 11
10.93219415270999
 21
-122.7995271454999
 31
0.0
1001
Sigma
1000

  0
LINE
  5
350
330
1F
100
AcDbEntity
  8
99
  6
Continuous
 62
     7
370
    15
100
AcDbLine
 10
12.53219415271
 20
-119.3354255303
 30
0.0
 11
14.13219415271
 21
-122.7995271454999
 31
0.0
1001
Sigma
1000

  0
LINE
  5
352
330
1F
100
AcDbEntity
  8
99
  6
Continuous
 62
     7
370
    15
100
AcDbLine
 10
10.93219415270999
 20
-122.7995271454999
 30
0.0
 11
12.53219415271
 21
-119.3354255303
 31
0.0
1001
Sigma
1000

  0
TEXT
  5
354
330
1F
100
AcDbEntity
  8
99
  6
Continuous
 62
     7
370
    15
100
AcDbText
 10
12.13410353743747
 20
-127.2132222252728
 30
0.0
 40
2.082815953445434
  1
1
 41
0.577433628318584
  7
KCADTEXTSTANDARD
100
AcDbText
1001
Sigma
1000

  0
TEXT
  5
356
330
1F
100
AcDbEntity
  8
99
  6
Continuous
 62
     7
370
    30
100
AcDbText
 10
139.71791405963
 20
-112.7381295371999
 30
0.0
 40
2.7
  1
差
 41
1.266666666666666
  7
KCADTEXTSTANDARD
100
AcDbText
1001
Sigma
1000

  0
TEXT
  5
358
330
1F
100
AcDbEntity
  8
99
  6
Continuous
 62
     7
370
    30
100
AcDbText
 10
139.71791405963
 20
-109.2381295372
 30
0.0
 40
2.7
  1
公
 41
1.266666666666666
  7
KCADTEXTSTANDARD
100
AcDbText
1001
Sigma
1000

  0
TEXT
  5
35A
330
1F
100
AcDbEntity
  8
99
  6
Continuous
 62
     7
370
    30
100
AcDbText
 10
109.8179140834718
 20
-101.7381295372
 30
0.0
 40
2.7
  1
面
 41
1.203333318233489
  7
KCADTEXTSTANDARD
100
AcDbText
1001
Sigma
1000

  0
TEXT
  5
35C
330
1F
100
AcDbEntity
  8
99
  6
Continuous
 62
     7
370
    30
100
AcDbText
 10
109.8179140834718
 20
-105.2381295371999
 30
0.0
 40
2.7
  1
取
 41
1.203333318233489
  7
KCADTEXTSTANDARD
100
AcDbText
1001
Sigma
1000

  0
TEXT
  5
35E
330
1F
100
AcDbEntity
  8
99
  6
Continuous
 62
     7
370
    30
100
AcDbText
 10
139.71791405963
 20
-105.2381295371999
 30
0.0
 40
2.7
  1
上
 41
1.266666666666666
  7
KCADTEXTSTANDARD
100
AcDbText
1001
Sigma
1000

  0
TEXT
  5
360
330
1F
100
AcDbEntity
  8
99
  6
Continuous
 62
     7
370
    30
100
AcDbText
 10
139.71791405963
 20
-101.7381295372
 30
0.0
 40
2.7
  1
仕
 41
1.266666666666666
  7
KCADTEXTSTANDARD
100
AcDbText
1001
Sigma
1000

  0
LINE
  5
362
330
1F
100
AcDbEntity
  8
99
  6
Continuous
 62
     7
370
    30
100
AcDbLine
 10
31.0
 20
-98.50000000000001
 30
0.0
 11
31.0
 21
-86.0
 31
0.0
1001
Sigma
1000

  0
TEXT
  5
364
330
1F
100
AcDbEntity
  8
99
  6
Continuous
 62
     7
370
    30
100
AcDbText
 10
139.65
 20
-127.35
 30
0.0
 40
2.7
  1
図
 41
1.266666666666666
  7
KCADTEXTSTANDARD
100
AcDbText
1001
Sigma
1000

  0
TEXT
  5
366
330
1F
100
AcDbEntity
  8
99
  6
Continuous
 62
     7
370
    30
100
AcDbText
 10
139.65
 20
-131.85
 30
0.0
 40
2.7
  1
番
 41
1.266666666666666
  7
KCADTEXTSTANDARD
100
AcDbText
1001
Sigma
1000

  0
LINE
  5
368
330
1F
100
AcDbEntity
  8
99
  6
Continuous
 62
     7
370
    15
100
AcDbLine
 10
10.0
 20
-93.49999999999999
 30
0.0
 11
200.0
 21
-93.49999999999999
 31
0.0
1001
Sigma
1000

  0
LINE
  5
36A
330
1F
100
AcDbEntity
  8
99
  6
Continuous
 62
     7
370
    15
100
AcDbLine
 10
114.0
 20
-98.50000000000001
 30
0.0
 11
114.0
 21
-106.0
 31
0.0
1001
Sigma
1000

  0
TEXT
  5
36C
330
1F
100
AcDbEntity
  8
99
  6
Continuous
 62
     7
370
    30
100
AcDbText
 10
81.39189189189
 20
-102.5978675136
 30
0.0
 40
3.6
  1
尺度
 41
1.1875
  7
KCADTEXTSTANDARD
100
AcDbText
1001
Sigma
1000

  0
LINE
  5
36E
330
1F
100
AcDbEntity
  8
99
  6
Continuous
 62
     7
370
    15
100
AcDbLine
 10
10.93219415270999
 20
-102.7995271455
 30
0.0
 11
12.53219415271
 21
-99.33542553032999
 31
0.0
1001
Sigma
1000

  0
TEXT
  5
370
330
1F
100
AcDbEntity
  8
99
  6
Continuous
 62
     7
370
    15
100
AcDbText
 10
12.13410353743747
 20
-102.2132222252728
 30
0.0
 40
2.082815953445434
  1
6
 41
0.577433628318584
  7
KCADTEXTSTANDARD
100
AcDbText
1001
Sigma
1000

  0
LINE
  5
372
330
1F
100
AcDbEntity
  8
99
  6
Continuous
 62
     7
370
    15
100
AcDbLine
 10
12.53219415271
 20
-99.33542553032999
 30
0.0
 11
14.13219415271
 21
-102.7995271455
 31
0.0
1001
Sigma
1000

  0
LINE
  5
374
330
1F
100
AcDbEntity
  8
99
  6
Continuous
 62
     7
370
    15
100
AcDbLine
 10
14.13219415271
 20
-102.7995271455
 30
0.0
 11
10.93219415270999
 21
-102.7995271455
 31
0.0
1001
Sigma
1000

  0
LINE
  5
376
330
1F
100
AcDbEntity
  8
99
  6
Continuous
 62
     7
370
    30
100
AcDbLine
 10
109.0
 20
-106.0
 30
0.0
 11
109.0
 21
-98.50000000000001
 31
0.0
1001
Sigma
1000

  0
LINE
  5
378
330
1F
100
AcDbEntity
  8
99
  6
Continuous
 62
     7
370
    30
100
AcDbLine
 10
10.0
 20
-98.50000000000001
 30
0.0
 11
200.0
 21
-98.50000000000001
 31
0.0
1001
Sigma
1000

  0
LINE
  5
37A
330
1F
100
AcDbEntity
  8
99
  6
Continuous
 62
     7
370
    15
100
AcDbLine
 10
10.0
 20
-103.4999999999999
 30
0.0
 11
94.0
 21
-103.4999999999999
 31
0.0
1001
Sigma
1000

  0
LINE
  5
37C
330
1F
100
AcDbEntity
  8
99
  6
Continuous
 62
     7
370
    15
100
AcDbLine
 10
15.0
 20
-133.4999999999999
 30
0.0
 11
15.0
 21
-98.50000000000001
 31
0.0
1001
Sigma
1000

  0
TEXT
  5
37E
330
1F
100
AcDbEntity
  8
99
  6
Continuous
 62
     7
370
    30
100
AcDbText
 10
11.834697944237
 20
-97.79526489509999
 30
0.0
 40
3.6
  1
部品番号     部   品   名
 41
0.7659374981911647
  7
KCADTEXTSTANDARD
100
AcDbText
1001
Sigma
1000

  0
TEXT
  5
380
330
1F
100
AcDbEntity
  8
99
  6
Continuous
 62
     7
370
    30
100
AcDbText
 10
81.39189189189
 20
-97.49786751361
 30
0.0
 40
3.6
  1
個数
 41
1.1875
  7
KCADTEXTSTANDARD
100
AcDbText
1001
Sigma
1000

  0
TEXT
  5
382
330
1F
100
AcDbEntity
  8
99
  6
Continuous
 62
     7
370
    30
100
AcDbText
 10
102.84786821706
 20
-97.49893375681
 30
0.0
 40
3.6
  1
  材       質                表  面  処  理
 41
0.6678663776994779
  7
KCADTEXTSTANDARD
100
AcDbText
1001
Sigma
1000

  0
LINE
  5
384
330
1F
100
AcDbEntity
  8
99
  6
Continuous
 62
     7
370
    30
100
AcDbLine
 10
10.0
 20
-86.0
 30
0.0
 11
10.0
 21
-133.4999999999999
 31
0.0
1001
Sigma
1000

  0
TEXT
  5
386
330
1F
100
AcDbEntity
  8
99
  6
Continuous
 62
     7
370
    30
100
AcDbText
 10
81.634423935458
 20
-110.2302181985999
 30
0.0
 40
4.067999999999999
  1
1/1
 41
1.222959685349064
  7
KCADTEXTSTANDARD
100
AcDbText
1001
Sigma
1000

  0
TEXT
  5
388
330
1F
100
AcDbEntity
  8
99
  6
Continuous
 62
     7
370
    30
100
AcDbText
 10
152.34573028858
 20
-131.5103987444
 30
0.0
 40
5.695199999999999
  1
TSTM-097
 41
0.8493702299012035
  7
KCADTEXTSTANDARD
100
AcDbText
1001
Sigma
1000

  0
TEXT
  5
390
330
1F
100
AcDbEntity
  8
99
  6
Continuous
 62
     7
370
    30
100
AcDbText
 10
96.65398170814
 20
-111.3865947291
 30
0.0
 40
3.25
  1
１９９８年０５月１２日
  7
KCADTEXTSTANDARD
100
AcDbText
1001
Sigma
1000

  0
TEXT
  5
392
330
1F
100
AcDbEntity
  8
99
  6
Continuous
 62
     7
370
    30
100
AcDbText
 10
154.72073028858
 20
-121.5103987444
 30
0.0
 40
5.695199999999999
  1
KCM-Z04
 41
0.8517293915524004
  7
KCADTEXTSTANDARD
100
AcDbText
1001
Sigma
1000

  0
TEXT
  5
394
330
1F
100
AcDbEntity
  8
99
  6
Continuous
 62
     7
370
    30
100
AcDbText
 10
155.97540573543
 20
-92.46750128438
 30
0.0
 40
4.5
  1
梨地黒アルマイト
 41
0.653125
  7
KCADTEXTSTANDARD
100
AcDbText
1001
Sigma
1000

  0
TEXT
  5
396
330
1F
100
AcDbEntity
  8
99
  6
Continuous
 62
     7
370
    30
100
AcDbText
 10
-66.32855126997
 20
-55.45349463128
 30
0.0
 40
4.5
  1
ＫＣＭ－Ｚ０４　：　倍率＝０．１３～０．４倍     Ｗ．Ｄ．＝２００±１０ｍｍ
 41
0.7917571808137
  7
KCADTEXTSTANDARD
100
AcDbText
1001
Sigma
1000

  0
LINE
  5
398
330
1F
100
AcDbEntity
  8
99
  6
CENTER
 62
     7
370
    15
100
AcDbLine
 10
-105.1110065850999
 20
36.159296469954
 30
0.0
 11
-82.57102539981
 21
36.159296469954
 31
0.0
1001
Sigma
1000

  0
LINE
  5
39A
330
1F
100
AcDbEntity
  8
99
  6
CENTER
 62
     7
370
    15
100
AcDbLine
 10
69.593262464721
 20
33.207894376322
 30
0.0
 11
69.593262464721
 21
38.93696304988699
 31
0.0
1001
Sigma
1000

  0
LINE
  5
39C
330
1F
100
AcDbEntity
  8
99
  6
CENTER
 62
     7
370
    15
100
AcDbLine
 10
-101.0752587018
 20
39.601287472937
 30
0.0
 11
-101.0752587018
 21
28.93336649457399
 31
0.0
1001
Sigma
1000

  0
LINE
  5
39E
330
1F
100
AcDbEntity
  8
99
  6
CENTER
 62
     7
370
    15
100
AcDbLine
 10
71.573386641582
 20
36.15929646995599
 30
0.0
 11
-60.20076292340999
 21
36.15929646995599
 31
0.0
1001
Sigma
1000

  0
LINE
  5
3A0
330
1F
100
AcDbEntity
  8
99
  6
CENTER
 62
     7
370
    15
100
AcDbLine
 10
-82.57102539981
 20
36.159296469954
 30
0.0
 11
-76.97845978071
 21
45.84590426689899
 31
0.0
1001
Sigma
1000

  0
LINE
  5
3A2
330
1F
100
AcDbEntity
  8
99
  6
CENTER
 62
     7
370
    15
100
AcDbLine
 10
-71.38589416161
 20
36.159296469954
 30
0.0
 11
-76.97845978071
 21
45.84590426689899
 31
0.0
1001
Sigma
1000

  0
LINE
  5
3A4
330
1F
100
AcDbEntity
  8
99
  6
CENTER
 62
     7
370
    15
100
AcDbLine
 10
-60.20076292340999
 20
36.15929646995599
 30
0.0
 11
-65.79332854251
 21
26.472688673011
 31
0.0
1001
Sigma
1000

  0
LINE
  5
3A6
330
1F
100
AcDbEntity
  8
99
  6
CENTER
 62
     7
370
    15
100
AcDbLine
 10
-71.38589416161
 20
36.15929646995599
 30
0.0
 11
-65.79332854251
 21
26.472688673011
 31
0.0
1001
Sigma
1000

  0
LINE
  5
3A8
330
1F
100
AcDbEntity
  8
99
  6
Continuous
 62
     7
370
    30
100
AcDbLine
 10
46.067262464722
 20
23.659296469956
 30
0.0
 11
46.067262464722
 21
48.65929646995599
 31
0.0
1001
Sigma
1000

  0
LINE
  5
3AA
330
1F
100
AcDbEntity
  8
99
  6
Continuous
 62
     7
370
    30
100
AcDbLine
 10
46.067262464722
 20
50.65929646995599
 30
0.0
 11
46.067262464722
 21
21.65929646995599
 31
0.0
1001
Sigma
1000

  0
LINE
  5
3AC
330
1F
100
AcDbEntity
  8
99
  6
Continuous
 62
     7
370
    30
100
AcDbLine
 10
46.067262464722
 20
21.65929646995599
 30
0.0
 11
52.067262464722
 21
21.65929646995599
 31
0.0
1001
Sigma
1000

  0
LINE
  5
3AE
330
1F
100
AcDbEntity
  8
99
  6
Continuous
 62
     7
370
    30
100
AcDbLine
 10
52.067262464722
 20
21.65929646995599
 30
0.0
 11
52.067262464722
 21
50.65929646995599
 31
0.0
1001
Sigma
1000

  0
LINE
  5
3B0
330
1F
100
AcDbEntity
  8
99
  6
Continuous
 62
     7
370
    30
100
AcDbLine
 10
52.067262464722
 20
50.65929646995599
 30
0.0
 11
46.067262464722
 21
50.65929646995599
 31
0.0
1001
Sigma
1000

  0
LINE
  5
3B2
330
1F
100
AcDbEntity
  8
99
  6
Continuous
 62
     7
370
    30
100
AcDbLine
 10
52.067262464722
 20
48.109296469955
 30
0.0
 11
52.067262464722
 21
24.209296469956
 31
0.0
1001
Sigma
1000

  0
LINE
  5
3B4
330
1F
100
AcDbEntity
  8
99
  6
Continuous
 62
     7
370
    30
100
AcDbLine
 10
52.81726246472199
 20
23.459296469956
 30
0.0
 11
55.31726246472199
 21
23.459296469956
 31
0.0
1001
Sigma
1000

  0
LINE
  5
3B6
330
1F
100
AcDbEntity
  8
99
  6
Continuous
 62
     7
370
    30
100
AcDbLine
 10
55.31726246472199
 20
23.459296469956
 30
0.0
 11
56.067262464722
 21
24.209296469956
 31
0.0
1001
Sigma
1000

  0
LINE
  5
3B8
330
1F
100
AcDbEntity
  8
99
  6
Continuous
 62
     7
370
    30
100
AcDbLine
 10
56.067262464722
 20
24.209296469956
 30
0.0
 11
56.067262464722
 21
48.109296469955
 31
0.0
1001
Sigma
1000

  0
LINE
  5
3BA
330
1F
100
AcDbEntity
  8
99
  6
Continuous
 62
     7
370
    30
100
AcDbLine
 10
56.067262464722
 20
48.109296469955
 30
0.0
 11
55.31726246472199
 21
48.85929646995499
 31
0.0
1001
Sigma
1000

  0
LINE
  5
3BC
330
1F
100
AcDbEntity
  8
99
  6
Continuous
 62
     7
370
    30
100
AcDbLine
 10
55.31726246472199
 20
48.85929646995499
 30
0.0
 11
52.81726246472199
 21
48.85929646995499
 31
0.0
1001
Sigma
1000

  0
LINE
  5
3BE
330
1F
100
AcDbEntity
  8
99
  6
Continuous
 62
     7
370
    30
100
AcDbLine
 10
55.31726246472199
 20
48.85929646995499
 30
0.0
 11
55.31726246472199
 21
23.459296469956
 31
0.0
1001
Sigma
1000

  0
LINE
  5
3C0
330
1F
100
AcDbEntity
  8
99
  6
Continuous
 62
     7
370
    30
100
AcDbLine
 10
52.81726246472199
 20
23.459296469956
 30
0.0
 11
52.81726246472199
 21
48.85929646995499
 31
0.0
1001
Sigma
1000

  0
LINE
  5
3C2
330
1F
100
AcDbEntity
  8
99
  6
Continuous
 62
     7
370
    30
100
AcDbLine
 10
56.067262464722
 20
48.109296469955
 30
0.0
 11
52.067262464722
 21
48.109296469955
 31
0.0
1001
Sigma
1000

  0
LINE
  5
3C4
330
1F
100
AcDbEntity
  8
99
  6
Continuous
 62
     7
370
    30
100
AcDbLine
 10
56.067262464722
 20
24.209296469956
 30
0.0
 11
52.067262464722
 21
24.209296469956
 31
0.0
1001
Sigma
1000

  0
LINE
  5
3C6
330
1F
100
AcDbEntity
  8
99
  6
Continuous
 62
     7
370
    30
100
AcDbLine
 10
46.067262464722
 20
25.159296469956
 30
0.0
 11
46.067262464722
 21
47.159296469956
 31
0.0
1001
Sigma
1000

  0
LINE
  5
3C8
330
1F
100
AcDbEntity
  8
99
  6
Continuous
 62
     7
370
    30
100
AcDbLine
 10
16.067262464722
 20
47.159296469956
 30
0.0
 11
46.067262464722
 21
47.159296469956
 31
0.0
1001
Sigma
1000

  0
LINE
  5
3CA
330
1F
100
AcDbEntity
  8
99
  6
Continuous
 62
     7
370
    30
100
AcDbLine
 10
16.067262464722
 20
25.159296469956
 30
0.0
 11
46.067262464722
 21
25.159296469956
 31
0.0
1001
Sigma
1000

  0
LINE
  5
3CC
330
1F
100
AcDbEntity
  8
99
  6
Continuous
 62
     7
370
    30
100
AcDbLine
 10
15.567262464722
 20
25.659296469956
 30
0.0
 11
15.567262464722
 21
46.65929646995599
 31
0.0
1001
Sigma
1000

  0
LINE
  5
3CE
330
1F
100
AcDbEntity
  8
99
  6
Continuous
 62
     7
370
    30
100
AcDbLine
 10
15.567262464722
 20
45.65929646995599
 30
0.0
 11
-14.93273753528
 21
45.65929646995599
 31
0.0
1001
Sigma
1000

  0
LINE
  5
3D0
330
1F
100
AcDbEntity
  8
99
  6
Continuous
 62
     7
370
    30
100
AcDbLine
 10
-14.93273753528
 20
45.65929646995599
 30
0.0
 11
-14.93273753528
 21
26.659296469956
 31
0.0
1001
Sigma
1000

  0
LINE
  5
3D2
330
1F
100
AcDbEntity
  8
99
  6
Continuous
 62
     7
370
    30
100
AcDbLine
 10
-14.93273753528
 20
26.659296469956
 30
0.0
 11
15.567262464722
 21
26.659296469956
 31
0.0
1001
Sigma
1000

  0
LINE
  5
3D4
330
1F
100
AcDbEntity
  8
99
  6
DASHED
 62
     7
370
    30
100
AcDbLine
 10
-14.93273753528
 20
45.159296469956
 30
0.0
 11
-10.93273753527999
 21
45.159296469956
 31
0.0
1001
Sigma
1000

  0
LINE
  5
3D7
102
{ACAD_REACTORS
330
3D6
102
}
330
1F
100
AcDbEntity
  8
99
  6
Continuous
 62
     7
370
    15
100
AcDbLine
 10
-26.25652634055
 20
61.064164767228
 30
0.0
 11
-78.67068438382
 21
61.064164767228
 31
0.0
1001
Sigma
1000

  0
TEXT
  5
3D9
102
{ACAD_REACTORS
330
3D6
102
}
330
1F
100
AcDbEntity
  8
99
  6
Continuous
 62
     7
370
    15
100
AcDbText
 10
-76.73525700667444
 20
61.847494767229
 30
0.0
 40
4.5
  1
M18 P0.5 フィルターネジ
 41
0.6032500714529306
  7
KCADTEXTSTANDARD
100
AcDbText
1001
Sigma
1000

  0
LINE
  5
3DB
102
{ACAD_REACTORS
330
3D6
102
}
330
1F
100
AcDbEntity
  8
99
  6
Continuous
 62
     7
370
    15
100
AcDbLine
 10
-18.98118532455
 20
39.4324620391
 30
0.0
 11
-26.25652634055
 21
61.064164767228
 31
0.0
1001
Sigma
1000

  0
LINE
  5
3DE
102
{ACAD_REACTORS
330
3D6
330
3DD
102
}
330
1F
100
AcDbEntity
  8
99
  6
Continuous
 62
     7
370
    15
100
AcDbLine
 10
-14.93273753528
 20
45.159296469956
 30
0.0
 11
-18.98118532455
 21
39.4324620391
 31
0.0
1001
Sigma
1000

  0
INSERT
  5
3E0
102
{ACAD_REACTORS
330
3D6
330
3DD
102
}
330
1F
100
AcDbEntity
  8
99
  6
Continuous
 62
     7
370
    15
100
AcDbBlockReference
  2
_OPEN30
 10
-14.93273753528
 20
45.159296469956
 30
0.0
 41
3.0
 42
3.0
 43
3.0
 50
54.74251869065227
1001
Sigma
1000
_BRRS
  0
LINE
  5
3E3
102
{ACAD_REACTORS
330
3E2
102
}
330
1F
100
AcDbEntity
  8
99
  6
Continuous
 62
     7
370
    15
100
AcDbLine
 10
61.178739416742
 20
64.089603359329
 30
0.0
 11
91.58267761785
 21
64.089603359329
 31
0.0
1001
Sigma
1000

  0
TEXT
  5
3E5
102
{ACAD_REACTORS
330
3E2
102
}
330
1F
100
AcDbEntity
  8
99
  6
Continuous
 62
     7
370
    15
100
AcDbText
 10
67.50410532783309
 20
64.872933359329
 30
0.0
 40
4.5
  1
Ｃマウント
 41
0.8294857373237609
  7
KCADTEXTSTANDARD
100
AcDbText
1001
Sigma
1000

  0
LINE
  5
3E8
102
{ACAD_REACTORS
330
3E2
330
3E7
102
}
330
1F
100
AcDbEntity
  8
99
  6
Continuous
 62
     7
370
    15
100
AcDbLine
 10
55.31726246472199
 20
48.109296469955
 30
0.0
 11
61.178739416742
 21
64.089603359329
 31
0.0
1001
Sigma
1000

  0
INSERT
  5
3EA
102
{ACAD_REACTORS
330
3E2
330
3E7
102
}
330
1F
100
AcDbEntity
  8
99
  6
Continuous
 62
     7
370
    15
100
AcDbBlockReference
  2
_OPEN30
 10
55.31726246472199
 20
48.109296469955
 30
0.0
 41
3.0
 42
3.0
 43
3.0
 50
249.8572775896866
1001
Sigma
1000
_BRRS
  0
DIMENSION
  5
3EC
330
1F
100
AcDbEntity
  8
KCAD_DIMS
 62
     7
100
AcDbDimension
  2
*D36
 10
-101.0752587018
 20
6.127762857425498
 30
0.0
 11
-58.00399811855
 21
8.261095857425499
 31
0.0
 70
    32
  1
\A1;W.D
 71
     5
 42
-1.0
  3
Standard
100
AcDbAlignedDimension
 13
-14.93273753528
 23
26.659296469956
 33
0.0
 14
-101.0752587018
 24
28.93336649457399
 34
0.0
100
AcDbRotatedDimension
1001
Sigma
1000
DIM_TPHO
1001
KCAD_DIM_EXT
1002
{
1071
 20001212
1070
     0
1070
     2
1070
     2
1040
3.0
1040
0.0
1040
0.0
1040
0.0
1040
0.0
1040
0.0
1040
0.0
1040
0.0
1070
     0
1040
50.0
1040
-1.0
1013
1.0
1023
0.0
1033
0.0
1040
0.0
1013
1.0
1023
0.0
1033
0.0
1000
_None
1040
1.0
1040
86.142521166542
1070
     1
1070
     0
1070
     0
1012
1.0
1022
0.0
1032
0.0
1013
1.0
1023
0.0
1033
0.0
1002
}
1001
ACAD
1000
DSTYLE
1002
{
1070
    41
1040
3.0
1070
    42
1040
1.0
1070
    43
1040
8.0
1070
    44
1040
1.0
1070
    45
1040
0.0
1070
    73
1070
     0
1070
    74
1070
     0
1070
    77
1070
     1
1070
    78
1070
     8
1070
    79
1070
     2
1070
   140
1040
3.2
1070
   141
1040
2.5
1070
   145
1040
0.0001
1070
   146
1040
0.667
1070
   147
1040
0.5333000000000001
1070
   172
1070
     1
1070
   173
1070
     1
1070
   179
1070
     3
1070
   271
1070
     3
1070
   272
1070
     3
1070
   279
1070
     2
1070
   284
1070
     8
1070
   289
1070
     2
1070
   340
1005
189
1070
   341
1005
21
1070
   343
1005
12D
1070
   344
1005
12D
1002
}
  0
DIMENSION
  5
428
330
1F
100
AcDbEntity
  8
KCAD_DIMS
 62
     7
100
AcDbDimension
  2
*D37
 10
69.593262464721
 20
6.1277628574255
 30
0.0
 11
60.830262464721
 21
8.2610958574255
 31
0.0
 70
    32
 71
     5
 42
-1.0
  3
Standard
100
AcDbAlignedDimension
 13
52.067262464722
 23
21.65929646995599
 33
0.0
 14
69.593262464721
 24
33.207894376322
 34
0.0
100
AcDbRotatedDimension
1001
Sigma
1000
DIM_TPHO
1001
KCAD_DIM_EXT
1002
{
1071
 20001212
1070
     0
1070
     2
1070
     2
1040
3.0
1040
0.0
1040
0.0
1040
0.0
1040
0.0
1040
0.0
1040
0.0
1040
0.0
1070
     0
1040
50.0
1040
-1.0
1013
1.0
1023
0.0
1033
0.0
1040
0.0
1013
1.0
1023
0.0
1033
0.0
1000
_None
1040
1.0
1040
17.526
1070
     0
1070
     0
1070
     0
1012
1.0
1022
0.0
1032
0.0
1013
1.0
1023
0.0
1033
0.0
1002
}
1001
ACAD
1000
DSTYLE
1002
{
1070
    41
1040
3.0
1070
    42
1040
1.0
1070
    43
1040
8.0
1070
    44
1040
1.0
1070
    45
1040
0.0
1070
    73
1070
     0
1070
    74
1070
     0
1070
    77
1070
     1
1070
    78
1070
     8
1070
    79
1070
     2
1070
   140
1040
3.2
1070
   141
1040
2.5
1070
   145
1040
0.0001
1070
   146
1040
0.667
1070
   147
1040
0.5333000000000001
1070
   172
1070
     1
1070
   173
1070
     1
1070
   179
1070
     3
1070
   271
1070
     3
1070
   272
1070
     3
1070
   279
1070
     2
1070
   284
1070
     8
1070
   289
1070
     2
1070
   340
1005
189
1070
   341
1005
21
1070
   343
1005
12D
1070
   344
1005
12D
1002
}
  0
DIMENSION
  5
464
330
1F
100
AcDbEntity
  8
KCAD_DIMS
 62
     7
100
AcDbDimension
  2
*D38
 10
-43.16556914392999
 20
47.159296469956
 30
0.0
 11
-45.29890214393
 21
37.354033677893
 31
0.0
 70
    32
 71
     5
 42
-1.0
 53
90.0
  3
Standard
100
AcDbAlignedDimension
 13
15.567262464722
 23
25.159296469956
 33
0.0
 14
15.567262464722
 24
47.159296469956
 34
0.0
 50
90.0
100
AcDbRotatedDimension
1001
Sigma
1000
DIM_TPVO
1001
KCAD_DIM_EXT
1002
{
1071
 20001212
1070
     0
1070
     2
1070
     2
1040
3.0
1040
0.0
1040
0.0
1040
0.0
1040
0.0
1040
0.0
1040
0.0
1040
0.0
1070
     0
1040
50.0
1040
-1.0
1013
1.0
1023
0.0
1033
0.0
1040
0.0
1013
1.0
1023
0.0
1033
0.0
1000
_None
1040
1.0
1040
22.0
1070
     0
1070
     0
1070
     0
1012
1.0
1022
0.0
1032
0.0
1013
1.0
1023
0.0
1033
0.0
1002
}
1001
ACAD
1000
DSTYLE
1002
{
1070
     3
1000
%%c<>
1070
    41
1040
3.0
1070
    42
1040
1.0
1070
    43
1040
8.0
1070
    44
1040
1.0
1070
    45
1040
0.0
1070
    73
1070
     0
1070
    74
1070
     0
1070
    77
1070
     1
1070
    78
1070
     8
1070
    79
1070
     2
1070
   140
1040
3.2
1070
   141
1040
2.5
1070
   145
1040
0.0001
1070
   146
1040
0.667
1070
   147
1040
0.5333000000000001
1070
   172
1070
     1
1070
   173
1070
     1
1070
   179
1070
     3
1070
   271
1070
     3
1070
   272
1070
     3
1070
   279
1070
     2
1070
   284
1070
     8
1070
   289
1070
     2
1070
   340
1005
189
1070
   341
1005
21
1070
   343
1005
12D
1070
   344
1005
12D
1002
}
  0
DIMENSION
  5
4A0
330
1F
100
AcDbEntity
  8
KCAD_DIMS
 62
     7
100
AcDbDimension
  2
*D39
 10
-30.32455315146
 20
26.659296469956
 30
0.0
 11
-32.45788615146
 21
37.057349764441
 31
0.0
 70
    32
 71
     5
 42
-1.0
 53
90.0
  3
Standard
100
AcDbAlignedDimension
 13
-14.93273753528
 23
45.65929646995599
 33
0.0
 14
-14.93273753528
 24
26.659296469956
 34
0.0
 50
90.0
100
AcDbRotatedDimension
1001
Sigma
1000
DIM_TPVO
1001
KCAD_DIM_EXT
1002
{
1071
 20001212
1070
     0
1070
     2
1070
     2
1040
3.0
1040
0.0
1040
0.0
1040
0.0
1040
0.0
1040
0.0
1040
0.0
1040
0.0
1070
     0
1040
50.0
1040
-1.0
1013
1.0
1023
0.0
1033
0.0
1040
0.0
1013
1.0
1023
0.0
1033
0.0
1000
_None
1040
1.0
1040
19.0
1070
     0
1070
     0
1070
     0
1012
1.0
1022
0.0
1032
0.0
1013
1.0
1023
0.0
1033
0.0
1002
}
1001
ACAD
1000
DSTYLE
1002
{
1070
     3
1000
%%c<>
1070
    41
1040
3.0
1070
    42
1040
1.0
1070
    43
1040
8.0
1070
    44
1040
1.0
1070
    45
1040
0.0
1070
    73
1070
     0
1070
    74
1070
     0
1070
    77
1070
     1
1070
    78
1070
     8
1070
    79
1070
     2
1070
   140
1040
3.2
1070
   141
1040
2.5
1070
   145
1040
0.0001
1070
   146
1040
0.667
1070
   147
1040
0.5333000000000001
1070
   172
1070
     1
1070
   173
1070
     1
1070
   179
1070
     3
1070
   271
1070
     3
1070
   272
1070
     3
1070
   279
1070
     2
1070
   284
1070
     8
1070
   289
1070
     2
1070
   340
1005
189
1070
   341
1005
21
1070
   343
1005
12D
1070
   344
1005
12D
1002
}
  0
LINE
  5
4DC
330
1F
100
AcDbEntity
  8
99
  6
Continuous
 62
     7
370
    30
100
AcDbLine
 10
17.06726246472199
 20
25.159296469956
 30
0.0
 11
17.067262464721
 21
47.159296469956
 31
0.0
1001
Sigma
1000

  0
LINE
  5
4DE
330
1F
100
AcDbEntity
  8
99
  6
Continuous
 62
     7
370
    30
100
AcDbLine
 10
15.567262464722
 20
46.65929646995599
 30
0.0
 11
16.067262464722
 21
47.159296469956
 31
0.0
1001
Sigma
1000

  0
LINE
  5
4E0
330
1F
100
AcDbEntity
  8
99
  6
Continuous
 62
     7
370
    30
100
AcDbLine
 10
15.567262464722
 20
25.659296469956
 30
0.0
 11
16.067262464722
 21
25.159296469956
 31
0.0
1001
Sigma
1000

  0
LINE
  5
4E2
330
1F
100
AcDbEntity
  8
99
  6
Continuous
 62
     7
370
    30
100
AcDbLine
 10
27.56726246472199
 20
25.159296469956
 30
0.0
 11
27.567262464721
 21
47.159296469956
 31
0.0
1001
Sigma
1000

  0
LINE
  5
4E4
330
1F
100
AcDbEntity
  8
99
  6
Continuous
 62
     7
370
    30
100
AcDbLine
 10
35.56726246472099
 20
47.159296469956
 30
0.0
 11
35.567262464722
 21
25.159296469956
 31
0.0
1001
Sigma
1000

  0
LINE
  5
4E7
102
{ACAD_REACTORS
330
4E6
102
}
330
1F
100
AcDbEntity
  8
99
  6
Continuous
 62
     7
370
    15
100
AcDbLine
 10
36.455997177799
 20
-5.121836510499999
 30
0.0
 11
-2.405581253380999
 21
-5.121836510499999
 31
0.0
1001
Sigma
1000

  0
TEXT
  5
4E9
102
{ACAD_REACTORS
330
4E6
102
}
330
1F
100
AcDbEntity
  8
99
  6
Continuous
 62
     7
370
    15
100
AcDbText
 10
0.8444190539466145
 20
-4.33850651051
 30
0.0
 40
4.5
  1
ズームリング
 41
0.8323809763789176
  7
KCADTEXTSTANDARD
100
AcDbText
1001
Sigma
1000

  0
LINE
  5
4EC
102
{ACAD_REACTORS
330
4E6
330
4EB
102
}
330
1F
100
AcDbEntity
  8
99
  6
Continuous
 62
     7
370
    15
100
AcDbLine
 10
27.645084666038
 20
25.07361218948
 30
0.0
 11
36.455997177799
 21
-5.121836510499999
 31
0.0
1001
Sigma
1000

  0
INSERT
  5
4EE
102
{ACAD_REACTORS
330
4E6
330
4EB
102
}
330
1F
100
AcDbEntity
  8
99
  6
Continuous
 62
     7
370
    15
100
AcDbBlockReference
  2
_OPEN30
 10
27.645084666038
 20
25.07361218948
 30
0.0
 41
3.0
 42
3.0
 43
3.0
 50
106.2670361442797
1001
Sigma
1000
_BRRS
  0
LINE
  5
4F0
330
1F
100
AcDbEntity
  8
99
  6
Continuous
 62
     7
370
    50
100
AcDbLine
 10
35.567262464722
 20
36.15929646995599
 30
0.0
 11
40.567262464722
 21
36.15929646995599
 31
0.0
1001
Sigma
1000

  0
LINE
  5
4F2
330
1F
100
AcDbEntity
  8
99
  6
Continuous
 62
     7
370
    30
100
AcDbLine
 10
17.067262464721
 20
36.15929646995599
 30
0.0
 11
27.567262464721
 21
36.15929646995599
 31
0.0
1001
Sigma
1000

  0
LINE
  5
4F4
330
1F
100
AcDbEntity
  8
99
  6
Continuous
 62
     7
370
    30
100
AcDbLine
 10
27.567262464721
 20
38.15929646995599
 30
0.0
 11
17.067262464721
 21
38.15929646995599
 31
0.0
1001
Sigma
1000

  0
LINE
  5
4F6
330
1F
100
AcDbEntity
  8
99
  6
Continuous
 62
     7
370
    30
100
AcDbLine
 10
27.567262464721
 20
40.059296469956
 30
0.0
 11
17.067262464721
 21
40.059296469956
 31
0.0
1001
Sigma
1000

  0
LINE
  5
4F8
330
1F
100
AcDbEntity
  8
99
  6
Continuous
 62
     7
370
    30
100
AcDbLine
 10
27.567262464721
 20
41.85929646995599
 30
0.0
 11
17.067262464721
 21
41.85929646995599
 31
0.0
1001
Sigma
1000

  0
LINE
  5
4FA
330
1F
100
AcDbEntity
  8
99
  6
Continuous
 62
     7
370
    30
100
AcDbLine
 10
27.567262464721
 20
43.459296469956
 30
0.0
 11
17.067262464721
 21
43.459296469956
 31
0.0
1001
Sigma
1000

  0
LINE
  5
4FC
330
1F
100
AcDbEntity
  8
99
  6
Continuous
 62
     7
370
    30
100
AcDbLine
 10
27.567262464721
 20
44.85929646995599
 30
0.0
 11
17.067262464721
 21
44.85929646995599
 31
0.0
1001
Sigma
1000

  0
LINE
  5
4FE
330
1F
100
AcDbEntity
  8
99
  6
Continuous
 62
     7
370
    30
100
AcDbLine
 10
27.567262464721
 20
45.959296469956
 30
0.0
 11
17.067262464721
 21
45.959296469956
 31
0.0
1001
Sigma
1000

  0
LINE
  5
500
330
1F
100
AcDbEntity
  8
99
  6
Continuous
 62
     7
370
    30
100
AcDbLine
 10
27.567262464721
 20
46.65929646995599
 30
0.0
 11
17.067262464721
 21
46.65929646995599
 31
0.0
1001
Sigma
1000

  0
LINE
  5
502
330
1F
100
AcDbEntity
  8
99
  6
Continuous
 62
     7
370
    30
100
AcDbLine
 10
27.567262464721
 20
34.159296469955
 30
0.0
 11
17.067262464721
 21
34.159296469955
 31
0.0
1001
Sigma
1000

  0
LINE
  5
504
330
1F
100
AcDbEntity
  8
99
  6
Continuous
 62
     7
370
    30
100
AcDbLine
 10
27.567262464721
 20
32.25929646995499
 30
0.0
 11
17.067262464721
 21
32.25929646995499
 31
0.0
1001
Sigma
1000

  0
LINE
  5
506
330
1F
100
AcDbEntity
  8
99
  6
Continuous
 62
     7
370
    30
100
AcDbLine
 10
27.567262464721
 20
30.45929646995499
 30
0.0
 11
17.067262464721
 21
30.45929646995499
 31
0.0
1001
Sigma
1000

  0
LINE
  5
508
330
1F
100
AcDbEntity
  8
99
  6
Continuous
 62
     7
370
    30
100
AcDbLine
 10
27.567262464721
 20
28.859296469955
 30
0.0
 11
17.067262464721
 21
28.859296469955
 31
0.0
1001
Sigma
1000

  0
LINE
  5
50A
330
1F
100
AcDbEntity
  8
99
  6
Continuous
 62
     7
370
    30
100
AcDbLine
 10
27.567262464721
 20
27.459296469955
 30
0.0
 11
17.067262464721
 21
27.459296469955
 31
0.0
1001
Sigma
1000

  0
LINE
  5
50C
330
1F
100
AcDbEntity
  8
99
  6
Continuous
 62
     7
370
    30
100
AcDbLine
 10
27.567262464721
 20
26.359296469955
 30
0.0
 11
17.067262464721
 21
26.359296469955
 31
0.0
1001
Sigma
1000

  0
LINE
  5
50E
330
1F
100
AcDbEntity
  8
99
  6
Continuous
 62
     7
370
    30
100
AcDbLine
 10
27.567262464721
 20
25.65929646995499
 30
0.0
 11
17.067262464721
 21
25.65929646995499
 31
0.0
1001
Sigma
1000

  0
LINE
  5
510
330
1F
100
AcDbEntity
  8
99
  6
Continuous
 62
     7
370
    30
100
AcDbLine
 10
25.567262464722
 20
25.159296469956
 30
0.0
 11
25.567262464721
 21
47.159296469956
 31
0.0
1001
Sigma
1000

  0
LINE
  5
512
330
1F
100
AcDbEntity
  8
99
  6
Continuous
 62
     7
370
    30
100
AcDbLine
 10
23.567262464722
 20
25.159296469956
 30
0.0
 11
23.567262464721
 21
47.159296469956
 31
0.0
1001
Sigma
1000

  0
LINE
  5
514
330
1F
100
AcDbEntity
  8
99
  6
Continuous
 62
     7
370
    30
100
AcDbLine
 10
21.56726246472199
 20
25.159296469956
 30
0.0
 11
21.56726246472099
 21
47.159296469956
 31
0.0
1001
Sigma
1000

  0
LINE
  5
516
330
1F
100
AcDbEntity
  8
99
  6
Continuous
 62
     7
370
    30
100
AcDbLine
 10
19.56726246472199
 20
25.159296469956
 30
0.0
 11
19.567262464721
 21
47.159296469956
 31
0.0
1001
Sigma
1000

  0
DIMENSION
  5
518
330
1F
100
AcDbEntity
  8
KCAD_DIMS
 62
     7
100
AcDbDimension
  2
*D40
 10
-14.93273753528
 20
59.42646853427199
 30
0.0
 11
0.3172624647214004
 21
61.559801534272
 31
0.0
 70
    32
 71
     5
 42
-1.0
  3
Standard
100
AcDbAlignedDimension
 13
15.567262464722
 23
45.65929646995599
 33
0.0
 14
-14.93273753528
 24
45.65929646995599
 34
0.0
100
AcDbRotatedDimension
1001
Sigma
1000
DIM_TPHO
1001
KCAD_DIM_EXT
1002
{
1071
 20001212
1070
     0
1070
     2
1070
     2
1040
3.0
1040
0.0
1040
0.0
1040
0.0
1040
0.0
1040
0.0
1040
0.0
1040
0.0
1070
     0
1040
50.0
1040
-1.0
1013
1.0
1023
0.0
1033
0.0
1040
0.0
1013
1.0
1023
0.0
1033
0.0
1000
_None
1040
1.0
1040
30.5
1070
     0
1070
     0
1070
     0
1012
1.0
1022
0.0
1032
0.0
1013
1.0
1023
0.0
1033
0.0
1002
}
1001
ACAD
1000
DSTYLE
1002
{
1070
    41
1040
3.0
1070
    42
1040
1.0
1070
    43
1040
8.0
1070
    44
1040
1.0
1070
    45
1040
0.0
1070
    73
1070
     0
1070
    74
1070
     0
1070
    77
1070
     1
1070
    78
1070
     8
1070
    79
1070
     2
1070
   140
1040
3.2
1070
   141
1040
2.5
1070
   145
1040
0.0001
1070
   146
1040
0.667
1070
   147
1040
0.5333000000000001
1070
   172
1070
     1
1070
   173
1070
     1
1070
   179
1070
     3
1070
   271
1070
     3
1070
   272
1070
     3
1070
   279
1070
     2
1070
   284
1070
     8
1070
   289
1070
     2
1070
   340
1005
189
1070
   341
1005
21
1070
   343
1005
12D
1070
   344
1005
12D
1002
}
  0
DIMENSION
  5
554
330
1F
100
AcDbEntity
  8
KCAD_DIMS
 62
     7
100
AcDbDimension
  2
*D41
 10
52.06726246472201
 20
76.929337553065
 30
0.0
 11
18.567262464721
 21
79.06267055306499
 31
0.0
 70
    32
 71
     5
 42
-1.0
  3
Standard
100
AcDbAlignedDimension
 13
-14.93273753528
 23
45.65929646995599
 33
0.0
 14
52.067262464722
 24
50.65929646995599
 34
0.0
100
AcDbRotatedDimension
1001
Sigma
1000
DIM_TPHO
1001
KCAD_DIM_EXT
1002
{
1071
 20001212
1070
     0
1070
     2
1070
     2
1040
3.0
1040
0.0
1040
0.0
1040
0.0
1040
0.0
1040
0.0
1040
0.0
1040
0.0
1070
     0
1040
50.0
1040
-1.0
1013
1.0
1023
0.0
1033
0.0
1040
0.0
1013
1.0
1023
0.0
1033
0.0
1000
_None
1040
1.0
1040
67.0
1070
     0
1070
     0
1070
     0
1012
1.0
1022
0.0
1032
0.0
1013
1.0
1023
0.0
1033
0.0
1002
}
1001
ACAD
1000
DSTYLE
1002
{
1070
    41
1040
3.0
1070
    42
1040
1.0
1070
    43
1040
8.0
1070
    44
1040
1.0
1070
    45
1040
0.0
1070
    73
1070
     0
1070
    74
1070
     0
1070
    77
1070
     1
1070
    78
1070
     8
1070
    79
1070
     2
1070
   140
1040
3.2
1070
   141
1040
2.5
1070
   145
1040
0.0001
1070
   146
1040
0.667
1070
   147
1040
0.5333000000000001
1070
   172
1070
     1
1070
   173
1070
     1
1070
   179
1070
     3
1070
   271
1070
     3
1070
   272
1070
     3
1070
   279
1070
     2
1070
   284
1070
     8
1070
   289
1070
     2
1070
   340
1005
189
1070
   341
1005
21
1070
   343
1005
12D
1070
   344
1005
12D
1002
}
  0
DIMENSION
  5
590
330
1F
100
AcDbEntity
  8
KCAD_DIMS
 62
     7
100
AcDbDimension
  2
*D42
 10
56.067262464722
 20
76.929337553065
 30
0.0
 11
64.182619943556
 21
79.06267055306499
 31
0.0
 70
    32
 71
     5
 42
-1.0
  3
Standard
100
AcDbAlignedDimension
 13
52.067262464722
 23
50.65929646995599
 33
0.0
 14
56.067262464722
 24
48.109296469955
 34
0.0
100
AcDbRotatedDimension
1001
Sigma
1000
DIM_TPHO
1001
KCAD_DIM_EXT
1002
{
1071
 20001212
1070
     0
1070
     1
1070
     1
1040
3.0
1040
5.0
1040
9.1153574192299
1040
0.0
1040
0.0
1040
0.0
1040
0.0
1040
0.0
1070
     0
1040
50.0
1040
-1.0
1013
1.0
1023
0.0
1033
0.0
1040
0.0
1013
1.0
1023
0.0
1033
0.0
1000
_None
1040
1.0
1040
4.0
1070
     0
1070
     0
1070
     0
1012
1.0
1022
0.0
1032
0.0
1013
1.0
1023
0.0
1033
0.0
1002
}
1001
ACAD
1000
DSTYLE
1002
{
1070
    41
1040
3.0
1070
    42
1040
1.0
1070
    43
1040
8.0
1070
    44
1040
1.0
1070
    45
1040
0.0
1070
    73
1070
     0
1070
    74
1070
     0
1070
    77
1070
     1
1070
    78
1070
     8
1070
    79
1070
     2
1070
   140
1040
3.2
1070
   141
1040
2.5
1070
   145
1040
0.0001
1070
   146
1040
0.667
1070
   147
1040
0.5333000000000001
1070
   172
1070
     1
1070
   173
1070
     1
1070
   179
1070
     3
1070
   271
1070
     3
1070
   272
1070
     3
1070
   279
1070
     2
1070
   284
1070
     8
1070
   289
1070
     2
1070
   340
1005
189
1070
   341
1005
21
1070
   343
1005
12D
1070
   344
1005
12D
1002
}
  0
DIMENSION
  5
5D8
330
1F
100
AcDbEntity
  8
KCAD_DIMS
 62
     7
100
AcDbDimension
  2
*D43
 10
46.067262464722
 20
59.92646853427199
 30
0.0
 11
49.067262464721
 21
62.059801534272
 31
0.0
 70
    32
 71
     5
 42
-1.0
  3
Standard
100
AcDbAlignedDimension
 13
52.067262464722
 23
50.65929646995599
 33
0.0
 14
46.067262464722
 24
50.65929646995599
 34
0.0
100
AcDbRotatedDimension
1001
Sigma
1000
DIM_TPHO
1001
KCAD_DIM_EXT
1002
{
1071
 20001212
1070
     0
1070
     2
1070
     2
1040
3.0
1040
0.0
1040
0.0
1040
0.0
1040
0.0
1040
0.0
1040
0.0
1040
0.0
1070
     0
1040
50.0
1040
-1.0
1013
1.0
1023
0.0
1033
0.0
1040
0.0
1013
1.0
1023
0.0
1033
0.0
1000
_None
1040
1.0
1040
6.0
1070
     0
1070
     0
1070
     0
1012
1.0
1022
0.0
1032
0.0
1013
1.0
1023
0.0
1033
0.0
1002
}
1001
ACAD
1000
DSTYLE
1002
{
1070
    41
1040
3.0
1070
    42
1040
1.0
1070
    43
1040
8.0
1070
    44
1040
1.0
1070
    45
1040
0.0
1070
    73
1070
     0
1070
    74
1070
     0
1070
    77
1070
     1
1070
    78
1070
     8
1070
    79
1070
     2
1070
   140
1040
3.2
1070
   141
1040
2.5
1070
   145
1040
0.0001
1070
   146
1040
0.667
1070
   147
1040
0.5333000000000001
1070
   172
1070
     1
1070
   173
1070
     1
1070
   179
1070
     3
1070
   271
1070
     3
1070
   272
1070
     3
1070
   279
1070
     2
1070
   284
1070
     8
1070
   289
1070
     2
1070
   340
1005
189
1070
   341
1005
21
1070
   343
1005
12D
1070
   344
1005
12D
1002
}
  0
DIMENSION
  5
61D
330
1F
100
AcDbEntity
  8
KCAD_DIMS
 62
     7
100
AcDbDimension
  2
*D44
 10
85.741650987771
 20
50.65929646995599
 30
0.0
 11
83.608317987771
 21
36.15929646995599
 31
0.0
 70
    32
 71
     5
 42
-1.0
 53
90.0
  3
Standard
100
AcDbAlignedDimension
 13
52.067262464722
 23
21.65929646995599
 33
0.0
 14
52.067262464722
 24
50.65929646995599
 34
0.0
 50
90.0
100
AcDbRotatedDimension
1001
Sigma
1000
DIM_TPVO
1001
KCAD_DIM_EXT
1002
{
1071
 20001212
1070
     0
1070
     2
1070
     2
1040
3.0
1040
0.0
1040
0.0
1040
0.0
1040
0.0
1040
0.0
1040
0.0
1040
0.0
1070
     0
1040
50.0
1040
-1.0
1013
1.0
1023
0.0
1033
0.0
1040
0.0
1013
1.0
1023
0.0
1033
0.0
1000
_None
1040
1.0
1040
29.0
1070
     0
1070
     0
1070
     0
1012
1.0
1022
0.0
1032
0.0
1013
1.0
1023
0.0
1033
0.0
1002
}
1001
ACAD
1000
DSTYLE
1002
{
1070
     3
1000
%%c<>
1070
    41
1040
3.0
1070
    42
1040
1.0
1070
    43
1040
8.0
1070
    44
1040
1.0
1070
    45
1040
0.0
1070
    73
1070
     0
1070
    74
1070
     0
1070
    77
1070
     1
1070
    78
1070
     8
1070
    79
1070
     2
1070
   140
1040
3.2
1070
   141
1040
2.5
1070
   145
1040
0.0001
1070
   146
1040
0.667
1070
   147
1040
0.5333000000000001
1070
   172
1070
     1
1070
   173
1070
     1
1070
   179
1070
     3
1070
   271
1070
     3
1070
   272
1070
     3
1070
   279
1070
     2
1070
   284
1070
     8
1070
   289
1070
     2
1070
   340
1005
189
1070
   341
1005
21
1070
   343
1005
12D
1070
   344
1005
12D
1002
}
  0
TEXT
  5
6D0
330
1F
100
AcDbEntity
  8
99
  6
Continuous
 62
     7
370
    30
100
AcDbText
 10
110.3797484469853
 20
-139.9590637729135
 30
0.0
 40
4.0
  1
株式会社トキナー
  7
KCADTEXTSTANDARD
100
AcDbText
1001
Sigma
1000

  0
TEXT
  5
6D1
330
1F
100
AcDbEntity
  8
99
  6
Continuous
 62
     7
370
    30
100
AcDbText
 10
164.8237055463877
 20
-139.2790637729135
 30
0.0
 40
4.0
  1
Tokina Co.,Ltd.
 41
0.7000000000000001
  7
KCADTEXTSTANDARD
100
AcDbText
1001
Sigma
1000

  0
OLE2FRAME
  5
6D2
330
1F
100
AcDbEntity
  8
0
  6
Continuous
 62
   134
370
    15
100
AcDbOle2Frame
 70
     2
 10
-6.936015314317466
 20
-135.2414632060228
 30
0.0
 11
33.53858642631295
 21
-141.1730858749083
 31
0.0
 72
     0
 73
   205
 90
     9344
310
0055D8316ECC7ABE1BC0C4A10B11BAE760C00000000000000000B48A6766F0C4
310
4040C4A10B11BAE760C00000000000000000B48A6766F0C440402E8463EB89A5
310
61C00000000000000000D8316ECC7ABE1BC02E8463EB89A561C0000000000000
310
0000000000000100000000010000010000000100000000000100000000240000
310
D0CF11E0A1B11AE1000000000000000000000000000000003E000300FEFF0900
310
0600000000000000000000000100000001000000000000000010000002000000
310
01000000FEFFFFFF0000000000000000FFFFFFFFFFFFFFFFFFFFFFFFFFFFFFFF
310
FFFFFFFFFFFFFFFFFFFFFFFFFFFFFFFFFFFFFFFFFFFFFFFFFFFFFFFFFFFFFFFF
310
FFFFFFFFFFFFFFFFFFFFFFFFFFFFFFFFFFFFFFFFFFFFFFFFFFFFFFFFFFFFFFFF
310
FFFFFFFFFFFFFFFFFFFFFFFFFFFFFFFFFFFFFFFFFFFFFFFFFFFFFFFFFFFFFFFF
310
FFFFFFFFFFFFFFFFFFFFFFFFFFFFFFFFFFFFFFFFFFFFFFFFFFFFFFFFFFFFFFFF
310
FFFFFFFFFFFFFFFFFFFFFFFFFFFFFFFFFFFFFFFFFFFFFFFFFFFFFFFFFFFFFFFF
310
FFFFFFFFFFFFFFFFFFFFFFFFFFFFFFFFFFFFFFFFFFFFFFFFFFFFFFFFFFFFFFFF
310
FFFFFFFFFFFFFFFFFFFFFFFFFFFFFFFFFFFFFFFFFFFFFFFFFFFFFFFFFFFFFFFF
310
FFFFFFFFFFFFFFFFFFFFFFFFFFFFFFFFFFFFFFFFFFFFFFFFFFFFFFFFFFFFFFFF
310
FFFFFFFFFFFFFFFFFFFFFFFFFFFFFFFFFFFFFFFFFFFFFFFFFFFFFFFFFFFFFFFF
310
FFFFFFFFFFFFFFFFFFFFFFFFFFFFFFFFFFFFFFFFFFFFFFFFFFFFFFFFFFFFFFFF
310
FFFFFFFFFFFFFFFFFFFFFFFFFFFFFFFFFFFFFFFFFFFFFFFFFFFFFFFFFFFFFFFF
310
FFFFFFFFFFFFFFFFFFFFFFFFFFFFFFFFFFFFFFFFFFFFFFFFFFFFFFFFFFFFFFFF
310
FFFFFFFFFFFFFFFFFFFFFFFFFFFFFFFFFFFFFFFFFFFFFFFFFFFFFFFFFFFFFFFF
310
FDFFFFFFFEFFFFFFFEFFFFFFFEFFFFFF05000000060000000700000008000000
310
090000000A0000000B0000000C0000000D0000000E0000000F00000010000000
310
FEFFFFFFFFFFFFFFFFFFFFFFFFFFFFFFFFFFFFFFFFFFFFFFFFFFFFFFFFFFFFFF
310
FFFFFFFFFFFFFFFFFFFFFFFFFFFFFFFFFFFFFFFFFFFFFFFFFFFFFFFFFFFFFFFF
310
FFFFFFFFFFFFFFFFFFFFFFFFFFFFFFFFFFFFFFFFFFFFFFFFFFFFFFFFFFFFFFFF
310
FFFFFFFFFFFFFFFFFFFFFFFFFFFFFFFFFFFFFFFFFFFFFFFFFFFFFFFFFFFFFFFF
310
FFFFFFFFFFFFFFFFFFFFFFFFFFFFFFFFFFFFFFFFFFFFFFFFFFFFFFFFFFFFFFFF
310
FFFFFFFFFFFFFFFFFFFFFFFFFFFFFFFFFFFFFFFFFFFFFFFFFFFFFFFFFFFFFFFF
310
FFFFFFFFFFFFFFFFFFFFFFFFFFFFFFFFFFFFFFFFFFFFFFFFFFFFFFFFFFFFFFFF
310
FFFFFFFFFFFFFFFFFFFFFFFFFFFFFFFFFFFFFFFFFFFFFFFFFFFFFFFFFFFFFFFF
310
FFFFFFFFFFFFFFFFFFFFFFFFFFFFFFFFFFFFFFFFFFFFFFFFFFFFFFFFFFFFFFFF
310
FFFFFFFFFFFFFFFFFFFFFFFFFFFFFFFFFFFFFFFFFFFFFFFFFFFFFFFFFFFFFFFF
310
FFFFFFFFFFFFFFFFFFFFFFFFFFFFFFFFFFFFFFFFFFFFFFFFFFFFFFFFFFFFFFFF
310
FFFFFFFFFFFFFFFFFFFFFFFFFFFFFFFFFFFFFFFFFFFFFFFFFFFFFFFFFFFFFFFF
310
FFFFFFFFFFFFFFFFFFFFFFFFFFFFFFFFFFFFFFFFFFFFFFFFFFFFFFFFFFFFFFFF
310
FFFFFFFFFFFFFFFFFFFFFFFFFFFFFFFFFFFFFFFFFFFFFFFFFFFFFFFFFFFFFFFF
310
52006F006F007400200045006E00740072007900000000000000000000000000
310
0000000000000000000000000000000000000000000000000000000000000000
310
16000500FFFFFFFFFFFFFFFF020000000A00030000000000C000000000000046
310
0000000000000000000000004001EE5F259AC80103000000C000000000000000
310
01004F006C006500000000000000000000000000000000000000000000000000
310
0000000000000000000000000000000000000000000000000000000000000000
310
0A000200FFFFFFFFFFFFFFFFFFFFFFFF00000000000000000000000000000000
310
0000000000000000000000000000000000000000000000001400000000000000
310
010043006F006D0070004F0062006A0000000000000000000000000000000000
310
0000000000000000000000000000000000000000000000000000000000000000
310
120002010100000003000000FFFFFFFF00000000000000000000000000000000
310
0000000000000000000000000000000000000000010000004D00000000000000
310
01004F006C006500310030004E00610074006900760065000000000000000000
310
0000000000000000000000000000000000000000000000000000000000000000
310
1A000200FFFFFFFFFFFFFFFFFFFFFFFF00000000000000000000000000000000
310
0000000000000000000000000000000000000000040000000419000000000000
310
FEFFFFFF02000000FEFFFFFFFFFFFFFFFFFFFFFFFFFFFFFFFFFFFFFFFFFFFFFF
310
FFFFFFFFFFFFFFFFFFFFFFFFFFFFFFFFFFFFFFFFFFFFFFFFFFFFFFFFFFFFFFFF
310
FFFFFFFFFFFFFFFFFFFFFFFFFFFFFFFFFFFFFFFFFFFFFFFFFFFFFFFFFFFFFFFF
310
FFFFFFFFFFFFFFFFFFFFFFFFFFFFFFFFFFFFFFFFFFFFFFFFFFFFFFFFFFFFFFFF
310
FFFFFFFFFFFFFFFFFFFFFFFFFFFFFFFFFFFFFFFFFFFFFFFFFFFFFFFFFFFFFFFF
310
FFFFFFFFFFFFFFFFFFFFFFFFFFFFFFFFFFFFFFFFFFFFFFFFFFFFFFFFFFFFFFFF
310
FFFFFFFFFFFFFFFFFFFFFFFFFFFFFFFFFFFFFFFFFFFFFFFFFFFFFFFFFFFFFFFF
310
FFFFFFFFFFFFFFFFFFFFFFFFFFFFFFFFFFFFFFFFFFFFFFFFFFFFFFFFFFFFFFFF
310
FFFFFFFFFFFFFFFFFFFFFFFFFFFFFFFFFFFFFFFFFFFFFFFFFFFFFFFFFFFFFFFF
310
FFFFFFFFFFFFFFFFFFFFFFFFFFFFFFFFFFFFFFFFFFFFFFFFFFFFFFFFFFFFFFFF
310
FFFFFFFFFFFFFFFFFFFFFFFFFFFFFFFFFFFFFFFFFFFFFFFFFFFFFFFFFFFFFFFF
310
FFFFFFFFFFFFFFFFFFFFFFFFFFFFFFFFFFFFFFFFFFFFFFFFFFFFFFFFFFFFFFFF
310
FFFFFFFFFFFFFFFFFFFFFFFFFFFFFFFFFFFFFFFFFFFFFFFFFFFFFFFFFFFFFFFF
310
FFFFFFFFFFFFFFFFFFFFFFFFFFFFFFFFFFFFFFFFFFFFFFFFFFFFFFFFFFFFFFFF
310
FFFFFFFFFFFFFFFFFFFFFFFFFFFFFFFFFFFFFFFFFFFFFFFFFFFFFFFFFFFFFFFF
310
FFFFFFFFFFFFFFFFFFFFFFFFFFFFFFFFFFFFFFFFFFFFFFFFFFFFFFFFFFFFFFFF
310
0100000200000000000000000000000000000000C8191905FFFFFFFFFFFFFFFF
310
FFFFFFFFFFFFFFFFFFFFFFFFFFFFFFFFFFFFFFFFFFFFFFFFFFFFFFFFFFFFFFFF
310
0100FEFF030A0000FFFFFFFF0A00030000000000C00000000000004607000000
310
5042727573680007000000504272757368000700000050427275736800F439B2
310
71000000000000000000000000FFFFFFFFFFFFFFFFFFFFFFFFFFFFFFFFFFFFFF
310
FFFFFFFFFFFFFFFFFFFFFFFFFFFFFFFFFFFFFFFFFFFFFFFFFFFFFFFFFFFFFFFF
310
FFFFFFFFFFFFFFFFFFFFFFFFFFFFFFFFFFFFFFFFFFFFFFFFFFFFFFFFFFFFFFFF
310
FFFFFFFFFFFFFFFFFFFFFFFFFFFFFFFFFFFFFFFFFFFFFFFFFFFFFFFFFFFFFFFF
310
FFFFFFFFFFFFFFFFFFFFFFFFFFFFFFFFFFFFFFFFFFFFFFFFFFFFFFFFFFFFFFFF
310
FFFFFFFFFFFFFFFFFFFFFFFFFFFFFFFFFFFFFFFFFFFFFFFFFFFFFFFFFFFFFFFF
310
FFFFFFFFFFFFFFFFFFFFFFFFFFFFFFFFFFFFFFFFFFFFFFFFFFFFFFFFFFFFFFFF
310
FFFFFFFFFFFFFFFFFFFFFFFFFFFFFFFFFFFFFFFFFFFFFFFFFFFFFFFFFFFFFFFF
310
FFFFFFFFFFFFFFFFFFFFFFFFFFFFFFFFFFFFFFFFFFFFFFFFFFFFFFFFFFFFFFFF
310
FFFFFFFFFFFFFFFFFFFFFFFFFFFFFFFFFFFFFFFFFFFFFFFFFFFFFFFFFFFFFFFF
310
FFFFFFFFFFFFFFFFFFFFFFFFFFFFFFFFFFFFFFFFFFFFFFFFFFFFFFFFFFFFFFFF
310
FFFFFFFFFFFFFFFFFFFFFFFFFFFFFFFFFFFFFFFFFFFFFFFFFFFFFFFFFFFFFFFF
310
00190000424DF618000000000000360000002800000075000000120000000100
310
180000000000C018000000000000000000000000000000000000FFFFFFFFFFFF
310
FFFFFFFFFFFFFFFFFFFFFFFFFFFFFFFFFFFF6666660808081212120C0C0C3535
310
35FFFFFFFFFFFFFFFFFFFFFFFFFFFFFFFFFFFFFFFFFFFFFFFFFFFFFFC0C0C045
310
4545151515121212121212121212131313141414151515151515161616181818
310
1818181919191919191E1E1E484848B0B0B0FFFFFFFFFFFFFFFFFFD4D4D42424
310
242424242424242E2E2EF1F1F1FFFFFFFFFFFFFFFFFFFFFFFFFFFFFFFFFFFFFF
310
FFFFDEDEDE4B4B4B3333333838383A3A3A3838382C2C2C5E5E5EEBEBEBFFFFFF
310
F1F1F14949494242424444444D4D4DF5F5F5FFFFFFA5A5A54343435050504848
310
48999999FFFFFFFFFFFFFFFFFFFFFFFFFFFFFFFFFFFFFFFFFFFFFFFFFFFFFFFF
310
FFFFFFFFFFBCBCBC6666667171716C6C6C9A9A9AFFFFFFFFFFFFFFFFFFE9E9E9
310
9393938181818080808282828484848484848585858888888888888989898B8B
310
8B8C8C8C8D8D8D8F8F8F90909090909092929291919199999900FFFFFFFFFFFF
310
FFFFFFFFFFFFFFFFFFFFFFFFFFFFFFFFFFFF5D5D5D0000000202020000002727
310
27FFFFFFFFFFFFFFFFFFFFFFFFFFFFFFFFFFFFFFFFFFFFFFFFA6A6A600000000
310
0000020202030303020202030303020202020202020202020202020202020202
310
0202020202020101010000000000000000006B6B6BFFFFFFFFFFFFCECECE0000
310
00000000000000080808EDEDEDFFFFFFFFFFFFFFFFFFFFFFFFFFFFFFFFFFFF9B
310
9B9B000000000000000000000000000000000000838383FFFFFFFFFFFFFFFFFF
310
ECECEC060606000000000000050505EEEEEEFFFFFF7B7B7B0000000000000000
310
00656565FFFFFFFFFFFFFFFFFFFFFFFFFFFFFFFFFFFFFFFFFFFFFFFFFFFFFFFF
310
FFFFFFFFFF8888880000000000000000003F3F3FFFFFFFFFFFFFC1C1C1000000
310
0000000000000000000000000000000000000000000000000000000000000000
310
0000000000000000000000000000000000000000000003030300FFFFFFFFFFFF
310
FFFFFFFFFFFFFFFFFFFFFFFFFFFFFFFFFFFF5E5E5E0000000404040000002525
310
25FFFFFFFFFFFFFFFFFFFFFFFFFFFFFFFFFFFFFFFFFFFEFEFE13131300000005
310
0505030303000000000000000000000000000000000000000000000000000000
310
000000000000000000000000050505010101000000CDCDCDFFFFFFCECECE0303
310
030202020101010B0B0BEDEDEDFFFFFFFFFFFFFFFFFFFFFFFFF7F7F759595900
310
0000000000050505000000000000383838D8D8D8FFFFFFFFFFFFFFFFFFFFFFFF
310
EDEDED0B0B0B0101010101010B0B0BEFEFEFFFFFFF7F7F7F0000000505050000
310
00686868FFFFFFFFFFFFFFFFFFFFFFFFFFFFFFFFFFFFFFFFFFFFFFFFFFFFFFFF
310
FFFFFFFFFF8D8D8D000000040404000000464646FFFFFFFFFFFF2E2E2E000000
310
0404040404040000000000000000000000000000000000000000000000000000
310
0000000000000000000000000003030305050503030312121200FFFFFFFFFFFF
310
FFFFFFFFFFFFFFFFFFFFFFFFFFFFFFFFFFFF5F5F5F0000000505050000002424
310
24FFFFFFFFFFFFFFFFFFFFFFFFFFFFFFFFFFFFFFFFFFD9D9D900000003030304
310
04040000007070709D9D9D9797979797979696969393939292928F8F8F8C8C8C
310
8A8A8A8B8B8B7E7E7E131313010101040404000000858585FFFFFFCECECE0404
310
040202020101010C0C0CEDEDEDFFFFFFFFFFFFFFFFFFCBCBCB23232300000003
310
03030404040000000606068D8D8DFFFFFFFFFFFFFFFFFFFFFFFFFFFFFFFFFFFF
310
EDEDED0C0C0C0101010101010B0B0BEFEFEFFFFFFF7F7F7F0000000505050000
310
00686868FFFFFFFFFFFFFFFFFFFFFFFFFFFFFFFFFFFFFFFFFFFFFFFFFFFFFFFF
310
FFFFFFFFFF8D8D8D000000050505000000444444FFFFFFFEFEFE050505010101
310
0404040101015A5A5A6666666464646464646464646464646363636262626262
310
626060606060606060605E5E5E00000004040403030312121200FFFFFFFFFFFF
310
FFFFFFFFFFFFFFFFFFFFFFFFFFFFFFFFFFFF5F5F5F0000000404040000002323
310
23FFFFFFFFFFFFFFFFFFFFFFFFFFFFFFFFFFFFFFFFFFD2D2D200000003030302
310
0202060606FFFFFFFFFFFFFFFFFFFFFFFFFFFFFFFFFFFFFFFFFFFFFFFFFFFFFF
310
FFFFFFFFFFFFFFFFFF666666000000040404000000808080FFFFFFCECECE0404
310
040202020101010B0B0BEDEDEDFFFFFFFFFFFF8C8C8C03030300000003030300
310
00000000003E3E3ED9D9D9FFFFFFFFFFFFFFFFFFFFFFFFFFFFFFFFFFFFFFFFFF
310
EDEDED0C0C0C0101010101010B0B0BEFEFEFFFFFFF7F7F7F0000000505050000
310
00676767FFFFFFFFFFFFFFFFFFFFFFFFFFFFFFFFFFFFFFFFFFFFFFFFFFFFFFFF
310
FFFFFFFFFF8D8D8D000000040404000000444444FFFFFFFFFFFF070707010101
310
030303000000F7F7F7FFFFFFFFFFFFFFFFFFFFFFFFFFFFFFFFFFFFFFFFFFFFFF
310
FFFFFFFFFFFFFFFFFFFFFFFFFF00000003030303030311111100FFFFFFFFFFFF
310
FFFFFFFFFFFFFFFFFFFFFFFFFFFFFFFFFFFF6161610000000404040000002222
310
22FFFFFFFFFFFFFFFFFFFFFFFFFFFFFFFFFFFFFFFFFFD3D3D300000002020202
310
0202070707FCFCFCFFFFFFFFFFFFFFFFFFFFFFFFFFFFFFFFFFFFFFFFFFFFFFFF
310
FFFFFFFFFFFFFFFFFF696969000000040404000000818181FFFFFFCECECE0404
310
040202020101010D0D0DFAFAFAEEEEEE4D4D4D0000000000000303030000000D
310
0D0D949494FFFFFFFFFFFFFFFFFFFFFFFFFFFFFFFFFFFFFFFFFFFFFFFFFFFFFF
310
EDEDED0C0C0C0101010101010B0B0BEFEFEFFFFFFF7F7F7F0000000505050000
310
00676767FFFFFFFFFFFFFFFFFFFFFFFFFFFFFFFFFFFFFFFFFFFFFFFFFFFFFFFF
310
FFFFFFFFFF8D8D8D000000040404000000434343FFFFFFFEFEFE050505010101
310
030303010101A9A9A9C1C1C1BEBEBEC1C1C1C1C1C1C2C2C2C3C3C3C4C4C4C5C5
310
C5C5C5C5C8C8C8CACACACCCCCC00000003030303030311111100FFFFFFFFFFFF
310
FFFFFFFFFFFFFFFFFFFFFFFFFFFFFFFFFFFF6161610000000404040000002121
310
21FFFFFFFFFFFFFFFFFFFFFFFFFFFFFFFFFFFFFFFFFFD5D5D500000002020202
310
0202060606FCFCFCFFFFFFFFFFFFFFFFFFFFFFFFFFFFFFFFFFFFFFFFFFFFFFFF
310
FFFFFFFFFFFFFFFFFF686868000000050505000000818181FFFFFFCCCCCC0303
310
030202020202020D0D0D9898981D1D1D000000030303040404010101545454E1
310
E1E1FFFFFFFFFFFFFFFFFFFFFFFFFFFFFFFFFFFFFFFFFFFFFFFFFFFFFFFFFFFF
310
EDEDED0C0C0C0101010101010B0B0BEFEFEFFFFFFF7F7F7F0000000505050000
310
00666666FFFFFFFFFFFFFFFFFFFFFFFFFFFFFFFFFFFFFFFFFFFFFFFFFFFFFFFF
310
FFFFFFFFFF8D8D8D000000040404000000424242FFFFFFFFFFFF1E1E1E000000
310
0505050303030000000000000000000000000000000101010101010101010202
310
0202020203030304040405050502020204040403030311111100FFFFFFFFFFFF
310
FFFFFFFFFFFFFFFFFFFFFFFFFFFFFFFFFFFF6363630000000505050000001F1F
310
1FFFFFFFFFFFFFFFFFFFFFFFFFFFFFFFFEFEFEFFFFFFD5D5D500000003030302
310
0202050505FCFCFCFFFFFFFFFFFFFFFFFFFFFFFFFFFFFFFFFFFFFFFFFFFFFFFF
310
FFFFFFFFFFFFFFFFFF686868000000040404000000818181FFFFFFCDCDCD0303
310
030202020303030707074545450000000000000404040303030303039E9E9EFF
310
FFFFFFFFFFFFFFFFFFFFFFFFFFFFFFFFFFFFFFFFFFFFFFFFFFFFFFFFFFFFFFFF
310
EDEDED0C0C0C0101010101010B0B0BEEEEEEFFFFFF7F7F7F0000000505050000
310
00666666FFFFFFFFFFFFFFFFFFFFFFFFFFFFFFFFFFFFFFFFFFFFFFFFFFFFFFFF
310
FFFFFFFFFF8D8D8D000000040404000000434343FFFFFFFFFFFF9C9C9C000000
310
0000000000000000000000000000000000000000000000000000000000000000
310
0000000000000000000000000004040405050503030311111100FFFFFFFFFFFF
310
FFFFFFFFFFFFFFFFFFFFFFFFFFFFFFFFFFFF6262620000000505050000002121
310
21FFFFFFFFFFFFFFFFFFFFFFFFFFFFFFFEFEFEFFFFFFD5D5D500000002020201
310
0101070707FDFDFDFFFFFFFFFFFFFFFFFFFFFFFFFFFFFFFFFFFFFFFFFFFFFFFF
310
FFFFFFFFFFFFFFFFFF696969000000050505000000818181FFFFFFCCCCCC0303
310
030202020101010D0D0DF6F6F6B3B3B319191900000003030302020200000057
310
5757E8E8E8FFFFFFFFFFFFFFFFFFFFFFFFFFFFFFFFFFFFFFFFFFFFFFFFFFFFFF
310
EDEDED0C0C0C0101010101010C0C0CEDEDEDFFFFFF7F7F7F0000000505050000
310
00666666FFFFFFFFFFFFFFFFFFFFFFFFFFFFFFFFFFFFFFFFFFFFFFFFFFFFFFFF
310
FFFFFFFFFF8D8D8D000000040404000000434343FFFFFFFFFFFFFFFFFFA8A8A8
310
3C3C3C2E2E2E2C2C2C2B2B2B2A2A2A2A2A2A2929292828282727272727272626
310
2626262625252525252524242400000004040403030311111100FFFFFFFFFFFF
310
FFFFFFFFFFFFFFFFFFFFFFFFFFFFFFFFFFFF6161610000000505050000002121
310
21FFFFFFFFFFFFFFFFFFFFFFFFFFFFFFFFFFFFFFFFFFD2D2D200000003030302
310
0202060606FFFFFFFFFFFFFFFFFFFFFFFFFFFFFFFFFFFFFFFFFFFFFFFFFFFFFF
310
FFFFFFFFFFFFFFFFFF666666000000050505000000808080FFFFFFCCCCCC0202
310
020202020101010B0B0BECECECFFFFFFE5E5E54D4D4D00000000000003030300
310
00001B1B1BABABABFFFFFFFFFFFFFFFFFFFFFFFFFFFFFFFFFFFFFFFFFFFFFFFF
310
EDEDED0C0C0C0101010101010B0B0BEEEEEEFFFFFF7F7F7F0000000505050000
310
00696969FFFFFFFFFFFFFFFFFFFFFFFFFFFFFFFFFFFFFFFFFFFFFFFFFFFFFFFF
310
FFFFFFFFFF909090000000040404000000414141FFFFFFFFFFFFFFFFFFFFFFFF
310
FFFFFFFDFDFDFAFAFAF9F9F9F9F9F9F7F7F7F7F7F7F7F7F7F5F5F5F5F5F5F4F4
310
F4F4F4F4F2F2F2F4F4F4F7F7F700000004040403030311111100FFFFFFFFFFFF
310
FFFFFFFFFFFFFFFFFFFFFFFFFFFFFFFFFFFF5F5F5F0000000505050000002222
310
22FFFFFFFFFFFFFFFFFFFFFFFFFFFFFFFFFFFFFFFFFFDBDBDB00000003030304
310
04040000005858588585858383838585858686868989898989898D8D8D8E8E8E
310
919191949494898989161616010101040404000000828282FFFFFFCCCCCC0303
310
030202020101010B0B0BECECECFFFFFFFFFFFFFFFFFF8F8F8F0A0A0A00000003
310
0303000000000000636363EDEDEDFFFFFFFFFFFFFFFFFFFFFFFFFFFFFFFFFFFF
310
ECECEC0C0C0C0101010101010B0B0BEFEFEFFFFFFF7F7F7F0000000505050000
310
00555555D8D8D8D1D1D1D1D1D1D2D2D2D2D2D2D2D2D2D4D4D4D4D4D4D4D4D4D5
310
D5D5DCDCDC565656000000050505000000424242FFFFFFFFFFFFFFFFFFFFFFFF
310
FFFFFFFFFFFFFFFFFFFFFFFFFFFFFFFFFFFFFFFFFFFFFFFFFFFFFFFFFFFFFFFF
310
FFFFFFFFFFFFFFFFFFFFFDFDFD00000003030303030310101000FFFFFFFFFFFF
310
FFFFFFFFFFFFFFFFFFFFFFFFFFFFFFFFFFFF5F5F5F0000000505050000002121
310
21FFFFFFFFFFFFFFFFFFFFFFFFFFFFFFFFFFFFFFFFFFFFFFFF1D1D1D00000004
310
0404040404000000000000000000000000000000000000000000000000000000
310
000000000000000000000000050505020202000000BFBFBFFFFFFFCBCBCB0202
310
020202020101010C0C0CECECECFFFFFFFFFFFFFFFFFFFFFFFFD2D2D235353500
310
00000101010202020000001F1F1FB5B5B5FFFFFFFFFFFFFFFFFFFFFFFFFFFFFF
310
ECECEC0C0C0C0101010101010B0B0BEFEFEFFFFFFF7F7F7F0000000505050404
310
0400000000000000000000000000000000000000000000000000000000000000
310
00000000000000000404040404040000006E6E6EFFFFFFFFFFFF7C7C7C464646
310
4D4D4D4D4D4D4D4D4D4D4D4D4D4D4D4D4D4D4D4D4D4D4D4D4C4C4C4D4D4D4E4E
310
4E4F4F4F50505055555530303000000004040401010115151500FFFFFFFFFFFF
310
FFFFFFFFFFFFFFFFFFFFFFFFFFFFFFFFFFFF6060600000000505050000001F1F
310
1FFFFFFFFFFFFFFFFFFFFFFFFFFFFFFFFFFFFFFFFFFFFFFFFFB3B3B300000000
310
0000000000000000000000000000000000000000000000000000000000000000
310
000000000000000000000000000000000000585858FFFFFFFFFFFFCCCCCC0303
310
030202020101010B0B0BEAEAEAFFFFFFFFFFFFFFFFFFFFFFFFFFFFFFFEFEFE77
310
7777010101000000010101000000000000656565F0F0F0FFFFFFFFFFFFFFFFFF
310
EDEDED0A0A0A0000000000000A0A0AEDEDEDFFFFFF7E7E7E0000000303030303
310
0303030302020202020202020202020202020202020202020202020202020202
310
0202020202030303020202000000040404DADADAFFFFFFFFFFFF3F3F3F000000
310
0000000000000000000000000000000000000000000000000000000000000000
310
0000000000000000000000000004040402020200000082828200F1F1F1F1F1F1
310
F1F1F1F1F1F1F2F2F2F2F2F2F3F3F3FFFFFF5F5F5F0000000505050000001E1E
310
1EFFFFFFFCFCFCFCFCFCFBFBFBFDFDFDFDFDFDFEFEFEFEFEFEFFFFFFC6C6C646
310
4646131313131313131313131313121212121212121212111111111111111111
310
1010101010101010100F0F0F1C1C1C848484FEFEFEFFFFFFFFFFFFCDCDCD0404
310
040202020101010B0B0BEBEBEBFFFFFFFFFFFFFFFFFFFFFFFFFFFFFFFFFFFFFF
310
FFFFC0C0C0222222030303060606030303000000222222BCBCBCFFFFFFFFFFFF
310
ECECEC0D0D0D0000000000000B0B0BECECECFFFFFF7E7E7E0000000000000000
310
0000000000000000000000000000000000000000000000000000000000000000
310
00000000000000000000001C1C1CBBBBBBFFFFFFFFFFFFFFFFFF3F3F3F000000
310
0000000000000000000000000000000000000000000000000000000000000000
310
000000000000000000000000000000000000004F4F4FFFFFFF00111111101010
310
1010101111111313131313131515151919190909090303030505050404040404
310
043030302E2E2E2F2F2F3131313333333333333636362F2F2F7F7F7FFFFFFFFF
310
FFFFFFFFFFFDFDFDFCFCFCFBFBFBFAFAFAF8F8F8F7F7F7F7F7F7F6F6F6F5F5F5
310
F3F3F3F3F3F3F0F0F0F4F4F4FFFFFFFFFFFFFFFFFFFFFFFFFFFFFFCECECE0404
310
040303030000000B0B0BEBEBEBFFFFFFFFFFFFFFFFFFFFFFFFFFFFFFFFFFFFFF
310
FFFFFFFFFFF5F5F5D3D3D3D5D5D5D3D3D3D1D1D1C6C6C6C9C9C9FCFCFCFFFFFF
310
FFFFFFD5D5D5D4D4D4D4D4D4D1D1D1FDFDFDFFFFFFDFDFDFBBBBBBBDBDBDBDBD
310
BDBBBBBBB9B9B9B8B8B8B5B5B5B4B4B4B3B3B3B1B1B1AFAFAFAEAEAEADADADAB
310
ABABA9A9A9A9A9A9C4C4C4FDFDFDFFFFFFFFFFFFFFFFFFFFFFFFB8B8B89B9B9B
310
9D9D9D9B9B9B9B9B9B9999999999999999999999999999999999999999999999
310
999A9A9A989898979797979797989898CCCCCCFFFFFFFFFFFF00010101000000
310
0000000000000000000000000000000000000303030505050505050404040404
310
04000000000000000000000000000000000000000000000000555555FFFFFFFF
310
FFFFFFFFFFFFFFFFFFFFFFFFFFFFFFFFFFFFFFFFFFFFFFFFFFFFFFFFFFFFFFFF
310
FFFFFFFFFFFFFFFFFFFFFFFFFFFFFFFFFFFFFFFFFFFFFFFFFFFFFFCECECE0404
310
040101010101010B0B0BEBEBEBFFFFFFFFFFFFFFFFFFFFFFFFFFFFFFFFFFFFFF
310
FFFFFFFFFFFFFFFFFFFFFFFFFFFFFFFFFFFFFFFFFFFFFFFFFFFFFFFFFFFFFFFF
310
F5F5F57979797272727373737A7A7AF6F6F6FFFFFFFFFFFFFFFFFFFFFFFFFFFF
310
FFFFFFFFFFFFFFFFFFFFFFFFFFFFFFFFFFFFFFFFFFFFFFFFFFFFFFFFFFFFFFFF
310
FFFFFFFFFFFFFFFFFFFFFFFFFFFFFFFFFFFFFFFFFFFFFFFFFFFFFFFFFFFFFFFF
310
FFFFFFFFFFFFFFFFFFFFFFFFFFFFFFFFFFFFFFFFFFFFFFFFFFFFFFFFFFFFFFFF
310
FFFFFFFFFFFFFFFFFFFFFFFFFFFFFFFFFFFFFFFFFFFFFFFFFF00030303020202
310
0303030202020303030303030303030303030303030303030303030303030303
310
030303030303030303030303030303030303030303030000005A5A5AFFFFFFFF
310
FFFFFFFFFFFFFFFFFFFFFFFFFFFFFFFFFFFFFFFFFFFFFFFFFFFFFFFFFFFFFFFF
310
FFFFFFFFFFFFFFFFFFFFFFFFFFFFFFFFFFFFFFFFFFFFFFFFFFFFFFCECECE0303
310
030202020101010A0A0AEBEBEBFFFFFFFFFFFFFFFFFFFFFFFFFFFFFFFFFFFFFF
310
FFFFFFFFFFFFFFFFFFFFFFFFFFFFFFFFFFFFFFFFFFFFFFFFFFFFFFFFFFFFFFFF
310
EDEDED000000000000000000000000EDEDEDFFFFFFFFFFFFFFFFFFFFFFFFFFFF
310
FFFFFFFFFFFFFFFFFFFFFFFFFFFFFFFFFFFFFFFFFFFFFFFFFFFFFFFFFFFFFFFF
310
FFFFFFFFFFFFFFFFFFFFFFFFFFFFFFFFFFFFFFFFFFFFFFFFFFFFFFFFFFFFFFFF
310
FFFFFFFFFFFFFFFFFFFFFFFFFFFFFFFFFFFFFFFFFFFFFFFFFFFFFFFFFFFFFFFF
310
FFFFFFFFFFFFFFFFFFFFFFFFFFFFFFFFFFFFFFFFFFFFFFFFFF00141414121212
310
1212121212121111111212121111111111111111111111111111111010101010
310
101010100F0F0F1010101010100F0F0F0F0F0F0F0F0F030303646464FFFFFFFF
310
FFFFFFFFFFFFFFFFFFFFFFFFFFFFFFFFFFFFFFFFFFFFFFFFFFFFFFFFFFFFFFFF
310
FFFFFFFFFFFFFFFFFFFFFFFFFFFFFFFFFFFFFFFFFFFFFFFFFFFFFFD0D0D00A0A
310
0A070707060606111111ECECECFFFFFFFFFFFFFFFFFFFFFFFFFFFFFFFFFFFFFF
310
FFFFFFFFFFFFFFFFFFFFFFFFFFFFFFFFFFFFFFFFFFFFFFFFFFFFFFFFFFFFFFFF
310
F0F0F00E0E0E0000000101010C0C0CEFEFEFFFFFFFFFFFFFFFFFFFFFFFFFFFFF
310
FFFFFFFFFFFFFFFFFFFFFFFFFFFFFFFFFFFFFFFFFFFFFFFFFFFFFFFFFFFFFFFF
310
FFFFFFFFFFFFFFFFFFFFFFFFFFFFFFFFFFFFFFFFFFFFFFFFFFFFFFFFFFFFFFFF
310
FFFFFFFFFFFFFFFFFFFFFFFFFFFFFFFFFFFFFFFFFFFFFFFFFFFFFFFFFFFFFFFF
310
FFFFFFFFFFFFFFFFFFFFFFFFFFFFFFFFFFFFFFFFFFFFFFFFFF00000000000000
310
0000000000000000000000000000000000000000000000000000000000000000
310
0000000000000000000000000000000000000000000000000000000000000000
310
0000000000000000000000000000000000000000000000000000000000000000
310
0000000000000000000000000000000000000000000000000000000000000000
310
0000000000000000000000000000000000000000000000000000000000000000
310
0000000000000000000000000000000000000000000000000000000000000000
310
0000000000000000000000000000000000000000000000000000000000000000
310
0000000000000000000000000000000000000000000000000000000000000000
  1
OLE
  0
TEXT
  5
7A6
330
1F
100
AcDbEntity
  8
99
  6
Continuous
 62
     7
370
    30
100
AcDbText
 10
97.44992567032
 20
-126.6968443163032
 30
0.0
 40
2.5
  1
図番登録
 41
0.7000000000000001
  7
KCADTEXTSTANDARD
100
AcDbText
1001
Sigma
1000

  0
TEXT
  5
7A7
330
1F
100
AcDbEntity
  8
99
  6
Continuous
 62
     7
370
    30
100
AcDbText
 10
96.99347460354635
 20
-131.8724932700176
 30
0.0
 40
2.0
  1
2008.5.15
 41
0.7000000000000001
  7
KCADTEXTSTANDARD
100
AcDbText
1001
Sigma
1000

  0
ENDSEC
  0
SECTION
  2
OBJECTS
  0
DICTIONARY
  5
C
330
0
100
AcDbDictionary
281
     1
  3
ACAD_COLOR
350
6C
  3
ACAD_GROUP
350
D
  3
ACAD_LAYOUT
350
1A
  3
ACAD_MATERIAL
350
6B
  3
ACAD_MLINESTYLE
350
17
  3
ACAD_PLOTSETTINGS
350
19
  3
ACAD_PLOTSTYLENAME
350
E
  3
ACAD_TABLESTYLE
350
92
  3
ACDBHEADERROUNDTRIPXREC
350
8DB
  3
AcDbVariableDictionary
350
59
  3
DWGPROPS
350
8DE
  3
KCADFRAMEINFO
350
2A7
  0
DICTIONARY
  5
6C
102
{ACAD_REACTORS
330
C
102
}
330
C
100
AcDbDictionary
281
     1
  0
DICTIONARY
  5
D
102
{ACAD_REACTORS
330
C
102
}
330
C
100
AcDbDictionary
281
     1
  3
*A1
350
3D6
  3
*A2
350
3DD
  3
*A3
350
3E2
  3
*A4
350
3E7
  3
*A5
350
4E6
  3
*A6
350
4EB
  0
DICTIONARY
  5
1A
102
{ACAD_REACTORS
330
C
102
}
330
C
100
AcDbDictionary
281
     1
  3
Model
350
22
  3
ﾚｲｱｳﾄ1
350
22F
  0
DICTIONARY
  5
6B
102
{ACAD_REACTORS
330
C
102
}
330
C
100
AcDbDictionary
281
     1
  0
DICTIONARY
  5
17
102
{ACAD_REACTORS
330
C
102
}
330
C
100
AcDbDictionary
281
     1
  3
Standard
350
18
  0
DICTIONARY
  5
19
102
{ACAD_REACTORS
330
C
102
}
330
C
100
AcDbDictionary
281
     1
  0
ACDBDICTIONARYWDFLT
  5
E
102
{ACAD_REACTORS
330
C
102
}
330
C
100
AcDbDictionary
281
     1
  3
Normal
350
F
100
AcDbDictionaryWithDefault
340
F
  0
DICTIONARY
  5
92
102
{ACAD_REACTORS
330
C
102
}
330
C
100
AcDbDictionary
281
     1
  3
Standard
350
93
  0
DICTIONARY
  5
8DB
102
{ACAD_REACTORS
330
C
102
}
330
C
100
AcDbDictionary
281
     1
  3
COLORDICT
350
8DC
  3
MATERIALDICT
350
8DD
  0
DICTIONARY
  5
59
102
{ACAD_REACTORS
330
C
102
}
330
C
100
AcDbDictionary
281
     1
  3
CTABLESTYLE
350
98
  3
DIMASSOC
350
8DA
  3
HIDETEXT
350
873
  0
XRECORD
  5
8DE
102
{ACAD_REACTORS
330
C
102
}
330
C
100
AcDbXrecord
280
     1
  1
DWGPROPS COOKIE
  2

  3

  4

  6

  7

  8
fottrem
  9

300
=
301
=
302
=
303
=
304
=
305
=
306
=
307
=
308
=
309
=
 40
0.0
 41
2453353.717125822
 42
2453295.062172465
  1

 90
        0
  0
XRECORD
  5
2A7
102
{ACAD_REACTORS
330
C
102
}
330
C
100
AcDbXrecord
280
     1
  1
A3
 40
420.0
 40
297.0
 90
        1
 90
        1
  0
GROUP
  5
3D6
102
{ACAD_REACTORS
330
D
102
}
330
D
100
AcDbGroup
300
group from kcad family
 70
     1
 71
     1
340
3D7
340
3D9
340
3DB
340
3DE
340
3E0
  0
GROUP
  5
3DD
102
{ACAD_REACTORS
330
D
102
}
330
D
100
AcDbGroup
300
line with arrowBlockRef from kcad family
 70
     1
 71
     1
340
3DE
340
3E0
  0
GROUP
  5
3E2
102
{ACAD_REACTORS
330
D
102
}
330
D
100
AcDbGroup
300
group from kcad family
 70
     1
 71
     1
340
3E3
340
3E5
340
3E8
340
3EA
  0
GROUP
  5
3E7
102
{ACAD_REACTORS
330
D
102
}
330
D
100
AcDbGroup
300
line with arrowBlockRef from kcad family
 70
     1
 71
     1
340
3E8
340
3EA
  0
GROUP
  5
4E6
102
{ACAD_REACTORS
330
D
102
}
330
D
100
AcDbGroup
300
group from kcad family
 70
     1
 71
     1
340
4E7
340
4E9
340
4EC
340
4EE
  0
GROUP
  5
4EB
102
{ACAD_REACTORS
330
D
102
}
330
D
100
AcDbGroup
300
line with arrowBlockRef from kcad family
 70
     1
 71
     1
340
4EC
340
4EE
  0
LAYOUT
  5
22
102
{ACAD_REACTORS
330
1A
102
}
330
1A
100
AcDbPlotSettings
  1

  2
DWF ePlot.pc3
  4
ISO_A3_(297.00_x_420.00_MM)
  6

 40
5.793749809265136
 41
17.79375076293945
 42
5.79376220703125
 43
17.79376220703125
 44
297.0
 45
420.0
 46
0.0
 47
0.0
 48
0.0
 49
0.0
140
0.0
141
0.0
142
0.0
143
0.0
 70
 11952
 72
     1
 73
     0
 74
     2
  7

 75
     0
147
1.0
148
0.0
149
0.0
100
AcDbLayout
  1
Model
 70
     1
 71
     0
 10
-210.0
 20
-148.5
 11
210.0
 21
148.5
 12
0.0
 22
0.0
 32
0.0
 14
-182.0
 24
-141.1730858749083
 34
0.0
 15
201.5
 25
140.5
 35
0.0
146
0.0
 13
0.0
 23
0.0
 33
0.0
 16
1.0
 26
0.0
 36
0.0
 17
0.0
 27
1.0
 37
0.0
 76
     0
330
1F
  0
LAYOUT
  5
22F
102
{ACAD_REACTORS
330
1A
102
}
330
1A
100
AcDbPlotSettings
  1

  2
D:\ACAD2000\plotters\HP DesignJet 700(System).pc3
  4

  6

 40
0.0
 41
0.0
 42
0.0
 43
0.0
 44
0.0
 45
0.0
 46
0.0
 47
0.0
 48
0.0
 49
0.0
140
0.0
141
0.0
142
1.0
143
1.0
 70
   688
 72
     0
 73
     0
 74
     5
  7
monochrome.ctb
 75
    16
147
1.0
148
0.0
149
0.0
100
AcDbLayout
  1
ﾚｲｱｳﾄ1
 70
     1
 71
     1
 10
0.0
 20
0.0
 11
12.0
 21
9.0
 12
0.0
 22
0.0
 32
0.0
 14
0.0
 24
0.0
 34
0.0
 15
0.0
 25
0.0
 35
0.0
146
0.0
 13
0.0
 23
0.0
 33
0.0
 16
1.0
 26
0.0
 36
0.0
 17
0.0
 27
1.0
 37
0.0
 76
     0
330
73
  0
MLINESTYLE
  5
18
102
{ACAD_REACTORS
330
17
102
}
330
17
100
AcDbMlineStyle
  2
Standard
 70
     0
  3

 62
   256
 51
90.0
 52
90.0
 71
     2
 49
0.5
 62
   256
  6
BYLAYER
 49
-0.5
 62
   256
  6
BYLAYER
  0
ACDBPLACEHOLDER
  5
F
102
{ACAD_REACTORS
330
E
102
}
330
E
  0
TABLESTYLE
  5
93
102
{ACAD_REACTORS
330
92
102
}
330
92
100
AcDbTableStyle
  3
Standard
 70
     0
 71
     0
 40
0.06
 41
0.06
280
     0
281
     0
  7
Standard
140
0.18
170
     2
 62
     0
 63
     7
283
     0
274
    -2
284
     1
 64
     0
275
    -2
285
     1
 65
     0
276
    -2
286
     1
 66
     0
277
    -2
287
     1
 67
     0
278
    -2
288
     1
 68
     0
279
    -2
289
     1
 69
     0
  7
Standard
140
0.25
170
     5
 62
     0
 63
     7
283
     0
274
    -2
284
     1
 64
     0
275
    -2
285
     1
 65
     0
276
    -2
286
     1
 66
     0
277
    -2
287
     1
 67
     0
278
    -2
288
     1
 68
     0
279
    -2
289
     1
 69
     0
  7
Standard
140
0.18
170
     5
 62
     0
 63
     7
283
     0
274
    -2
284
     1
 64
     0
275
    -2
285
     1
 65
     0
276
    -2
286
     1
 66
     0
277
    -2
287
     1
 67
     0
278
    -2
288
     1
 68
     0
279
    -2
289
     1
 69
     0
  0
XRECORD
  5
8DC
102
{ACAD_REACTORS
330
8DB
102
}
330
8DB
100
AcDbXrecord
280
     1
340
6C
  0
XRECORD
  5
8DD
102
{ACAD_REACTORS
330
8DB
102
}
330
8DB
100
AcDbXrecord
280
     1
340
6B
  0
DICTIONARYVAR
  5
98
102
{ACAD_REACTORS
330
59
102
}
330
59
100
DictionaryVariables
280
     0
  1
STANDARD
  0
DICTIONARYVAR
  5
8DA
102
{ACAD_REACTORS
330
59
102
}
330
59
100
DictionaryVariables
280
     0
  1
1
  0
DICTIONARYVAR
  5
873
102
{ACAD_REACTORS
330
59
102
}
330
59
100
DictionaryVariables
280
     0
  1
1
  0
ENDSEC
  0
EOF
