  0
SECTION
  2
HEADER
  9
$ACADVER
  1
AC1015
  9
$ACADMAINTVER
 70
     6
  9
$DWGCODEPAGE
  3
ANSI_932
  9
$INSBASE
 10
0.0
 20
0.0
 30
0.0
  9
$EXTMIN
 10
-188.7000001506
 20
-141.7069892471353
 30
0.0
  9
$EXTMAX
 10
191.79999984941
 20
138.5
 30
0.0
  9
$LIMMIN
 10
-210.0
 20
-148.5
  9
$LIMMAX
 10
210.0
 20
148.5
  9
$ORTHOMODE
 70
     0
  9
$REGENMODE
 70
     1
  9
$FILLMODE
 70
     1
  9
$QTEXTMODE
 70
     0
  9
$MIRRTEXT
 70
     1
  9
$LTSCALE
 40
0.2
  9
$ATTMODE
 70
     1
  9
$TEXTSIZE
 40
3.2
  9
$TRACEWID
 40
1.0
  9
$TEXTSTYLE
  7
KCADTEXTSTANDARD
  9
$CLAYER
  8
0
  9
$CELTYPE
  6
Continuous
  9
$CECOLOR
 62
   134
  9
$CELTSCALE
 40
1.0
  9
$DISPSILH
 70
     0
  9
$DIMSCALE
 40
1.0
  9
$DIMASZ
 40
3.0
  9
$DIMEXO
 40
1.0
  9
$DIMDLI
 40
8.0
  9
$DIMRND
 40
0.0
  9
$DIMDLE
 40
0.0
  9
$DIMEXE
 40
1.0
  9
$DIMTP
 40
0.0
  9
$DIMTM
 40
0.0
  9
$DIMTXT
 40
3.2
  9
$DIMCEN
 40
2.5
  9
$DIMTSZ
 40
0.0
  9
$DIMTOL
 70
     0
  9
$DIMLIM
 70
     0
  9
$DIMTIH
 70
     0
  9
$DIMTOH
 70
     0
  9
$DIMSE1
 70
     0
  9
$DIMSE2
 70
     0
  9
$DIMTAD
 70
     1
  9
$DIMZIN
 70
     8
  9
$DIMBLK
  1

  9
$DIMASO
 70
     1
  9
$DIMSHO
 70
     1
  9
$DIMPOST
  1

  9
$DIMAPOST
  1

  9
$DIMALT
 70
     0
  9
$DIMALTD
 70
     2
  9
$DIMALTF
 40
25.4
  9
$DIMLFAC
 40
1.0
  9
$DIMTOFL
 70
     1
  9
$DIMTVP
 40
0.0
  9
$DIMTIX
 70
     0
  9
$DIMSOXD
 70
     0
  9
$DIMSAH
 70
     1
  9
$DIMBLK1
  1
KCAD_OPEN30
  9
$DIMBLK2
  1
KCAD_OPEN30
  9
$DIMSTYLE
  2
Standard
  9
$DIMCLRD
 70
     0
  9
$DIMCLRE
 70
     0
  9
$DIMCLRT
 70
     0
  9
$DIMTFAC
 40
0.667
  9
$DIMGAP
 40
0.5333000000000001
  9
$DIMJUST
 70
     0
  9
$DIMSD1
 70
     0
  9
$DIMSD2
 70
     0
  9
$DIMTOLJ
 70
     1
  9
$DIMTZIN
 70
     8
  9
$DIMALTZ
 70
     0
  9
$DIMALTTZ
 70
     0
  9
$DIMUPT
 70
     0
  9
$DIMDEC
 70
     3
  9
$DIMTDEC
 70
     3
  9
$DIMALTU
 70
     2
  9
$DIMALTTD
 70
     2
  9
$DIMTXSTY
  7
KCADDIMSTANDARD
  9
$DIMAUNIT
 70
     0
  9
$DIMADEC
 70
     3
  9
$DIMALTRND
 40
0.0
  9
$DIMAZIN
 70
     2
  9
$DIMDSEP
 70
    46
  9
$DIMATFIT
 70
     3
  9
$DIMFRAC
 70
     0
  9
$DIMLDRBLK
  1
KCAD_OPEN
  9
$DIMLUNIT
 70
     2
  9
$DIMLWD
 70
    -2
  9
$DIMLWE
 70
    -2
  9
$DIMTMOVE
 70
     0
  9
$LUNITS
 70
     2
  9
$LUPREC
 70
     4
  9
$SKETCHINC
 40
1.0
  9
$FILLETRAD
 40
5.0
  9
$AUNITS
 70
     0
  9
$AUPREC
 70
     0
  9
$MENU
  1
.
  9
$ELEVATION
 40
0.0
  9
$PELEVATION
 40
0.0
  9
$THICKNESS
 40
0.0
  9
$LIMCHECK
 70
     0
  9
$CHAMFERA
 40
5.0
  9
$CHAMFERB
 40
5.0
  9
$CHAMFERC
 40
5.0
  9
$CHAMFERD
 40
0.7853981633974483
  9
$SKPOLY
 70
     0
  9
$TDCREATE
 40
2453354.092125822
  9
$TDUCREATE
 40
2453353.717125822
  9
$TDUPDATE
 40
2453294.551384896
  9
$TDUUPDATE
 40
2453294.176384896
  9
$TDINDWG
 40
0.0505250463
  9
$TDUSRTIMER
 40
0.0505018634
  9
$USRTIMER
 70
     1
  9
$ANGBASE
 50
0.0
  9
$ANGDIR
 70
     0
  9
$PDMODE
 70
     0
  9
$PDSIZE
 40
0.0
  9
$PLINEWID
 40
0.0
  9
$SPLFRAME
 70
     0
  9
$SPLINETYPE
 70
     6
  9
$SPLINESEGS
 70
     8
  9
$HANDSEED
  5
CEC
  9
$SURFTAB1
 70
     6
  9
$SURFTAB2
 70
     6
  9
$SURFTYPE
 70
     6
  9
$SURFU
 70
     6
  9
$SURFV
 70
     6
  9
$UCSBASE
  2

  9
$UCSNAME
  2

  9
$UCSORG
 10
0.0
 20
0.0
 30
0.0
  9
$UCSXDIR
 10
1.0
 20
0.0
 30
0.0
  9
$UCSYDIR
 10
0.0
 20
1.0
 30
0.0
  9
$UCSORTHOREF
  2

  9
$UCSORTHOVIEW
 70
     0
  9
$UCSORGTOP
 10
0.0
 20
0.0
 30
0.0
  9
$UCSORGBOTTOM
 10
0.0
 20
0.0
 30
0.0
  9
$UCSORGLEFT
 10
0.0
 20
0.0
 30
0.0
  9
$UCSORGRIGHT
 10
0.0
 20
0.0
 30
0.0
  9
$UCSORGFRONT
 10
0.0
 20
0.0
 30
0.0
  9
$UCSORGBACK
 10
0.0
 20
0.0
 30
0.0
  9
$PUCSBASE
  2

  9
$PUCSNAME
  2

  9
$PUCSORG
 10
0.0
 20
0.0
 30
0.0
  9
$PUCSXDIR
 10
1.0
 20
0.0
 30
0.0
  9
$PUCSYDIR
 10
0.0
 20
1.0
 30
0.0
  9
$PUCSORTHOREF
  2

  9
$PUCSORTHOVIEW
 70
     0
  9
$PUCSORGTOP
 10
0.0
 20
0.0
 30
0.0
  9
$PUCSORGBOTTOM
 10
0.0
 20
0.0
 30
0.0
  9
$PUCSORGLEFT
 10
0.0
 20
0.0
 30
0.0
  9
$PUCSORGRIGHT
 10
0.0
 20
0.0
 30
0.0
  9
$PUCSORGFRONT
 10
0.0
 20
0.0
 30
0.0
  9
$PUCSORGBACK
 10
0.0
 20
0.0
 30
0.0
  9
$USERI1
 70
     0
  9
$USERI2
 70
     0
  9
$USERI3
 70
     0
  9
$USERI4
 70
   257
  9
$USERI5
 70
     0
  9
$USERR1
 40
0.0
  9
$USERR2
 40
0.0
  9
$USERR3
 40
0.0
  9
$USERR4
 40
0.0
  9
$USERR5
 40
0.0
  9
$WORLDVIEW
 70
     1
  9
$SHADEDGE
 70
     3
  9
$SHADEDIF
 70
    70
  9
$TILEMODE
 70
     1
  9
$MAXACTVP
 70
    48
  9
$PINSBASE
 10
0.0
 20
0.0
 30
0.0
  9
$PLIMCHECK
 70
     0
  9
$PEXTMIN
 10
0.0
 20
0.0
 30
0.0
  9
$PEXTMAX
 10
0.0
 20
0.0
 30
0.0
  9
$PLIMMIN
 10
0.0
 20
0.0
  9
$PLIMMAX
 10
12.0
 20
9.0
  9
$UNITMODE
 70
     0
  9
$VISRETAIN
 70
     1
  9
$PLINEGEN
 70
     0
  9
$PSLTSCALE
 70
     1
  9
$TREEDEPTH
 70
  3020
  9
$CMLSTYLE
  2
Standard
  9
$CMLJUST
 70
     0
  9
$CMLSCALE
 40
20.0
  9
$PROXYGRAPHICS
 70
     1
  9
$MEASUREMENT
 70
     1
  9
$CELWEIGHT
370
    15
  9
$ENDCAPS
280
     0
  9
$JOINSTYLE
280
     0
  9
$LWDISPLAY
290
     0
  9
$INSUNITS
 70
     0
  9
$HYPERLINKBASE
  1

  9
$STYLESHEET
  1

  9
$XEDIT
290
     0
  9
$CEPSNTYPE
380
     0
  9
$PSTYLEMODE
290
     1
  9
$FINGERPRINTGUID
  2
{1989D620-E742-11D2-9219-00105A146177}
  9
$VERSIONGUID
  2
{F9443ECC-E119-4710-B990-FBB2324FAE8B}
  9
$EXTNAMES
290
     1
  9
$PSVPSCALE
 40
0.0
  9
$OLESTARTUP
290
     0
  0
ENDSEC
  0
SECTION
  2
CLASSES
  0
CLASS
  1
ACDBDICTIONARYWDFLT
  2
AcDbDictionaryWithDefault
  3
ObjectDBX Classes
 90
        0
280
     0
281
     0
  0
CLASS
  1
ACDBPLACEHOLDER
  2
AcDbPlaceHolder
  3
ObjectDBX Classes
 90
        0
280
     0
281
     0
  0
CLASS
  1
LAYOUT
  2
AcDbLayout
  3
ObjectDBX Classes
 90
        0
280
     0
281
     0
  0
CLASS
  1
DICTIONARYVAR
  2
AcDbDictionaryVar
  3
ObjectDBX Classes
 90
        0
280
     0
281
     0
  0
CLASS
  1
TABLESTYLE
  2
AcDbTableStyle
  3
ObjectDBX Classes
 90
     2047
280
     0
281
     0
  0
ENDSEC
  0
SECTION
  2
TABLES
  0
TABLE
  2
VPORT
  5
8
330
0
100
AcDbSymbolTable
 70
     2
  0
VPORT
  5
97
330
8
100
AcDbSymbolTableRecord
100
AcDbViewportTableRecord
  2
*Active
 70
     0
 10
0.0
 20
0.0
 11
1.0
 21
1.0
 12
1.549999849404998
 22
-1.603494623567641
 13
0.0
 23
0.0
 14
10.0
 24
10.0
 15
10.0
 25
10.0
 16
0.0
 26
0.0
 36
1.0
 17
0.0
 27
0.0
 37
0.0
 40
245.6354586132655
 41
2.20035778175313
 42
50.0
 43
0.0
 44
0.0
 50
0.0
 51
0.0
 71
    16
 72
 20000
 73
     1
 74
     1
 75
     0
 76
     0
 77
     0
 78
     0
281
     0
 65
     0
110
0.0
120
0.0
130
0.0
111
1.0
121
0.0
131
0.0
112
0.0
122
1.0
132
0.0
 79
     0
146
0.0
  0
ENDTAB
  0
TABLE
  2
LTYPE
  5
5
330
0
100
AcDbSymbolTable
 70
     6
  0
LTYPE
  5
14
330
5
100
AcDbSymbolTableRecord
100
AcDbLinetypeTableRecord
  2
ByBlock
 70
     0
  3

 72
    65
 73
     0
 40
0.0
  0
LTYPE
  5
15
330
5
100
AcDbSymbolTableRecord
100
AcDbLinetypeTableRecord
  2
ByLayer
 70
     0
  3

 72
    65
 73
     0
 40
0.0
  0
LTYPE
  5
16
330
5
100
AcDbSymbolTableRecord
100
AcDbLinetypeTableRecord
  2
Continuous
 70
     0
  3
Solid line
 72
    65
 73
     0
 40
0.0
  0
LTYPE
  5
C68
330
5
100
AcDbSymbolTableRecord
100
AcDbLinetypeTableRecord
  2
CENTER
 70
     0
  3
Center ____ _ ____ _ ____ _ ____ _ ____ _ ____
 72
    65
 73
     4
 40
50.8
 49
31.75
 74
     4
 75
     0
340
0
 46
1.0
 50
0.0
 44
0.0
 45
0.0
 49
-6.349999999999999
 74
     4
 75
     0
340
0
 46
1.0
 50
0.0
 44
0.0
 45
0.0
 49
6.349999999999999
 74
     4
 75
     0
340
0
 46
1.0
 50
0.0
 44
0.0
 45
0.0
 49
-6.349999999999999
 74
     4
 75
     0
340
0
 46
1.0
 50
0.0
 44
0.0
 45
0.0
  0
LTYPE
  5
C69
330
5
100
AcDbSymbolTableRecord
100
AcDbLinetypeTableRecord
  2
DASHED
 70
     0
  3
Dashed __ __ __ __ __ __ __ __ __ __ __ __ __ _
 72
    65
 73
     2
 40
19.05
 49
12.7
 74
     4
 75
     0
340
0
 46
1.0
 50
0.0
 44
0.0
 45
0.0
 49
-6.349999999999999
 74
     4
 75
     0
340
0
 46
1.0
 50
0.0
 44
0.0
 45
0.0
  0
LTYPE
  5
C6A
330
5
100
AcDbSymbolTableRecord
100
AcDbLinetypeTableRecord
  2
HIDDEN
 70
     0
  3
Hidden __ __ __ __ __ __ __ __ __ __ __ __ __ _
 72
    65
 73
     2
 40
9.524999999999999
 49
6.349999999999999
 74
     4
 75
     0
340
0
 46
1.0
 50
0.0
 44
0.0
 45
0.0
 49
-3.174999999999999
 74
     4
 75
     0
340
0
 46
1.0
 50
0.0
 44
0.0
 45
0.0
  0
LTYPE
  5
C6B
330
5
100
AcDbSymbolTableRecord
100
AcDbLinetypeTableRecord
  2
PHANTOM
 70
     0
  3
Phantom ______  __  __  ______  __  __  ______
 72
    65
 73
     6
 40
63.50000000000001
 49
31.75
 74
     4
 75
     0
340
0
 46
1.0
 50
0.0
 44
0.0
 45
0.0
 49
-6.349999999999999
 74
     4
 75
     0
340
0
 46
1.0
 50
0.0
 44
0.0
 45
0.0
 49
6.349999999999999
 74
     4
 75
     0
340
0
 46
1.0
 50
0.0
 44
0.0
 45
0.0
 49
-6.349999999999999
 74
     4
 75
     0
340
0
 46
1.0
 50
0.0
 44
0.0
 45
0.0
 49
6.349999999999999
 74
     4
 75
     0
340
0
 46
1.0
 50
0.0
 44
0.0
 45
0.0
 49
-6.349999999999999
 74
     4
 75
     0
340
0
 46
1.0
 50
0.0
 44
0.0
 45
0.0
  0
LTYPE
  5
C6C
330
5
100
AcDbSymbolTableRecord
100
AcDbLinetypeTableRecord
  2
RUPTURE
 70
     0
  3
Rupture line
 72
    65
 73
     4
 40
45.72
 49
25.4
 74
     4
 75
     0
340
0
 46
1.0
 50
0.0
 44
0.0
 45
0.0
 49
-5.08
 74
     4
 75
   131
340
11
 46
5.08
 50
0.0
 44
-5.08
 45
0.0
 49
-10.16
 74
     4
 75
   131
340
11
 46
5.08
 50
180.0
 44
5.08
 45
0.0
 49
-5.08
 74
     4
 75
     0
340
0
 46
1.0
 50
0.0
 44
0.0
 45
0.0
  0
ENDTAB
  0
TABLE
  2
LAYER
  5
2
330
0
100
AcDbSymbolTable
 70
    15
  0
LAYER
  5
10
330
2
100
AcDbSymbolTableRecord
100
AcDbLayerTableRecord
  2
0
 70
     0
 62
     7
  6
Continuous
370
    -3
390
F
  0
LAYER
  5
A0C
330
2
100
AcDbSymbolTableRecord
100
AcDbLayerTableRecord
  2
KCAD_DIMS
 70
     0
 62
   134
  6
Continuous
370
    15
390
F
  0
LAYER
  5
4F
330
2
100
AcDbSymbolTableRecord
100
AcDbLayerTableRecord
  2
DEFPOINTS
 70
     0
 62
     7
  6
Continuous
290
     0
370
    -3
390
F
  0
LAYER
  5
20B
330
2
100
AcDbSymbolTableRecord
100
AcDbLayerTableRecord
  2
KCAD_ASST
 70
     0
 62
   134
  6
Continuous
370
    15
390
F
  0
LAYER
  5
20C
330
2
100
AcDbSymbolTableRecord
100
AcDbLayerTableRecord
  2
KCAD_RASTER
 70
     0
 62
     7
  6
Continuous
370
    30
390
F
  0
LAYER
  5
20D
330
2
100
AcDbSymbolTableRecord
100
AcDbLayerTableRecord
  2
SYBCENTER
 70
     0
 62
   134
  6
CENTER
370
    15
390
F
  0
LAYER
  5
20E
330
2
100
AcDbSymbolTableRecord
100
AcDbLayerTableRecord
  2
SYBHIDE
 70
     0
 62
   134
  6
HIDDEN
370
    15
390
F
  0
LAYER
  5
20F
330
2
100
AcDbSymbolTableRecord
100
AcDbLayerTableRecord
  2
SYBOUTLINE
 70
     0
 62
     7
  6
Continuous
370
    30
390
F
  0
LAYER
  5
210
330
2
100
AcDbSymbolTableRecord
100
AcDbLayerTableRecord
  2
SYBTHREAD
 70
     0
 62
   134
  6
Continuous
370
    15
390
F
  0
LAYER
  5
211
330
2
100
AcDbSymbolTableRecord
100
AcDbLayerTableRecord
  2
SYBTHRHID
 70
     0
 62
   134
  6
HIDDEN
370
    15
390
F
  0
LAYER
  5
282
330
2
100
AcDbSymbolTableRecord
100
AcDbLayerTableRecord
  2
KCAD_UIR_TMP_LAYER_
 70
     0
 62
     7
  6
Continuous
370
    -3
390
F
  0
LAYER
  5
2A8
330
2
100
AcDbSymbolTableRecord
100
AcDbLayerTableRecord
  2
KCAD_CPM_MAX_LAYER
 70
     3
 62
     7
  6
Continuous
370
    -3
390
F
  0
LAYER
  5
2EF
330
2
100
AcDbSymbolTableRecord
100
AcDbLayerTableRecord
  2
99
 70
     0
 62
     7
  6
Continuous
370
    -3
390
F
  0
LAYER
  5
392
330
2
100
AcDbSymbolTableRecord
100
AcDbLayerTableRecord
  2
1
 70
     0
 62
     7
  6
Continuous
370
    -3
390
F
  0
LAYER
  5
8C4
330
2
100
AcDbSymbolTableRecord
100
AcDbLayerTableRecord
  2
2
 70
     0
 62
     7
  6
Continuous
370
    -3
390
F
  0
ENDTAB
  0
TABLE
  2
STYLE
  5
3
330
0
100
AcDbSymbolTable
 70
     5
  0
STYLE
  5
11
330
3
100
AcDbSymbolTableRecord
100
AcDbTextStyleTableRecord
  2
Standard
 70
     0
 40
0.0
 41
1.0
 50
0.0
 71
     0
 42
3.2
  3
txt.shx
  4
bigfont.shx
  0
STYLE
  5
17F
330
3
100
AcDbSymbolTableRecord
100
AcDbTextStyleTableRecord
  2

 70
     1
 40
0.0
 41
1.0
 50
0.0
 71
     0
 42
3.2
  3
ltypeshp.shx
  4

  0
STYLE
  5
189
330
3
100
AcDbSymbolTableRecord
100
AcDbTextStyleTableRecord
  2
KCADDIMSTANDARD
 70
     0
 40
0.0
 41
1.0
 50
0.0
 71
     0
 42
3.2
  3
txt.shx
  4
bigfont.shx
  0
STYLE
  5
18A
330
3
100
AcDbSymbolTableRecord
100
AcDbTextStyleTableRecord
  2
KCADTEXTSTANDARD
 70
     0
 40
0.0
 41
1.0
 50
0.0
 71
     0
 42
3.2
  3
txt.shx
  4
bigfont.shx
  0
STYLE
  5
1AD
330
3
100
AcDbSymbolTableRecord
100
AcDbTextStyleTableRecord
  2
KCADTEXT2
 70
     0
 40
0.0
 41
1.0
 50
0.0
 71
     0
 42
3.2
  3
txt.shx
  4
extfont.shx
  0
ENDTAB
  0
TABLE
  2
VIEW
  5
6
330
0
100
AcDbSymbolTable
 70
     0
  0
ENDTAB
  0
TABLE
  2
UCS
  5
7
330
0
100
AcDbSymbolTable
 70
     0
  0
ENDTAB
  0
TABLE
  2
APPID
  5
9
330
0
100
AcDbSymbolTable
 70
     3
  0
APPID
  5
12
330
9
100
AcDbSymbolTableRecord
100
AcDbRegAppTableRecord
  2
ACAD
 70
     0
  0
APPID
  5
C66
330
9
100
AcDbSymbolTableRecord
100
AcDbRegAppTableRecord
  2
Sigma
 70
     0
  0
APPID
  5
C67
330
9
100
AcDbSymbolTableRecord
100
AcDbRegAppTableRecord
  2
KCAD_DIM_EXT
 70
     0
  0
ENDTAB
  0
TABLE
  2
DIMSTYLE
  5
A
330
0
100
AcDbSymbolTable
 70
     1
100
AcDbDimStyleTable
  0
DIMSTYLE
105
27
102
{ACAD_REACTORS
330
408
330
452
330
570
330
5AC
330
5EA
330
626
330
662
330
6E8
330
724
330
762
330
7DE
330
864
330
8C7
330
905
102
}
330
A
100
AcDbSymbolTableRecord
100
AcDbDimStyleTableRecord
  2
Standard
 70
     0
340
11
  0
ENDTAB
  0
TABLE
  2
BLOCK_RECORD
  5
1
330
0
100
AcDbSymbolTable
 70
    61
  0
BLOCK_RECORD
  5
1F
330
1
100
AcDbSymbolTableRecord
100
AcDbBlockTableRecord
  2
*Model_Space
340
22
  0
BLOCK_RECORD
  5
73
330
1
100
AcDbSymbolTableRecord
100
AcDbBlockTableRecord
  2
*Paper_Space
340
22F
  0
BLOCK_RECORD
  5
A0D
330
1
100
AcDbSymbolTableRecord
100
AcDbBlockTableRecord
  2
KCAD_OPEN
340
0
  0
BLOCK_RECORD
  5
3C
330
1
100
AcDbSymbolTableRecord
100
AcDbBlockTableRecord
  2
KCAD_DOTSMALL
340
0
  0
BLOCK_RECORD
  5
44
330
1
100
AcDbSymbolTableRecord
100
AcDbBlockTableRecord
  2
KCAD_NONE
340
0
  0
BLOCK_RECORD
  5
FC
330
1
100
AcDbSymbolTableRecord
100
AcDbBlockTableRecord
  2
_CLOSED
340
0
  0
BLOCK_RECORD
  5
103
330
1
100
AcDbSymbolTableRecord
100
AcDbBlockTableRecord
  2
_DOT
340
0
  0
BLOCK_RECORD
  5
10B
330
1
100
AcDbSymbolTableRecord
100
AcDbBlockTableRecord
  2
_CLOSEDBLANK
340
0
  0
BLOCK_RECORD
  5
111
330
1
100
AcDbSymbolTableRecord
100
AcDbBlockTableRecord
  2
_OBLIQUE
340
0
  0
BLOCK_RECORD
  5
115
330
1
100
AcDbSymbolTableRecord
100
AcDbBlockTableRecord
  2
_ARCHTICK
340
0
  0
BLOCK_RECORD
  5
11C
330
1
100
AcDbSymbolTableRecord
100
AcDbBlockTableRecord
  2
_OPEN
340
0
  0
BLOCK_RECORD
  5
122
330
1
100
AcDbSymbolTableRecord
100
AcDbBlockTableRecord
  2
_ORIGIN
340
0
  0
BLOCK_RECORD
  5
127
330
1
100
AcDbSymbolTableRecord
100
AcDbBlockTableRecord
  2
_OPEN90
340
0
  0
BLOCK_RECORD
  5
12D
330
1
100
AcDbSymbolTableRecord
100
AcDbBlockTableRecord
  2
_OPEN30
340
0
102
{BLKREFS
331
447
331
448
331
487
331
488
331
5A5
331
5A6
331
5E1
331
5E2
331
61F
331
620
331
65B
331
65C
331
697
331
698
331
71D
331
71E
331
759
331
75A
331
797
331
798
331
80C
331
899
331
89A
331
8FC
331
8FD
331
93A
331
93B
331
399
331
3A8
331
3B2
331
6DA
331
8B5
331
8BB
102
}
  0
BLOCK_RECORD
  5
133
330
1
100
AcDbSymbolTableRecord
100
AcDbBlockTableRecord
  2
_DOTBLANK
340
0
  0
BLOCK_RECORD
  5
138
330
1
100
AcDbSymbolTableRecord
100
AcDbBlockTableRecord
  2
_DOTSMALL
340
0
  0
BLOCK_RECORD
  5
13F
330
1
100
AcDbSymbolTableRecord
100
AcDbBlockTableRecord
  2
_BOXFILLED
340
0
  0
BLOCK_RECORD
  5
144
330
1
100
AcDbSymbolTableRecord
100
AcDbBlockTableRecord
  2
_BOXBLANK
340
0
  0
BLOCK_RECORD
  5
14C
330
1
100
AcDbSymbolTableRecord
100
AcDbBlockTableRecord
  2
_DATUMFILLED
340
0
  0
BLOCK_RECORD
  5
150
330
1
100
AcDbSymbolTableRecord
100
AcDbBlockTableRecord
  2
_DATUMBLANK
340
0
  0
BLOCK_RECORD
  5
156
330
1
100
AcDbSymbolTableRecord
100
AcDbBlockTableRecord
  2
_INTEGRAL
340
0
  0
BLOCK_RECORD
  5
1F1
330
1
100
AcDbSymbolTableRecord
100
AcDbBlockTableRecord
  2
_Origin2
340
0
  0
BLOCK_RECORD
  5
1F7
330
1
100
AcDbSymbolTableRecord
100
AcDbBlockTableRecord
  2
KCAD_OPEN30
340
0
  0
BLOCK_RECORD
  5
222
330
1
100
AcDbSymbolTableRecord
100
AcDbBlockTableRecord
  2
_None
340
0
  0
BLOCK_RECORD
  5
283
330
1
100
AcDbSymbolTableRecord
100
AcDbBlockTableRecord
  2
_Small
340
0
  0
BLOCK_RECORD
  5
287
330
1
100
AcDbSymbolTableRecord
100
AcDbBlockTableRecord
  2
KCAD_OPEN_2
340
0
  0
BLOCK_RECORD
  5
28E
330
1
100
AcDbSymbolTableRecord
100
AcDbBlockTableRecord
  2
KCAD_OPEN30_2
340
0
  0
BLOCK_RECORD
  5
2AD
330
1
100
AcDbSymbolTableRecord
100
AcDbBlockTableRecord
  2
KCAD_OPEN30ANG
340
0
  0
BLOCK_RECORD
  5
2B6
330
1
100
AcDbSymbolTableRecord
100
AcDbBlockTableRecord
  2
KCAD_DOTANG
340
0
  0
BLOCK_RECORD
  5
409
330
1
100
AcDbSymbolTableRecord
100
AcDbBlockTableRecord
  2
*D27
340
0
  0
BLOCK_RECORD
  5
453
330
1
100
AcDbSymbolTableRecord
100
AcDbBlockTableRecord
  2
*D28
340
0
  0
BLOCK_RECORD
  5
571
330
1
100
AcDbSymbolTableRecord
100
AcDbBlockTableRecord
  2
*D29
340
0
  0
BLOCK_RECORD
  5
5AD
330
1
100
AcDbSymbolTableRecord
100
AcDbBlockTableRecord
  2
*D30
340
0
  0
BLOCK_RECORD
  5
5EB
330
1
100
AcDbSymbolTableRecord
100
AcDbBlockTableRecord
  2
*D31
340
0
  0
BLOCK_RECORD
  5
627
330
1
100
AcDbSymbolTableRecord
100
AcDbBlockTableRecord
  2
*D32
340
0
  0
BLOCK_RECORD
  5
663
330
1
100
AcDbSymbolTableRecord
100
AcDbBlockTableRecord
  2
*D33
340
0
  0
BLOCK_RECORD
  5
6E9
330
1
100
AcDbSymbolTableRecord
100
AcDbBlockTableRecord
  2
*D34
340
0
  0
BLOCK_RECORD
  5
725
330
1
100
AcDbSymbolTableRecord
100
AcDbBlockTableRecord
  2
*D35
340
0
  0
BLOCK_RECORD
  5
763
330
1
100
AcDbSymbolTableRecord
100
AcDbBlockTableRecord
  2
*D36
340
0
  0
BLOCK_RECORD
  5
7DF
330
1
100
AcDbSymbolTableRecord
100
AcDbBlockTableRecord
  2
*D37
340
0
  0
BLOCK_RECORD
  5
865
330
1
100
AcDbSymbolTableRecord
100
AcDbBlockTableRecord
  2
*D38
340
0
  0
BLOCK_RECORD
  5
8C8
330
1
100
AcDbSymbolTableRecord
100
AcDbBlockTableRecord
  2
*D39
340
0
  0
BLOCK_RECORD
  5
906
330
1
100
AcDbSymbolTableRecord
100
AcDbBlockTableRecord
  2
*D40
340
0
  0
BLOCK_RECORD
  5
95E
330
1
100
AcDbSymbolTableRecord
100
AcDbBlockTableRecord
  2
*D41
340
0
  0
BLOCK_RECORD
  5
96B
330
1
100
AcDbSymbolTableRecord
100
AcDbBlockTableRecord
  2
*D42
340
0
  0
BLOCK_RECORD
  5
978
330
1
100
AcDbSymbolTableRecord
100
AcDbBlockTableRecord
  2
*D43
340
0
  0
BLOCK_RECORD
  5
985
330
1
100
AcDbSymbolTableRecord
100
AcDbBlockTableRecord
  2
*D44
340
0
  0
BLOCK_RECORD
  5
992
330
1
100
AcDbSymbolTableRecord
100
AcDbBlockTableRecord
  2
*D45
340
0
  0
BLOCK_RECORD
  5
99F
330
1
100
AcDbSymbolTableRecord
100
AcDbBlockTableRecord
  2
*D46
340
0
  0
BLOCK_RECORD
  5
9AC
330
1
100
AcDbSymbolTableRecord
100
AcDbBlockTableRecord
  2
*D47
340
0
  0
BLOCK_RECORD
  5
9B8
330
1
100
AcDbSymbolTableRecord
100
AcDbBlockTableRecord
  2
*D48
340
0
  0
BLOCK_RECORD
  5
9C4
330
1
100
AcDbSymbolTableRecord
100
AcDbBlockTableRecord
  2
*D49
340
0
  0
BLOCK_RECORD
  5
9D0
330
1
100
AcDbSymbolTableRecord
100
AcDbBlockTableRecord
  2
*D50
340
0
  0
BLOCK_RECORD
  5
9DB
330
1
100
AcDbSymbolTableRecord
100
AcDbBlockTableRecord
  2
*D51
340
0
  0
BLOCK_RECORD
  5
9E7
330
1
100
AcDbSymbolTableRecord
100
AcDbBlockTableRecord
  2
*D52
340
0
  0
BLOCK_RECORD
  5
9F3
330
1
100
AcDbSymbolTableRecord
100
AcDbBlockTableRecord
  2
*D53
340
0
  0
BLOCK_RECORD
  5
9FF
330
1
100
AcDbSymbolTableRecord
100
AcDbBlockTableRecord
  2
*D54
340
0
  0
BLOCK_RECORD
  5
A8D
330
1
100
AcDbSymbolTableRecord
100
AcDbBlockTableRecord
  2
*D55
340
0
  0
BLOCK_RECORD
  5
A99
330
1
100
AcDbSymbolTableRecord
100
AcDbBlockTableRecord
  2
*D56
340
0
  0
BLOCK_RECORD
  5
AA5
330
1
100
AcDbSymbolTableRecord
100
AcDbBlockTableRecord
  2
*D57
340
0
  0
BLOCK_RECORD
  5
AB1
330
1
100
AcDbSymbolTableRecord
100
AcDbBlockTableRecord
  2
*D58
340
0
  0
BLOCK_RECORD
  5
ABD
330
1
100
AcDbSymbolTableRecord
100
AcDbBlockTableRecord
  2
*D59
340
0
  0
BLOCK_RECORD
  5
AC9
330
1
100
AcDbSymbolTableRecord
100
AcDbBlockTableRecord
  2
*D60
340
0
  0
ENDTAB
  0
ENDSEC
  0
SECTION
  2
BLOCKS
  0
BLOCK
  5
20
330
1F
100
AcDbEntity
  8
0
100
AcDbBlockBegin
  2
*Model_Space
 70
     0
 71
     0
 10
0.0
 20
0.0
 30
0.0
  3
*Model_Space
  1

  0
ENDBLK
  5
21
330
1F
100
AcDbEntity
  8
0
100
AcDbBlockEnd
  0
BLOCK
  5
75
330
73
100
AcDbEntity
 67
     1
  8
0
100
AcDbBlockBegin
  2
*Paper_Space
 70
     0
 71
     0
 10
0.0
 20
0.0
 30
0.0
  3
*Paper_Space
  1

  0
ENDBLK
  5
76
330
73
100
AcDbEntity
 67
     1
  8
0
100
AcDbBlockEnd
  0
BLOCK
  5
C6D
330
A0D
100
AcDbEntity
  8
KCAD_DIMS
100
AcDbBlockBegin
  2
KCAD_OPEN
 70
     0
 71
     0
 10
0.0
 20
0.0
 30
0.0
  3
KCAD_OPEN
  1

  0
LINE
  5
A7C
330
A0D
100
AcDbEntity
  8
0
  6
Continuous
 62
     0
370
    -2
100
AcDbLine
 10
0.0
 20
0.0
 30
0.0
 11
-1.0
 21
0.0
 31
0.0
  0
LINE
  5
23
330
A0D
100
AcDbEntity
  8
0
  6
Continuous
 62
     0
370
    -2
100
AcDbLine
 10
0.0
 20
0.0
 30
0.0
 11
-1.0
 21
0.158384
 31
0.0
  0
LINE
  5
24
330
A0D
100
AcDbEntity
  8
0
  6
Continuous
 62
     0
370
    -2
100
AcDbLine
 10
0.0
 20
0.0
 30
0.0
 11
-1.0
 21
-0.158384
 31
0.0
  0
ENDBLK
  5
C6E
330
A0D
100
AcDbEntity
  8
KCAD_DIMS
100
AcDbBlockEnd
  0
BLOCK
  5
C6F
330
3C
100
AcDbEntity
  8
KCAD_DIMS
100
AcDbBlockBegin
  2
KCAD_DOTSMALL
 70
     0
 71
     0
 10
0.0
 20
0.0
 30
0.0
  3
KCAD_DOTSMALL
  1

  0
LWPOLYLINE
  5
3D
330
3C
100
AcDbEntity
  8
KCAD_DIMS
 62
     0
100
AcDbPolyline
 90
        2
 70
     1
 43
0.5
 10
0.06252
 20
0.0
 42
1.0
 10
-0.06262
 20
0.0
 42
1.0
  0
LINE
  5
41
330
3C
100
AcDbEntity
  8
0
  6
Continuous
 62
     0
370
    -2
100
AcDbLine
 10
0.0
 20
0.0
 30
0.0
 11
-1.0
 21
0.0
 31
0.0
  0
ENDBLK
  5
C70
330
3C
100
AcDbEntity
  8
0
100
AcDbBlockEnd
  0
BLOCK
  5
C71
330
44
100
AcDbEntity
  8
KCAD_DIMS
100
AcDbBlockBegin
  2
KCAD_NONE
 70
     0
 71
     0
 10
0.0
 20
0.0
 30
0.0
  3
KCAD_NONE
  1

  0
LINE
  5
45
330
44
100
AcDbEntity
  8
0
  6
Continuous
 62
     0
370
    -2
100
AcDbLine
 10
0.0
 20
0.0
 30
0.0
 11
-1.0
 21
0.0
 31
0.0
  0
ENDBLK
  5
C72
330
44
100
AcDbEntity
  8
0
100
AcDbBlockEnd
  0
BLOCK
  5
C73
330
FC
100
AcDbEntity
  8
0
100
AcDbBlockBegin
  2
_CLOSED
 70
     0
 71
     0
 10
0.0
 20
0.0
 30
0.0
  3
_CLOSED
  1

  0
LINE
  5
FE
330
FC
100
AcDbEntity
  8
0
  6
Continuous
 62
     0
370
    -2
100
AcDbLine
 10
-1.0
 20
0.166667
 30
0.0
 11
0.0
 21
0.0
 31
0.0
  0
LINE
  5
FF
330
FC
100
AcDbEntity
  8
0
  6
Continuous
 62
     0
370
    -2
100
AcDbLine
 10
0.0
 20
0.0
 30
0.0
 11
-1.0
 21
-0.166667
 31
0.0
  0
LINE
  5
100
330
FC
100
AcDbEntity
  8
0
  6
Continuous
 62
     0
370
    -2
100
AcDbLine
 10
-1.0
 20
0.166667
 30
0.0
 11
-1.0
 21
-0.166667
 31
0.0
  0
LINE
  5
101
330
FC
100
AcDbEntity
  8
0
  6
Continuous
 62
     0
370
    -2
100
AcDbLine
 10
0.0
 20
0.0
 30
0.0
 11
-1.0
 21
0.0
 31
0.0
  0
ENDBLK
  5
C74
330
FC
100
AcDbEntity
  8
0
100
AcDbBlockEnd
  0
BLOCK
  5
C75
330
103
100
AcDbEntity
  8
0
100
AcDbBlockBegin
  2
_DOT
 70
     0
 71
     0
 10
0.0
 20
0.0
 30
0.0
  3
_DOT
  1

  0
LWPOLYLINE
  5
105
330
103
100
AcDbEntity
  8
0
  6
ByBlock
 62
     0
100
AcDbPolyline
 90
        2
 70
     1
 43
0.5
 10
-0.25
 20
0.0
 42
1.0
 10
0.25
 20
0.0
 42
1.0
  0
LINE
  5
109
330
103
100
AcDbEntity
  8
0
  6
Continuous
 62
     0
370
    -2
100
AcDbLine
 10
-0.5
 20
0.0
 30
0.0
 11
-1.0
 21
0.0
 31
0.0
  0
ENDBLK
  5
C76
330
103
100
AcDbEntity
  8
0
100
AcDbBlockEnd
  0
BLOCK
  5
C77
330
10B
100
AcDbEntity
  8
0
100
AcDbBlockBegin
  2
_CLOSEDBLANK
 70
     0
 71
     0
 10
0.0
 20
0.0
 30
0.0
  3
_CLOSEDBLANK
  1

  0
LINE
  5
10D
330
10B
100
AcDbEntity
  8
0
  6
Continuous
 62
     0
370
    -2
100
AcDbLine
 10
-1.0
 20
0.166667
 30
0.0
 11
0.0
 21
0.0
 31
0.0
  0
LINE
  5
10E
330
10B
100
AcDbEntity
  8
0
  6
Continuous
 62
     0
370
    -2
100
AcDbLine
 10
0.0
 20
0.0
 30
0.0
 11
-1.0
 21
-0.166667
 31
0.0
  0
LINE
  5
10F
330
10B
100
AcDbEntity
  8
0
  6
Continuous
 62
     0
370
    -2
100
AcDbLine
 10
-1.0
 20
0.166667
 30
0.0
 11
-1.0
 21
-0.166667
 31
0.0
  0
ENDBLK
  5
C78
330
10B
100
AcDbEntity
  8
0
100
AcDbBlockEnd
  0
BLOCK
  5
C79
330
111
100
AcDbEntity
  8
0
100
AcDbBlockBegin
  2
_OBLIQUE
 70
     0
 71
     0
 10
0.0
 20
0.0
 30
0.0
  3
_OBLIQUE
  1

  0
LINE
  5
113
330
111
100
AcDbEntity
  8
0
  6
Continuous
 62
     0
370
    -2
100
AcDbLine
 10
-0.5
 20
-0.5
 30
0.0
 11
0.5
 21
0.5
 31
0.0
  0
ENDBLK
  5
C7A
330
111
100
AcDbEntity
  8
0
100
AcDbBlockEnd
  0
BLOCK
  5
C7B
330
115
100
AcDbEntity
  8
0
100
AcDbBlockBegin
  2
_ARCHTICK
 70
     0
 71
     0
 10
0.0
 20
0.0
 30
0.0
  3
_ARCHTICK
  1

  0
LWPOLYLINE
  5
117
330
115
100
AcDbEntity
  8
0
  6
ByBlock
 62
     0
100
AcDbPolyline
 90
        2
 70
     0
 43
0.15
 10
-0.5
 20
-0.5
 10
0.5
 20
0.5
  0
ENDBLK
  5
C7C
330
115
100
AcDbEntity
  8
0
100
AcDbBlockEnd
  0
BLOCK
  5
C7D
330
11C
100
AcDbEntity
  8
0
100
AcDbBlockBegin
  2
_OPEN
 70
     0
 71
     0
 10
0.0
 20
0.0
 30
0.0
  3
_OPEN
  1

  0
LINE
  5
11E
330
11C
100
AcDbEntity
  8
0
  6
Continuous
 62
     0
370
    -2
100
AcDbLine
 10
-1.0
 20
0.166667
 30
0.0
 11
0.0
 21
0.0
 31
0.0
  0
LINE
  5
11F
330
11C
100
AcDbEntity
  8
0
  6
Continuous
 62
     0
370
    -2
100
AcDbLine
 10
0.0
 20
0.0
 30
0.0
 11
-1.0
 21
-0.166667
 31
0.0
  0
LINE
  5
120
330
11C
100
AcDbEntity
  8
0
  6
Continuous
 62
     0
370
    -2
100
AcDbLine
 10
0.0
 20
0.0
 30
0.0
 11
-1.0
 21
0.0
 31
0.0
  0
ENDBLK
  5
C7E
330
11C
100
AcDbEntity
  8
0
100
AcDbBlockEnd
  0
BLOCK
  5
C7F
330
122
100
AcDbEntity
  8
0
100
AcDbBlockBegin
  2
_ORIGIN
 70
     0
 71
     0
 10
0.0
 20
0.0
 30
0.0
  3
_ORIGIN
  1

  0
CIRCLE
  5
124
330
122
100
AcDbEntity
  8
0
  6
ByBlock
 62
     0
100
AcDbCircle
 10
0.0
 20
0.0
 30
0.0
 40
0.5
  0
LINE
  5
125
330
122
100
AcDbEntity
  8
0
  6
Continuous
 62
     0
370
    -2
100
AcDbLine
 10
0.0
 20
0.0
 30
0.0
 11
-1.0
 21
0.0
 31
0.0
  0
ENDBLK
  5
C80
330
122
100
AcDbEntity
  8
0
100
AcDbBlockEnd
  0
BLOCK
  5
C81
330
127
100
AcDbEntity
  8
0
100
AcDbBlockBegin
  2
_OPEN90
 70
     0
 71
     0
 10
0.0
 20
0.0
 30
0.0
  3
_OPEN90
  1

  0
LINE
  5
129
330
127
100
AcDbEntity
  8
0
  6
Continuous
 62
     0
370
    -2
100
AcDbLine
 10
-0.5
 20
0.5
 30
0.0
 11
0.0
 21
0.0
 31
0.0
  0
LINE
  5
12A
330
127
100
AcDbEntity
  8
0
  6
Continuous
 62
     0
370
    -2
100
AcDbLine
 10
0.0
 20
0.0
 30
0.0
 11
-0.5
 21
-0.5
 31
0.0
  0
LINE
  5
12B
330
127
100
AcDbEntity
  8
0
  6
Continuous
 62
     0
370
    -2
100
AcDbLine
 10
0.0
 20
0.0
 30
0.0
 11
-1.0
 21
0.0
 31
0.0
  0
ENDBLK
  5
C82
330
127
100
AcDbEntity
  8
0
100
AcDbBlockEnd
  0
BLOCK
  5
C83
330
12D
100
AcDbEntity
  8
0
100
AcDbBlockBegin
  2
_OPEN30
 70
     0
 71
     0
 10
0.0
 20
0.0
 30
0.0
  3
_OPEN30
  1

  0
LINE
  5
12F
330
12D
100
AcDbEntity
  8
0
  6
Continuous
 62
     0
370
    -2
100
AcDbLine
 10
-1.0
 20
0.267949
 30
0.0
 11
0.0
 21
0.0
 31
0.0
  0
LINE
  5
130
330
12D
100
AcDbEntity
  8
0
  6
Continuous
 62
     0
370
    -2
100
AcDbLine
 10
0.0
 20
0.0
 30
0.0
 11
-1.0
 21
-0.267949
 31
0.0
  0
LINE
  5
131
330
12D
100
AcDbEntity
  8
0
  6
Continuous
 62
     0
370
    -2
100
AcDbLine
 10
0.0
 20
0.0
 30
0.0
 11
-1.0
 21
0.0
 31
0.0
  0
ENDBLK
  5
C84
330
12D
100
AcDbEntity
  8
0
100
AcDbBlockEnd
  0
BLOCK
  5
C85
330
133
100
AcDbEntity
  8
0
100
AcDbBlockBegin
  2
_DOTBLANK
 70
     0
 71
     0
 10
0.0
 20
0.0
 30
0.0
  3
_DOTBLANK
  1

  0
CIRCLE
  5
135
330
133
100
AcDbEntity
  8
0
  6
ByBlock
 62
     0
100
AcDbCircle
 10
0.0
 20
0.0
 30
0.0
 40
0.5
  0
LINE
  5
136
330
133
100
AcDbEntity
  8
0
  6
Continuous
 62
     0
370
    -2
100
AcDbLine
 10
-0.5
 20
0.0
 30
0.0
 11
-1.0
 21
0.0
 31
0.0
  0
ENDBLK
  5
C86
330
133
100
AcDbEntity
  8
0
100
AcDbBlockEnd
  0
BLOCK
  5
C87
330
138
100
AcDbEntity
  8
0
100
AcDbBlockBegin
  2
_DOTSMALL
 70
     0
 71
     0
 10
0.0
 20
0.0
 30
0.0
  3
_DOTSMALL
  1

  0
LWPOLYLINE
  5
13A
330
138
100
AcDbEntity
  8
0
  6
ByBlock
 62
     0
100
AcDbPolyline
 90
        2
 70
     1
 43
0.5
 10
-0.0625
 20
0.0
 42
1.0
 10
0.0625
 20
0.0
 42
1.0
  0
ENDBLK
  5
C88
330
138
100
AcDbEntity
  8
0
100
AcDbBlockEnd
  0
BLOCK
  5
C89
330
13F
100
AcDbEntity
  8
0
100
AcDbBlockBegin
  2
_BOXFILLED
 70
     0
 71
     0
 10
0.0
 20
0.0
 30
0.0
  3
_BOXFILLED
  1

  0
SOLID
  5
141
330
13F
100
AcDbEntity
  8
0
  6
ByBlock
 62
     0
100
AcDbTrace
 10
-0.5
 20
0.5
 30
0.0
 11
0.5
 21
0.5
 31
0.0
 12
-0.5
 22
-0.5
 32
0.0
 13
0.5
 23
-0.5
 33
0.0
  0
LINE
  5
142
330
13F
100
AcDbEntity
  8
0
  6
Continuous
 62
     0
370
    -2
100
AcDbLine
 10
-0.5
 20
0.0
 30
0.0
 11
-1.0
 21
0.0
 31
0.0
  0
ENDBLK
  5
C8A
330
13F
100
AcDbEntity
  8
0
100
AcDbBlockEnd
  0
BLOCK
  5
C8B
330
144
100
AcDbEntity
  8
0
100
AcDbBlockBegin
  2
_BOXBLANK
 70
     0
 71
     0
 10
0.0
 20
0.0
 30
0.0
  3
_BOXBLANK
  1

  0
LINE
  5
146
330
144
100
AcDbEntity
  8
0
  6
Continuous
 62
     0
370
    -2
100
AcDbLine
 10
-0.5
 20
-0.5
 30
0.0
 11
0.5
 21
-0.5
 31
0.0
  0
LINE
  5
147
330
144
100
AcDbEntity
  8
0
  6
Continuous
 62
     0
370
    -2
100
AcDbLine
 10
0.5
 20
-0.5
 30
0.0
 11
0.5
 21
0.5
 31
0.0
  0
LINE
  5
148
330
144
100
AcDbEntity
  8
0
  6
Continuous
 62
     0
370
    -2
100
AcDbLine
 10
0.5
 20
0.5
 30
0.0
 11
-0.5
 21
0.5
 31
0.0
  0
LINE
  5
149
330
144
100
AcDbEntity
  8
0
  6
Continuous
 62
     0
370
    -2
100
AcDbLine
 10
-0.5
 20
0.5
 30
0.0
 11
-0.5
 21
-0.5
 31
0.0
  0
LINE
  5
14A
330
144
100
AcDbEntity
  8
0
  6
Continuous
 62
     0
370
    -2
100
AcDbLine
 10
-0.5
 20
0.0
 30
0.0
 11
-1.0
 21
0.0
 31
0.0
  0
ENDBLK
  5
C8C
330
144
100
AcDbEntity
  8
0
100
AcDbBlockEnd
  0
BLOCK
  5
C8D
330
14C
100
AcDbEntity
  8
0
100
AcDbBlockBegin
  2
_DATUMFILLED
 70
     0
 71
     0
 10
0.0
 20
0.0
 30
0.0
  3
_DATUMFILLED
  1

  0
SOLID
  5
14E
330
14C
100
AcDbEntity
  8
0
  6
ByBlock
 62
     0
100
AcDbTrace
 10
0.0
 20
0.5773500000000001
 30
0.0
 11
-1.0
 21
0.0
 31
0.0
 12
0.0
 22
-0.5773500000000001
 32
0.0
 13
0.0
 23
-0.5773500000000001
 33
0.0
  0
ENDBLK
  5
C8E
330
14C
100
AcDbEntity
  8
0
100
AcDbBlockEnd
  0
BLOCK
  5
C8F
330
150
100
AcDbEntity
  8
0
100
AcDbBlockBegin
  2
_DATUMBLANK
 70
     0
 71
     0
 10
0.0
 20
0.0
 30
0.0
  3
_DATUMBLANK
  1

  0
LINE
  5
152
330
150
100
AcDbEntity
  8
0
  6
Continuous
 62
     0
370
    -2
100
AcDbLine
 10
0.0
 20
0.5773500000000001
 30
0.0
 11
-1.0
 21
0.0
 31
0.0
  0
LINE
  5
153
330
150
100
AcDbEntity
  8
0
  6
Continuous
 62
     0
370
    -2
100
AcDbLine
 10
-1.0
 20
0.0
 30
0.0
 11
0.0
 21
-0.5773500000000001
 31
0.0
  0
LINE
  5
154
330
150
100
AcDbEntity
  8
0
  6
Continuous
 62
     0
370
    -2
100
AcDbLine
 10
0.0
 20
-0.5773500000000001
 30
0.0
 11
0.0
 21
0.5773500000000001
 31
0.0
  0
ENDBLK
  5
C90
330
150
100
AcDbEntity
  8
0
100
AcDbBlockEnd
  0
BLOCK
  5
C91
330
156
100
AcDbEntity
  8
0
100
AcDbBlockBegin
  2
_INTEGRAL
 70
     0
 71
     0
 10
0.0
 20
0.0
 30
0.0
  3
_INTEGRAL
  1

  0
ARC
  5
158
330
156
100
AcDbEntity
  8
0
  6
ByBlock
 62
     0
100
AcDbCircle
 10
0.444888
 20
-0.091335
 30
0.0
 40
0.454167
100
AcDbArc
 50
102.0
 51
168.0
  0
ARC
  5
159
330
156
100
AcDbEntity
  8
0
  6
ByBlock
 62
     0
100
AcDbCircle
 10
-0.444888
 20
0.091335
 30
0.0
 40
0.454167
100
AcDbArc
 50
282.0
 51
348.0
  0
ENDBLK
  5
C92
330
156
100
AcDbEntity
  8
0
100
AcDbBlockEnd
  0
BLOCK
  5
C93
330
1F1
100
AcDbEntity
  8
0
100
AcDbBlockBegin
  2
_Origin2
 70
     0
 71
     0
 10
0.0
 20
0.0
 30
0.0
  3
_Origin2
  1

  0
CIRCLE
  5
1F2
330
1F1
100
AcDbEntity
  8
0
  6
Continuous
 62
     0
370
    -2
100
AcDbCircle
 10
0.0
 20
0.0
 30
0.0
 40
0.5
  0
CIRCLE
  5
1F3
330
1F1
100
AcDbEntity
  8
0
  6
Continuous
 62
     0
370
    -2
100
AcDbCircle
 10
0.0
 20
0.0
 30
0.0
 40
0.25
  0
LINE
  5
1F4
330
1F1
100
AcDbEntity
  8
0
  6
Continuous
 62
     0
370
    -2
100
AcDbLine
 10
-0.5
 20
0.0
 30
0.0
 11
-1.0
 21
0.0
 31
0.0
  0
ENDBLK
  5
C94
330
1F1
100
AcDbEntity
  8
0
100
AcDbBlockEnd
  0
BLOCK
  5
C95
330
1F7
100
AcDbEntity
  8
0
100
AcDbBlockBegin
  2
KCAD_OPEN30
 70
     0
 71
     0
 10
0.0
 20
0.0
 30
0.0
  3
KCAD_OPEN30
  1

  0
LINE
  5
1F8
330
1F7
100
AcDbEntity
  8
0
  6
Continuous
 62
     0
370
    -2
100
AcDbLine
 10
0.0
 20
0.0
 30
0.0
 11
-1.0
 21
0.0
 31
0.0
  0
LINE
  5
1F9
330
1F7
100
AcDbEntity
  8
0
  6
Continuous
 62
     0
370
    -2
100
AcDbLine
 10
0.0
 20
0.0
 30
0.0
 11
-1.0
 21
0.2679491924311227
 31
0.0
  0
LINE
  5
1FA
330
1F7
100
AcDbEntity
  8
0
  6
Continuous
 62
     0
370
    -2
100
AcDbLine
 10
0.0
 20
0.0
 30
0.0
 11
-1.0
 21
-0.2679491924311227
 31
0.0
  0
ENDBLK
  5
C96
330
1F7
100
AcDbEntity
  8
0
100
AcDbBlockEnd
  0
BLOCK
  5
C97
330
222
100
AcDbEntity
  8
0
100
AcDbBlockBegin
  2
_None
 70
     0
 71
     0
 10
0.0
 20
0.0
 30
0.0
  3
_None
  1

  0
ENDBLK
  5
C98
330
222
100
AcDbEntity
  8
0
100
AcDbBlockEnd
  0
BLOCK
  5
C99
330
283
100
AcDbEntity
  8
0
100
AcDbBlockBegin
  2
_Small
 70
     0
 71
     0
 10
0.0
 20
0.0
 30
0.0
  3
_Small
  1

  0
CIRCLE
  5
284
330
283
100
AcDbEntity
  8
0
  6
ByBlock
 62
     0
370
    -2
100
AcDbCircle
 10
0.0
 20
0.0
 30
0.0
 40
0.25
  0
ENDBLK
  5
C9A
330
283
100
AcDbEntity
  8
0
100
AcDbBlockEnd
  0
BLOCK
  5
C9B
330
287
100
AcDbEntity
  8
0
100
AcDbBlockBegin
  2
KCAD_OPEN_2
 70
     0
 71
     0
 10
0.0
 20
0.0
 30
0.0
  3
KCAD_OPEN_2
  1

  0
LINE
  5
288
330
287
100
AcDbEntity
  8
0
  6
Continuous
 62
     0
370
    -2
100
AcDbLine
 10
0.0
 20
0.0
 30
0.0
 11
-2.0
 21
0.0
 31
0.0
  0
LINE
  5
289
330
287
100
AcDbEntity
  8
0
  6
Continuous
 62
     0
370
    -2
100
AcDbLine
 10
0.0
 20
0.0
 30
0.0
 11
-2.0
 21
0.3167688806490725
 31
0.0
  0
LINE
  5
28A
330
287
100
AcDbEntity
  8
0
  6
Continuous
 62
     0
370
    -2
100
AcDbLine
 10
0.0
 20
0.0
 30
0.0
 11
-2.0
 21
-0.3167688806490725
 31
0.0
  0
LINE
  5
28B
330
287
100
AcDbEntity
  8
0
  6
Continuous
 62
     0
370
    -2
100
AcDbLine
 10
-2.0
 20
0.0
 30
0.0
 11
-4.0
 21
0.0
 31
0.0
  0
ENDBLK
  5
C9C
330
287
100
AcDbEntity
  8
0
100
AcDbBlockEnd
  0
BLOCK
  5
C9D
330
28E
100
AcDbEntity
  8
0
100
AcDbBlockBegin
  2
KCAD_OPEN30_2
 70
     0
 71
     0
 10
0.0
 20
0.0
 30
0.0
  3
KCAD_OPEN30_2
  1

  0
LINE
  5
28F
330
28E
100
AcDbEntity
  8
0
  6
Continuous
 62
     0
370
    -2
100
AcDbLine
 10
0.0
 20
0.0
 30
0.0
 11
-2.0
 21
0.0
 31
0.0
  0
LINE
  5
290
330
28E
100
AcDbEntity
  8
0
  6
Continuous
 62
     0
370
    -2
100
AcDbLine
 10
0.0
 20
0.0
 30
0.0
 11
-2.0
 21
0.5358983848622455
 31
0.0
  0
LINE
  5
291
330
28E
100
AcDbEntity
  8
0
  6
Continuous
 62
     0
370
    -2
100
AcDbLine
 10
0.0
 20
0.0
 30
0.0
 11
-2.0
 21
-0.5358983848622455
 31
0.0
  0
LINE
  5
292
330
28E
100
AcDbEntity
  8
0
  6
Continuous
 62
     0
370
    -2
100
AcDbLine
 10
-2.0
 20
0.0
 30
0.0
 11
-4.0
 21
0.0
 31
0.0
  0
ENDBLK
  5
C9E
330
28E
100
AcDbEntity
  8
0
100
AcDbBlockEnd
  0
BLOCK
  5
C9F
330
2AD
100
AcDbEntity
  8
0
100
AcDbBlockBegin
  2
KCAD_OPEN30ANG
 70
     0
 71
     0
 10
0.0
 20
0.0
 30
0.0
  3
KCAD_OPEN30ANG
  1

  0
LINE
  5
2D7
330
2AD
100
AcDbEntity
  8
0
  6
Continuous
 62
     0
370
    -2
100
AcDbLine
 10
0.0
 20
0.0
 30
0.0
 11
-1.0
 21
-0.267949
 31
0.0
  0
LINE
  5
2D8
330
2AD
100
AcDbEntity
  8
0
  6
Continuous
 62
     0
370
    -2
100
AcDbLine
 10
-1.0
 20
0.267949
 30
0.0
 11
0.0
 21
0.0
 31
0.0
  0
ENDBLK
  5
CA0
330
2AD
100
AcDbEntity
  8
0
100
AcDbBlockEnd
  0
BLOCK
  5
CA1
330
2B6
100
AcDbEntity
  8
0
100
AcDbBlockBegin
  2
KCAD_DOTANG
 70
     0
 71
     0
 10
0.0
 20
0.0
 30
0.0
  3
KCAD_DOTANG
  1

  0
LWPOLYLINE
  5
2DD
330
2B6
100
AcDbEntity
  8
0
  6
ByBlock
 62
     0
100
AcDbPolyline
 90
        2
 70
     1
 43
0.5
 10
-0.25
 20
0.0
 42
1.0
 10
0.25
 20
0.0
 42
1.0
  0
ENDBLK
  5
CA2
330
2B6
100
AcDbEntity
  8
0
100
AcDbBlockEnd
  0
BLOCK
  5
CA3
330
409
100
AcDbEntity
  8
0
100
AcDbBlockBegin
  2
*D27
 70
     1
 71
     0
 10
0.0
 20
0.0
 30
0.0
  3
*D27
  1

  0
LINE
  5
445
330
409
100
AcDbEntity
  8
KCAD_DIMS
 62
     0
370
    -2
100
AcDbLine
 10
134.87341485691
 20
116.45258602263
 30
0.0
 11
134.87341485691
 21
82.153376963894
 31
0.0
  0
LINE
  5
446
330
409
100
AcDbEntity
  8
KCAD_DIMS
 62
     0
370
    -2
100
AcDbLine
 10
138.8734148569099
 20
116.45258602263
 30
0.0
 11
138.8734148569099
 21
80.103376963897
 31
0.0
  0
INSERT
  5
447
330
409
100
AcDbEntity
  8
KCAD_DIMS
 62
     0
370
    -2
100
AcDbBlockReference
  2
_OPEN30
 10
134.87341485691
 20
116.0525860226299
 30
0.0
 41
3.0
 42
3.0
 43
3.0
  0
INSERT
  5
448
330
409
100
AcDbEntity
  8
KCAD_DIMS
 62
     0
370
    -2
100
AcDbBlockReference
  2
_OPEN30
 10
138.8734148569099
 20
116.0525860226299
 30
0.0
 41
3.0
 42
3.0
 43
3.0
 50
180.0
  0
LINE
  5
449
330
409
100
AcDbEntity
  8
KCAD_DIMS
 62
     0
370
    -2
100
AcDbLine
 10
134.87341485691
 20
116.0525860226299
 30
0.0
 11
138.8734148569099
 21
116.0525860226299
 31
0.0
  0
LINE
  5
44A
330
409
100
AcDbEntity
  8
KCAD_DIMS
 62
     0
370
    -2
100
AcDbLine
 10
131.8734148569099
 20
116.0525860226299
 30
0.0
 11
129.8734148569099
 21
116.0525860226299
 31
0.0
  0
LINE
  5
44B
330
409
100
AcDbEntity
  8
KCAD_DIMS
 62
     0
370
    -2
100
AcDbLine
 10
141.8734148569099
 20
116.0525860226299
 30
0.0
 11
147.0811617396742
 21
116.0525860226299
 31
0.0
  0
POINT
  5
44C
330
409
100
AcDbEntity
  8
DEFPOINTS
 62
     0
370
    15
100
AcDbPoint
 10
134.87341485691
 20
81.753376963894
 30
0.0
  0
POINT
  5
44D
330
409
100
AcDbEntity
  8
DEFPOINTS
 62
     0
370
    15
100
AcDbPoint
 10
138.8734148569099
 20
79.703376963897
 30
0.0
  0
POINT
  5
44E
330
409
100
AcDbEntity
  8
DEFPOINTS
 62
     0
370
    15
100
AcDbPoint
 10
138.8734148569099
 20
116.0525860226299
 30
0.0
  0
MTEXT
  5
44F
330
409
100
AcDbEntity
  8
KCAD_DIMS
 62
     0
100
AcDbMText
 10
146.08116165562
 20
118.18588602263
 30
0.0
 40
3.2
 41
0.0
 71
     5
 72
     1
  1
\A1;4
  7
KCADDIMSTANDARD
 73
     1
 44
1.0
  0
ENDBLK
  5
CA4
330
409
100
AcDbEntity
  8
0
100
AcDbBlockEnd
  0
BLOCK
  5
CA5
330
453
100
AcDbEntity
  8
0
100
AcDbBlockBegin
  2
*D28
 70
     1
 71
     0
 10
0.0
 20
0.0
 30
0.0
  3
*D28
  1

  0
LINE
  5
485
330
453
100
AcDbEntity
  8
KCAD_DIMS
 62
     0
370
    -2
100
AcDbLine
 10
166.26400751919
 20
82.75337696389398
 30
0.0
 11
134.27341485691
 21
82.75337696389398
 31
0.0
  0
LINE
  5
486
330
453
100
AcDbEntity
  8
KCAD_DIMS
 62
     0
370
    -2
100
AcDbLine
 10
166.26400751919
 20
52.75337696388699
 30
0.0
 11
134.27341485691
 21
52.75337696388699
 31
0.0
  0
INSERT
  5
487
330
453
100
AcDbEntity
  8
KCAD_DIMS
 62
     0
370
    -2
100
AcDbBlockReference
  2
_OPEN30
 10
165.86400751919
 20
82.75337696389398
 30
0.0
 41
3.0
 42
3.0
 43
3.0
 50
90.0
  0
INSERT
  5
488
330
453
100
AcDbEntity
  8
KCAD_DIMS
 62
     0
370
    -2
100
AcDbBlockReference
  2
_OPEN30
 10
165.86400751919
 20
52.75337696388699
 30
0.0
 41
3.0
 42
3.0
 43
3.0
 50
270.0
  0
LINE
  5
489
330
453
100
AcDbEntity
  8
KCAD_DIMS
 62
     0
370
    -2
100
AcDbLine
 10
165.86400751919
 20
79.753376963894
 30
0.0
 11
165.86400751919
 21
55.753376963887
 31
0.0
  0
POINT
  5
48A
330
453
100
AcDbEntity
  8
DEFPOINTS
 62
     0
370
    15
100
AcDbPoint
 10
133.87341485691
 20
82.75337696389398
 30
0.0
  0
POINT
  5
48B
330
453
100
AcDbEntity
  8
DEFPOINTS
 62
     0
370
    15
100
AcDbPoint
 10
133.87341485691
 20
52.75337696388699
 30
0.0
  0
POINT
  5
48C
330
453
100
AcDbEntity
  8
DEFPOINTS
 62
     0
370
    15
100
AcDbPoint
 10
165.86400751919
 20
52.75337696388699
 30
0.0
  0
MTEXT
  5
48D
330
453
100
AcDbEntity
  8
KCAD_DIMS
 62
     0
100
AcDbMText
 10
163.73070751919
 20
67.753376963897
 30
0.0
 40
3.2
 41
0.0
 71
     5
 72
     1
  1
\A1;%%c30
  7
KCADDIMSTANDARD
 11
1.000000000000000E-16
 21
1.0
 31
0.0
 73
     1
 44
1.0
  0
ENDBLK
  5
CA6
330
453
100
AcDbEntity
  8
0
100
AcDbBlockEnd
  0
BLOCK
  5
CA7
330
571
100
AcDbEntity
  8
0
100
AcDbBlockBegin
  2
*D29
 70
     1
 71
     0
 10
0.0
 20
0.0
 30
0.0
  3
*D29
  1

  0
LINE
  5
5A3
330
571
100
AcDbEntity
  8
KCAD_DIMS
 62
     0
370
    -2
100
AcDbLine
 10
134.87341485691
 20
116.45258602263
 30
0.0
 11
134.87341485691
 21
82.153376963894
 31
0.0
  0
LINE
  5
5A4
330
571
100
AcDbEntity
  8
KCAD_DIMS
 62
     0
370
    -2
100
AcDbLine
 10
-105.1267464334999
 20
116.45258602263
 30
0.0
 11
-105.1267464334999
 21
82.153376963895
 31
0.0
  0
INSERT
  5
5A5
330
571
100
AcDbEntity
  8
KCAD_DIMS
 62
     0
370
    -2
100
AcDbBlockReference
  2
_OPEN30
 10
134.87341485691
 20
116.0525860226299
 30
0.0
 41
3.0
 42
3.0
 43
3.0
  0
INSERT
  5
5A6
330
571
100
AcDbEntity
  8
KCAD_DIMS
 62
     0
370
    -2
100
AcDbBlockReference
  2
_OPEN30
 10
-105.1267464334999
 20
116.0525860226299
 30
0.0
 41
3.0
 42
3.0
 43
3.0
 50
180.0
  0
LINE
  5
5A7
330
571
100
AcDbEntity
  8
KCAD_DIMS
 62
     0
370
    -2
100
AcDbLine
 10
131.8734148569099
 20
116.0525860226299
 30
0.0
 11
-102.1267464335
 21
116.0525860226299
 31
0.0
  0
POINT
  5
5A8
330
571
100
AcDbEntity
  8
DEFPOINTS
 62
     0
370
    15
100
AcDbPoint
 10
134.87341485691
 20
81.753376963894
 30
0.0
  0
POINT
  5
5A9
330
571
100
AcDbEntity
  8
DEFPOINTS
 62
     0
370
    15
100
AcDbPoint
 10
-105.1267464334999
 20
81.753376963895
 30
0.0
  0
POINT
  5
5AA
330
571
100
AcDbEntity
  8
DEFPOINTS
 62
     0
370
    15
100
AcDbPoint
 10
-105.1267464334999
 20
116.0525860226299
 30
0.0
  0
MTEXT
  5
5AB
330
571
100
AcDbEntity
  8
KCAD_DIMS
 62
     0
100
AcDbMText
 10
14.87333421172199
 20
118.18588602263
 30
0.0
 40
3.2
 41
0.0
 71
     5
 72
     1
  1
\A1;\A1;239.7
  7
KCADDIMSTANDARD
 73
     1
 44
1.0
  0
ENDBLK
  5
CA8
330
571
100
AcDbEntity
  8
0
100
AcDbBlockEnd
  0
BLOCK
  5
CA9
330
5AD
100
AcDbEntity
  8
0
100
AcDbBlockBegin
  2
*D30
 70
     1
 71
     0
 10
0.0
 20
0.0
 30
0.0
  3
*D30
  1

  0
LINE
  5
5DF
330
5AD
100
AcDbEntity
  8
KCAD_DIMS
 62
     0
370
    -2
100
AcDbLine
 10
-173.6632939405
 20
35.430764826417
 30
0.0
 11
-173.6632939405
 21
60.127446988507
 31
0.0
  0
LINE
  5
5E0
330
5AD
100
AcDbEntity
  8
KCAD_DIMS
 62
     0
370
    -2
100
AcDbLine
 10
-105.1267464334999
 20
35.430764826417
 30
0.0
 11
-105.1267464334999
 21
53.353376963897
 31
0.0
  0
INSERT
  5
5E1
330
5AD
100
AcDbEntity
  8
KCAD_DIMS
 62
     0
370
    -2
100
AcDbBlockReference
  2
_OPEN30
 10
-173.6632939405
 20
35.830764826417
 30
0.0
 41
3.0
 42
3.0
 43
3.0
 50
180.0
  0
INSERT
  5
5E2
330
5AD
100
AcDbEntity
  8
KCAD_DIMS
 62
     0
370
    -2
100
AcDbBlockReference
  2
_OPEN30
 10
-105.1267464334999
 20
35.830764826417
 30
0.0
 41
3.0
 42
3.0
 43
3.0
  0
LINE
  5
5E3
330
5AD
100
AcDbEntity
  8
KCAD_DIMS
 62
     0
370
    -2
100
AcDbLine
 10
-170.6632939405
 20
35.830764826417
 30
0.0
 11
-108.1267464334999
 21
35.830764826417
 31
0.0
  0
POINT
  5
5E4
330
5AD
100
AcDbEntity
  8
DEFPOINTS
 62
     0
370
    15
100
AcDbPoint
 10
-173.6632939405
 20
60.527446988507
 30
0.0
  0
POINT
  5
5E5
330
5AD
100
AcDbEntity
  8
DEFPOINTS
 62
     0
370
    15
100
AcDbPoint
 10
-105.1267464334999
 20
53.75337696389699
 30
0.0
  0
POINT
  5
5E6
330
5AD
100
AcDbEntity
  8
DEFPOINTS
 62
     0
370
    15
100
AcDbPoint
 10
-105.1267464334999
 20
35.830764826417
 30
0.0
  0
MTEXT
  5
5E7
330
5AD
100
AcDbEntity
  8
KCAD_DIMS
 62
     0
100
AcDbMText
 10
-139.395020187
 20
37.964064826417
 30
0.0
 40
3.2
 41
0.0
 71
     5
 72
     1
  1
\A1;\A1;W.D.=90
  7
KCADDIMSTANDARD
 73
     1
 44
1.0
  0
ENDBLK
  5
CAA
330
5AD
100
AcDbEntity
  8
0
100
AcDbBlockEnd
  0
BLOCK
  5
CAB
330
5EB
100
AcDbEntity
  8
0
100
AcDbBlockBegin
  2
*D31
 70
     1
 71
     0
 10
0.0
 20
0.0
 30
0.0
  3
*D31
  1

  0
LINE
  5
61D
330
5EB
100
AcDbEntity
  8
KCAD_DIMS
 62
     0
370
    -2
100
AcDbLine
 10
-126.3001034874
 20
53.75337696389699
 30
0.0
 11
-105.5267464335
 21
53.75337696389699
 31
0.0
  0
LINE
  5
61E
330
5EB
100
AcDbEntity
  8
KCAD_DIMS
 62
     0
370
    -2
100
AcDbLine
 10
-126.3001034874
 20
81.753376963895
 30
0.0
 11
-105.5267464335
 21
81.753376963895
 31
0.0
  0
INSERT
  5
61F
330
5EB
100
AcDbEntity
  8
KCAD_DIMS
 62
     0
370
    -2
100
AcDbBlockReference
  2
_OPEN30
 10
-125.9001034873999
 20
53.75337696389699
 30
0.0
 41
3.0
 42
3.0
 43
3.0
 50
270.0
  0
INSERT
  5
620
330
5EB
100
AcDbEntity
  8
KCAD_DIMS
 62
     0
370
    -2
100
AcDbBlockReference
  2
_OPEN30
 10
-125.9001034873999
 20
81.753376963895
 30
0.0
 41
3.0
 42
3.0
 43
3.0
 50
90.0
  0
LINE
  5
621
330
5EB
100
AcDbEntity
  8
KCAD_DIMS
 62
     0
370
    -2
100
AcDbLine
 10
-125.9001034873999
 20
56.753376963897
 30
0.0
 11
-125.9001034873999
 21
78.753376963895
 31
0.0
  0
POINT
  5
622
330
5EB
100
AcDbEntity
  8
DEFPOINTS
 62
     0
370
    15
100
AcDbPoint
 10
-105.1267464334999
 20
53.75337696389699
 30
0.0
  0
POINT
  5
623
330
5EB
100
AcDbEntity
  8
DEFPOINTS
 62
     0
370
    15
100
AcDbPoint
 10
-105.1267464334999
 20
81.753376963895
 30
0.0
  0
POINT
  5
624
330
5EB
100
AcDbEntity
  8
DEFPOINTS
 62
     0
370
    15
100
AcDbPoint
 10
-125.9001034873999
 20
81.753376963895
 30
0.0
  0
MTEXT
  5
625
330
5EB
100
AcDbEntity
  8
KCAD_DIMS
 62
     0
100
AcDbMText
 10
-128.0334034873999
 20
68.781326450277
 30
0.0
 40
3.2
 41
0.0
 71
     5
 72
     1
  1
\A1;%%c28
  7
KCADDIMSTANDARD
 11
1.000000000000000E-16
 21
1.0
 31
0.0
 73
     1
 44
1.0
  0
ENDBLK
  5
CAC
330
5EB
100
AcDbEntity
  8
0
100
AcDbBlockEnd
  0
BLOCK
  5
CAD
330
627
100
AcDbEntity
  8
0
100
AcDbBlockBegin
  2
*D32
 70
     1
 71
     0
 10
0.0
 20
0.0
 30
0.0
  3
*D32
  1

  0
LINE
  5
659
330
627
100
AcDbEntity
  8
KCAD_DIMS
 62
     0
370
    -2
100
AcDbLine
 10
-83.12674643341
 20
100.278651603787
 30
0.0
 11
-83.12674643341
 21
83.153376963894
 31
0.0
  0
LINE
  5
65A
330
627
100
AcDbEntity
  8
KCAD_DIMS
 62
     0
370
    -2
100
AcDbLine
 10
-105.1267464334999
 20
100.278651603787
 30
0.0
 11
-105.1267464334999
 21
82.153376963895
 31
0.0
  0
INSERT
  5
65B
330
627
100
AcDbEntity
  8
KCAD_DIMS
 62
     0
370
    -2
100
AcDbBlockReference
  2
_OPEN30
 10
-83.12674643341
 20
99.878651603787
 30
0.0
 41
3.0
 42
3.0
 43
3.0
  0
INSERT
  5
65C
330
627
100
AcDbEntity
  8
KCAD_DIMS
 62
     0
370
    -2
100
AcDbBlockReference
  2
_OPEN30
 10
-105.1267464334999
 20
99.878651603787
 30
0.0
 41
3.0
 42
3.0
 43
3.0
 50
180.0
  0
LINE
  5
65D
330
627
100
AcDbEntity
  8
KCAD_DIMS
 62
     0
370
    -2
100
AcDbLine
 10
-86.12674643341
 20
99.878651603787
 30
0.0
 11
-102.1267464335
 21
99.878651603787
 31
0.0
  0
POINT
  5
65E
330
627
100
AcDbEntity
  8
DEFPOINTS
 62
     0
370
    15
100
AcDbPoint
 10
-83.12674643341
 20
82.75337696389398
 30
0.0
  0
POINT
  5
65F
330
627
100
AcDbEntity
  8
DEFPOINTS
 62
     0
370
    15
100
AcDbPoint
 10
-105.1267464334999
 20
81.753376963895
 30
0.0
  0
POINT
  5
660
330
627
100
AcDbEntity
  8
DEFPOINTS
 62
     0
370
    15
100
AcDbPoint
 10
-105.1267464334999
 20
99.878651603787
 30
0.0
  0
MTEXT
  5
661
330
627
100
AcDbEntity
  8
KCAD_DIMS
 62
     0
100
AcDbMText
 10
-94.12674643345999
 20
102.011951603787
 30
0.0
 40
3.2
 41
0.0
 71
     5
 72
     1
  1
\A1;22
  7
KCADDIMSTANDARD
 73
     1
 44
1.0
  0
ENDBLK
  5
CAE
330
627
100
AcDbEntity
  8
0
100
AcDbBlockEnd
  0
BLOCK
  5
CAF
330
663
100
AcDbEntity
  8
0
100
AcDbBlockBegin
  2
*D33
 70
     1
 71
     0
 10
0.0
 20
0.0
 30
0.0
  3
*D33
  1

  0
LINE
  5
695
330
663
100
AcDbEntity
  8
KCAD_DIMS
 62
     0
370
    -2
100
AcDbLine
 10
-83.12674643341
 20
100.278651603787
 30
0.0
 11
-83.12674643341
 21
83.153376963894
 31
0.0
  0
LINE
  5
696
330
663
100
AcDbEntity
  8
KCAD_DIMS
 62
     0
370
    -2
100
AcDbLine
 10
-37.07174643341
 20
100.278651603787
 30
0.0
 11
-37.07174643341
 21
84.903376963895
 31
0.0
  0
INSERT
  5
697
330
663
100
AcDbEntity
  8
KCAD_DIMS
 62
     0
370
    -2
100
AcDbBlockReference
  2
_OPEN30
 10
-83.12674643341
 20
99.878651603787
 30
0.0
 41
3.0
 42
3.0
 43
3.0
 50
180.0
  0
INSERT
  5
698
330
663
100
AcDbEntity
  8
KCAD_DIMS
 62
     0
370
    -2
100
AcDbBlockReference
  2
_OPEN30
 10
-37.07174643341
 20
99.878651603787
 30
0.0
 41
3.0
 42
3.0
 43
3.0
  0
LINE
  5
699
330
663
100
AcDbEntity
  8
KCAD_DIMS
 62
     0
370
    -2
100
AcDbLine
 10
-80.12674643341
 20
99.878651603787
 30
0.0
 11
-40.07174643341
 21
99.878651603787
 31
0.0
  0
POINT
  5
69A
330
663
100
AcDbEntity
  8
DEFPOINTS
 62
     0
370
    15
100
AcDbPoint
 10
-83.12674643341
 20
82.75337696389398
 30
0.0
  0
POINT
  5
69B
330
663
100
AcDbEntity
  8
DEFPOINTS
 62
     0
370
    15
100
AcDbPoint
 10
-37.07174643341
 20
84.503376963895
 30
0.0
  0
POINT
  5
69C
330
663
100
AcDbEntity
  8
DEFPOINTS
 62
     0
370
    15
100
AcDbPoint
 10
-37.07174643341
 20
99.878651603787
 30
0.0
  0
MTEXT
  5
69D
330
663
100
AcDbEntity
  8
KCAD_DIMS
 62
     0
100
AcDbMText
 10
-60.09924643341
 20
102.011951603787
 30
0.0
 40
3.2
 41
0.0
 71
     5
 72
     1
  1
\A1;\A1;45
  7
KCADDIMSTANDARD
 73
     1
 44
1.0
  0
ENDBLK
  5
CB0
330
663
100
AcDbEntity
  8
0
100
AcDbBlockEnd
  0
BLOCK
  5
CB1
330
6E9
100
AcDbEntity
  8
0
100
AcDbBlockBegin
  2
*D34
 70
     1
 71
     0
 10
0.0
 20
0.0
 30
0.0
  3
*D34
  1

  0
LINE
  5
71B
330
6E9
100
AcDbEntity
  8
KCAD_DIMS
 62
     0
370
    -2
100
AcDbLine
 10
46.72501410430899
 20
-79.74662303621
 30
0.0
 11
17.848414856907
 21
-79.74662303621
 31
0.0
  0
LINE
  5
71C
330
6E9
100
AcDbEntity
  8
KCAD_DIMS
 62
     0
370
    -2
100
AcDbLine
 10
46.72501410430899
 20
47.753376963897
 30
0.0
 11
23.32341485690599
 21
47.753376963897
 31
0.0
  0
INSERT
  5
71D
330
6E9
100
AcDbEntity
  8
KCAD_DIMS
 62
     0
370
    -2
100
AcDbBlockReference
  2
_OPEN30
 10
45.72501410430898
 20
-79.74662303621
 30
0.0
 41
3.0
 42
3.0
 43
3.0
 50
270.0
  0
INSERT
  5
71E
330
6E9
100
AcDbEntity
  8
KCAD_DIMS
 62
     0
370
    -2
100
AcDbBlockReference
  2
_OPEN30
 10
45.72501410430899
 20
47.753376963897
 30
0.0
 41
3.0
 42
3.0
 43
3.0
 50
90.0
  0
LINE
  5
71F
330
6E9
100
AcDbEntity
  8
KCAD_DIMS
 62
     0
370
    -2
100
AcDbLine
 10
45.72501410430898
 20
-76.74662303621
 30
0.0
 11
45.72501410430899
 21
44.753376963897
 31
0.0
  0
POINT
  5
720
330
6E9
100
AcDbEntity
  8
DEFPOINTS
 62
     0
370
    15
100
AcDbPoint
 10
16.84841485690699
 20
-79.74662303621
 30
0.0
  0
POINT
  5
721
330
6E9
100
AcDbEntity
  8
DEFPOINTS
 62
     0
370
    15
100
AcDbPoint
 10
22.323414856906
 20
47.753376963897
 30
0.0
  0
POINT
  5
722
330
6E9
100
AcDbEntity
  8
DEFPOINTS
 62
     0
370
    15
100
AcDbPoint
 10
45.72501410430899
 20
47.753376963897
 30
0.0
  0
MTEXT
  5
723
330
6E9
100
AcDbEntity
  8
KCAD_DIMS
 62
     0
100
AcDbMText
 10
43.59168110430899
 20
-15.99662303610999
 30
0.0
 40
3.2
 41
0.0
 71
     5
 72
     1
  1
\A1;127.5
  7
KCADDIMSTANDARD
 11
1.000000000000000E-16
 21
1.0
 31
0.0
 73
     1
 44
1.0
  0
ENDBLK
  5
CB2
330
6E9
100
AcDbEntity
  8
0
100
AcDbBlockEnd
  0
BLOCK
  5
CB3
330
725
100
AcDbEntity
  8
0
100
AcDbBlockBegin
  2
*D35
 70
     1
 71
     0
 10
0.0
 20
0.0
 30
0.0
  3
*D35
  1

  0
LINE
  5
757
330
725
100
AcDbEntity
  8
KCAD_DIMS
 62
     0
370
    -2
100
AcDbLine
 10
46.72501410430901
 20
47.753376963897
 30
0.0
 11
23.32341485690599
 21
47.753376963897
 31
0.0
  0
LINE
  5
758
330
725
100
AcDbEntity
  8
KCAD_DIMS
 62
     0
370
    -2
100
AcDbLine
 10
46.72501410430901
 20
87.753376963895
 30
0.0
 11
23.32341485690599
 21
87.753376963895
 31
0.0
  0
INSERT
  5
759
330
725
100
AcDbEntity
  8
KCAD_DIMS
 62
     0
370
    -2
100
AcDbBlockReference
  2
_OPEN30
 10
45.72501410430901
 20
47.753376963897
 30
0.0
 41
3.0
 42
3.0
 43
3.0
 50
90.0
  0
INSERT
  5
75A
330
725
100
AcDbEntity
  8
KCAD_DIMS
 62
     0
370
    -2
100
AcDbBlockReference
  2
_OPEN30
 10
45.72501410430901
 20
87.753376963895
 30
0.0
 41
3.0
 42
3.0
 43
3.0
 50
270.0
  0
LINE
  5
75B
330
725
100
AcDbEntity
  8
KCAD_DIMS
 62
     0
370
    -2
100
AcDbLine
 10
45.72501410430901
 20
47.753376963897
 30
0.0
 11
45.72501410430901
 21
87.753376963895
 31
0.0
  0
LINE
  5
75C
330
725
100
AcDbEntity
  8
KCAD_DIMS
 62
     0
370
    -2
100
AcDbLine
 10
45.72501410430901
 20
44.753376963897
 30
0.0
 11
45.72501410430901
 21
42.753376963897
 31
0.0
  0
LINE
  5
75D
330
725
100
AcDbEntity
  8
KCAD_DIMS
 62
     0
370
    -2
100
AcDbLine
 10
45.72501410430901
 20
90.753376963895
 30
0.0
 11
45.72501410430901
 21
99.71906188587599
 31
0.0
  0
POINT
  5
75E
330
725
100
AcDbEntity
  8
DEFPOINTS
 62
     0
370
    15
100
AcDbPoint
 10
22.323414856906
 20
47.753376963897
 30
0.0
  0
POINT
  5
75F
330
725
100
AcDbEntity
  8
DEFPOINTS
 62
     0
370
    15
100
AcDbPoint
 10
22.323414856906
 20
87.753376963895
 30
0.0
  0
POINT
  5
760
330
725
100
AcDbEntity
  8
DEFPOINTS
 62
     0
370
    15
100
AcDbPoint
 10
45.72501410430901
 20
87.75337696389497
 30
0.0
  0
MTEXT
  5
761
330
725
100
AcDbEntity
  8
KCAD_DIMS
 62
     0
100
AcDbMText
 10
43.59168110430899
 20
96.71906163372
 30
0.0
 40
3.2
 41
0.0
 71
     5
 72
     1
  1
\A1;%%c40
  7
KCADDIMSTANDARD
 11
1.000000000000000E-16
 21
1.0
 31
0.0
 73
     1
 44
1.0
  0
ENDBLK
  5
CB4
330
725
100
AcDbEntity
  8
0
100
AcDbBlockEnd
  0
BLOCK
  5
CB5
330
763
100
AcDbEntity
  8
0
100
AcDbBlockBegin
  2
*D36
 70
     1
 71
     0
 10
0.0
 20
0.0
 30
0.0
  3
*D36
  1

  0
LINE
  5
795
330
763
100
AcDbEntity
  8
KCAD_DIMS
 62
     0
370
    -2
100
AcDbLine
 10
124.87341485691
 20
98.425775110122
 30
0.0
 11
124.87341485691
 21
82.153376963894
 31
0.0
  0
LINE
  5
796
330
763
100
AcDbEntity
  8
KCAD_DIMS
 62
     0
370
    -2
100
AcDbLine
 10
134.87341485691
 20
98.425775110122
 30
0.0
 11
134.87341485691
 21
82.153376963894
 31
0.0
  0
INSERT
  5
797
330
763
100
AcDbEntity
  8
KCAD_DIMS
 62
     0
370
    -2
100
AcDbBlockReference
  2
_OPEN30
 10
124.87341485691
 20
98.025775110122
 30
0.0
 41
3.0
 42
3.0
 43
3.0
  0
INSERT
  5
798
330
763
100
AcDbEntity
  8
KCAD_DIMS
 62
     0
370
    -2
100
AcDbBlockReference
  2
_OPEN30
 10
134.87341485691
 20
98.025775110122
 30
0.0
 41
3.0
 42
3.0
 43
3.0
 50
180.0
  0
LINE
  5
799
330
763
100
AcDbEntity
  8
KCAD_DIMS
 62
     0
370
    -2
100
AcDbLine
 10
124.87341485691
 20
98.025775110122
 30
0.0
 11
134.87341485691
 21
98.025775110122
 31
0.0
  0
LINE
  5
79A
330
763
100
AcDbEntity
  8
KCAD_DIMS
 62
     0
370
    -2
100
AcDbLine
 10
121.87341485691
 20
98.025775110122
 30
0.0
 11
115.2039272448094
 21
98.025775110122
 31
0.0
  0
LINE
  5
79B
330
763
100
AcDbEntity
  8
KCAD_DIMS
 62
     0
370
    -2
100
AcDbLine
 10
137.8734148569099
 20
98.025775110122
 30
0.0
 11
139.8734148569099
 21
98.025775110122
 31
0.0
  0
POINT
  5
79C
330
763
100
AcDbEntity
  8
DEFPOINTS
 62
     0
370
    15
100
AcDbPoint
 10
124.87341485691
 20
81.753376963894
 30
0.0
  0
POINT
  5
79D
330
763
100
AcDbEntity
  8
DEFPOINTS
 62
     0
370
    15
100
AcDbPoint
 10
134.87341485691
 20
81.753376963894
 30
0.0
  0
POINT
  5
79E
330
763
100
AcDbEntity
  8
DEFPOINTS
 62
     0
370
    15
100
AcDbPoint
 10
134.87341485691
 20
98.025775110122
 30
0.0
  0
MTEXT
  5
79F
330
763
100
AcDbEntity
  8
KCAD_DIMS
 62
     0
100
AcDbMText
 10
117.20392741291
 20
100.159075110122
 30
0.0
 40
3.2
 41
0.0
 71
     5
 72
     1
  1
\A1;10
  7
KCADDIMSTANDARD
 73
     1
 44
1.0
  0
ENDBLK
  5
CB6
330
763
100
AcDbEntity
  8
0
100
AcDbBlockEnd
  0
BLOCK
  5
CB7
330
7DF
100
AcDbEntity
  8
0
100
AcDbBlockBegin
  2
*D37
 70
     1
 71
     0
 10
0.0
 20
0.0
 30
0.0
  3
*D37
  1

  0
LINE
  5
80B
330
7DF
100
AcDbEntity
  8
KCAD_DIMS
 62
     0
370
    -2
100
AcDbLine
 10
-10.95158514309
 20
-25.66208141801
 30
0.0
 11
-10.95158514309
 21
-35.74662303611
 31
0.0
  0
INSERT
  5
80C
330
7DF
100
AcDbEntity
  8
KCAD_DIMS
 62
     0
370
    -2
100
AcDbBlockReference
  2
_OPEN30
 10
-10.95158514309
 20
-26.66208141801
 30
0.0
 41
3.0
 42
3.0
 43
3.0
 50
180.0
  0
LINE
  5
80D
330
7DF
100
AcDbEntity
  8
KCAD_DIMS
 62
     0
370
    -2
100
AcDbLine
 10
-7.951585143089999
 20
-26.66208141801
 30
0.0
 11
17.64760662729
 21
-26.66208141801
 31
0.0
  0
POINT
  5
80E
330
7DF
100
AcDbEntity
  8
DEFPOINTS
 62
     0
370
    15
100
AcDbPoint
 10
-10.95158514309
 20
-36.74662303611
 30
0.0
  0
POINT
  5
80F
330
7DF
100
AcDbEntity
  8
DEFPOINTS
 62
     0
370
    15
100
AcDbPoint
 10
4.448414856907099
 20
-6.746623036113
 30
0.0
  0
POINT
  5
810
330
7DF
100
AcDbEntity
  8
DEFPOINTS
 62
     0
370
    15
100
AcDbPoint
 10
4.448414856907098
 20
-26.66208141801
 30
0.0
  0
MTEXT
  5
811
330
7DF
100
AcDbEntity
  8
KCAD_DIMS
 62
     0
100
AcDbMText
 10
-21.05077625595
 20
-24.52874841801
 30
0.0
 40
3.2
 41
0.0
 71
     5
 72
     1
  1
\A1;%%c30.8
  7
KCADDIMSTANDARD
 73
     1
 44
1.0
  0
ENDBLK
  5
CB8
330
7DF
100
AcDbEntity
  8
0
100
AcDbBlockEnd
  0
BLOCK
  5
CB9
330
865
100
AcDbEntity
  8
0
100
AcDbBlockBegin
  2
*D38
 70
     1
 71
     0
 10
0.0
 20
0.0
 30
0.0
  3
*D38
  1

  0
LINE
  5
897
330
865
100
AcDbEntity
  8
KCAD_DIMS
 62
     0
370
    -2
100
AcDbLine
 10
76.086726239771
 20
53.903376963897
 30
0.0
 11
123.5734148569199
 21
53.903376963897
 31
0.0
  0
LINE
  5
898
330
865
100
AcDbEntity
  8
KCAD_DIMS
 62
     0
370
    -2
100
AcDbLine
 10
78.086726239771
 20
81.603376963897
 30
0.0
 11
40.57341485690599
 21
81.603376963897
 31
0.0
  0
INSERT
  5
899
330
865
100
AcDbEntity
  8
KCAD_DIMS
 62
     0
370
    -2
100
AcDbBlockReference
  2
_OPEN30
 10
77.086726239771
 20
53.903376963897
 30
0.0
 41
3.0
 42
3.0
 43
3.0
 50
90.0
  0
INSERT
  5
89A
330
865
100
AcDbEntity
  8
KCAD_DIMS
 62
     0
370
    -2
100
AcDbBlockReference
  2
_OPEN30
 10
77.086726239771
 20
81.603376963897
 30
0.0
 41
3.0
 42
3.0
 43
3.0
 50
270.0
  0
LINE
  5
89B
330
865
100
AcDbEntity
  8
KCAD_DIMS
 62
     0
370
    -2
100
AcDbLine
 10
77.086726239771
 20
53.903376963897
 30
0.0
 11
77.086726239771
 21
81.603376963897
 31
0.0
  0
LINE
  5
89C
330
865
100
AcDbEntity
  8
KCAD_DIMS
 62
     0
370
    -2
100
AcDbLine
 10
77.086726239771
 20
50.903376963897
 30
0.0
 11
77.086726239771
 21
32.472274576261
 31
0.0
  0
LINE
  5
89D
330
865
100
AcDbEntity
  8
KCAD_DIMS
 62
     0
370
    -2
100
AcDbLine
 10
77.086726239771
 20
84.603376963897
 30
0.0
 11
77.086726239771
 21
86.603376963897
 31
0.0
  0
POINT
  5
89E
330
865
100
AcDbEntity
  8
DEFPOINTS
 62
     0
370
    15
100
AcDbPoint
 10
124.5734148569199
 20
53.903376963897
 30
0.0
  0
POINT
  5
89F
330
865
100
AcDbEntity
  8
DEFPOINTS
 62
     0
370
    15
100
AcDbPoint
 10
39.573414856906
 20
81.603376963897
 30
0.0
  0
POINT
  5
8A0
330
865
100
AcDbEntity
  8
DEFPOINTS
 62
     0
370
    15
100
AcDbPoint
 10
77.086726239771
 20
81.603376963897
 30
0.0
  0
MTEXT
  5
8A1
330
865
100
AcDbEntity
  8
KCAD_DIMS
 62
     0
100
AcDbMText
 10
74.152343239771
 20
41.14027518028599
 30
0.0
 40
3.2
 41
0.0
 71
     5
 72
     1
  1
\A1;%%c27.7{\H2.134400;\S 0^ -0.1;}
  7
KCADDIMSTANDARD
 11
1.000000000000000E-16
 21
1.0
 31
0.0
 73
     1
 44
1.0
  0
ENDBLK
  5
CBA
330
865
100
AcDbEntity
  8
0
100
AcDbBlockEnd
  0
BLOCK
  5
CBB
330
8C8
100
AcDbEntity
  8
0
100
AcDbBlockBegin
  2
*D39
 70
     1
 71
     0
 10
0.0
 20
0.0
 30
0.0
  3
*D39
  1

  0
LINE
  5
8FA
330
8C8
100
AcDbEntity
  8
KCAD_DIMS
 62
     0
370
    -2
100
AcDbLine
 10
152.66941485691
 20
34.83076482642999
 30
0.0
 11
152.66941485691
 21
63.801974870264
 31
0.0
  0
LINE
  5
8FB
330
8C8
100
AcDbEntity
  8
KCAD_DIMS
 62
     0
370
    -2
100
AcDbLine
 10
135.1434148569099
 20
34.83076482642999
 30
0.0
 11
135.1434148569099
 21
52.753376963897
 31
0.0
  0
INSERT
  5
8FC
330
8C8
100
AcDbEntity
  8
KCAD_DIMS
 62
     0
370
    -2
100
AcDbBlockReference
  2
_OPEN30
 10
152.66941485691
 20
35.83076482642999
 30
0.0
 41
3.0
 42
3.0
 43
3.0
 50
180.0
  0
INSERT
  5
8FD
330
8C8
100
AcDbEntity
  8
KCAD_DIMS
 62
     0
370
    -2
100
AcDbBlockReference
  2
_OPEN30
 10
135.1434148569099
 20
35.83076482642999
 30
0.0
 41
3.0
 42
3.0
 43
3.0
  0
LINE
  5
8FE
330
8C8
100
AcDbEntity
  8
KCAD_DIMS
 62
     0
370
    -2
100
AcDbLine
 10
152.66941485691
 20
35.83076482642999
 30
0.0
 11
135.1434148569099
 21
35.83076482642999
 31
0.0
  0
LINE
  5
8FF
330
8C8
100
AcDbEntity
  8
KCAD_DIMS
 62
     0
370
    -2
100
AcDbLine
 10
155.66941485691
 20
35.83076482642999
 30
0.0
 11
180.297037947577
 21
35.83076482642999
 31
0.0
  0
LINE
  5
900
330
8C8
100
AcDbEntity
  8
KCAD_DIMS
 62
     0
370
    -2
100
AcDbLine
 10
132.1434148569099
 20
35.83076482642999
 30
0.0
 11
130.14341485691
 21
35.83076482642999
 31
0.0
  0
POINT
  5
901
330
8C8
100
AcDbEntity
  8
DEFPOINTS
 62
     0
370
    15
100
AcDbPoint
 10
152.66941485691
 20
64.801974870264
 30
0.0
  0
POINT
  5
902
330
8C8
100
AcDbEntity
  8
DEFPOINTS
 62
     0
370
    15
100
AcDbPoint
 10
135.1434148569099
 20
53.75337696389699
 30
0.0
  0
POINT
  5
903
330
8C8
100
AcDbEntity
  8
DEFPOINTS
 62
     0
370
    15
100
AcDbPoint
 10
135.1434148569099
 20
35.83076482642999
 30
0.0
  0
MTEXT
  5
904
330
8C8
100
AcDbEntity
  8
KCAD_DIMS
 62
     0
100
AcDbMText
 10
168.3720602069599
 20
37.96409782642999
 30
0.0
 40
3.2
 41
0.0
 71
     5
 72
     1
  1
\A1;F.B.=17.526
  7
KCADDIMSTANDARD
 73
     1
 44
1.0
  0
ENDBLK
  5
CBC
330
8C8
100
AcDbEntity
  8
0
100
AcDbBlockEnd
  0
BLOCK
  5
CBD
330
906
100
AcDbEntity
  8
0
100
AcDbBlockBegin
  2
*D40
 70
     1
 71
     0
 10
0.0
 20
0.0
 30
0.0
  3
*D40
  1

  0
LINE
  5
938
330
906
100
AcDbEntity
  8
KCAD_DIMS
 62
     0
370
    -2
100
AcDbLine
 10
-105.1267464334999
 20
108.2154255319099
 30
0.0
 11
-105.1267464334999
 21
67.753376963898
 31
0.0
  0
LINE
  5
939
330
906
100
AcDbEntity
  8
KCAD_DIMS
 62
     0
370
    -2
100
AcDbLine
 10
4.448414856907
 20
108.2154255319099
 30
0.0
 11
4.448414856907
 21
67.753376963897
 31
0.0
  0
INSERT
  5
93A
330
906
100
AcDbEntity
  8
KCAD_DIMS
 62
     0
370
    -2
100
AcDbBlockReference
  2
_OPEN30
 10
-105.1267464334999
 20
108.2154255319099
 30
0.0
 41
3.0
 42
3.0
 43
3.0
 50
180.0
  0
INSERT
  5
93B
330
906
100
AcDbEntity
  8
KCAD_DIMS
 62
     0
370
    -2
100
AcDbBlockReference
  2
_OPEN30
 10
4.448414856907
 20
108.2154255319099
 30
0.0
 41
3.0
 42
3.0
 43
3.0
  0
LINE
  5
93C
330
906
100
AcDbEntity
  8
KCAD_DIMS
 62
     0
370
    -2
100
AcDbLine
 10
-102.1267464335
 20
108.2154255319099
 30
0.0
 11
1.448414856907
 21
108.2154255319099
 31
0.0
  0
POINT
  5
93D
330
906
100
AcDbEntity
  8
DEFPOINTS
 62
     0
370
    15
100
AcDbPoint
 10
-105.1267464334999
 20
67.753376963898
 30
0.0
  0
POINT
  5
93E
330
906
100
AcDbEntity
  8
DEFPOINTS
 62
     0
370
    15
100
AcDbPoint
 10
4.448414856907
 20
67.753376963897
 30
0.0
  0
POINT
  5
93F
330
906
100
AcDbEntity
  8
DEFPOINTS
 62
     0
370
    15
100
AcDbPoint
 10
4.448414856907002
 20
108.2154255319099
 30
0.0
  0
MTEXT
  5
940
330
906
100
AcDbEntity
  8
KCAD_DIMS
 62
     0
100
AcDbMText
 10
-50.33916578829
 20
110.3487585319099
 30
0.0
 40
3.2
 41
0.0
 71
     5
 72
     1
  1
\A1;110
  7
KCADDIMSTANDARD
 73
     1
 44
1.0
  0
ENDBLK
  5
CBE
330
906
100
AcDbEntity
  8
0
100
AcDbBlockEnd
  0
BLOCK
  5
CBF
330
95E
100
AcDbEntity
  8
0
100
AcDbBlockBegin
  2
*D41
 70
     1
 71
     0
 10
0.0
 20
0.0
 30
0.0
  3
*D41
  1

  0
POINT
  5
953
330
95E
100
AcDbEntity
  8
DEFPOINTS
  6
ByBlock
 62
     0
370
    15
100
AcDbPoint
 10
134.87341485691
 20
81.753376963894
 30
0.0
  0
POINT
  5
954
330
95E
100
AcDbEntity
  8
DEFPOINTS
  6
ByBlock
 62
     0
370
    15
100
AcDbPoint
 10
138.8734148569099
 20
79.703376963897
 30
0.0
  0
LINE
  5
955
330
95E
100
AcDbEntity
  8
0
  6
ByBlock
 62
     0
370
    -2
100
AcDbLine
 10
134.87341485691
 20
82.153376963894
 30
0.0
 11
134.87341485691
 21
116.4525860226299
 31
0.0
  0
LINE
  5
956
330
95E
100
AcDbEntity
  8
0
  6
ByBlock
 62
     0
370
    -2
100
AcDbLine
 10
138.8734148569099
 20
80.103376963897
 30
0.0
 11
138.8734148569099
 21
116.4525860226299
 31
0.0
  0
LINE
  5
957
330
95E
100
AcDbEntity
  8
0
  6
ByBlock
 62
     0
370
    -2
100
AcDbLine
 10
131.87341485691
 20
116.0525860226299
 30
0.0
 11
128.87341485691
 21
116.0525860226299
 31
0.0
  0
SOLID
  5
958
330
95E
100
AcDbEntity
  8
0
  6
ByBlock
 62
     0
370
    15
100
AcDbTrace
 10
134.87341485691
 20
116.0525860226299
 30
0.0
 11
131.87341485691
 21
115.5525860226298
 31
0.0
 12
131.87341485691
 22
116.55258602263
 32
0.0
 13
131.87341485691
 23
116.55258602263
 33
0.0
  0
LINE
  5
959
330
95E
100
AcDbEntity
  8
0
  6
ByBlock
 62
     0
370
    -2
100
AcDbLine
 10
141.8734148569099
 20
116.0525860226299
 30
0.0
 11
144.8734148569099
 21
116.0525860226299
 31
0.0
  0
SOLID
  5
95A
330
95E
100
AcDbEntity
  8
0
  6
ByBlock
 62
     0
370
    15
100
AcDbTrace
 10
138.8734148569099
 20
116.0525860226299
 30
0.0
 11
141.8734148569099
 21
115.5525860226298
 31
0.0
 12
141.8734148569099
 22
116.55258602263
 32
0.0
 13
141.8734148569099
 23
116.55258602263
 33
0.0
  0
LINE
  5
95B
330
95E
100
AcDbEntity
  8
0
  6
ByBlock
 62
     0
370
    -2
100
AcDbLine
 10
134.87341485691
 20
116.0525860226299
 30
0.0
 11
138.8734148569099
 21
116.0525860226299
 31
0.0
  0
MTEXT
  5
95C
330
95E
100
AcDbEntity
  8
0
  6
ByBlock
 62
     0
100
AcDbMText
 10
146.08116165562
 20
118.18588602263
 30
0.0
 40
3.2
 41
0.0
 71
     5
 72
     1
  1
4
  7
KCADDIMSTANDARD
 73
     1
 44
1.0
  0
ENDBLK
  5
CC0
330
95E
100
AcDbEntity
  8
0
100
AcDbBlockEnd
  0
BLOCK
  5
CC1
330
96B
100
AcDbEntity
  8
0
100
AcDbBlockBegin
  2
*D42
 70
     1
 71
     0
 10
0.0
 20
0.0
 30
0.0
  3
*D42
  1

  0
POINT
  5
960
330
96B
100
AcDbEntity
  8
DEFPOINTS
  6
ByBlock
 62
     0
370
    15
100
AcDbPoint
 10
133.87341485691
 20
82.75337696389398
 30
0.0
  0
POINT
  5
961
330
96B
100
AcDbEntity
  8
DEFPOINTS
  6
ByBlock
 62
     0
370
    15
100
AcDbPoint
 10
133.87341485691
 20
52.75337696388699
 30
0.0
  0
LINE
  5
962
330
96B
100
AcDbEntity
  8
0
  6
ByBlock
 62
     0
370
    -2
100
AcDbLine
 10
134.27341485691
 20
82.75337696389398
 30
0.0
 11
166.26400751919
 21
82.75337696389398
 31
0.0
  0
LINE
  5
963
330
96B
100
AcDbEntity
  8
0
  6
ByBlock
 62
     0
370
    -2
100
AcDbLine
 10
134.27341485691
 20
52.75337696388699
 30
0.0
 11
166.26400751919
 21
52.75337696388699
 31
0.0
  0
LINE
  5
964
330
96B
100
AcDbEntity
  8
0
  6
ByBlock
 62
     0
370
    -2
100
AcDbLine
 10
165.86400751919
 20
82.75337696389398
 30
0.0
 11
165.86400751919
 21
72.286676963897
 31
0.0
  0
SOLID
  5
965
330
96B
100
AcDbEntity
  8
0
  6
ByBlock
 62
     0
370
    15
100
AcDbTrace
 10
165.86400751919
 20
82.75337696389398
 30
0.0
 11
165.3640075191899
 21
79.75337696389398
 31
0.0
 12
166.3640075191901
 22
79.75337696389398
 32
0.0
 13
166.3640075191901
 23
79.75337696389398
 33
0.0
  0
LINE
  5
966
330
96B
100
AcDbEntity
  8
0
  6
ByBlock
 62
     0
370
    -2
100
AcDbLine
 10
165.86400751919
 20
52.75337696388699
 30
0.0
 11
165.86400751919
 21
63.220076963897
 31
0.0
  0
SOLID
  5
967
330
96B
100
AcDbEntity
  8
0
  6
ByBlock
 62
     0
370
    15
100
AcDbTrace
 10
165.86400751919
 20
52.75337696388699
 30
0.0
 11
165.3640075191899
 21
55.75337696388699
 31
0.0
 12
166.3640075191901
 22
55.75337696388699
 32
0.0
 13
166.3640075191901
 23
55.75337696388699
 33
0.0
  0
LINE
  5
968
330
96B
100
AcDbEntity
  8
0
  6
ByBlock
 62
     0
370
    -2
100
AcDbLine
 10
133.87341485691
 20
82.75337696389398
 30
0.0
 11
133.87341485691
 21
82.75337696389398
 31
0.0
  0
MTEXT
  5
969
330
96B
100
AcDbEntity
  8
0
  6
ByBlock
 62
     0
100
AcDbMText
 10
163.73070751919
 20
67.753376963897
 30
0.0
 40
3.2
 41
0.0
 71
     5
 72
     1
  1
\A1;%%c30
  7
KCADDIMSTANDARD
 11
6.123031769111886E-17
 21
1.0
 31
0.0
 73
     1
 44
1.0
  0
ENDBLK
  5
CC2
330
96B
100
AcDbEntity
  8
0
100
AcDbBlockEnd
  0
BLOCK
  5
CC3
330
978
100
AcDbEntity
  8
0
100
AcDbBlockBegin
  2
*D43
 70
     1
 71
     0
 10
0.0
 20
0.0
 30
0.0
  3
*D43
  1

  0
POINT
  5
96D
330
978
100
AcDbEntity
  8
DEFPOINTS
  6
ByBlock
 62
     0
370
    15
100
AcDbPoint
 10
134.87341485691
 20
81.753376963894
 30
0.0
  0
POINT
  5
96E
330
978
100
AcDbEntity
  8
DEFPOINTS
  6
ByBlock
 62
     0
370
    15
100
AcDbPoint
 10
-105.1267464334999
 20
81.753376963895
 30
0.0
  0
LINE
  5
96F
330
978
100
AcDbEntity
  8
0
  6
ByBlock
 62
     0
370
    -2
100
AcDbLine
 10
134.87341485691
 20
82.153376963894
 30
0.0
 11
134.87341485691
 21
116.4525860226299
 31
0.0
  0
LINE
  5
970
330
978
100
AcDbEntity
  8
0
  6
ByBlock
 62
     0
370
    -2
100
AcDbLine
 10
-105.1267464334999
 20
82.153376963895
 30
0.0
 11
-105.1267464334999
 21
116.4525860226299
 31
0.0
  0
LINE
  5
971
330
978
100
AcDbEntity
  8
0
  6
ByBlock
 62
     0
370
    -2
100
AcDbLine
 10
134.87341485691
 20
116.0525860226299
 30
0.0
 11
21.806634211722
 21
116.0525860226299
 31
0.0
  0
SOLID
  5
972
330
978
100
AcDbEntity
  8
0
  6
ByBlock
 62
     0
370
    15
100
AcDbTrace
 10
134.87341485691
 20
116.0525860226299
 30
0.0
 11
131.87341485691
 21
116.55258602263
 31
0.0
 12
131.87341485691
 22
115.5525860226298
 32
0.0
 13
131.87341485691
 23
115.5525860226298
 33
0.0
  0
LINE
  5
973
330
978
100
AcDbEntity
  8
0
  6
ByBlock
 62
     0
370
    -2
100
AcDbLine
 10
-105.1267464334999
 20
116.0525860226299
 30
0.0
 11
7.940034211721994
 21
116.0525860226299
 31
0.0
  0
SOLID
  5
974
330
978
100
AcDbEntity
  8
0
  6
ByBlock
 62
     0
370
    15
100
AcDbTrace
 10
-105.1267464334999
 20
116.0525860226299
 30
0.0
 11
-102.1267464334999
 21
116.55258602263
 31
0.0
 12
-102.1267464334999
 22
115.5525860226298
 32
0.0
 13
-102.1267464334999
 23
115.5525860226298
 33
0.0
  0
LINE
  5
975
330
978
100
AcDbEntity
  8
0
  6
ByBlock
 62
     0
370
    -2
100
AcDbLine
 10
134.87341485691
 20
81.753376963894
 30
0.0
 11
134.87341485691
 21
81.753376963894
 31
0.0
  0
MTEXT
  5
976
330
978
100
AcDbEntity
  8
0
  6
ByBlock
 62
     0
100
AcDbMText
 10
14.873334211722
 20
118.18588602263
 30
0.0
 40
3.2
 41
0.0
 71
     5
 72
     1
  1
\A1;239.7
  7
KCADDIMSTANDARD
 73
     1
 44
1.0
  0
ENDBLK
  5
CC4
330
978
100
AcDbEntity
  8
0
100
AcDbBlockEnd
  0
BLOCK
  5
CC5
330
985
100
AcDbEntity
  8
0
100
AcDbBlockBegin
  2
*D44
 70
     1
 71
     0
 10
0.0
 20
0.0
 30
0.0
  3
*D44
  1

  0
POINT
  5
97A
330
985
100
AcDbEntity
  8
DEFPOINTS
  6
ByBlock
 62
     0
370
    15
100
AcDbPoint
 10
-173.6632939405
 20
60.527446988507
 30
0.0
  0
POINT
  5
97B
330
985
100
AcDbEntity
  8
DEFPOINTS
  6
ByBlock
 62
     0
370
    15
100
AcDbPoint
 10
-105.1267464334999
 20
53.75337696389699
 30
0.0
  0
LINE
  5
97C
330
985
100
AcDbEntity
  8
0
  6
ByBlock
 62
     0
370
    -2
100
AcDbLine
 10
-173.6632939405
 20
60.127446988507
 30
0.0
 11
-173.6632939405
 21
35.430764826417
 31
0.0
  0
LINE
  5
97D
330
985
100
AcDbEntity
  8
0
  6
ByBlock
 62
     0
370
    -2
100
AcDbLine
 10
-105.1267464334999
 20
53.35337696389699
 30
0.0
 11
-105.1267464334999
 21
35.430764826417
 31
0.0
  0
LINE
  5
97E
330
985
100
AcDbEntity
  8
0
  6
ByBlock
 62
     0
370
    -2
100
AcDbLine
 10
-173.6632939405
 20
35.830764826417
 30
0.0
 11
-148.712320187
 21
35.830764826417
 31
0.0
  0
SOLID
  5
97F
330
985
100
AcDbEntity
  8
0
  6
ByBlock
 62
     0
370
    15
100
AcDbTrace
 10
-173.6632939405
 20
35.830764826417
 30
0.0
 11
-170.6632939405
 21
35.3307648264169
 31
0.0
 12
-170.6632939405
 22
36.3307648264171
 32
0.0
 13
-170.6632939405
 23
36.3307648264171
 33
0.0
  0
LINE
  5
980
330
985
100
AcDbEntity
  8
0
  6
ByBlock
 62
     0
370
    -2
100
AcDbLine
 10
-105.1267464334999
 20
35.830764826417
 30
0.0
 11
-130.077720187
 21
35.830764826417
 31
0.0
  0
SOLID
  5
981
330
985
100
AcDbEntity
  8
0
  6
ByBlock
 62
     0
370
    15
100
AcDbTrace
 10
-105.1267464334999
 20
35.830764826417
 30
0.0
 11
-108.1267464334999
 21
35.3307648264169
 31
0.0
 12
-108.1267464334999
 22
36.3307648264171
 32
0.0
 13
-108.1267464334999
 23
36.3307648264171
 33
0.0
  0
LINE
  5
982
330
985
100
AcDbEntity
  8
0
  6
ByBlock
 62
     0
370
    -2
100
AcDbLine
 10
-173.6632939405
 20
60.527446988507
 30
0.0
 11
-173.6632939405
 21
60.527446988507
 31
0.0
  0
MTEXT
  5
983
330
985
100
AcDbEntity
  8
0
  6
ByBlock
 62
     0
100
AcDbMText
 10
-139.395020187
 20
37.964064826417
 30
0.0
 40
3.2
 41
0.0
 71
     5
 72
     1
  1
\A1;W.D.=90
  7
KCADDIMSTANDARD
 73
     1
 44
1.0
  0
ENDBLK
  5
CC6
330
985
100
AcDbEntity
  8
0
100
AcDbBlockEnd
  0
BLOCK
  5
CC7
330
992
100
AcDbEntity
  8
0
100
AcDbBlockBegin
  2
*D45
 70
     1
 71
     0
 10
0.0
 20
0.0
 30
0.0
  3
*D45
  1

  0
POINT
  5
987
330
992
100
AcDbEntity
  8
DEFPOINTS
  6
ByBlock
 62
     0
370
    15
100
AcDbPoint
 10
-105.1267464334999
 20
53.75337696389699
 30
0.0
  0
POINT
  5
988
330
992
100
AcDbEntity
  8
DEFPOINTS
  6
ByBlock
 62
     0
370
    15
100
AcDbPoint
 10
-105.1267464334999
 20
81.753376963895
 30
0.0
  0
LINE
  5
989
330
992
100
AcDbEntity
  8
0
  6
ByBlock
 62
     0
370
    -2
100
AcDbLine
 10
-105.5267464334999
 20
53.75337696389699
 30
0.0
 11
-126.3001034873999
 21
53.75337696389699
 31
0.0
  0
LINE
  5
98A
330
992
100
AcDbEntity
  8
0
  6
ByBlock
 62
     0
370
    -2
100
AcDbLine
 10
-105.5267464334999
 20
81.753376963895
 30
0.0
 11
-126.3001034873999
 21
81.753376963895
 31
0.0
  0
LINE
  5
98B
330
992
100
AcDbEntity
  8
0
  6
ByBlock
 62
     0
370
    -2
100
AcDbLine
 10
-125.9001034873999
 20
53.75337696389699
 30
0.0
 11
-125.9001034873999
 21
63.976026450277
 31
0.0
  0
SOLID
  5
98C
330
992
100
AcDbEntity
  8
0
  6
ByBlock
 62
     0
370
    15
100
AcDbTrace
 10
-125.9001034873999
 20
53.75337696389699
 30
0.0
 11
-125.4001034873998
 21
56.75337696389699
 31
0.0
 12
-126.4001034874
 22
56.75337696389699
 32
0.0
 13
-126.4001034874
 23
56.75337696389699
 33
0.0
  0
LINE
  5
98D
330
992
100
AcDbEntity
  8
0
  6
ByBlock
 62
     0
370
    -2
100
AcDbLine
 10
-125.9001034873999
 20
81.753376963895
 30
0.0
 11
-125.9001034873999
 21
73.58662645027701
 31
0.0
  0
SOLID
  5
98E
330
992
100
AcDbEntity
  8
0
  6
ByBlock
 62
     0
370
    15
100
AcDbTrace
 10
-125.9001034873999
 20
81.753376963895
 30
0.0
 11
-125.4001034873998
 21
78.753376963895
 31
0.0
 12
-126.4001034874
 22
78.753376963895
 32
0.0
 13
-126.4001034874
 23
78.753376963895
 33
0.0
  0
LINE
  5
98F
330
992
100
AcDbEntity
  8
0
  6
ByBlock
 62
     0
370
    -2
100
AcDbLine
 10
-105.1267464334999
 20
53.75337696389699
 30
0.0
 11
-105.1267464334999
 21
53.75337696389699
 31
0.0
  0
MTEXT
  5
990
330
992
100
AcDbEntity
  8
0
  6
ByBlock
 62
     0
100
AcDbMText
 10
-128.0334034873999
 20
68.781326450277
 30
0.0
 40
3.2
 41
0.0
 71
     5
 72
     1
  1
\A1;%%c28
  7
KCADDIMSTANDARD
 11
6.123031769111886E-17
 21
1.0
 31
0.0
 73
     1
 44
1.0
  0
ENDBLK
  5
CC8
330
992
100
AcDbEntity
  8
0
100
AcDbBlockEnd
  0
BLOCK
  5
CC9
330
99F
100
AcDbEntity
  8
0
100
AcDbBlockBegin
  2
*D46
 70
     1
 71
     0
 10
0.0
 20
0.0
 30
0.0
  3
*D46
  1

  0
POINT
  5
994
330
99F
100
AcDbEntity
  8
DEFPOINTS
  6
ByBlock
 62
     0
370
    15
100
AcDbPoint
 10
-83.12674643341
 20
82.75337696389398
 30
0.0
  0
POINT
  5
995
330
99F
100
AcDbEntity
  8
DEFPOINTS
  6
ByBlock
 62
     0
370
    15
100
AcDbPoint
 10
-105.1267464334999
 20
81.753376963895
 30
0.0
  0
LINE
  5
996
330
99F
100
AcDbEntity
  8
0
  6
ByBlock
 62
     0
370
    -2
100
AcDbLine
 10
-83.12674643341
 20
83.15337696389399
 30
0.0
 11
-83.12674643341
 21
100.278651603787
 31
0.0
  0
LINE
  5
997
330
99F
100
AcDbEntity
  8
0
  6
ByBlock
 62
     0
370
    -2
100
AcDbLine
 10
-105.1267464334999
 20
82.153376963895
 30
0.0
 11
-105.1267464334999
 21
100.278651603787
 31
0.0
  0
LINE
  5
998
330
99F
100
AcDbEntity
  8
0
  6
ByBlock
 62
     0
370
    -2
100
AcDbLine
 10
-83.12674643341
 20
99.878651603787
 30
0.0
 11
-90.92144643345999
 21
99.878651603787
 31
0.0
  0
SOLID
  5
999
330
99F
100
AcDbEntity
  8
0
  6
ByBlock
 62
     0
370
    15
100
AcDbTrace
 10
-83.12674643341
 20
99.878651603787
 30
0.0
 11
-86.12674643341
 21
100.3786516037871
 31
0.0
 12
-86.12674643341
 22
99.3786516037869
 32
0.0
 13
-86.12674643341
 23
99.3786516037869
 33
0.0
  0
LINE
  5
99A
330
99F
100
AcDbEntity
  8
0
  6
ByBlock
 62
     0
370
    -2
100
AcDbLine
 10
-105.1267464334999
 20
99.878651603787
 30
0.0
 11
-97.33204643345998
 21
99.878651603787
 31
0.0
  0
SOLID
  5
99B
330
99F
100
AcDbEntity
  8
0
  6
ByBlock
 62
     0
370
    15
100
AcDbTrace
 10
-105.1267464334999
 20
99.878651603787
 30
0.0
 11
-102.1267464334999
 21
100.3786516037871
 31
0.0
 12
-102.1267464334999
 22
99.3786516037869
 32
0.0
 13
-102.1267464334999
 23
99.3786516037869
 33
0.0
  0
LINE
  5
99C
330
99F
100
AcDbEntity
  8
0
  6
ByBlock
 62
     0
370
    -2
100
AcDbLine
 10
-83.12674643341
 20
82.75337696389398
 30
0.0
 11
-83.12674643341
 21
82.75337696389398
 31
0.0
  0
MTEXT
  5
99D
330
99F
100
AcDbEntity
  8
0
  6
ByBlock
 62
     0
100
AcDbMText
 10
-94.12674643345999
 20
102.011951603787
 30
0.0
 40
3.2
 41
0.0
 71
     5
 72
     1
  1
22
  7
KCADDIMSTANDARD
 73
     1
 44
1.0
  0
ENDBLK
  5
CCA
330
99F
100
AcDbEntity
  8
0
100
AcDbBlockEnd
  0
BLOCK
  5
CCB
330
9AC
100
AcDbEntity
  8
0
100
AcDbBlockBegin
  2
*D47
 70
     1
 71
     0
 10
0.0
 20
0.0
 30
0.0
  3
*D47
  1

  0
POINT
  5
9A1
330
9AC
100
AcDbEntity
  8
DEFPOINTS
  6
ByBlock
 62
     0
370
    15
100
AcDbPoint
 10
-83.12674643341
 20
82.75337696389398
 30
0.0
  0
POINT
  5
9A2
330
9AC
100
AcDbEntity
  8
DEFPOINTS
  6
ByBlock
 62
     0
370
    15
100
AcDbPoint
 10
-37.07174643341
 20
84.503376963895
 30
0.0
  0
LINE
  5
9A3
330
9AC
100
AcDbEntity
  8
0
  6
ByBlock
 62
     0
370
    -2
100
AcDbLine
 10
-83.12674643341
 20
83.15337696389399
 30
0.0
 11
-83.12674643341
 21
100.278651603787
 31
0.0
  0
LINE
  5
9A4
330
9AC
100
AcDbEntity
  8
0
  6
ByBlock
 62
     0
370
    -2
100
AcDbLine
 10
-37.07174643341
 20
84.903376963895
 30
0.0
 11
-37.07174643341
 21
100.278651603787
 31
0.0
  0
LINE
  5
9A5
330
9AC
100
AcDbEntity
  8
0
  6
ByBlock
 62
     0
370
    -2
100
AcDbLine
 10
-83.12674643341
 20
99.878651603787
 30
0.0
 11
-63.30454643341
 21
99.878651603787
 31
0.0
  0
SOLID
  5
9A6
330
9AC
100
AcDbEntity
  8
0
  6
ByBlock
 62
     0
370
    15
100
AcDbTrace
 10
-83.12674643341
 20
99.878651603787
 30
0.0
 11
-80.12674643341
 21
99.3786516037869
 31
0.0
 12
-80.12674643341
 22
100.3786516037871
 32
0.0
 13
-80.12674643341
 23
100.3786516037871
 33
0.0
  0
LINE
  5
9A7
330
9AC
100
AcDbEntity
  8
0
  6
ByBlock
 62
     0
370
    -2
100
AcDbLine
 10
-37.07174643341
 20
99.878651603787
 30
0.0
 11
-56.89394643341
 21
99.878651603787
 31
0.0
  0
SOLID
  5
9A8
330
9AC
100
AcDbEntity
  8
0
  6
ByBlock
 62
     0
370
    15
100
AcDbTrace
 10
-37.07174643341
 20
99.878651603787
 30
0.0
 11
-40.07174643341
 21
99.3786516037869
 31
0.0
 12
-40.07174643341
 22
100.3786516037871
 32
0.0
 13
-40.07174643341
 23
100.3786516037871
 33
0.0
  0
LINE
  5
9A9
330
9AC
100
AcDbEntity
  8
0
  6
ByBlock
 62
     0
370
    -2
100
AcDbLine
 10
-83.12674643341
 20
82.75337696389398
 30
0.0
 11
-83.12674643341
 21
82.75337696389398
 31
0.0
  0
MTEXT
  5
9AA
330
9AC
100
AcDbEntity
  8
0
  6
ByBlock
 62
     0
100
AcDbMText
 10
-60.09924643341
 20
102.011951603787
 30
0.0
 40
3.2
 41
0.0
 71
     5
 72
     1
  1
\A1;45
  7
KCADDIMSTANDARD
 73
     1
 44
1.0
  0
ENDBLK
  5
CCC
330
9AC
100
AcDbEntity
  8
0
100
AcDbBlockEnd
  0
BLOCK
  5
CCD
330
9B8
100
AcDbEntity
  8
0
100
AcDbBlockBegin
  2
*D48
 70
     1
 71
     0
 10
0.0
 20
0.0
 30
0.0
  3
*D48
  1

  0
POINT
  5
9AE
330
9B8
100
AcDbEntity
  8
DEFPOINTS
  6
ByBlock
 62
     0
370
    15
100
AcDbPoint
 10
16.84841485690699
 20
-79.74662303621
 30
0.0
  0
POINT
  5
9AF
330
9B8
100
AcDbEntity
  8
DEFPOINTS
  6
ByBlock
 62
     0
370
    15
100
AcDbPoint
 10
22.323414856906
 20
47.753376963897
 30
0.0
  0
LINE
  5
9B0
330
9B8
100
AcDbEntity
  8
0
  6
ByBlock
 62
     0
370
    -2
100
AcDbLine
 10
17.84841485690699
 20
-79.74662303621
 30
0.0
 11
46.72501410430899
 21
-79.74662303621
 31
0.0
  0
LINE
  5
9B1
330
9B8
100
AcDbEntity
  8
0
  6
ByBlock
 62
     0
370
    -2
100
AcDbLine
 10
23.323414856906
 20
47.753376963897
 30
0.0
 11
46.72501410430899
 21
47.753376963897
 31
0.0
  0
LINE
  5
9B2
330
9B8
100
AcDbEntity
  8
0
  6
ByBlock
 62
     0
370
    -2
100
AcDbLine
 10
45.72501410430899
 20
-79.74662303621
 30
0.0
 11
45.72501410430899
 21
47.753376963897
 31
0.0
  0
SOLID
  5
9B3
330
9B8
100
AcDbEntity
  8
0
  6
ByBlock
 62
     0
370
    15
100
AcDbTrace
 10
45.72501410430899
 20
-79.74662303621
 30
0.0
 11
46.22501410430909
 21
-76.74662303621
 31
0.0
 12
45.22501410430889
 22
-76.74662303621
 32
0.0
 13
45.22501410430889
 23
-76.74662303621
 33
0.0
  0
SOLID
  5
9B4
330
9B8
100
AcDbEntity
  8
0
  6
ByBlock
 62
     0
370
    15
100
AcDbTrace
 10
45.72501410430899
 20
47.753376963897
 30
0.0
 11
46.22501410430909
 21
44.753376963897
 31
0.0
 12
45.22501410430889
 22
44.753376963897
 32
0.0
 13
45.22501410430889
 23
44.753376963897
 33
0.0
  0
LINE
  5
9B5
330
9B8
100
AcDbEntity
  8
0
  6
ByBlock
 62
     0
370
    -2
100
AcDbLine
 10
16.84841485690699
 20
-79.74662303621
 30
0.0
 11
16.84841485690699
 21
-79.74662303621
 31
0.0
  0
MTEXT
  5
9B6
330
9B8
100
AcDbEntity
  8
0
  6
ByBlock
 62
     0
100
AcDbMText
 10
43.59168110430899
 20
-15.99662303610999
 30
0.0
 40
3.2
 41
0.0
 71
     5
 72
     1
  1
127.5
  7
KCADDIMSTANDARD
 11
6.123031769111886E-17
 21
1.0
 31
0.0
 73
     1
 44
1.0
  0
ENDBLK
  5
CCE
330
9B8
100
AcDbEntity
  8
0
100
AcDbBlockEnd
  0
BLOCK
  5
CCF
330
9C4
100
AcDbEntity
  8
0
100
AcDbBlockBegin
  2
*D49
 70
     1
 71
     0
 10
0.0
 20
0.0
 30
0.0
  3
*D49
  1

  0
POINT
  5
9BA
330
9C4
100
AcDbEntity
  8
DEFPOINTS
  6
ByBlock
 62
     0
370
    15
100
AcDbPoint
 10
22.323414856906
 20
47.753376963897
 30
0.0
  0
POINT
  5
9BB
330
9C4
100
AcDbEntity
  8
DEFPOINTS
  6
ByBlock
 62
     0
370
    15
100
AcDbPoint
 10
22.323414856906
 20
87.753376963895
 30
0.0
  0
LINE
  5
9BC
330
9C4
100
AcDbEntity
  8
0
  6
ByBlock
 62
     0
370
    -2
100
AcDbLine
 10
23.323414856906
 20
47.753376963897
 30
0.0
 11
46.72501410430901
 21
47.753376963897
 31
0.0
  0
LINE
  5
9BD
330
9C4
100
AcDbEntity
  8
0
  6
ByBlock
 62
     0
370
    -2
100
AcDbLine
 10
23.323414856906
 20
87.753376963895
 30
0.0
 11
46.72501410430901
 21
87.753376963895
 31
0.0
  0
LINE
  5
9BE
330
9C4
100
AcDbEntity
  8
0
  6
ByBlock
 62
     0
370
    -2
100
AcDbLine
 10
45.72501410430901
 20
47.753376963897
 30
0.0
 11
45.72501410430901
 21
87.753376963895
 31
0.0
  0
SOLID
  5
9BF
330
9C4
100
AcDbEntity
  8
0
  6
ByBlock
 62
     0
370
    15
100
AcDbTrace
 10
45.72501410430901
 20
47.753376963897
 30
0.0
 11
46.22501410430911
 21
50.753376963897
 31
0.0
 12
45.22501410430891
 22
50.753376963897
 32
0.0
 13
45.22501410430891
 23
50.753376963897
 33
0.0
  0
SOLID
  5
9C0
330
9C4
100
AcDbEntity
  8
0
  6
ByBlock
 62
     0
370
    15
100
AcDbTrace
 10
45.72501410430901
 20
87.753376963895
 30
0.0
 11
46.22501410430911
 21
84.753376963895
 31
0.0
 12
45.22501410430891
 22
84.753376963895
 32
0.0
 13
45.22501410430891
 23
84.753376963895
 33
0.0
  0
LINE
  5
9C1
330
9C4
100
AcDbEntity
  8
0
  6
ByBlock
 62
     0
370
    -2
100
AcDbLine
 10
22.323414856906
 20
47.753376963897
 30
0.0
 11
22.323414856906
 21
47.753376963897
 31
0.0
  0
MTEXT
  5
9C2
330
9C4
100
AcDbEntity
  8
0
  6
ByBlock
 62
     0
100
AcDbMText
 10
43.59168110430899
 20
96.71906163372
 30
0.0
 40
3.2
 41
0.0
 71
     5
 72
     1
  1
\A1;%%c40
  7
KCADDIMSTANDARD
 11
6.123031769111886E-17
 21
1.0
 31
0.0
 73
     1
 44
1.0
  0
ENDBLK
  5
CD0
330
9C4
100
AcDbEntity
  8
0
100
AcDbBlockEnd
  0
BLOCK
  5
CD1
330
9D0
100
AcDbEntity
  8
0
100
AcDbBlockBegin
  2
*D50
 70
     1
 71
     0
 10
0.0
 20
0.0
 30
0.0
  3
*D50
  1

  0
POINT
  5
9C6
330
9D0
100
AcDbEntity
  8
DEFPOINTS
  6
ByBlock
 62
     0
370
    15
100
AcDbPoint
 10
124.87341485691
 20
81.753376963894
 30
0.0
  0
POINT
  5
9C7
330
9D0
100
AcDbEntity
  8
DEFPOINTS
  6
ByBlock
 62
     0
370
    15
100
AcDbPoint
 10
134.87341485691
 20
81.753376963894
 30
0.0
  0
LINE
  5
9C8
330
9D0
100
AcDbEntity
  8
0
  6
ByBlock
 62
     0
370
    -2
100
AcDbLine
 10
124.87341485691
 20
82.153376963894
 30
0.0
 11
124.87341485691
 21
98.425775110122
 31
0.0
  0
LINE
  5
9C9
330
9D0
100
AcDbEntity
  8
0
  6
ByBlock
 62
     0
370
    -2
100
AcDbLine
 10
134.87341485691
 20
82.153376963894
 30
0.0
 11
134.87341485691
 21
98.425775110122
 31
0.0
  0
LINE
  5
9CA
330
9D0
100
AcDbEntity
  8
0
  6
ByBlock
 62
     0
370
    -2
100
AcDbLine
 10
124.87341485691
 20
98.025775110122
 30
0.0
 11
134.87341485691
 21
98.025775110122
 31
0.0
  0
SOLID
  5
9CB
330
9D0
100
AcDbEntity
  8
0
  6
ByBlock
 62
     0
370
    15
100
AcDbTrace
 10
124.87341485691
 20
98.025775110122
 30
0.0
 11
127.87341485691
 21
97.5257751101219
 31
0.0
 12
127.87341485691
 22
98.5257751101221
 32
0.0
 13
127.87341485691
 23
98.5257751101221
 33
0.0
  0
SOLID
  5
9CC
330
9D0
100
AcDbEntity
  8
0
  6
ByBlock
 62
     0
370
    15
100
AcDbTrace
 10
134.87341485691
 20
98.025775110122
 30
0.0
 11
131.87341485691
 21
97.5257751101219
 31
0.0
 12
131.87341485691
 22
98.5257751101221
 32
0.0
 13
131.87341485691
 23
98.5257751101221
 33
0.0
  0
LINE
  5
9CD
330
9D0
100
AcDbEntity
  8
0
  6
ByBlock
 62
     0
370
    -2
100
AcDbLine
 10
124.87341485691
 20
81.753376963894
 30
0.0
 11
124.87341485691
 21
81.753376963894
 31
0.0
  0
MTEXT
  5
9CE
330
9D0
100
AcDbEntity
  8
0
  6
ByBlock
 62
     0
100
AcDbMText
 10
117.20392741291
 20
100.159075110122
 30
0.0
 40
3.2
 41
0.0
 71
     5
 72
     1
  1
10
  7
KCADDIMSTANDARD
 73
     1
 44
1.0
  0
ENDBLK
  5
CD2
330
9D0
100
AcDbEntity
  8
0
100
AcDbBlockEnd
  0
BLOCK
  5
CD3
330
9DB
100
AcDbEntity
  8
0
100
AcDbBlockBegin
  2
*D51
 70
     1
 71
     0
 10
0.0
 20
0.0
 30
0.0
  3
*D51
  1

  0
POINT
  5
9D2
330
9DB
100
AcDbEntity
  8
DEFPOINTS
  6
ByBlock
 62
     0
370
    15
100
AcDbPoint
 10
-10.95158514309
 20
-36.74662303611
 30
0.0
  0
POINT
  5
9D3
330
9DB
100
AcDbEntity
  8
DEFPOINTS
  6
ByBlock
 62
     0
370
    15
100
AcDbPoint
 10
4.448414856907099
 20
-6.746623036113
 30
0.0
  0
LINE
  5
9D4
330
9DB
100
AcDbEntity
  8
0
  6
ByBlock
 62
     0
370
    -2
100
AcDbLine
 10
-10.95158514309
 20
-35.74662303611
 30
0.0
 11
-10.95158514309
 21
-25.66208141801
 31
0.0
  0
LINE
  5
9D5
330
9DB
100
AcDbEntity
  8
0
  6
ByBlock
 62
     0
370
    -2
100
AcDbLine
 10
-10.95158514309
 20
-26.66208141801
 30
0.0
 11
4.4484148569071
 21
-26.66208141801
 31
0.0
  0
SOLID
  5
9D6
330
9DB
100
AcDbEntity
  8
0
  6
ByBlock
 62
     0
370
    15
100
AcDbTrace
 10
-10.95158514309
 20
-26.66208141801
 30
0.0
 11
-7.95158514309
 21
-27.1620814180101
 31
0.0
 12
-7.95158514309
 22
-26.1620814180099
 32
0.0
 13
-7.95158514309
 23
-26.1620814180099
 33
0.0
  0
SOLID
  5
9D7
330
9DB
100
AcDbEntity
  8
0
  6
ByBlock
 62
     0
370
    15
100
AcDbTrace
 10
4.4484148569071
 20
-26.66208141801
 30
0.0
 11
1.4484148569071
 21
-27.1620814180101
 31
0.0
 12
1.4484148569071
 22
-26.1620814180099
 32
0.0
 13
1.4484148569071
 23
-26.1620814180099
 33
0.0
  0
LINE
  5
9D8
330
9DB
100
AcDbEntity
  8
0
  6
ByBlock
 62
     0
370
    -2
100
AcDbLine
 10
-10.95158514309
 20
-36.74662303611
 30
0.0
 11
-10.95158514309
 21
-36.74662303611
 31
0.0
  0
MTEXT
  5
9D9
330
9DB
100
AcDbEntity
  8
0
  6
ByBlock
 62
     0
100
AcDbMText
 10
-21.05077625595
 20
-24.52874841801
 30
0.0
 40
3.2
 41
0.0
 71
     5
 72
     1
  1
\A1;%%c30.8
  7
KCADDIMSTANDARD
 73
     1
 44
1.0
  0
ENDBLK
  5
CD4
330
9DB
100
AcDbEntity
  8
0
100
AcDbBlockEnd
  0
BLOCK
  5
CD5
330
9E7
100
AcDbEntity
  8
0
100
AcDbBlockBegin
  2
*D52
 70
     1
 71
     0
 10
0.0
 20
0.0
 30
0.0
  3
*D52
  1

  0
POINT
  5
9DD
330
9E7
100
AcDbEntity
  8
DEFPOINTS
  6
ByBlock
 62
     0
370
    15
100
AcDbPoint
 10
124.5734148569199
 20
53.903376963897
 30
0.0
  0
POINT
  5
9DE
330
9E7
100
AcDbEntity
  8
DEFPOINTS
  6
ByBlock
 62
     0
370
    15
100
AcDbPoint
 10
39.573414856906
 20
81.603376963897
 30
0.0
  0
LINE
  5
9DF
330
9E7
100
AcDbEntity
  8
0
  6
ByBlock
 62
     0
370
    -2
100
AcDbLine
 10
123.5734148569199
 20
53.903376963897
 30
0.0
 11
76.086726239771
 21
53.903376963897
 31
0.0
  0
LINE
  5
9E0
330
9E7
100
AcDbEntity
  8
0
  6
ByBlock
 62
     0
370
    -2
100
AcDbLine
 10
40.573414856906
 20
81.603376963897
 30
0.0
 11
78.086726239771
 21
81.603376963897
 31
0.0
  0
LINE
  5
9E1
330
9E7
100
AcDbEntity
  8
0
  6
ByBlock
 62
     0
370
    -2
100
AcDbLine
 10
77.086726239771
 20
53.903376963897
 30
0.0
 11
77.086726239771
 21
81.603376963897
 31
0.0
  0
SOLID
  5
9E2
330
9E7
100
AcDbEntity
  8
0
  6
ByBlock
 62
     0
370
    15
100
AcDbTrace
 10
77.086726239771
 20
53.903376963897
 30
0.0
 11
77.5867262397711
 21
56.903376963897
 31
0.0
 12
76.5867262397709
 22
56.903376963897
 32
0.0
 13
76.5867262397709
 23
56.903376963897
 33
0.0
  0
SOLID
  5
9E3
330
9E7
100
AcDbEntity
  8
0
  6
ByBlock
 62
     0
370
    15
100
AcDbTrace
 10
77.086726239771
 20
81.603376963897
 30
0.0
 11
77.5867262397711
 21
78.603376963897
 31
0.0
 12
76.5867262397709
 22
78.603376963897
 32
0.0
 13
76.5867262397709
 23
78.603376963897
 33
0.0
  0
LINE
  5
9E4
330
9E7
100
AcDbEntity
  8
0
  6
ByBlock
 62
     0
370
    -2
100
AcDbLine
 10
124.5734148569199
 20
53.903376963897
 30
0.0
 11
124.5734148569199
 21
53.903376963897
 31
0.0
  0
MTEXT
  5
9E5
330
9E7
100
AcDbEntity
  8
0
  6
ByBlock
 62
     0
100
AcDbMText
 10
74.152343239771
 20
41.14027518028599
 30
0.0
 40
3.2
 41
0.0
 71
     5
 72
     1
  1
\A1;%%c27.7{\H2.134400;\S+0^ -0.1;}
  7
KCADDIMSTANDARD
 11
6.123031769111886E-17
 21
1.0
 31
0.0
 73
     1
 44
1.0
  0
ENDBLK
  5
CD6
330
9E7
100
AcDbEntity
  8
0
100
AcDbBlockEnd
  0
BLOCK
  5
CD7
330
9F3
100
AcDbEntity
  8
0
100
AcDbBlockBegin
  2
*D53
 70
     1
 71
     0
 10
0.0
 20
0.0
 30
0.0
  3
*D53
  1

  0
POINT
  5
9E9
330
9F3
100
AcDbEntity
  8
DEFPOINTS
  6
ByBlock
 62
     0
370
    15
100
AcDbPoint
 10
152.66941485691
 20
64.801974870264
 30
0.0
  0
POINT
  5
9EA
330
9F3
100
AcDbEntity
  8
DEFPOINTS
  6
ByBlock
 62
     0
370
    15
100
AcDbPoint
 10
135.1434148569099
 20
53.75337696389699
 30
0.0
  0
LINE
  5
9EB
330
9F3
100
AcDbEntity
  8
0
  6
ByBlock
 62
     0
370
    -2
100
AcDbLine
 10
152.66941485691
 20
63.801974870264
 30
0.0
 11
152.66941485691
 21
34.83076482642999
 31
0.0
  0
LINE
  5
9EC
330
9F3
100
AcDbEntity
  8
0
  6
ByBlock
 62
     0
370
    -2
100
AcDbLine
 10
135.1434148569099
 20
52.75337696389699
 30
0.0
 11
135.1434148569099
 21
34.83076482642999
 31
0.0
  0
LINE
  5
9ED
330
9F3
100
AcDbEntity
  8
0
  6
ByBlock
 62
     0
370
    -2
100
AcDbLine
 10
152.66941485691
 20
35.83076482642999
 30
0.0
 11
135.1434148569099
 21
35.83076482642999
 31
0.0
  0
SOLID
  5
9EE
330
9F3
100
AcDbEntity
  8
0
  6
ByBlock
 62
     0
370
    15
100
AcDbTrace
 10
152.66941485691
 20
35.83076482642999
 30
0.0
 11
149.66941485691
 21
36.33076482643009
 31
0.0
 12
149.66941485691
 22
35.33076482642989
 32
0.0
 13
149.66941485691
 23
35.33076482642989
 33
0.0
  0
SOLID
  5
9EF
330
9F3
100
AcDbEntity
  8
0
  6
ByBlock
 62
     0
370
    15
100
AcDbTrace
 10
135.1434148569099
 20
35.83076482642999
 30
0.0
 11
138.1434148569099
 21
36.33076482643009
 31
0.0
 12
138.1434148569099
 22
35.33076482642989
 32
0.0
 13
138.1434148569099
 23
35.33076482642989
 33
0.0
  0
LINE
  5
9F0
330
9F3
100
AcDbEntity
  8
0
  6
ByBlock
 62
     0
370
    -2
100
AcDbLine
 10
152.66941485691
 20
64.801974870264
 30
0.0
 11
152.66941485691
 21
64.801974870264
 31
0.0
  0
MTEXT
  5
9F1
330
9F3
100
AcDbEntity
  8
0
  6
ByBlock
 62
     0
100
AcDbMText
 10
168.3720602069599
 20
37.96409782642999
 30
0.0
 40
3.2
 41
0.0
 71
     5
 72
     1
  1
\A1;F.B.=17.526
  7
KCADDIMSTANDARD
 73
     1
 44
1.0
  0
ENDBLK
  5
CD8
330
9F3
100
AcDbEntity
  8
0
100
AcDbBlockEnd
  0
BLOCK
  5
CD9
330
9FF
100
AcDbEntity
  8
0
100
AcDbBlockBegin
  2
*D54
 70
     1
 71
     0
 10
0.0
 20
0.0
 30
0.0
  3
*D54
  1

  0
POINT
  5
9F5
330
9FF
100
AcDbEntity
  8
DEFPOINTS
  6
ByBlock
 62
     0
370
    15
100
AcDbPoint
 10
-105.1267464334999
 20
67.753376963898
 30
0.0
  0
POINT
  5
9F6
330
9FF
100
AcDbEntity
  8
DEFPOINTS
  6
ByBlock
 62
     0
370
    15
100
AcDbPoint
 10
4.448414856907
 20
67.753376963897
 30
0.0
  0
LINE
  5
9F7
330
9FF
100
AcDbEntity
  8
0
  6
ByBlock
 62
     0
370
    -2
100
AcDbLine
 10
-105.1267464334999
 20
67.753376963898
 30
0.0
 11
-105.1267464334999
 21
108.2154255319099
 31
0.0
  0
LINE
  5
9F8
330
9FF
100
AcDbEntity
  8
0
  6
ByBlock
 62
     0
370
    -2
100
AcDbLine
 10
4.448414856906993
 20
67.753376963897
 30
0.0
 11
4.448414856906993
 21
108.2154255319099
 31
0.0
  0
LINE
  5
9F9
330
9FF
100
AcDbEntity
  8
0
  6
ByBlock
 62
     0
370
    -2
100
AcDbLine
 10
-105.1267464334999
 20
108.2154255319099
 30
0.0
 11
4.448414856906993
 21
108.2154255319099
 31
0.0
  0
SOLID
  5
9FA
330
9FF
100
AcDbEntity
  8
0
  6
ByBlock
 62
     0
370
    15
100
AcDbTrace
 10
-105.1267464334999
 20
108.2154255319099
 30
0.0
 11
-102.1267464334999
 21
107.7154255319098
 31
0.0
 12
-102.1267464334999
 22
108.71542553191
 32
0.0
 13
-102.1267464334999
 23
108.71542553191
 33
0.0
  0
SOLID
  5
9FB
330
9FF
100
AcDbEntity
  8
0
  6
ByBlock
 62
     0
370
    15
100
AcDbTrace
 10
4.448414856906993
 20
108.2154255319099
 30
0.0
 11
1.448414856906993
 21
107.7154255319098
 31
0.0
 12
1.448414856906993
 22
108.71542553191
 32
0.0
 13
1.448414856906993
 23
108.71542553191
 33
0.0
  0
LINE
  5
9FC
330
9FF
100
AcDbEntity
  8
0
  6
ByBlock
 62
     0
370
    -2
100
AcDbLine
 10
-105.1267464334999
 20
67.753376963898
 30
0.0
 11
-105.1267464334999
 21
67.753376963898
 31
0.0
  0
MTEXT
  5
9FD
330
9FF
100
AcDbEntity
  8
0
  6
ByBlock
 62
     0
100
AcDbMText
 10
-50.33916578829
 20
110.3487585319099
 30
0.0
 40
3.2
 41
0.0
 71
     5
 72
     1
  1
110
  7
KCADDIMSTANDARD
 73
     1
 44
1.0
  0
ENDBLK
  5
CDA
330
9FF
100
AcDbEntity
  8
0
100
AcDbBlockEnd
  0
BLOCK
  5
CDB
330
A8D
100
AcDbEntity
  8
0
100
AcDbBlockBegin
  2
*D55
 70
     1
 71
     0
 10
0.0
 20
0.0
 30
0.0
  3
*D55
  1

  0
POINT
  5
A83
330
A8D
100
AcDbEntity
  8
DEFPOINTS
  6
ByBlock
 62
     0
370
    15
100
AcDbPoint
 10
134.87341485691
 20
81.753376963894
 30
0.0
  0
POINT
  5
A84
330
A8D
100
AcDbEntity
  8
DEFPOINTS
  6
ByBlock
 62
     0
370
    15
100
AcDbPoint
 10
-105.1267464334999
 20
81.753376963895
 30
0.0
  0
LINE
  5
A85
330
A8D
100
AcDbEntity
  8
0
  6
ByBlock
 62
     0
370
    -2
100
AcDbLine
 10
134.87341485691
 20
82.153376963894
 30
0.0
 11
134.87341485691
 21
116.4525860226299
 31
0.0
  0
LINE
  5
A86
330
A8D
100
AcDbEntity
  8
0
  6
ByBlock
 62
     0
370
    -2
100
AcDbLine
 10
-105.1267464334999
 20
82.153376963895
 30
0.0
 11
-105.1267464334999
 21
116.4525860226299
 31
0.0
  0
LINE
  5
A87
330
A8D
100
AcDbEntity
  8
0
  6
ByBlock
 62
     0
370
    -2
100
AcDbLine
 10
134.87341485691
 20
116.0525860226299
 30
0.0
 11
-105.1267464334999
 21
116.0525860226299
 31
0.0
  0
SOLID
  5
A88
330
A8D
100
AcDbEntity
  8
0
  6
ByBlock
 62
     0
370
    15
100
AcDbTrace
 10
134.87341485691
 20
116.0525860226299
 30
0.0
 11
131.87341485691
 21
116.55258602263
 31
0.0
 12
131.87341485691
 22
115.5525860226298
 32
0.0
 13
131.87341485691
 23
115.5525860226298
 33
0.0
  0
SOLID
  5
A89
330
A8D
100
AcDbEntity
  8
0
  6
ByBlock
 62
     0
370
    15
100
AcDbTrace
 10
-105.1267464334999
 20
116.0525860226299
 30
0.0
 11
-102.1267464334999
 21
116.55258602263
 31
0.0
 12
-102.1267464334999
 22
115.5525860226298
 32
0.0
 13
-102.1267464334999
 23
115.5525860226298
 33
0.0
  0
LINE
  5
A8A
330
A8D
100
AcDbEntity
  8
0
  6
ByBlock
 62
     0
370
    -2
100
AcDbLine
 10
134.87341485691
 20
81.753376963894
 30
0.0
 11
134.87341485691
 21
81.753376963894
 31
0.0
  0
MTEXT
  5
A8B
330
A8D
100
AcDbEntity
  8
0
  6
ByBlock
 62
     0
100
AcDbMText
 10
14.873334211722
 20
118.18588602263
 30
0.0
 40
3.2
 41
0.0
 71
     5
 72
     1
  1
\A1;239.7
  7
KCADDIMSTANDARD
 73
     1
 44
1.0
  0
ENDBLK
  5
CDC
330
A8D
100
AcDbEntity
  8
0
100
AcDbBlockEnd
  0
BLOCK
  5
CDD
330
A99
100
AcDbEntity
  8
0
100
AcDbBlockBegin
  2
*D56
 70
     1
 71
     0
 10
0.0
 20
0.0
 30
0.0
  3
*D56
  1

  0
POINT
  5
A8F
330
A99
100
AcDbEntity
  8
DEFPOINTS
  6
ByBlock
 62
     0
370
    15
100
AcDbPoint
 10
124.87341485691
 20
81.753376963894
 30
0.0
  0
POINT
  5
A90
330
A99
100
AcDbEntity
  8
DEFPOINTS
  6
ByBlock
 62
     0
370
    15
100
AcDbPoint
 10
134.87341485691
 20
81.753376963894
 30
0.0
  0
LINE
  5
A91
330
A99
100
AcDbEntity
  8
0
  6
ByBlock
 62
     0
370
    -2
100
AcDbLine
 10
124.87341485691
 20
82.153376963894
 30
0.0
 11
124.87341485691
 21
98.425775110122
 31
0.0
  0
LINE
  5
A92
330
A99
100
AcDbEntity
  8
0
  6
ByBlock
 62
     0
370
    -2
100
AcDbLine
 10
134.87341485691
 20
82.153376963894
 30
0.0
 11
134.87341485691
 21
98.425775110122
 31
0.0
  0
LINE
  5
A93
330
A99
100
AcDbEntity
  8
0
  6
ByBlock
 62
     0
370
    -2
100
AcDbLine
 10
124.87341485691
 20
98.025775110122
 30
0.0
 11
134.87341485691
 21
98.025775110122
 31
0.0
  0
SOLID
  5
A94
330
A99
100
AcDbEntity
  8
0
  6
ByBlock
 62
     0
370
    15
100
AcDbTrace
 10
124.87341485691
 20
98.025775110122
 30
0.0
 11
127.87341485691
 21
97.5257751101219
 31
0.0
 12
127.87341485691
 22
98.5257751101221
 32
0.0
 13
127.87341485691
 23
98.5257751101221
 33
0.0
  0
SOLID
  5
A95
330
A99
100
AcDbEntity
  8
0
  6
ByBlock
 62
     0
370
    15
100
AcDbTrace
 10
134.87341485691
 20
98.025775110122
 30
0.0
 11
131.87341485691
 21
97.5257751101219
 31
0.0
 12
131.87341485691
 22
98.5257751101221
 32
0.0
 13
131.87341485691
 23
98.5257751101221
 33
0.0
  0
LINE
  5
A96
330
A99
100
AcDbEntity
  8
0
  6
ByBlock
 62
     0
370
    -2
100
AcDbLine
 10
124.87341485691
 20
81.753376963894
 30
0.0
 11
124.87341485691
 21
81.753376963894
 31
0.0
  0
MTEXT
  5
A97
330
A99
100
AcDbEntity
  8
0
  6
ByBlock
 62
     0
100
AcDbMText
 10
129.9009268972876
 20
101.3582552863942
 30
0.0
 40
3.2
 41
0.0
 71
     5
 72
     1
  1
10
  7
KCADDIMSTANDARD
 73
     1
 44
1.0
  0
ENDBLK
  5
CDE
330
A99
100
AcDbEntity
  8
0
100
AcDbBlockEnd
  0
BLOCK
  5
CDF
330
AA5
100
AcDbEntity
  8
0
100
AcDbBlockBegin
  2
*D57
 70
     1
 71
     0
 10
0.0
 20
0.0
 30
0.0
  3
*D57
  1

  0
POINT
  5
A9B
330
AA5
100
AcDbEntity
  8
DEFPOINTS
  6
ByBlock
 62
     0
370
    15
100
AcDbPoint
 10
133.87341485691
 20
82.75337696389398
 30
0.0
  0
POINT
  5
A9C
330
AA5
100
AcDbEntity
  8
DEFPOINTS
  6
ByBlock
 62
     0
370
    15
100
AcDbPoint
 10
133.87341485691
 20
52.75337696388699
 30
0.0
  0
LINE
  5
A9D
330
AA5
100
AcDbEntity
  8
0
  6
ByBlock
 62
     0
370
    -2
100
AcDbLine
 10
134.27341485691
 20
82.75337696389398
 30
0.0
 11
166.26400751919
 21
82.75337696389398
 31
0.0
  0
LINE
  5
A9E
330
AA5
100
AcDbEntity
  8
0
  6
ByBlock
 62
     0
370
    -2
100
AcDbLine
 10
134.27341485691
 20
52.75337696388699
 30
0.0
 11
166.26400751919
 21
52.75337696388699
 31
0.0
  0
LINE
  5
A9F
330
AA5
100
AcDbEntity
  8
0
  6
ByBlock
 62
     0
370
    -2
100
AcDbLine
 10
165.86400751919
 20
82.75337696389398
 30
0.0
 11
165.86400751919
 21
52.75337696388699
 31
0.0
  0
SOLID
  5
AA0
330
AA5
100
AcDbEntity
  8
0
  6
ByBlock
 62
     0
370
    15
100
AcDbTrace
 10
165.86400751919
 20
82.75337696389398
 30
0.0
 11
165.3640075191899
 21
79.75337696389398
 31
0.0
 12
166.3640075191901
 22
79.75337696389398
 32
0.0
 13
166.3640075191901
 23
79.75337696389398
 33
0.0
  0
SOLID
  5
AA1
330
AA5
100
AcDbEntity
  8
0
  6
ByBlock
 62
     0
370
    15
100
AcDbTrace
 10
165.86400751919
 20
52.75337696388699
 30
0.0
 11
165.3640075191899
 21
55.75337696388699
 31
0.0
 12
166.3640075191901
 22
55.75337696388699
 32
0.0
 13
166.3640075191901
 23
55.75337696388699
 33
0.0
  0
LINE
  5
AA2
330
AA5
100
AcDbEntity
  8
0
  6
ByBlock
 62
     0
370
    -2
100
AcDbLine
 10
133.87341485691
 20
82.75337696389398
 30
0.0
 11
133.87341485691
 21
82.75337696389398
 31
0.0
  0
MTEXT
  5
AA3
330
AA5
100
AcDbEntity
  8
0
  6
ByBlock
 62
     0
100
AcDbMText
 10
163.73070751919
 20
67.753376963897
 30
0.0
 40
3.2
 41
0.0
 71
     5
 72
     1
  1
\A1;%%c30
  7
KCADDIMSTANDARD
 11
6.123031769111886E-17
 21
1.0
 31
0.0
 73
     1
 44
1.0
  0
ENDBLK
  5
CE0
330
AA5
100
AcDbEntity
  8
0
100
AcDbBlockEnd
  0
BLOCK
  5
CE1
330
AB1
100
AcDbEntity
  8
0
100
AcDbBlockBegin
  2
*D58
 70
     1
 71
     0
 10
0.0
 20
0.0
 30
0.0
  3
*D58
  1

  0
POINT
  5
AA7
330
AB1
100
AcDbEntity
  8
DEFPOINTS
  6
ByBlock
 62
     0
370
    15
100
AcDbPoint
 10
-83.12674643341
 20
82.75337696389398
 30
0.0
  0
POINT
  5
AA8
330
AB1
100
AcDbEntity
  8
DEFPOINTS
  6
ByBlock
 62
     0
370
    15
100
AcDbPoint
 10
-37.07174643341
 20
84.503376963895
 30
0.0
  0
LINE
  5
AA9
330
AB1
100
AcDbEntity
  8
0
  6
ByBlock
 62
     0
370
    -2
100
AcDbLine
 10
-83.12674643341
 20
83.15337696389399
 30
0.0
 11
-83.12674643341
 21
100.278651603787
 31
0.0
  0
LINE
  5
AAA
330
AB1
100
AcDbEntity
  8
0
  6
ByBlock
 62
     0
370
    -2
100
AcDbLine
 10
-37.07174643341
 20
84.903376963895
 30
0.0
 11
-37.07174643341
 21
100.278651603787
 31
0.0
  0
LINE
  5
AAB
330
AB1
100
AcDbEntity
  8
0
  6
ByBlock
 62
     0
370
    -2
100
AcDbLine
 10
-83.12674643341
 20
99.878651603787
 30
0.0
 11
-37.07174643341
 21
99.878651603787
 31
0.0
  0
SOLID
  5
AAC
330
AB1
100
AcDbEntity
  8
0
  6
ByBlock
 62
     0
370
    15
100
AcDbTrace
 10
-83.12674643341
 20
99.878651603787
 30
0.0
 11
-80.12674643341
 21
99.3786516037869
 31
0.0
 12
-80.12674643341
 22
100.3786516037871
 32
0.0
 13
-80.12674643341
 23
100.3786516037871
 33
0.0
  0
SOLID
  5
AAD
330
AB1
100
AcDbEntity
  8
0
  6
ByBlock
 62
     0
370
    15
100
AcDbTrace
 10
-37.07174643341
 20
99.878651603787
 30
0.0
 11
-40.07174643341
 21
99.3786516037869
 31
0.0
 12
-40.07174643341
 22
100.3786516037871
 32
0.0
 13
-40.07174643341
 23
100.3786516037871
 33
0.0
  0
LINE
  5
AAE
330
AB1
100
AcDbEntity
  8
0
  6
ByBlock
 62
     0
370
    -2
100
AcDbLine
 10
-83.12674643341
 20
82.75337696389398
 30
0.0
 11
-83.12674643341
 21
82.75337696389398
 31
0.0
  0
MTEXT
  5
AAF
330
AB1
100
AcDbEntity
  8
0
  6
ByBlock
 62
     0
100
AcDbMText
 10
-60.09924643341
 20
102.011951603787
 30
0.0
 40
3.2
 41
0.0
 71
     5
 72
     1
  1
\A1;45
  7
KCADDIMSTANDARD
 73
     1
 44
1.0
  0
ENDBLK
  5
CE2
330
AB1
100
AcDbEntity
  8
0
100
AcDbBlockEnd
  0
BLOCK
  5
CE3
330
ABD
100
AcDbEntity
  8
0
100
AcDbBlockBegin
  2
*D59
 70
     1
 71
     0
 10
0.0
 20
0.0
 30
0.0
  3
*D59
  1

  0
POINT
  5
AB3
330
ABD
100
AcDbEntity
  8
DEFPOINTS
  6
ByBlock
 62
     0
370
    15
100
AcDbPoint
 10
-83.12674643341
 20
82.75337696389398
 30
0.0
  0
POINT
  5
AB4
330
ABD
100
AcDbEntity
  8
DEFPOINTS
  6
ByBlock
 62
     0
370
    15
100
AcDbPoint
 10
-105.1267464334999
 20
81.753376963895
 30
0.0
  0
LINE
  5
AB5
330
ABD
100
AcDbEntity
  8
0
  6
ByBlock
 62
     0
370
    -2
100
AcDbLine
 10
-83.12674643341
 20
83.15337696389399
 30
0.0
 11
-83.12674643341
 21
100.278651603787
 31
0.0
  0
LINE
  5
AB6
330
ABD
100
AcDbEntity
  8
0
  6
ByBlock
 62
     0
370
    -2
100
AcDbLine
 10
-105.1267464334999
 20
82.153376963895
 30
0.0
 11
-105.1267464334999
 21
100.278651603787
 31
0.0
  0
LINE
  5
AB7
330
ABD
100
AcDbEntity
  8
0
  6
ByBlock
 62
     0
370
    -2
100
AcDbLine
 10
-83.12674643341
 20
99.878651603787
 30
0.0
 11
-105.1267464334999
 21
99.878651603787
 31
0.0
  0
SOLID
  5
AB8
330
ABD
100
AcDbEntity
  8
0
  6
ByBlock
 62
     0
370
    15
100
AcDbTrace
 10
-83.12674643341
 20
99.878651603787
 30
0.0
 11
-86.12674643341
 21
100.3786516037871
 31
0.0
 12
-86.12674643341
 22
99.3786516037869
 32
0.0
 13
-86.12674643341
 23
99.3786516037869
 33
0.0
  0
SOLID
  5
AB9
330
ABD
100
AcDbEntity
  8
0
  6
ByBlock
 62
     0
370
    15
100
AcDbTrace
 10
-105.1267464334999
 20
99.878651603787
 30
0.0
 11
-102.1267464334999
 21
100.3786516037871
 31
0.0
 12
-102.1267464334999
 22
99.3786516037869
 32
0.0
 13
-102.1267464334999
 23
99.3786516037869
 33
0.0
  0
LINE
  5
ABA
330
ABD
100
AcDbEntity
  8
0
  6
ByBlock
 62
     0
370
    -2
100
AcDbLine
 10
-83.12674643341
 20
82.75337696389398
 30
0.0
 11
-83.12674643341
 21
82.75337696389398
 31
0.0
  0
MTEXT
  5
ABB
330
ABD
100
AcDbEntity
  8
0
  6
ByBlock
 62
     0
100
AcDbMText
 10
-94.12674643345999
 20
102.011951603787
 30
0.0
 40
3.2
 41
0.0
 71
     5
 72
     1
  1
22
  7
KCADDIMSTANDARD
 73
     1
 44
1.0
  0
ENDBLK
  5
CE4
330
ABD
100
AcDbEntity
  8
0
100
AcDbBlockEnd
  0
BLOCK
  5
CE5
330
AC9
100
AcDbEntity
  8
0
100
AcDbBlockBegin
  2
*D60
 70
     1
 71
     0
 10
0.0
 20
0.0
 30
0.0
  3
*D60
  1

  0
POINT
  5
ABF
330
AC9
100
AcDbEntity
  8
DEFPOINTS
  6
ByBlock
 62
     0
370
    15
100
AcDbPoint
 10
-105.1267464334999
 20
53.75337696389699
 30
0.0
  0
POINT
  5
AC0
330
AC9
100
AcDbEntity
  8
DEFPOINTS
  6
ByBlock
 62
     0
370
    15
100
AcDbPoint
 10
-105.1267464334999
 20
81.753376963895
 30
0.0
  0
LINE
  5
AC1
330
AC9
100
AcDbEntity
  8
0
  6
ByBlock
 62
     0
370
    -2
100
AcDbLine
 10
-105.5267464334999
 20
53.75337696389699
 30
0.0
 11
-126.3001034873999
 21
53.75337696389699
 31
0.0
  0
LINE
  5
AC2
330
AC9
100
AcDbEntity
  8
0
  6
ByBlock
 62
     0
370
    -2
100
AcDbLine
 10
-105.5267464334999
 20
81.753376963895
 30
0.0
 11
-126.3001034873999
 21
81.753376963895
 31
0.0
  0
LINE
  5
AC3
330
AC9
100
AcDbEntity
  8
0
  6
ByBlock
 62
     0
370
    -2
100
AcDbLine
 10
-125.9001034873999
 20
53.75337696389699
 30
0.0
 11
-125.9001034873999
 21
81.753376963895
 31
0.0
  0
SOLID
  5
AC4
330
AC9
100
AcDbEntity
  8
0
  6
ByBlock
 62
     0
370
    15
100
AcDbTrace
 10
-125.9001034873999
 20
53.75337696389699
 30
0.0
 11
-125.4001034873998
 21
56.75337696389699
 31
0.0
 12
-126.4001034874
 22
56.75337696389699
 32
0.0
 13
-126.4001034874
 23
56.75337696389699
 33
0.0
  0
SOLID
  5
AC5
330
AC9
100
AcDbEntity
  8
0
  6
ByBlock
 62
     0
370
    15
100
AcDbTrace
 10
-125.9001034873999
 20
81.753376963895
 30
0.0
 11
-125.4001034873998
 21
78.753376963895
 31
0.0
 12
-126.4001034874
 22
78.753376963895
 32
0.0
 13
-126.4001034874
 23
78.753376963895
 33
0.0
  0
LINE
  5
AC6
330
AC9
100
AcDbEntity
  8
0
  6
ByBlock
 62
     0
370
    -2
100
AcDbLine
 10
-105.1267464334999
 20
53.75337696389699
 30
0.0
 11
-105.1267464334999
 21
53.75337696389699
 31
0.0
  0
MTEXT
  5
AC7
330
AC9
100
AcDbEntity
  8
0
  6
ByBlock
 62
     0
100
AcDbMText
 10
-128.0334034873999
 20
68.781326450277
 30
0.0
 40
3.2
 41
0.0
 71
     5
 72
     1
  1
\A1;%%c28
  7
KCADDIMSTANDARD
 11
6.123031769111886E-17
 21
1.0
 31
0.0
 73
     1
 44
1.0
  0
ENDBLK
  5
CE6
330
AC9
100
AcDbEntity
  8
0
100
AcDbBlockEnd
  0
ENDSEC
  0
SECTION
  2
ENTITIES
  0
LINE
  5
2F0
330
1F
100
AcDbEntity
  8
99
  6
Continuous
 62
     7
370
    30
100
AcDbLine
 10
190.2999998494099
 20
138.5
 30
0.0
 11
-186.7000001505999
 21
138.5
 31
0.0
1001
Sigma
1000

  0
LINE
  5
2F2
330
1F
100
AcDbEntity
  8
99
  6
Continuous
 62
     7
370
    30
100
AcDbLine
 10
-186.7000001505999
 20
138.5
 30
0.0
 11
-186.7000001505999
 21
-133.4999999999999
 31
0.0
1001
Sigma
1000

  0
LINE
  5
2F4
330
1F
100
AcDbEntity
  8
99
  6
Continuous
 62
     7
370
    30
100
AcDbLine
 10
190.2999998494099
 20
138.5
 30
0.0
 11
190.2999998494099
 21
-133.4999999999999
 31
0.0
1001
Sigma
1000

  0
LINE
  5
2F6
330
1F
100
AcDbEntity
  8
99
  6
Continuous
 62
     7
370
    15
100
AcDbLine
 10
-188.7000001506
 20
-7.4319419238
 30
0.0
 11
-186.7000001505999
 21
-7.4319419238
 31
0.0
1001
Sigma
1000

  0
LINE
  5
2F8
330
1F
100
AcDbEntity
  8
99
  6
Continuous
 62
     7
370
    15
100
AcDbLine
 10
191.79999984941
 20
-7.4319419238
 30
0.0
 11
190.2999998494099
 21
-7.4319419238
 31
0.0
1001
Sigma
1000

  0
LINE
  5
2FA
330
1F
100
AcDbEntity
  8
99
  6
Continuous
 62
     7
370
    30
100
AcDbLine
 10
190.2999998494099
 20
-133.4999999999999
 30
0.0
 11
-186.7000001505999
 21
-133.4999999999999
 31
0.0
1001
Sigma
1000

  0
LINE
  5
2FC
330
1F
100
AcDbEntity
  8
99
  6
Continuous
 62
     7
370
    30
100
AcDbLine
 10
2.2999998494051
 20
-86.0
 30
0.0
 11
190.2999998494099
 21
-86.0
 31
0.0
1001
Sigma
1000

  0
LINE
  5
2FE
330
1F
100
AcDbEntity
  8
99
  6
Continuous
 62
     7
370
    30
100
AcDbLine
 10
131.29999984941
 20
-133.4999999999999
 30
0.0
 11
131.29999984941
 21
-86.0
 31
0.0
1001
Sigma
1000

  0
LINE
  5
300
330
1F
100
AcDbEntity
  8
99
  6
Continuous
 62
     7
370
    30
100
AcDbLine
 10
71.299999849405
 20
-113.5
 30
0.0
 11
190.2999998494099
 21
-113.5
 31
0.0
1001
Sigma
1000

  0
LINE
  5
302
330
1F
100
AcDbEntity
  8
99
  6
Continuous
 62
     7
370
    30
100
AcDbLine
 10
116.2999998494099
 20
-133.4999999999999
 30
0.0
 11
116.2999998494099
 21
-113.5
 31
0.0
1001
Sigma
1000

  0
LINE
  5
304
330
1F
100
AcDbEntity
  8
99
  6
Continuous
 62
     7
370
    30
100
AcDbLine
 10
101.29999984941
 20
-133.4999999999999
 30
0.0
 11
101.29999984941
 21
-113.5
 31
0.0
1001
Sigma
1000

  0
LINE
  5
306
330
1F
100
AcDbEntity
  8
99
  6
Continuous
 62
     7
370
    30
100
AcDbLine
 10
86.299999849405
 20
-133.4999999999999
 30
0.0
 11
86.299999849405
 21
-86.0
 31
0.0
1001
Sigma
1000

  0
LINE
  5
308
330
1F
100
AcDbEntity
  8
99
  6
Continuous
 62
     7
370
    30
100
AcDbLine
 10
71.299999849405
 20
-133.4999999999999
 30
0.0
 11
71.299999849405
 21
-86.0
 31
0.0
1001
Sigma
1000

  0
LINE
  5
30A
330
1F
100
AcDbEntity
  8
99
  6
Continuous
 62
     7
370
    15
100
AcDbLine
 10
2.2999998494051
 20
-128.4999999999999
 30
0.0
 11
71.299999849405
 21
-128.4999999999999
 31
0.0
1001
Sigma
1000

  0
LINE
  5
30C
330
1F
100
AcDbEntity
  8
99
  6
Continuous
 62
     7
370
    15
100
AcDbLine
 10
2.2999998494051
 20
-123.5
 30
0.0
 11
71.299999849405
 21
-123.5
 31
0.0
1001
Sigma
1000

  0
LINE
  5
30E
330
1F
100
AcDbEntity
  8
99
  6
Continuous
 62
     7
370
    15
100
AcDbLine
 10
2.2999998494051
 20
-118.5
 30
0.0
 11
131.29999984941
 21
-118.5
 31
0.0
1001
Sigma
1000

  0
LINE
  5
310
330
1F
100
AcDbEntity
  8
99
  6
Continuous
 62
     7
370
    15
100
AcDbLine
 10
2.2999998494051
 20
-113.5
 30
0.0
 11
71.299999849405
 21
-113.5
 31
0.0
1001
Sigma
1000

  0
LINE
  5
312
330
1F
100
AcDbEntity
  8
99
  6
Continuous
 62
     7
370
    15
100
AcDbLine
 10
2.2999998494051
 20
-108.4999999999999
 30
0.0
 11
71.299999849405
 21
-108.4999999999999
 31
0.0
1001
Sigma
1000

  0
LINE
  5
314
330
1F
100
AcDbEntity
  8
99
  6
Continuous
 62
     7
370
    30
100
AcDbLine
 10
86.299999849405
 20
-106.0
 30
0.0
 11
190.2999998494099
 21
-106.0
 31
0.0
1001
Sigma
1000

  0
LINE
  5
316
330
1F
100
AcDbEntity
  8
99
  6
Continuous
 62
     7
370
    15
100
AcDbLine
 10
23.299999849405
 20
-133.4999999999999
 30
0.0
 11
23.299999849405
 21
-98.50000000000001
 31
0.0
1001
Sigma
1000

  0
LINE
  5
318
330
1F
100
AcDbEntity
  8
99
  6
Continuous
 62
     7
370
    15
100
AcDbLine
 10
34.29999984940499
 20
-133.4999999999999
 30
0.0
 11
34.29999984940499
 21
-98.50000000000001
 31
0.0
1001
Sigma
1000

  0
LINE
  5
31A
330
1F
100
AcDbEntity
  8
99
  6
Continuous
 62
     7
370
    15
100
AcDbLine
 10
136.2999998494099
 20
-133.4999999999999
 30
0.0
 11
136.2999998494099
 21
-98.50000000000001
 31
0.0
1001
Sigma
1000

  0
LINE
  5
31C
330
1F
100
AcDbEntity
  8
99
  6
Continuous
 62
     7
370
    30
100
AcDbLine
 10
131.29999984941
 20
-123.5
 30
0.0
 11
190.2999998494099
 21
-123.5
 31
0.0
1001
Sigma
1000

  0
TEXT
  5
31E
330
1F
100
AcDbEntity
  8
99
  6
Continuous
 62
     7
370
    30
100
AcDbText
 10
132.0299141109199
 20
-116.6144481624
 30
0.0
 40
2.7
  1
製
 41
1.266666666666666
  7
KCADTEXTSTANDARD
100
AcDbText
1001
Sigma
1000

  0
TEXT
  5
320
330
1F
100
AcDbEntity
  8
99
  6
Continuous
 62
     7
370
    30
100
AcDbText
 10
85.52499984940499
 20
-104.275
 30
0.0
 40
4.049999999999999
  1
 三角法
 41
0.7916666674531168
  7
KCADTEXTSTANDARD
100
AcDbText
1001
Sigma
1000

  0
TEXT
  5
322
330
1F
100
AcDbEntity
  8
99
  6
Continuous
 62
     7
370
    30
100
AcDbText
 10
132.0299141109199
 20
-119.7144481624
 30
0.0
 40
2.7
  1
品
 41
1.266666666666666
  7
KCADTEXTSTANDARD
100
AcDbText
1001
Sigma
1000

  0
LINE
  5
324
330
1F
100
AcDbEntity
  8
99
  6
Continuous
 62
     7
370
    15
100
AcDbLine
 10
6.4321940021151
 20
-127.7995271455
 30
0.0
 11
3.232194002115099
 21
-127.7995271455
 31
0.0
1001
Sigma
1000

  0
TEXT
  5
326
330
1F
100
AcDbEntity
  8
99
  6
Continuous
 62
     7
370
    30
100
AcDbText
 10
132.0299141109199
 20
-122.8144481623999
 30
0.0
 40
2.7
  1
名
 41
1.266666666666666
  7
KCADTEXTSTANDARD
100
AcDbText
1001
Sigma
1000

  0
TEXT
  5
328
330
1F
100
AcDbEntity
  8
99
  6
Continuous
 62
     7
370
    30
100
AcDbText
 10
71.147868066455
 20
-117.6989337568
 30
0.0
 40
3.6
  1
 設計
 41
1.029166666666666
  7
KCADTEXTSTANDARD
100
AcDbText
1001
Sigma
1000

  0
TEXT
  5
32A
330
1F
100
AcDbEntity
  8
99
  6
Continuous
 62
     7
370
    30
100
AcDbText
 10
6.8072887715101
 20
-132.6966445597
 30
0.0
 40
3.6
  1
 年月日
 41
0.90546875
  7
KCADTEXTSTANDARD
100
AcDbText
1001
Sigma
1000

  0
TEXT
  5
32C
330
1F
100
AcDbEntity
  8
99
  6
Continuous
 62
     7
370
    30
100
AcDbText
 10
3.0039060994051
 20
-132.5302445628
 30
0.0
 40
3.6
  1
符号
 41
0.4987500003539026
  7
KCADTEXTSTANDARD
100
AcDbText
1001
Sigma
1000

  0
LINE
  5
32E
330
1F
100
AcDbEntity
  8
99
  6
Continuous
 62
     7
370
    15
100
AcDbLine
 10
6.4321940021151
 20
-107.7995271455
 30
0.0
 11
3.232194002115099
 21
-107.7995271455
 31
0.0
1001
Sigma
1000

  0
LINE
  5
330
330
1F
100
AcDbEntity
  8
99
  6
Continuous
 62
     7
370
    15
100
AcDbLine
 10
4.8321940021151
 20
-104.3354255302999
 30
0.0
 11
6.4321940021151
 21
-107.7995271455
 31
0.0
1001
Sigma
1000

  0
TEXT
  5
332
330
1F
100
AcDbEntity
  8
99
  6
Continuous
 62
     7
370
    15
100
AcDbText
 10
4.434103386842578
 20
-107.2132222252728
 30
0.0
 40
2.082815953445434
  1
5
 41
0.577433628318584
  7
KCADTEXTSTANDARD
100
AcDbText
1001
Sigma
1000

  0
LINE
  5
334
330
1F
100
AcDbEntity
  8
99
  6
Continuous
 62
     7
370
    15
100
AcDbLine
 10
3.232194002115099
 20
-107.7995271455
 30
0.0
 11
4.8321940021151
 21
-104.3354255302999
 31
0.0
1001
Sigma
1000

  0
LINE
  5
336
330
1F
100
AcDbEntity
  8
99
  6
Continuous
 62
     7
370
    15
100
AcDbLine
 10
6.4321940021151
 20
-112.7995271454999
 30
0.0
 11
3.232194002115099
 21
-112.7995271454999
 31
0.0
1001
Sigma
1000

  0
LINE
  5
338
330
1F
100
AcDbEntity
  8
99
  6
Continuous
 62
     7
370
    15
100
AcDbLine
 10
4.8321940021151
 20
-109.3354255303
 30
0.0
 11
6.4321940021151
 21
-112.7995271454999
 31
0.0
1001
Sigma
1000

  0
TEXT
  5
33A
330
1F
100
AcDbEntity
  8
99
  6
Continuous
 62
     7
370
    15
100
AcDbText
 10
4.434103386842578
 20
-112.2132222252728
 30
0.0
 40
2.082815953445434
  1
4
 41
0.577433628318584
  7
KCADTEXTSTANDARD
100
AcDbText
1001
Sigma
1000

  0
LINE
  5
33C
330
1F
100
AcDbEntity
  8
99
  6
Continuous
 62
     7
370
    15
100
AcDbLine
 10
3.232194002115099
 20
-112.7995271454999
 30
0.0
 11
4.8321940021151
 21
-109.3354255303
 31
0.0
1001
Sigma
1000

  0
LINE
  5
33E
330
1F
100
AcDbEntity
  8
99
  6
Continuous
 62
     7
370
    15
100
AcDbLine
 10
6.4321940021151
 20
-117.7995271454999
 30
0.0
 11
3.232194002115099
 21
-117.7995271454999
 31
0.0
1001
Sigma
1000

  0
LINE
  5
340
330
1F
100
AcDbEntity
  8
99
  6
Continuous
 62
     7
370
    15
100
AcDbLine
 10
4.8321940021151
 20
-114.3354255303
 30
0.0
 11
6.4321940021151
 21
-117.7995271454999
 31
0.0
1001
Sigma
1000

  0
TEXT
  5
342
330
1F
100
AcDbEntity
  8
99
  6
Continuous
 62
     7
370
    15
100
AcDbText
 10
4.434103386842578
 20
-117.2132222252728
 30
0.0
 40
2.082815953445434
  1
3
 41
0.577433628318584
  7
KCADTEXTSTANDARD
100
AcDbText
1001
Sigma
1000

  0
LINE
  5
344
330
1F
100
AcDbEntity
  8
99
  6
Continuous
 62
     7
370
    15
100
AcDbLine
 10
4.8321940021151
 20
-124.3354255302999
 30
0.0
 11
6.4321940021151
 21
-127.7995271455
 31
0.0
1001
Sigma
1000

  0
LINE
  5
346
330
1F
100
AcDbEntity
  8
99
  6
Continuous
 62
     7
370
    15
100
AcDbLine
 10
3.232194002115099
 20
-127.7995271455
 30
0.0
 11
4.8321940021151
 21
-124.3354255302999
 31
0.0
1001
Sigma
1000

  0
LINE
  5
348
330
1F
100
AcDbEntity
  8
99
  6
Continuous
 62
     7
370
    15
100
AcDbLine
 10
3.232194002115099
 20
-117.7995271454999
 30
0.0
 11
4.8321940021151
 21
-114.3354255303
 31
0.0
1001
Sigma
1000

  0
TEXT
  5
34A
330
1F
100
AcDbEntity
  8
99
  6
Continuous
 62
     7
370
    15
100
AcDbText
 10
4.434103386842578
 20
-122.2132222252728
 30
0.0
 40
2.082815953445434
  1
2
 41
0.577433628318584
  7
KCADTEXTSTANDARD
100
AcDbText
1001
Sigma
1000

  0
LINE
  5
34C
330
1F
100
AcDbEntity
  8
99
  6
Continuous
 62
     7
370
    15
100
AcDbLine
 10
6.4321940021151
 20
-122.7995271454999
 30
0.0
 11
3.232194002115099
 21
-122.7995271454999
 31
0.0
1001
Sigma
1000

  0
LINE
  5
34E
330
1F
100
AcDbEntity
  8
99
  6
Continuous
 62
     7
370
    15
100
AcDbLine
 10
4.8321940021151
 20
-119.3354255303
 30
0.0
 11
6.4321940021151
 21
-122.7995271454999
 31
0.0
1001
Sigma
1000

  0
LINE
  5
350
330
1F
100
AcDbEntity
  8
99
  6
Continuous
 62
     7
370
    15
100
AcDbLine
 10
3.232194002115099
 20
-122.7995271454999
 30
0.0
 11
4.8321940021151
 21
-119.3354255303
 31
0.0
1001
Sigma
1000

  0
TEXT
  5
352
330
1F
100
AcDbEntity
  8
99
  6
Continuous
 62
     7
370
    15
100
AcDbText
 10
4.434103386842578
 20
-127.2132222252728
 30
0.0
 40
2.082815953445434
  1
1
 41
0.577433628318584
  7
KCADTEXTSTANDARD
100
AcDbText
1001
Sigma
1000

  0
TEXT
  5
354
330
1F
100
AcDbEntity
  8
99
  6
Continuous
 62
     7
370
    30
100
AcDbText
 10
132.01791390904
 20
-112.7381295371999
 30
0.0
 40
2.7
  1
差
 41
1.266666666666666
  7
KCADTEXTSTANDARD
100
AcDbText
1001
Sigma
1000

  0
TEXT
  5
356
330
1F
100
AcDbEntity
  8
99
  6
Continuous
 62
     7
370
    30
100
AcDbText
 10
132.01791390904
 20
-109.2381295372
 30
0.0
 40
2.7
  1
公
 41
1.266666666666666
  7
KCADTEXTSTANDARD
100
AcDbText
1001
Sigma
1000

  0
TEXT
  5
358
330
1F
100
AcDbEntity
  8
99
  6
Continuous
 62
     7
370
    30
100
AcDbText
 10
102.1179139328818
 20
-101.7381295372
 30
0.0
 40
2.7
  1
面
 41
1.203333318233489
  7
KCADTEXTSTANDARD
100
AcDbText
1001
Sigma
1000

  0
TEXT
  5
35A
330
1F
100
AcDbEntity
  8
99
  6
Continuous
 62
     7
370
    30
100
AcDbText
 10
102.1179139328818
 20
-105.2381295371999
 30
0.0
 40
2.7
  1
取
 41
1.203333318233489
  7
KCADTEXTSTANDARD
100
AcDbText
1001
Sigma
1000

  0
TEXT
  5
35C
330
1F
100
AcDbEntity
  8
99
  6
Continuous
 62
     7
370
    30
100
AcDbText
 10
132.01791390904
 20
-105.2381295371999
 30
0.0
 40
2.7
  1
上
 41
1.266666666666666
  7
KCADTEXTSTANDARD
100
AcDbText
1001
Sigma
1000

  0
TEXT
  5
35E
330
1F
100
AcDbEntity
  8
99
  6
Continuous
 62
     7
370
    30
100
AcDbText
 10
132.01791390904
 20
-101.7381295372
 30
0.0
 40
2.7
  1
仕
 41
1.266666666666666
  7
KCADTEXTSTANDARD
100
AcDbText
1001
Sigma
1000

  0
LINE
  5
360
330
1F
100
AcDbEntity
  8
99
  6
Continuous
 62
     7
370
    30
100
AcDbLine
 10
23.299999849405
 20
-98.50000000000001
 30
0.0
 11
23.299999849405
 21
-86.0
 31
0.0
1001
Sigma
1000

  0
TEXT
  5
362
330
1F
100
AcDbEntity
  8
99
  6
Continuous
 62
     7
370
    30
100
AcDbText
 10
131.94999984941
 20
-127.35
 30
0.0
 40
2.7
  1
図
 41
1.266666666666666
  7
KCADTEXTSTANDARD
100
AcDbText
1001
Sigma
1000

  0
TEXT
  5
364
330
1F
100
AcDbEntity
  8
99
  6
Continuous
 62
     7
370
    30
100
AcDbText
 10
131.94999984941
 20
-131.85
 30
0.0
 40
2.7
  1
番
 41
1.266666666666666
  7
KCADTEXTSTANDARD
100
AcDbText
1001
Sigma
1000

  0
LINE
  5
366
330
1F
100
AcDbEntity
  8
99
  6
Continuous
 62
     7
370
    15
100
AcDbLine
 10
2.2999998494051
 20
-93.49999999999999
 30
0.0
 11
190.2999998494099
 21
-93.49999999999999
 31
0.0
1001
Sigma
1000

  0
LINE
  5
368
330
1F
100
AcDbEntity
  8
99
  6
Continuous
 62
     7
370
    15
100
AcDbLine
 10
106.29999984941
 20
-98.50000000000001
 30
0.0
 11
106.29999984941
 21
-106.0
 31
0.0
1001
Sigma
1000

  0
TEXT
  5
36A
330
1F
100
AcDbEntity
  8
99
  6
Continuous
 62
     7
370
    30
100
AcDbText
 10
73.69189174129501
 20
-102.5978675136
 30
0.0
 40
3.6
  1
尺度
 41
1.1875
  7
KCADTEXTSTANDARD
100
AcDbText
1001
Sigma
1000

  0
LINE
  5
36C
330
1F
100
AcDbEntity
  8
99
  6
Continuous
 62
     7
370
    15
100
AcDbLine
 10
3.232194002115099
 20
-102.7995271455
 30
0.0
 11
4.8321940021151
 21
-99.33542553032999
 31
0.0
1001
Sigma
1000

  0
TEXT
  5
36E
330
1F
100
AcDbEntity
  8
99
  6
Continuous
 62
     7
370
    15
100
AcDbText
 10
4.434103386842578
 20
-102.2132222252728
 30
0.0
 40
2.082815953445434
  1
6
 41
0.577433628318584
  7
KCADTEXTSTANDARD
100
AcDbText
1001
Sigma
1000

  0
LINE
  5
370
330
1F
100
AcDbEntity
  8
99
  6
Continuous
 62
     7
370
    15
100
AcDbLine
 10
4.8321940021151
 20
-99.33542553032999
 30
0.0
 11
6.4321940021151
 21
-102.7995271455
 31
0.0
1001
Sigma
1000

  0
LINE
  5
372
330
1F
100
AcDbEntity
  8
99
  6
Continuous
 62
     7
370
    15
100
AcDbLine
 10
6.4321940021151
 20
-102.7995271455
 30
0.0
 11
3.232194002115099
 21
-102.7995271455
 31
0.0
1001
Sigma
1000

  0
LINE
  5
374
330
1F
100
AcDbEntity
  8
99
  6
Continuous
 62
     7
370
    30
100
AcDbLine
 10
101.29999984941
 20
-106.0
 30
0.0
 11
101.29999984941
 21
-98.50000000000001
 31
0.0
1001
Sigma
1000

  0
LINE
  5
376
330
1F
100
AcDbEntity
  8
99
  6
Continuous
 62
     7
370
    30
100
AcDbLine
 10
2.2999998494051
 20
-98.50000000000001
 30
0.0
 11
190.2999998494099
 21
-98.50000000000001
 31
0.0
1001
Sigma
1000

  0
LINE
  5
378
330
1F
100
AcDbEntity
  8
99
  6
Continuous
 62
     7
370
    15
100
AcDbLine
 10
2.2999998494051
 20
-103.4999999999999
 30
0.0
 11
86.299999849405
 21
-103.4999999999999
 31
0.0
1001
Sigma
1000

  0
LINE
  5
37A
330
1F
100
AcDbEntity
  8
99
  6
Continuous
 62
     7
370
    15
100
AcDbLine
 10
7.299999849405099
 20
-133.4999999999999
 30
0.0
 11
7.299999849405099
 21
-98.50000000000001
 31
0.0
1001
Sigma
1000

  0
TEXT
  5
37C
330
1F
100
AcDbEntity
  8
99
  6
Continuous
 62
     7
370
    30
100
AcDbText
 10
4.1346977936421
 20
-97.79526489509999
 30
0.0
 40
3.6
  1
部品番号 
 41
0.9879999977350236
  7
KCADTEXTSTANDARD
100
AcDbText
1001
Sigma
1000

  0
TEXT
  5
37E
330
1F
100
AcDbEntity
  8
99
  6
Continuous
 62
     7
370
    30
100
AcDbText
 10
73.69189174129501
 20
-97.49786751361
 30
0.0
 40
3.6
  1
個数
 41
1.1875
  7
KCADTEXTSTANDARD
100
AcDbText
1001
Sigma
1000

  0
TEXT
  5
380
330
1F
100
AcDbEntity
  8
99
  6
Continuous
 62
     7
370
    30
100
AcDbText
 10
95.14786806646501
 20
-97.49893375681
 30
0.0
 40
3.6
  1
材       質
 41
0.6636805541399454
  7
KCADTEXTSTANDARD
100
AcDbText
1001
Sigma
1000

  0
LINE
  5
382
330
1F
100
AcDbEntity
  8
99
  6
Continuous
 62
     7
370
    30
100
AcDbLine
 10
2.2999998494051
 20
-86.0
 30
0.0
 11
2.2999998494051
 21
-133.4999999999999
 31
0.0
1001
Sigma
1000

  0
TEXT
  5
384
330
1F
100
AcDbEntity
  8
99
  6
Continuous
 62
     7
370
    30
100
AcDbText
 10
73.934423784863
 20
-110.2302181985999
 30
0.0
 40
4.067999999999999
  1
1/1
 41
1.222959685349064
  7
KCADTEXTSTANDARD
100
AcDbText
1001
Sigma
1000

  0
TEXT
  5
386
330
1F
100
AcDbEntity
  8
99
  6
Continuous
 62
     7
370
    30
100
AcDbText
 10
144.6457302142839
 20
-131.510399078186
 30
0.0
 40
5.695200775909423
  1
TSTM-099
 41
0.8888756959831873
  7
KCADTEXTSTANDARD
100
AcDbText
1001
Sigma
1000

  0
TEXT
  5
38C
330
1F
100
AcDbEntity
  8
99
  6
Continuous
 62
     7
370
    30
100
AcDbText
 10
88.95398155754499
 20
-111.3865947291
 30
0.0
 40
3.25
  1
１９９８年１０月０１日
  7
KCADTEXTSTANDARD
100
AcDbText
1001
Sigma
1000

  0
TEXT
  5
38E
330
1F
100
AcDbEntity
  8
99
  6
Continuous
 62
     7
370
    30
100
AcDbText
 10
142.2707302142839
 20
-121.510399078186
 30
0.0
 40
5.695200775909423
  1
KCM-Z4.5D
 41
0.9005389233441167
  7
KCADTEXTSTANDARD
100
AcDbText
1001
Sigma
1000

  0
TEXT
  5
390
330
1F
100
AcDbEntity
  8
99
  6
Continuous
 62
     7
370
    30
100
AcDbText
 10
148.27540558484
 20
-92.46750128438
 30
0.0
 40
4.5
  1
梨地黒アルマイト
 41
0.653125
  7
KCADTEXTSTANDARD
100
AcDbText
1001
Sigma
1000

  0
TEXT
  5
393
330
1F
100
AcDbEntity
  8
1
  6
Continuous
 62
     7
370
    30
100
AcDbText
 10
-170.9655222578
 20
-110.415770551
 30
0.0
 40
4.5
  1
ＫＣＭ－Ｚ４．５Ｄ　：　倍率＝０．７～４．５倍     Ｗ．Ｄ．＝９０ｍｍ
 41
0.787289613988754
  7
KCADTEXTSTANDARD
100
AcDbText
1001
Sigma
1000

  0
LINE
  5
397
102
{ACAD_REACTORS
330
395
330
396
102
}
330
1F
100
AcDbEntity
  8
1
  6
Continuous
 62
     7
370
    15
100
AcDbLine
 10
122.00031734706
 20
56.202198965193
 30
0.0
 11
112.0777403489799
 21
19.694236504477
 31
0.0
1001
Sigma
1000

  0
INSERT
  5
399
102
{ACAD_REACTORS
330
395
330
396
102
}
330
1F
100
AcDbEntity
  8
1
  6
Continuous
 62
     7
370
    15
100
AcDbBlockReference
  2
_OPEN30
 10
122.00031734706
 20
56.202198965193
 30
0.0
 41
3.0
 42
3.0
 43
3.0
 50
74.79476331718551
1001
Sigma
1000
_BRRS
  0
LINE
  5
39B
330
1F
100
AcDbEntity
  8
1
  6
Continuous
 62
     7
370
    15
100
AcDbLine
 10
112.0777403489799
 20
19.694236504477
 30
0.0
 11
159.12396504226
 21
19.694236504477
 31
0.0
1001
Sigma
1000

  0
TEXT
  5
39E
102
{ACAD_REACTORS
330
39D
102
}
330
1F
100
AcDbEntity
  8
1
  6
Continuous
 62
     7
370
    15
100
AcDbText
 10
118.4881412601441
 20
21.695193034977
 30
0.0
 40
4.5
  1
マウント枠固定ネジ
 41
0.8372063748041787
  7
KCADTEXTSTANDARD
100
AcDbText
1001
Sigma
1000

  0
LINE
  5
3A1
102
{ACAD_REACTORS
330
3A0
102
}
330
1F
100
AcDbEntity
  8
1
  6
Continuous
 62
     7
370
    15
100
AcDbLine
 10
57.394532405789
 20
7.2611846321645
 30
0.0
 11
88.39113288343098
 21
7.2611846321645
 31
0.0
1001
Sigma
1000

  0
TEXT
  5
3A3
102
{ACAD_REACTORS
330
3A0
102
}
330
1F
100
AcDbEntity
  8
1
  6
Continuous
 62
     7
370
    15
100
AcDbText
 10
64.31256059345309
 20
8.0445146321646
 30
0.0
 40
4.5
  1
絞りリング
 50
0.0000000000001
 41
0.8294857373237609
  7
KCADTEXTSTANDARD
100
AcDbText
1001
Sigma
1000

  0
LINE
  5
3A6
102
{ACAD_REACTORS
330
3A0
330
3A5
102
}
330
1F
100
AcDbEntity
  8
1
  6
Continuous
 62
     7
370
    15
100
AcDbLine
 10
37.122117089054
 20
52.142026688967
 30
0.0
 11
57.394532405789
 21
7.2611846321645
 31
0.0
1001
Sigma
1000

  0
INSERT
  5
3A8
102
{ACAD_REACTORS
330
3A0
330
3A5
102
}
330
1F
100
AcDbEntity
  8
1
  6
Continuous
 62
     7
370
    15
100
AcDbBlockReference
  2
_OPEN30
 10
37.122117089054
 20
52.142026688967
 30
0.0
 41
3.0
 42
3.0
 43
3.0
 50
114.3084172587837
1001
Sigma
1000
_BRRS
  0
LINE
  5
3AB
102
{ACAD_REACTORS
330
3AA
102
}
330
1F
100
AcDbEntity
  8
1
  6
Continuous
 62
     7
370
    15
100
AcDbLine
 10
-62.14990523943
 20
22.134901257819
 30
0.0
 11
-23.28832680829
 21
22.134901257819
 31
0.0
1001
Sigma
1000

  0
TEXT
  5
3AD
102
{ACAD_REACTORS
330
3AA
102
}
330
1F
100
AcDbEntity
  8
1
  6
Continuous
 62
     7
370
    15
100
AcDbText
 10
-52.32404215920238
 20
22.918231257818
 30
0.0
 40
4.5
  1
ズームリング
 50
0.0000000000001
 41
0.8323809763789176
  7
KCADTEXTSTANDARD
100
AcDbText
1001
Sigma
1000

  0
LINE
  5
3B0
102
{ACAD_REACTORS
330
3AA
330
3AF
102
}
330
1F
100
AcDbEntity
  8
1
  6
Continuous
 62
     7
370
    15
100
AcDbLine
 10
-51.08687607668
 20
50.99551753851599
 30
0.0
 11
-62.14990523943
 21
22.134901257819
 31
0.0
1001
Sigma
1000

  0
INSERT
  5
3B2
102
{ACAD_REACTORS
330
3AA
330
3AF
102
}
330
1F
100
AcDbEntity
  8
1
  6
Continuous
 62
     7
370
    15
100
AcDbBlockReference
  2
_OPEN30
 10
-51.08687607668
 20
50.99551753851599
 30
0.0
 41
3.0
 42
3.0
 43
3.0
 50
69.02686501337222
1001
Sigma
1000
_BRRS
  0
LINE
  5
3B6
330
1F
100
AcDbEntity
  8
1
  6
Continuous
 62
     7
370
    30
100
AcDbLine
 10
135.6234148569099
 20
55.053376963887
 30
0.0
 11
138.1234148569099
 21
55.053376963887
 31
0.0
1001
Sigma
1000

  0
LINE
  5
3B8
330
1F
100
AcDbEntity
  8
1
  6
Continuous
 62
     7
370
    30
100
AcDbLine
 10
138.1234148569099
 20
55.053376963887
 30
0.0
 11
138.8734148569099
 21
55.80337696388699
 31
0.0
1001
Sigma
1000

  0
LINE
  5
3BA
330
1F
100
AcDbEntity
  8
1
  6
Continuous
 62
     7
370
    30
100
AcDbLine
 10
138.8734148569099
 20
55.80337696388699
 30
0.0
 11
138.8734148569099
 21
79.703376963897
 31
0.0
1001
Sigma
1000

  0
LINE
  5
3BC
330
1F
100
AcDbEntity
  8
1
  6
Continuous
 62
     7
370
    30
100
AcDbLine
 10
138.8734148569099
 20
79.703376963897
 30
0.0
 11
138.1234148569099
 21
80.45337696389699
 31
0.0
1001
Sigma
1000

  0
LINE
  5
3BE
330
1F
100
AcDbEntity
  8
1
  6
Continuous
 62
     7
370
    30
100
AcDbLine
 10
138.1234148569099
 20
80.45337696389699
 30
0.0
 11
135.6234148569099
 21
80.45337696389699
 31
0.0
1001
Sigma
1000

  0
LINE
  5
3C0
330
1F
100
AcDbEntity
  8
1
  6
Continuous
 62
     7
370
    30
100
AcDbLine
 10
134.87341485691
 20
53.753376963887
 30
0.0
 11
134.87341485691
 21
81.753376963894
 31
0.0
1001
Sigma
1000

  0
LINE
  5
3C2
330
1F
100
AcDbEntity
  8
1
  6
Continuous
 62
     7
370
    30
100
AcDbLine
 10
134.87341485691
 20
81.753376963894
 30
0.0
 11
133.87341485691
 21
82.75337696389398
 31
0.0
1001
Sigma
1000

  0
LINE
  5
3C4
330
1F
100
AcDbEntity
  8
1
  6
Continuous
 62
     7
370
    30
100
AcDbLine
 10
133.87341485691
 20
82.75337696389398
 30
0.0
 11
125.87341485691
 21
82.75337696389398
 31
0.0
1001
Sigma
1000

  0
LINE
  5
3C6
330
1F
100
AcDbEntity
  8
1
  6
Continuous
 62
     7
370
    30
100
AcDbLine
 10
125.87341485691
 20
82.75337696389398
 30
0.0
 11
124.87341485691
 21
81.753376963894
 31
0.0
1001
Sigma
1000

  0
LINE
  5
3C8
330
1F
100
AcDbEntity
  8
1
  6
Continuous
 62
     7
370
    30
100
AcDbLine
 10
124.87341485691
 20
81.753376963894
 30
0.0
 11
124.87341485691
 21
53.753376963887
 31
0.0
1001
Sigma
1000

  0
LINE
  5
3CA
330
1F
100
AcDbEntity
  8
1
  6
Continuous
 62
     7
370
    30
100
AcDbLine
 10
124.87341485691
 20
53.753376963887
 30
0.0
 11
125.87341485691
 21
52.75337696388699
 31
0.0
1001
Sigma
1000

  0
LINE
  5
3CC
330
1F
100
AcDbEntity
  8
1
  6
Continuous
 62
     7
370
    30
100
AcDbLine
 10
125.87341485691
 20
52.75337696388699
 30
0.0
 11
133.87341485691
 21
52.75337696388699
 31
0.0
1001
Sigma
1000

  0
LINE
  5
3CE
330
1F
100
AcDbEntity
  8
1
  6
Continuous
 62
     7
370
    30
100
AcDbLine
 10
133.87341485691
 20
52.75337696388699
 30
0.0
 11
134.87341485691
 21
53.753376963887
 31
0.0
1001
Sigma
1000

  0
LINE
  5
3D0
330
1F
100
AcDbEntity
  8
1
  6
Continuous
 62
     7
370
    30
100
AcDbLine
 10
124.87341485691
 20
81.603376963894
 30
0.0
 11
39.573414856906
 21
81.603376963894
 31
0.0
1001
Sigma
1000

  0
LINE
  5
3D2
330
1F
100
AcDbEntity
  8
1
  6
Continuous
 62
     7
370
    30
100
AcDbLine
 10
124.87341485691
 20
53.903376963887
 30
0.0
 11
39.573414856906
 21
53.903376963887
 31
0.0
1001
Sigma
1000

  0
LINE
  5
3D4
330
1F
100
AcDbEntity
  8
1
  6
Continuous
 62
     7
370
    30
100
AcDbLine
 10
138.1234148569099
 20
80.45337696389699
 30
0.0
 11
138.1234148569099
 21
55.053376963887
 31
0.0
1001
Sigma
1000

  0
LINE
  5
3D6
330
1F
100
AcDbEntity
  8
1
  6
Continuous
 62
     7
370
    30
100
AcDbLine
 10
135.6234148569099
 20
55.053376963887
 30
0.0
 11
135.6234148569099
 21
80.45337696389699
 31
0.0
1001
Sigma
1000

  0
LINE
  5
3D8
330
1F
100
AcDbEntity
  8
1
  6
Continuous
 62
     7
370
    30
100
AcDbLine
 10
138.8734148569099
 20
79.703376963897
 30
0.0
 11
134.87341485691
 21
79.703376963897
 31
0.0
1001
Sigma
1000

  0
LINE
  5
3DA
330
1F
100
AcDbEntity
  8
1
  6
Continuous
 62
     7
370
    30
100
AcDbLine
 10
138.8734148569099
 20
55.80337696388699
 30
0.0
 11
134.87341485691
 21
55.80337696388699
 31
0.0
1001
Sigma
1000

  0
LINE
  5
3DC
330
1F
100
AcDbEntity
  8
1
  6
Continuous
 62
     7
370
    30
100
AcDbLine
 10
133.87341485691
 20
67.753376963897
 30
0.0
 11
125.87341485691
 21
67.753376963897
 31
0.0
1001
Sigma
1000

  0
LINE
  5
3DE
330
1F
100
AcDbEntity
  8
1
  6
Continuous
 62
     7
370
    30
100
AcDbLine
 10
133.87341485691
 20
69.753376963897
 30
0.0
 11
125.87341485691
 21
69.753376963897
 31
0.0
1001
Sigma
1000

  0
LINE
  5
3E0
330
1F
100
AcDbEntity
  8
1
  6
Continuous
 62
     7
370
    30
100
AcDbLine
 10
133.87341485691
 20
65.75337696389698
 30
0.0
 11
125.87341485691
 21
65.75337696389698
 31
0.0
1001
Sigma
1000

  0
LINE
  5
3E2
330
1F
100
AcDbEntity
  8
1
  6
Continuous
 62
     7
370
    30
100
AcDbLine
 10
133.87341485691
 20
71.753376963897
 30
0.0
 11
125.87341485691
 21
71.753376963897
 31
0.0
1001
Sigma
1000

  0
LINE
  5
3E4
330
1F
100
AcDbEntity
  8
1
  6
Continuous
 62
     7
370
    30
100
AcDbLine
 10
133.87341485691
 20
63.75337696389699
 30
0.0
 11
125.87341485691
 21
63.75337696389699
 31
0.0
1001
Sigma
1000

  0
LINE
  5
3E6
330
1F
100
AcDbEntity
  8
1
  6
Continuous
 62
     7
370
    30
100
AcDbLine
 10
133.87341485691
 20
73.553376963897
 30
0.0
 11
125.87341485691
 21
73.553376963897
 31
0.0
1001
Sigma
1000

  0
LINE
  5
3E8
330
1F
100
AcDbEntity
  8
1
  6
Continuous
 62
     7
370
    30
100
AcDbLine
 10
133.87341485691
 20
61.95337696389699
 30
0.0
 11
125.87341485691
 21
61.95337696389699
 31
0.0
1001
Sigma
1000

  0
LINE
  5
3EA
330
1F
100
AcDbEntity
  8
1
  6
Continuous
 62
     7
370
    30
100
AcDbLine
 10
133.87341485691
 20
75.353376963897
 30
0.0
 11
125.87341485691
 21
75.353376963897
 31
0.0
1001
Sigma
1000

  0
LINE
  5
3EC
330
1F
100
AcDbEntity
  8
1
  6
Continuous
 62
     7
370
    30
100
AcDbLine
 10
133.87341485691
 20
60.153376963897
 30
0.0
 11
125.87341485691
 21
60.153376963897
 31
0.0
1001
Sigma
1000

  0
LINE
  5
3EE
330
1F
100
AcDbEntity
  8
1
  6
Continuous
 62
     7
370
    30
100
AcDbLine
 10
133.87341485691
 20
77.053376963897
 30
0.0
 11
125.87341485691
 21
77.053376963897
 31
0.0
1001
Sigma
1000

  0
LINE
  5
3F0
330
1F
100
AcDbEntity
  8
1
  6
Continuous
 62
     7
370
    30
100
AcDbLine
 10
133.87341485691
 20
58.453376963897
 30
0.0
 11
125.87341485691
 21
58.453376963897
 31
0.0
1001
Sigma
1000

  0
LINE
  5
3F2
330
1F
100
AcDbEntity
  8
1
  6
Continuous
 62
     7
370
    30
100
AcDbLine
 10
133.87341485691
 20
78.553376963897
 30
0.0
 11
125.87341485691
 21
78.553376963897
 31
0.0
1001
Sigma
1000

  0
LINE
  5
3F4
330
1F
100
AcDbEntity
  8
1
  6
Continuous
 62
     7
370
    30
100
AcDbLine
 10
133.87341485691
 20
56.953376963887
 30
0.0
 11
125.87341485691
 21
56.953376963887
 31
0.0
1001
Sigma
1000

  0
LINE
  5
3F6
330
1F
100
AcDbEntity
  8
1
  6
Continuous
 62
     7
370
    30
100
AcDbLine
 10
133.87341485691
 20
79.853376963897
 30
0.0
 11
125.87341485691
 21
79.853376963897
 31
0.0
1001
Sigma
1000

  0
LINE
  5
3F8
330
1F
100
AcDbEntity
  8
1
  6
Continuous
 62
     7
370
    30
100
AcDbLine
 10
133.87341485691
 20
55.653376963887
 30
0.0
 11
125.87341485691
 21
55.653376963887
 31
0.0
1001
Sigma
1000

  0
LINE
  5
3FA
330
1F
100
AcDbEntity
  8
1
  6
Continuous
 62
     7
370
    30
100
AcDbLine
 10
133.87341485691
 20
80.853376963897
 30
0.0
 11
125.87341485691
 21
80.853376963897
 31
0.0
1001
Sigma
1000

  0
LINE
  5
3FC
330
1F
100
AcDbEntity
  8
1
  6
Continuous
 62
     7
370
    30
100
AcDbLine
 10
133.87341485691
 20
54.653376963887
 30
0.0
 11
125.87341485691
 21
54.653376963887
 31
0.0
1001
Sigma
1000

  0
LINE
  5
3FE
330
1F
100
AcDbEntity
  8
1
  6
Continuous
 62
     7
370
    30
100
AcDbLine
 10
133.87341485691
 20
81.753376963894
 30
0.0
 11
125.87341485691
 21
81.753376963894
 31
0.0
1001
Sigma
1000

  0
LINE
  5
400
330
1F
100
AcDbEntity
  8
1
  6
Continuous
 62
     7
370
    30
100
AcDbLine
 10
133.87341485691
 20
53.753376963887
 30
0.0
 11
125.87341485691
 21
53.753376963887
 31
0.0
1001
Sigma
1000

  0
LINE
  5
402
330
1F
100
AcDbEntity
  8
1
  6
Continuous
 62
     7
370
    30
100
AcDbLine
 10
133.87341485691
 20
82.35337696389398
 30
0.0
 11
125.87341485691
 21
82.35337696389398
 31
0.0
1001
Sigma
1000

  0
LINE
  5
404
330
1F
100
AcDbEntity
  8
1
  6
Continuous
 62
     7
370
    30
100
AcDbLine
 10
133.87341485691
 20
53.153376963887
 30
0.0
 11
125.87341485691
 21
53.153376963887
 31
0.0
1001
Sigma
1000

  0
LINE
  5
406
330
1F
100
AcDbEntity
  8
1
  6
CENTER
 62
     7
370
    15
100
AcDbLine
 10
152.66941485691
 20
64.801974870257
 30
0.0
 11
152.66941485691
 21
70.531043543827
 31
0.0
1001
Sigma
1000

  0
DIMENSION
  5
408
330
1F
100
AcDbEntity
  8
KCAD_DIMS
 62
     7
100
AcDbDimension
  2
*D41
 10
138.8734148569099
 20
116.0525860226299
 30
0.0
 11
146.08116165562
 21
118.18588602263
 31
0.0
 70
    32
 71
     5
 42
-1.0
  3
Standard
100
AcDbAlignedDimension
 13
134.87341485691
 23
81.753376963894
 33
0.0
 14
138.8734148569099
 24
79.703376963897
 34
0.0
100
AcDbRotatedDimension
1001
Sigma
1000
DIM_TPHO
1001
KCAD_DIM_EXT
1002
{
1071
 20001212
1070
     0
1070
     1
1070
     1
1040
3.0
1040
5.0
1040
8.2077468827643
1040
0.0
1040
0.0
1040
0.0
1040
0.0
1040
0.0
1070
     0
1040
50.0
1040
-1.0
1013
1.0
1023
0.0
1033
0.0
1040
0.0
1013
1.0
1023
0.0
1033
0.0
1000
_None
1040
1.0
1040
4.0
1070
     0
1070
     0
1070
     0
1012
1.0
1022
0.0
1032
0.0
1013
1.0
1023
0.0
1033
0.0
1002
}
1001
ACAD
1000
DSTYLE
1002
{
1070
    41
1040
3.0
1070
    42
1040
0.4
1070
    43
1040
8.0
1070
    44
1040
0.4
1070
    45
1040
0.0
1070
    73
1070
     0
1070
    74
1070
     0
1070
    77
1070
     1
1070
    78
1070
     8
1070
    79
1070
     2
1070
   140
1040
3.2
1070
   141
1040
2.5
1070
   145
1040
0.0001
1070
   146
1040
0.667
1070
   147
1040
0.5333000000000001
1070
   172
1070
     1
1070
   173
1070
     1
1070
   179
1070
     3
1070
   271
1070
     3
1070
   272
1070
     3
1070
   279
1070
     2
1070
   284
1070
     8
1070
   289
1070
     2
1070
   340
1005
189
1070
   341
1005
21
1070
   343
1005
12D
1070
   344
1005
12D
1002
}
  0
LINE
  5
450
330
1F
100
AcDbEntity
  8
1
  6
CENTER
 62
     7
370
    15
100
AcDbLine
 10
-173.6632939405
 20
71.195367966877
 30
0.0
 11
-173.6632939405
 21
60.527446988507
 31
0.0
1001
Sigma
1000

  0
DIMENSION
  5
452
330
1F
100
AcDbEntity
  8
KCAD_DIMS
 62
     7
100
AcDbDimension
  2
*D57
 10
165.86400751919
 20
52.75337696388699
 30
0.0
 11
163.73070751919
 21
67.753376963897
 31
0.0
 70
    32
  1
<>
 71
     5
 42
-1.0
 53
90.0
  3
Standard
100
AcDbAlignedDimension
 13
133.87341485691
 23
82.75337696389398
 33
0.0
 14
133.87341485691
 24
52.75337696388699
 34
0.0
 50
90.0
100
AcDbRotatedDimension
1001
Sigma
1000
DIM_TPVO
1001
KCAD_DIM_EXT
1002
{
1071
 20001212
1070
     0
1070
     2
1070
     2
1040
3.0
1040
0.0
1040
0.0
1040
0.0
1040
0.0
1040
0.0
1040
0.0
1040
0.0
1070
     0
1040
50.0
1040
-1.0
1013
1.0
1023
0.0
1033
0.0
1040
0.0
1013
1.0
1023
0.0
1033
0.0
1000
_None
1040
1.0
1040
30.0
1070
     0
1070
     0
1070
     0
1012
1.0
1022
0.0
1032
0.0
1013
1.0
1023
0.0
1033
0.0
1002
}
1001
ACAD
1000
DSTYLE
1002
{
1070
     3
1000
%%c<>
1070
    41
1040
3.0
1070
    42
1040
0.4
1070
    43
1040
8.0
1070
    44
1040
0.4
1070
    73
1070
     0
1070
    74
1070
     0
1070
    77
1070
     1
1070
    78
1070
     8
1070
    79
1070
     2
1070
   140
1040
3.2
1070
   141
1040
2.5
1070
   145
1040
0.5001000000000001
1070
   146
1040
0.667
1070
   147
1040
0.5333000000000001
1070
   172
1070
     1
1070
   173
1070
     1
1070
   179
1070
     3
1070
   271
1070
     3
1070
   272
1070
     3
1070
   279
1070
     2
1070
   284
1070
     8
1070
   340
1000
189
1002
}
  0
LINE
  5
48E
330
1F
100
AcDbEntity
  8
1
  6
Continuous
 62
     7
370
    30
100
AcDbLine
 10
123.37341485691
 20
81.603376963894
 30
0.0
 11
123.37341485691
 21
84.253376963894
 31
0.0
1001
Sigma
1000

  0
LINE
  5
490
330
1F
100
AcDbEntity
  8
1
  6
Continuous
 62
     7
370
    30
100
AcDbLine
 10
120.3734148569099
 20
84.253376963894
 30
0.0
 11
120.3734148569099
 21
81.603376963894
 31
0.0
1001
Sigma
1000

  0
ELLIPSE
  5
492
330
1F
100
AcDbEntity
  8
1
  6
Continuous
 62
     7
370
    30
100
AcDbEllipse
 10
121.87341485691
 20
56.50337696388699
 30
0.0
 11
2.999999999999699
 21
0.0
 31
0.0
210
0.0
220
0.0
230
1.0
 40
0.8660254037845199
 41
0.0
 42
6.283185307179586
1001
Sigma
1000

  0
LINE
  5
494
330
1F
100
AcDbEntity
  8
1
  6
Continuous
 62
     7
370
    30
100
AcDbLine
 10
124.57341485691
 20
90.25337696389398
 30
0.0
 11
119.1734148569099
 21
90.25337696389398
 31
0.0
1001
Sigma
1000

  0
LINE
  5
496
330
1F
100
AcDbEntity
  8
1
  6
Continuous
 62
     7
370
    30
100
AcDbLine
 10
124.87341485691
 20
84.553376963894
 30
0.0
 11
124.87341485691
 21
89.953376963894
 31
0.0
1001
Sigma
1000

  0
LINE
  5
498
330
1F
100
AcDbEntity
  8
1
  6
Continuous
 62
     7
370
    30
100
AcDbLine
 10
124.57341485691
 20
84.253376963894
 30
0.0
 11
119.1734148569099
 21
84.253376963894
 31
0.0
1001
Sigma
1000

  0
LINE
  5
49A
330
1F
100
AcDbEntity
  8
1
  6
Continuous
 62
     7
370
    30
100
AcDbLine
 10
118.87341485691
 20
84.553376963894
 30
0.0
 11
118.87341485691
 21
89.953376963894
 31
0.0
1001
Sigma
1000

  0
LINE
  5
49C
330
1F
100
AcDbEntity
  8
1
  6
Continuous
 62
     7
370
    30
100
AcDbLine
 10
121.37341485691
 20
89.953376963894
 30
0.0
 11
121.37341485691
 21
84.553376963894
 31
0.0
1001
Sigma
1000

  0
LINE
  5
49E
330
1F
100
AcDbEntity
  8
1
  6
Continuous
 62
     7
370
    30
100
AcDbLine
 10
122.87341485691
 20
89.953376963894
 30
0.0
 11
122.87341485691
 21
84.553376963894
 31
0.0
1001
Sigma
1000

  0
LINE
  5
4A0
330
1F
100
AcDbEntity
  8
1
  6
Continuous
 62
     7
370
    30
100
AcDbLine
 10
119.9734148569099
 20
89.953376963894
 30
0.0
 11
119.9734148569099
 21
84.553376963894
 31
0.0
1001
Sigma
1000

  0
LINE
  5
4A2
330
1F
100
AcDbEntity
  8
1
  6
Continuous
 62
     7
370
    30
100
AcDbLine
 10
124.07341485691
 20
89.953376963894
 30
0.0
 11
124.07341485691
 21
84.553376963894
 31
0.0
1001
Sigma
1000

  0
LINE
  5
4A4
330
1F
100
AcDbEntity
  8
1
  6
Continuous
 62
     7
370
    30
100
AcDbLine
 10
118.87341485691
 20
89.953376963894
 30
0.0
 11
119.1734148569099
 21
90.25337696389398
 31
0.0
1001
Sigma
1000

  0
LINE
  5
4A6
330
1F
100
AcDbEntity
  8
1
  6
Continuous
 62
     7
370
    30
100
AcDbLine
 10
124.57341485691
 20
90.25337696389398
 30
0.0
 11
124.87341485691
 21
89.953376963894
 31
0.0
1001
Sigma
1000

  0
LINE
  5
4A8
330
1F
100
AcDbEntity
  8
1
  6
Continuous
 62
     7
370
    30
100
AcDbLine
 10
119.1734148569099
 20
84.253376963894
 30
0.0
 11
118.87341485691
 21
84.553376963894
 31
0.0
1001
Sigma
1000

  0
LINE
  5
4AA
330
1F
100
AcDbEntity
  8
1
  6
Continuous
 62
     7
370
    30
100
AcDbLine
 10
124.57341485691
 20
84.253376963894
 30
0.0
 11
124.87341485691
 21
84.553376963894
 31
0.0
1001
Sigma
1000

  0
ELLIPSE
  5
4AC
330
1F
100
AcDbEntity
  8
1
  6
Continuous
 62
     7
370
    30
100
AcDbEllipse
 10
121.87341485691
 20
59.50337696389699
 30
0.0
 11
2.999999999999699
 21
0.0
 31
0.0
210
0.0
220
0.0
230
1.0
 40
0.8660254037845199
 41
0.0
 42
3.141592653589793
1001
Sigma
1000

  0
LINE
  5
4AE
330
1F
100
AcDbEntity
  8
1
  6
Continuous
 62
     7
370
    30
100
AcDbLine
 10
118.87341485691
 20
59.50337696389699
 30
0.0
 11
118.87341485691
 21
56.50337696388699
 31
0.0
1001
Sigma
1000

  0
LINE
  5
4B0
330
1F
100
AcDbEntity
  8
1
  6
Continuous
 62
     7
370
    30
100
AcDbLine
 10
121.87341485691
 20
59.101453175247
 30
0.0
 11
121.87341485691
 21
62.101453175247
 31
0.0
1001
Sigma
1000

  0
LINE
  5
4B2
330
1F
100
AcDbEntity
  8
1
  6
Continuous
 62
     7
370
    30
100
AcDbLine
 10
120.47341485691
 20
58.801202022507
 30
0.0
 11
120.47341485691
 21
61.801202022507
 31
0.0
1001
Sigma
1000

  0
LINE
  5
4B4
330
1F
100
AcDbEntity
  8
1
  6
Continuous
 62
     7
370
    30
100
AcDbLine
 10
123.2734148569099
 20
58.801202022507
 30
0.0
 11
123.2734148569099
 21
61.801202022507
 31
0.0
1001
Sigma
1000

  0
LINE
  5
4B6
330
1F
100
AcDbEntity
  8
1
  6
Continuous
 62
     7
370
    30
100
AcDbLine
 10
119.3734148569099
 20
57.939517625527
 30
0.0
 11
119.3734148569099
 21
60.939517625527
 31
0.0
1001
Sigma
1000

  0
LINE
  5
4B8
330
1F
100
AcDbEntity
  8
1
  6
Continuous
 62
     7
370
    30
100
AcDbLine
 10
124.37341485691
 20
57.939517625527
 30
0.0
 11
124.37341485691
 21
60.939517625527
 31
0.0
1001
Sigma
1000

  0
LINE
  5
4BA
330
1F
100
AcDbEntity
  8
1
  6
CENTER
 62
     7
370
    15
100
AcDbLine
 10
-177.8316651055
 20
67.753376963897
 30
0.0
 11
-164.911689525
 21
67.753376963896
 31
0.0
1001
Sigma
1000

  0
LINE
  5
4BC
330
1F
100
AcDbEntity
  8
1
  6
Continuous
 62
     7
370
    30
100
AcDbLine
 10
-23.42658514309
 20
50.817893092927
 30
0.0
 11
-23.42658514309
 21
84.688860834862
 31
0.0
1001
Sigma
1000

  0
LINE
  5
4BE
330
1F
100
AcDbEntity
  8
1
  6
Continuous
 62
     7
370
    30
100
AcDbLine
 10
-23.42658514309
 20
84.688860834862
 30
0.0
 11
-23.99110127212
 21
85.25337696389398
 31
0.0
1001
Sigma
1000

  0
LINE
  5
4C0
330
1F
100
AcDbEntity
  8
1
  6
Continuous
 62
     7
370
    30
100
AcDbLine
 10
-23.99110127212
 20
85.25337696389398
 30
0.0
 11
-28.50723030438
 21
85.25337696389398
 31
0.0
1001
Sigma
1000

  0
LINE
  5
4C2
330
1F
100
AcDbEntity
  8
1
  6
Continuous
 62
     7
370
    30
100
AcDbLine
 10
-28.50723030438
 20
85.25337696389398
 30
0.0
 11
-29.07174643340999
 21
84.688860834862
 31
0.0
1001
Sigma
1000

  0
LINE
  5
4C4
330
1F
100
AcDbEntity
  8
1
  6
Continuous
 62
     7
370
    30
100
AcDbLine
 10
-29.07174643340999
 20
84.688860834862
 30
0.0
 11
-29.07174643340999
 21
50.817893092927
 31
0.0
1001
Sigma
1000

  0
LINE
  5
4C6
330
1F
100
AcDbEntity
  8
1
  6
Continuous
 62
     7
370
    30
100
AcDbLine
 10
-29.07174643340999
 20
50.817893092927
 30
0.0
 11
-28.50723030438
 21
50.25337696388699
 31
0.0
1001
Sigma
1000

  0
LINE
  5
4C8
330
1F
100
AcDbEntity
  8
1
  6
Continuous
 62
     7
370
    30
100
AcDbLine
 10
-28.50723030438
 20
50.25337696388699
 30
0.0
 11
-23.99110127212
 21
50.25337696388699
 31
0.0
1001
Sigma
1000

  0
LINE
  5
4CA
330
1F
100
AcDbEntity
  8
1
  6
Continuous
 62
     7
370
    30
100
AcDbLine
 10
-23.99110127212
 20
50.25337696388699
 30
0.0
 11
-23.42658514309
 21
50.817893092927
 31
0.0
1001
Sigma
1000

  0
LINE
  5
4CC
330
1F
100
AcDbEntity
  8
1
  6
Continuous
 62
     7
370
    30
100
AcDbLine
 10
-23.99110127212
 20
67.753376963897
 30
0.0
 11
-28.50723030438
 21
67.753376963897
 31
0.0
1001
Sigma
1000

  0
LINE
  5
4CE
330
1F
100
AcDbEntity
  8
1
  6
Continuous
 62
     7
370
    30
100
AcDbLine
 10
-23.99110127212
 20
65.495312447767
 30
0.0
 11
-28.50723030438
 21
65.495312447767
 31
0.0
1001
Sigma
1000

  0
LINE
  5
4D0
330
1F
100
AcDbEntity
  8
1
  6
Continuous
 62
     7
370
    30
100
AcDbLine
 10
-23.99110127212
 20
72.269505996147
 30
0.0
 11
-28.50723030438
 21
72.269505996147
 31
0.0
1001
Sigma
1000

  0
LINE
  5
4D2
330
1F
100
AcDbEntity
  8
1
  6
Continuous
 62
     7
370
    30
100
AcDbLine
 10
-23.99110127212
 20
63.237247931637
 30
0.0
 11
-28.50723030438
 21
63.237247931637
 31
0.0
1001
Sigma
1000

  0
LINE
  5
4D4
330
1F
100
AcDbEntity
  8
1
  6
Continuous
 62
     7
370
    30
100
AcDbLine
 10
-23.99110127212
 20
74.414667286477
 30
0.0
 11
-28.50723030438
 21
74.414667286477
 31
0.0
1001
Sigma
1000

  0
LINE
  5
4D6
330
1F
100
AcDbEntity
  8
1
  6
Continuous
 62
     7
370
    30
100
AcDbLine
 10
-23.99110127212
 20
61.092086641317
 30
0.0
 11
-28.50723030438
 21
61.092086641317
 31
0.0
1001
Sigma
1000

  0
LINE
  5
4D8
330
1F
100
AcDbEntity
  8
1
  6
Continuous
 62
     7
370
    30
100
AcDbLine
 10
-23.99110127212
 20
76.446925350987
 30
0.0
 11
-28.50723030438
 21
76.446925350987
 31
0.0
1001
Sigma
1000

  0
LINE
  5
4DA
330
1F
100
AcDbEntity
  8
1
  6
Continuous
 62
     7
370
    30
100
AcDbLine
 10
-23.99110127212
 20
59.059828576797
 30
0.0
 11
-28.50723030438
 21
59.059828576797
 31
0.0
1001
Sigma
1000

  0
LINE
  5
4DC
330
1F
100
AcDbEntity
  8
1
  6
Continuous
 62
     7
370
    30
100
AcDbLine
 10
-23.99110127212
 20
78.25337696389698
 30
0.0
 11
-28.50723030438
 21
78.25337696389698
 31
0.0
1001
Sigma
1000

  0
LINE
  5
4DE
330
1F
100
AcDbEntity
  8
1
  6
Continuous
 62
     7
370
    30
100
AcDbLine
 10
-23.99110127212
 20
57.253376963887
 30
0.0
 11
-28.50723030438
 21
57.253376963887
 31
0.0
1001
Sigma
1000

  0
LINE
  5
4E0
330
1F
100
AcDbEntity
  8
1
  6
Continuous
 62
     7
370
    30
100
AcDbLine
 10
-23.99110127212
 20
79.946925350987
 30
0.0
 11
-28.50723030438
 21
79.946925350987
 31
0.0
1001
Sigma
1000

  0
LINE
  5
4E2
330
1F
100
AcDbEntity
  8
1
  6
Continuous
 62
     7
370
    30
100
AcDbLine
 10
-23.99110127212
 20
55.559828576797
 30
0.0
 11
-28.50723030438
 21
55.559828576797
 31
0.0
1001
Sigma
1000

  0
LINE
  5
4E4
330
1F
100
AcDbEntity
  8
1
  6
Continuous
 62
     7
370
    30
100
AcDbLine
 10
-23.99110127212
 20
81.527570512281
 30
0.0
 11
-28.50723030438
 21
81.527570512281
 31
0.0
1001
Sigma
1000

  0
LINE
  5
4E6
330
1F
100
AcDbEntity
  8
1
  6
Continuous
 62
     7
370
    30
100
AcDbLine
 10
-23.99110127212
 20
53.979183415507
 30
0.0
 11
-28.50723030438
 21
53.979183415507
 31
0.0
1001
Sigma
1000

  0
LINE
  5
4E8
330
1F
100
AcDbEntity
  8
1
  6
Continuous
 62
     7
370
    30
100
AcDbLine
 10
-23.99110127212
 20
82.769505996152
 30
0.0
 11
-28.50723030438
 21
82.769505996152
 31
0.0
1001
Sigma
1000

  0
LINE
  5
4EA
330
1F
100
AcDbEntity
  8
1
  6
Continuous
 62
     7
370
    30
100
AcDbLine
 10
-23.99110127212
 20
52.737247931637
 30
0.0
 11
-28.50723030438
 21
52.737247931637
 31
0.0
1001
Sigma
1000

  0
LINE
  5
4EC
330
1F
100
AcDbEntity
  8
1
  6
Continuous
 62
     7
370
    30
100
AcDbLine
 10
-23.99110127212
 20
83.78563502841
 30
0.0
 11
-28.50723030438
 21
83.78563502841
 31
0.0
1001
Sigma
1000

  0
LINE
  5
4EE
330
1F
100
AcDbEntity
  8
1
  6
Continuous
 62
     7
370
    30
100
AcDbLine
 10
-23.99110127212
 20
51.72111889937699
 30
0.0
 11
-28.50723030438
 21
51.72111889937699
 31
0.0
1001
Sigma
1000

  0
LINE
  5
4F0
330
1F
100
AcDbEntity
  8
1
  6
Continuous
 62
     7
370
    30
100
AcDbLine
 10
-23.99110127212
 20
84.575957609056
 30
0.0
 11
-28.50723030438
 21
84.575957609056
 31
0.0
1001
Sigma
1000

  0
LINE
  5
4F2
330
1F
100
AcDbEntity
  8
1
  6
Continuous
 62
     7
370
    30
100
AcDbLine
 10
-23.99110127212
 20
50.930796318727
 30
0.0
 11
-28.50723030438
 21
50.930796318727
 31
0.0
1001
Sigma
1000

  0
LINE
  5
4F4
330
1F
100
AcDbEntity
  8
1
  6
Continuous
 62
     7
370
    30
100
AcDbLine
 10
-23.99110127212
 20
70.011441480027
 30
0.0
 11
-28.50723030438
 21
70.011441480027
 31
0.0
1001
Sigma
1000

  0
LINE
  5
4F6
330
1F
100
AcDbEntity
  8
1
  6
Continuous
 62
     7
370
    30
100
AcDbLine
 10
-29.07174643340999
 20
51.003376963897
 30
0.0
 11
-37.07174643341
 21
51.003376963897
 31
0.0
1001
Sigma
1000

  0
LINE
  5
4F8
330
1F
100
AcDbEntity
  8
1
  6
Continuous
 62
     7
370
    30
100
AcDbLine
 10
-29.07174643340999
 20
84.503376963895
 30
0.0
 11
-37.07174643341
 21
84.503376963895
 31
0.0
1001
Sigma
1000

  0
LINE
  5
4FA
330
1F
100
AcDbEntity
  8
1
  6
Continuous
 62
     7
370
    30
100
AcDbLine
 10
22.323414856906
 20
53.003376963887
 30
0.0
 11
22.323414856906
 21
82.50337696389398
 31
0.0
1001
Sigma
1000

  0
LINE
  5
4FC
330
1F
100
AcDbEntity
  8
1
  6
Continuous
 62
     7
370
    30
100
AcDbLine
 10
39.573414856906
 20
52.75337696388699
 30
0.0
 11
39.573414856906
 21
82.75337696389398
 31
0.0
1001
Sigma
1000

  0
LINE
  5
4FE
330
1F
100
AcDbEntity
  8
1
  6
Continuous
 62
     7
370
    30
100
AcDbLine
 10
39.573414856906
 20
82.75337696389398
 30
0.0
 11
39.07341485690599
 21
83.253376963894
 31
0.0
1001
Sigma
1000

  0
LINE
  5
500
330
1F
100
AcDbEntity
  8
1
  6
Continuous
 62
     7
370
    30
100
AcDbLine
 10
39.07341485690599
 20
83.253376963894
 30
0.0
 11
35.073414856906
 21
83.253376963894
 31
0.0
1001
Sigma
1000

  0
LINE
  5
502
330
1F
100
AcDbEntity
  8
1
  6
Continuous
 62
     7
370
    30
100
AcDbLine
 10
35.073414856906
 20
83.253376963894
 30
0.0
 11
34.573414856906
 21
82.75337696389398
 31
0.0
1001
Sigma
1000

  0
LINE
  5
504
330
1F
100
AcDbEntity
  8
1
  6
Continuous
 62
     7
370
    30
100
AcDbLine
 10
34.573414856906
 20
82.75337696389398
 30
0.0
 11
34.573414856906
 21
52.75337696388699
 31
0.0
1001
Sigma
1000

  0
LINE
  5
506
330
1F
100
AcDbEntity
  8
1
  6
Continuous
 62
     7
370
    30
100
AcDbLine
 10
34.573414856906
 20
52.75337696388699
 30
0.0
 11
35.073414856906
 21
52.253376963887
 31
0.0
1001
Sigma
1000

  0
LINE
  5
508
330
1F
100
AcDbEntity
  8
1
  6
Continuous
 62
     7
370
    30
100
AcDbLine
 10
35.073414856906
 20
52.253376963887
 30
0.0
 11
39.07341485690599
 21
52.253376963887
 31
0.0
1001
Sigma
1000

  0
LINE
  5
50A
330
1F
100
AcDbEntity
  8
1
  6
Continuous
 62
     7
370
    30
100
AcDbLine
 10
39.07341485690599
 20
52.253376963887
 30
0.0
 11
39.573414856906
 21
52.75337696388699
 31
0.0
1001
Sigma
1000

  0
LINE
  5
50C
330
1F
100
AcDbEntity
  8
1
  6
Continuous
 62
     7
370
    30
100
AcDbLine
 10
22.323414856906
 20
82.50337696389398
 30
0.0
 11
34.573414856906
 21
82.50337696389398
 31
0.0
1001
Sigma
1000

  0
LINE
  5
50E
330
1F
100
AcDbEntity
  8
1
  6
Continuous
 62
     7
370
    30
100
AcDbLine
 10
22.323414856906
 20
53.003376963887
 30
0.0
 11
34.573414856906
 21
53.003376963887
 31
0.0
1001
Sigma
1000

  0
LINE
  5
510
330
1F
100
AcDbEntity
  8
1
  6
Continuous
 62
     7
370
    30
100
AcDbLine
 10
39.07341485690599
 20
67.753376963897
 30
0.0
 11
35.073414856906
 21
67.753376963897
 31
0.0
1001
Sigma
1000

  0
LINE
  5
512
330
1F
100
AcDbEntity
  8
1
  6
Continuous
 62
     7
370
    30
100
AcDbLine
 10
39.07341485690599
 20
65.75337696389698
 30
0.0
 11
35.073414856906
 21
65.75337696389698
 31
0.0
1001
Sigma
1000

  0
LINE
  5
514
330
1F
100
AcDbEntity
  8
1
  6
Continuous
 62
     7
370
    30
100
AcDbLine
 10
39.07341485690599
 20
71.753376963897
 30
0.0
 11
35.073414856906
 21
71.753376963897
 31
0.0
1001
Sigma
1000

  0
LINE
  5
516
330
1F
100
AcDbEntity
  8
1
  6
Continuous
 62
     7
370
    30
100
AcDbLine
 10
39.07341485690599
 20
63.75337696389699
 30
0.0
 11
35.073414856906
 21
63.75337696389699
 31
0.0
1001
Sigma
1000

  0
LINE
  5
518
330
1F
100
AcDbEntity
  8
1
  6
Continuous
 62
     7
370
    30
100
AcDbLine
 10
39.07341485690599
 20
73.653376963897
 30
0.0
 11
35.073414856906
 21
73.653376963897
 31
0.0
1001
Sigma
1000

  0
LINE
  5
51A
330
1F
100
AcDbEntity
  8
1
  6
Continuous
 62
     7
370
    30
100
AcDbLine
 10
39.07341485690599
 20
61.853376963897
 30
0.0
 11
35.073414856906
 21
61.853376963897
 31
0.0
1001
Sigma
1000

  0
LINE
  5
51C
330
1F
100
AcDbEntity
  8
1
  6
Continuous
 62
     7
370
    30
100
AcDbLine
 10
39.07341485690599
 20
75.453376963897
 30
0.0
 11
35.073414856906
 21
75.453376963897
 31
0.0
1001
Sigma
1000

  0
LINE
  5
51E
330
1F
100
AcDbEntity
  8
1
  6
Continuous
 62
     7
370
    30
100
AcDbLine
 10
39.07341485690599
 20
60.053376963897
 30
0.0
 11
35.073414856906
 21
60.053376963897
 31
0.0
1001
Sigma
1000

  0
LINE
  5
520
330
1F
100
AcDbEntity
  8
1
  6
Continuous
 62
     7
370
    30
100
AcDbLine
 10
39.07341485690599
 20
77.053376963897
 30
0.0
 11
35.073414856906
 21
77.053376963897
 31
0.0
1001
Sigma
1000

  0
LINE
  5
522
330
1F
100
AcDbEntity
  8
1
  6
Continuous
 62
     7
370
    30
100
AcDbLine
 10
39.07341485690599
 20
58.453376963897
 30
0.0
 11
35.073414856906
 21
58.453376963897
 31
0.0
1001
Sigma
1000

  0
LINE
  5
524
330
1F
100
AcDbEntity
  8
1
  6
Continuous
 62
     7
370
    30
100
AcDbLine
 10
39.07341485690599
 20
78.553376963897
 30
0.0
 11
35.073414856906
 21
78.553376963897
 31
0.0
1001
Sigma
1000

  0
LINE
  5
526
330
1F
100
AcDbEntity
  8
1
  6
Continuous
 62
     7
370
    30
100
AcDbLine
 10
39.07341485690599
 20
56.953376963887
 30
0.0
 11
35.073414856906
 21
56.953376963887
 31
0.0
1001
Sigma
1000

  0
LINE
  5
528
330
1F
100
AcDbEntity
  8
1
  6
Continuous
 62
     7
370
    30
100
AcDbLine
 10
39.07341485690599
 20
79.953376963897
 30
0.0
 11
35.073414856906
 21
79.953376963897
 31
0.0
1001
Sigma
1000

  0
LINE
  5
52A
330
1F
100
AcDbEntity
  8
1
  6
Continuous
 62
     7
370
    30
100
AcDbLine
 10
39.07341485690599
 20
55.553376963887
 30
0.0
 11
35.073414856906
 21
55.553376963887
 31
0.0
1001
Sigma
1000

  0
LINE
  5
52C
330
1F
100
AcDbEntity
  8
1
  6
Continuous
 62
     7
370
    30
100
AcDbLine
 10
39.07341485690599
 20
81.053376963894
 30
0.0
 11
35.073414856906
 21
81.053376963894
 31
0.0
1001
Sigma
1000

  0
LINE
  5
52E
330
1F
100
AcDbEntity
  8
1
  6
Continuous
 62
     7
370
    30
100
AcDbLine
 10
39.07341485690599
 20
54.453376963887
 30
0.0
 11
35.073414856906
 21
54.453376963887
 31
0.0
1001
Sigma
1000

  0
LINE
  5
530
330
1F
100
AcDbEntity
  8
1
  6
Continuous
 62
     7
370
    30
100
AcDbLine
 10
39.07341485690599
 20
81.95337696389399
 30
0.0
 11
35.073414856906
 21
81.95337696389399
 31
0.0
1001
Sigma
1000

  0
LINE
  5
532
330
1F
100
AcDbEntity
  8
1
  6
Continuous
 62
     7
370
    30
100
AcDbLine
 10
39.07341485690599
 20
53.553376963887
 30
0.0
 11
35.073414856906
 21
53.553376963887
 31
0.0
1001
Sigma
1000

  0
LINE
  5
534
330
1F
100
AcDbEntity
  8
1
  6
Continuous
 62
     7
370
    30
100
AcDbLine
 10
39.07341485690599
 20
82.653376963894
 30
0.0
 11
35.073414856906
 21
82.653376963894
 31
0.0
1001
Sigma
1000

  0
LINE
  5
536
330
1F
100
AcDbEntity
  8
1
  6
Continuous
 62
     7
370
    30
100
AcDbLine
 10
39.07341485690599
 20
52.853376963887
 30
0.0
 11
35.073414856906
 21
52.853376963887
 31
0.0
1001
Sigma
1000

  0
TEXT
  5
538
330
1F
100
AcDbEntity
  8
1
  6
Continuous
 62
     7
370
    30
100
AcDbText
 10
29.211690962268
 20
73.96265980450701
 30
0.0
 40
3.254399999999999
  1
O     C
 50
270.0
 41
0.8665191740412982
  7
KCADTEXTSTANDARD
100
AcDbText
1001
Sigma
1000

  0
LINE
  5
53A
330
1F
100
AcDbEntity
  8
1
  6
Continuous
 62
     7
370
    30
100
AcDbLine
 10
31.06071495097999
 20
71.617752426757
 30
0.0
 11
31.06071495097999
 21
67.753376963897
 31
0.0
1001
Sigma
1000

  0
LINE
  5
53C
330
1F
100
AcDbEntity
  8
1
  6
Continuous
 62
     7
370
    30
100
AcDbLine
 10
31.06071495097999
 20
71.617752426757
 30
0.0
 11
30.70264815888199
 21
70.074361081507
 31
0.0
1001
Sigma
1000

  0
LINE
  5
53E
330
1F
100
AcDbEntity
  8
1
  6
Continuous
 62
     7
370
    30
100
AcDbLine
 10
31.06071495097999
 20
71.617752426757
 30
0.0
 11
31.418781743077
 21
70.074361081507
 31
0.0
1001
Sigma
1000

  0
LINE
  5
540
330
1F
100
AcDbEntity
  8
1
  6
Continuous
 62
     7
370
    30
100
AcDbLine
 10
31.06071495097999
 20
63.889001501037
 30
0.0
 11
31.06071495097999
 21
67.753376963897
 31
0.0
1001
Sigma
1000

  0
LINE
  5
542
330
1F
100
AcDbEntity
  8
1
  6
Continuous
 62
     7
370
    30
100
AcDbLine
 10
31.06071495097999
 20
63.889001501037
 30
0.0
 11
30.70264815888199
 21
65.432392846277
 31
0.0
1001
Sigma
1000

  0
LINE
  5
544
330
1F
100
AcDbEntity
  8
1
  6
Continuous
 62
     7
370
    30
100
AcDbLine
 10
31.06071495097999
 20
63.889001501037
 30
0.0
 11
31.418781743077
 21
65.432392846277
 31
0.0
1001
Sigma
1000

  0
LINE
  5
546
330
1F
100
AcDbEntity
  8
1
  6
Continuous
 62
     7
370
    30
100
AcDbLine
 10
39.07341485690599
 20
69.753376963897
 30
0.0
 11
35.073414856906
 21
69.753376963897
 31
0.0
1001
Sigma
1000

  0
LINE
  5
548
330
1F
100
AcDbEntity
  8
1
  6
Continuous
 62
     7
370
    30
100
AcDbLine
 10
-23.42658514309
 20
51.753376963887
 30
0.0
 11
-13.42658514308999
 21
51.753376963897
 31
0.0
1001
Sigma
1000

  0
LINE
  5
54A
330
1F
100
AcDbEntity
  8
1
  6
Continuous
 62
     7
370
    30
100
AcDbLine
 10
-13.42658514308999
 20
83.75337696389398
 30
0.0
 11
-23.42658514309
 21
83.75337696389398
 31
0.0
1001
Sigma
1000

  0
LINE
  5
54C
330
1F
100
AcDbEntity
  8
1
  6
Continuous
 62
     7
370
    30
100
AcDbLine
 10
-37.07174643341
 20
51.003376963897
 30
0.0
 11
-37.07174643341
 21
84.503376963895
 31
0.0
1001
Sigma
1000

  0
LINE
  5
54E
330
1F
100
AcDbEntity
  8
1
  6
Continuous
 62
     7
370
    30
100
AcDbLine
 10
-37.07174643341
 20
83.75337696389398
 30
0.0
 11
-45.07174643341
 21
83.75337696389398
 31
0.0
1001
Sigma
1000

  0
LINE
  5
550
330
1F
100
AcDbEntity
  8
1
  6
Continuous
 62
     7
370
    30
100
AcDbLine
 10
-45.07174643341
 20
51.753376963887
 30
0.0
 11
-37.07174643341
 21
51.753376963897
 31
0.0
1001
Sigma
1000

  0
LINE
  5
552
330
1F
100
AcDbEntity
  8
1
  6
Continuous
 62
     7
370
    30
100
AcDbLine
 10
-57.07174643341
 20
83.75337696389398
 30
0.0
 11
-62.07174643341
 21
83.75337696389398
 31
0.0
1001
Sigma
1000

  0
LINE
  5
554
330
1F
100
AcDbEntity
  8
1
  6
Continuous
 62
     7
370
    30
100
AcDbLine
 10
-62.07174643341
 20
83.75337696389398
 30
0.0
 11
-62.07174643341
 21
51.753376963897
 31
0.0
1001
Sigma
1000

  0
LINE
  5
556
330
1F
100
AcDbEntity
  8
1
  6
Continuous
 62
     7
370
    30
100
AcDbLine
 10
-62.07174643341
 20
51.753376963897
 30
0.0
 11
-57.07174643341
 21
51.753376963897
 31
0.0
1001
Sigma
1000

  0
LINE
  5
558
330
1F
100
AcDbEntity
  8
1
  6
Continuous
 62
     7
370
    30
100
AcDbLine
 10
-62.07174643341
 20
82.75337696389398
 30
0.0
 11
-83.12674643341
 21
82.75337696389398
 31
0.0
1001
Sigma
1000

  0
LINE
  5
55A
330
1F
100
AcDbEntity
  8
1
  6
Continuous
 62
     7
370
    30
100
AcDbLine
 10
-83.12674643341
 20
82.75337696389398
 30
0.0
 11
-83.12674643341
 21
52.753376963897
 31
0.0
1001
Sigma
1000

  0
LINE
  5
55C
330
1F
100
AcDbEntity
  8
1
  6
Continuous
 62
     7
370
    30
100
AcDbLine
 10
-83.12674643341
 20
52.753376963897
 30
0.0
 11
-62.07174643341
 21
52.753376963897
 31
0.0
1001
Sigma
1000

  0
LINE
  5
55E
330
1F
100
AcDbEntity
  8
1
  6
Continuous
 62
     7
370
    30
100
AcDbLine
 10
-83.12674643341
 20
81.753376963895
 30
0.0
 11
-88.12674643341
 21
81.753376963895
 31
0.0
1001
Sigma
1000

  0
LINE
  5
560
330
1F
100
AcDbEntity
  8
1
  6
Continuous
 62
     7
370
    30
100
AcDbLine
 10
-88.12674643341
 20
81.753376963895
 30
0.0
 11
-88.12674643341
 21
53.75337696389699
 31
0.0
1001
Sigma
1000

  0
LINE
  5
562
330
1F
100
AcDbEntity
  8
1
  6
Continuous
 62
     7
370
    30
100
AcDbLine
 10
-88.12674643341
 20
53.75337696389699
 30
0.0
 11
-83.12674643341
 21
53.75337696389699
 31
0.0
1001
Sigma
1000

  0
LINE
  5
564
330
1F
100
AcDbEntity
  8
1
  6
Continuous
 62
     7
370
    30
100
AcDbLine
 10
-88.12674643341
 20
81.25337696389498
 30
0.0
 11
-98.12674643348
 21
81.25337696389498
 31
0.0
1001
Sigma
1000

  0
LINE
  5
566
330
1F
100
AcDbEntity
  8
1
  6
Continuous
 62
     7
370
    30
100
AcDbLine
 10
-98.12674643348
 20
54.253376963897
 30
0.0
 11
-88.12674643341
 21
54.253376963897
 31
0.0
1001
Sigma
1000

  0
LINE
  5
568
330
1F
100
AcDbEntity
  8
1
  6
Continuous
 62
     7
370
    30
100
AcDbLine
 10
-98.12674643348
 20
53.75337696389699
 30
0.0
 11
-98.12674643348
 21
81.753376963895
 31
0.0
1001
Sigma
1000

  0
LINE
  5
56A
330
1F
100
AcDbEntity
  8
1
  6
Continuous
 62
     7
370
    30
100
AcDbLine
 10
-98.12674643348
 20
81.753376963895
 30
0.0
 11
-105.1267464334999
 21
81.753376963895
 31
0.0
1001
Sigma
1000

  0
LINE
  5
56C
330
1F
100
AcDbEntity
  8
1
  6
Continuous
 62
     7
370
    30
100
AcDbLine
 10
-105.1267464334999
 20
81.753376963895
 30
0.0
 11
-105.1267464334999
 21
53.75337696389699
 31
0.0
1001
Sigma
1000

  0
LINE
  5
56E
330
1F
100
AcDbEntity
  8
1
  6
Continuous
 62
     7
370
    30
100
AcDbLine
 10
-105.1267464334999
 20
53.75337696389699
 30
0.0
 11
-98.12674643348
 21
53.75337696389699
 31
0.0
1001
Sigma
1000

  0
DIMENSION
  5
570
330
1F
100
AcDbEntity
  8
KCAD_DIMS
 62
     7
100
AcDbDimension
  2
*D55
 10
-105.1267464334999
 20
116.0525860226299
 30
0.0
 11
14.873334211722
 21
118.18588602263
 31
0.0
 70
    32
  1
\A1;239.7
 71
     5
 42
-1.0
  3
Standard
100
AcDbAlignedDimension
 13
134.87341485691
 23
81.753376963894
 33
0.0
 14
-105.1267464334999
 24
81.753376963895
 34
0.0
100
AcDbRotatedDimension
1001
Sigma
1000
DIM_TPHO
1001
KCAD_DIM_EXT
1002
{
1071
 20001212
1070
     0
1070
     2
1070
     2
1040
3.0
1040
0.0
1040
0.0
1040
0.0
1040
0.0
1040
0.0
1040
0.0
1040
0.0
1070
     0
1040
50.0
1040
-1.0
1013
1.0
1023
0.0
1033
0.0
1040
0.0
1013
1.0
1023
0.0
1033
0.0
1000
_None
1040
1.0
1040
240.0001612903699
1070
     1
1070
     0
1070
     0
1012
1.0
1022
0.0
1032
0.0
1013
1.0
1023
0.0
1033
0.0
1002
}
1001
ACAD
1000
DSTYLE
1002
{
1070
    41
1040
3.0
1070
    42
1040
0.4
1070
    43
1040
8.0
1070
    44
1040
0.4
1070
    73
1070
     0
1070
    74
1070
     0
1070
    77
1070
     1
1070
    78
1070
     8
1070
    79
1070
     2
1070
   140
1040
3.2
1070
   141
1040
2.5
1070
   145
1040
0.5001000000000001
1070
   146
1040
0.667
1070
   147
1040
0.5333000000000001
1070
   172
1070
     1
1070
   173
1070
     1
1070
   179
1070
     3
1070
   271
1070
     3
1070
   272
1070
     3
1070
   279
1070
     2
1070
   284
1070
     8
1070
   340
1000
189
1002
}
  0
DIMENSION
  5
5AC
330
1F
100
AcDbEntity
  8
KCAD_DIMS
 62
     7
100
AcDbDimension
  2
*D44
 10
-105.1267464334999
 20
35.830764826417
 30
0.0
 11
-139.395020187
 21
37.964064826417
 31
0.0
 70
    32
  1
\A1;W.D.=90
 71
     5
 42
-1.0
  3
Standard
100
AcDbAlignedDimension
 13
-173.6632939405
 23
60.527446988507
 33
0.0
 14
-105.1267464334999
 24
53.75337696389699
 34
0.0
100
AcDbRotatedDimension
1001
Sigma
1000
DIM_TPHO
1001
KCAD_DIM_EXT
1002
{
1071
 20001212
1070
     0
1070
     2
1070
     2
1040
3.0
1040
0.0
1040
0.0
1040
0.0
1040
0.0
1040
0.0
1040
0.0
1040
0.0
1070
     0
1040
50.0
1040
-1.0
1013
1.0
1023
0.0
1033
0.0
1040
0.0
1013
1.0
1023
0.0
1033
0.0
1000
_None
1040
1.0
1040
68.53654750701
1070
     1
1070
     0
1070
     0
1012
1.0
1022
0.0
1032
0.0
1013
1.0
1023
0.0
1033
0.0
1002
}
1001
ACAD
1000
DSTYLE
1002
{
1070
    41
1040
3.0
1070
    42
1040
0.4
1070
    43
1040
8.0
1070
    44
1040
0.4
1070
    45
1040
0.0
1070
    73
1070
     0
1070
    74
1070
     0
1070
    77
1070
     1
1070
    78
1070
     8
1070
    79
1070
     2
1070
   140
1040
3.2
1070
   141
1040
2.5
1070
   145
1040
0.0001
1070
   146
1040
0.667
1070
   147
1040
0.5333000000000001
1070
   172
1070
     1
1070
   173
1070
     1
1070
   179
1070
     3
1070
   271
1070
     3
1070
   272
1070
     3
1070
   279
1070
     2
1070
   284
1070
     8
1070
   289
1070
     2
1070
   340
1005
189
1070
   341
1005
21
1070
   343
1005
12D
1070
   344
1005
12D
1002
}
  0
TEXT
  5
5E8
330
1F
100
AcDbEntity
  8
1
  6
Continuous
 62
     7
370
    30
100
AcDbText
 10
-42.47524941571
 20
71.50485636782699
 30
0.0
 40
2.7
  1
４．５×
 50
270.0
 41
0.6333333333333333
  7
KCADTEXTSTANDARD
100
AcDbText
1001
Sigma
1000

  0
DIMENSION
  5
5EA
330
1F
100
AcDbEntity
  8
KCAD_DIMS
 62
     7
100
AcDbDimension
  2
*D60
 10
-125.9001034873999
 20
81.753376963895
 30
0.0
 11
-128.0334034873999
 21
68.781326450277
 31
0.0
 70
    32
  1
<>
 71
     5
 42
-1.0
 53
90.0
  3
Standard
100
AcDbAlignedDimension
 13
-105.1267464334999
 23
53.75337696389699
 33
0.0
 14
-105.1267464334999
 24
81.753376963895
 34
0.0
 50
90.0
100
AcDbRotatedDimension
1001
Sigma
1000
DIM_TPVO
1001
KCAD_DIM_EXT
1002
{
1071
 20001212
1070
     0
1070
     2
1070
     2
1040
3.0
1040
0.0
1040
0.0
1040
0.0
1040
0.0
1040
0.0
1040
0.0
1040
0.0
1070
     0
1040
50.0
1040
-1.0
1013
1.0
1023
0.0
1033
0.0
1040
0.0
1013
1.0
1023
0.0
1033
0.0
1000
_None
1040
1.0
1040
28.0
1070
     0
1070
     0
1070
     0
1012
1.0
1022
0.0
1032
0.0
1013
1.0
1023
0.0
1033
0.0
1002
}
1001
ACAD
1000
DSTYLE
1002
{
1070
     3
1000
%%c<>
1070
    41
1040
3.0
1070
    42
1040
0.4
1070
    43
1040
8.0
1070
    44
1040
0.4
1070
    73
1070
     0
1070
    74
1070
     0
1070
    77
1070
     1
1070
    78
1070
     8
1070
    79
1070
     2
1070
   140
1040
3.2
1070
   141
1040
2.5
1070
   145
1040
0.5001000000000001
1070
   146
1040
0.667
1070
   147
1040
0.5333000000000001
1070
   172
1070
     1
1070
   173
1070
     1
1070
   179
1070
     3
1070
   271
1070
     3
1070
   272
1070
     3
1070
   279
1070
     2
1070
   284
1070
     8
1070
   340
1000
189
1002
}
  0
DIMENSION
  5
626
330
1F
100
AcDbEntity
  8
KCAD_DIMS
 62
     7
100
AcDbDimension
  2
*D59
 10
-105.1267464334999
 20
99.878651603787
 30
0.0
 11
-94.12674643345999
 21
102.011951603787
 31
0.0
 70
    32
  1
<>
 71
     5
 42
-1.0
  3
Standard
100
AcDbAlignedDimension
 13
-83.12674643341
 23
82.75337696389398
 33
0.0
 14
-105.1267464334999
 24
81.753376963895
 34
0.0
100
AcDbRotatedDimension
1001
Sigma
1000
DIM_TPHO
1001
KCAD_DIM_EXT
1002
{
1071
 20001212
1070
     0
1070
     2
1070
     2
1040
3.0
1040
0.0
1040
0.0
1040
0.0
1040
0.0
1040
0.0
1040
0.0
1040
0.0
1070
     0
1040
50.0
1040
-1.0
1013
1.0
1023
0.0
1033
0.0
1040
0.0
1013
1.0
1023
0.0
1033
0.0
1000
_None
1040
1.0
1040
22.0
1070
     0
1070
     0
1070
     0
1012
1.0
1022
0.0
1032
0.0
1013
1.0
1023
0.0
1033
0.0
1002
}
1001
ACAD
1000
DSTYLE
1002
{
1070
    41
1040
3.0
1070
    42
1040
0.4
1070
    43
1040
8.0
1070
    44
1040
0.4
1070
    73
1070
     0
1070
    74
1070
     0
1070
    77
1070
     1
1070
    78
1070
     8
1070
    79
1070
     2
1070
   140
1040
3.2
1070
   141
1040
2.5
1070
   145
1040
0.5001000000000001
1070
   146
1040
0.667
1070
   147
1040
0.5333000000000001
1070
   172
1070
     1
1070
   173
1070
     1
1070
   179
1070
     3
1070
   271
1070
     3
1070
   272
1070
     3
1070
   279
1070
     2
1070
   284
1070
     8
1070
   340
1000
189
1002
}
  0
DIMENSION
  5
662
330
1F
100
AcDbEntity
  8
KCAD_DIMS
 62
     7
100
AcDbDimension
  2
*D58
 10
-37.07174643341
 20
99.878651603787
 30
0.0
 11
-60.09924643341
 21
102.011951603787
 31
0.0
 70
    32
  1
\A1;45
 71
     5
 42
-1.0
  3
Standard
100
AcDbAlignedDimension
 13
-83.12674643341
 23
82.75337696389398
 33
0.0
 14
-37.07174643341
 24
84.503376963895
 34
0.0
100
AcDbRotatedDimension
1001
Sigma
1000
DIM_TPHO
1001
KCAD_DIM_EXT
1002
{
1071
 20001212
1070
     0
1070
     2
1070
     2
1040
3.0
1040
0.0
1040
0.0
1040
0.0
1040
0.0
1040
0.0
1040
0.0
1040
0.0
1070
     0
1040
50.0
1040
-1.0
1013
1.0
1023
0.0
1033
0.0
1040
0.0
1013
1.0
1023
0.0
1033
0.0
1000
_None
1040
1.0
1040
46.054999999998
1070
     1
1070
     0
1070
     0
1012
1.0
1022
0.0
1032
0.0
1013
1.0
1023
0.0
1033
0.0
1002
}
1001
ACAD
1000
DSTYLE
1002
{
1070
    41
1040
3.0
1070
    42
1040
0.4
1070
    43
1040
8.0
1070
    44
1040
0.4
1070
    73
1070
     0
1070
    74
1070
     0
1070
    77
1070
     1
1070
    78
1070
     8
1070
    79
1070
     2
1070
   140
1040
3.2
1070
   141
1040
2.5
1070
   145
1040
0.5001000000000001
1070
   146
1040
0.667
1070
   147
1040
0.5333000000000001
1070
   172
1070
     1
1070
   173
1070
     1
1070
   179
1070
     3
1070
   271
1070
     3
1070
   272
1070
     3
1070
   279
1070
     2
1070
   284
1070
     8
1070
   340
1000
189
1002
}
  0
LINE
  5
69E
330
1F
100
AcDbEntity
  8
1
  6
Continuous
 62
     7
370
    30
100
AcDbLine
 10
22.323414856906
 20
87.753376963895
 30
0.0
 11
-13.42658514308999
 21
87.753376963895
 31
0.0
1001
Sigma
1000

  0
LINE
  5
6A0
330
1F
100
AcDbEntity
  8
1
  6
Continuous
 62
     7
370
    30
100
AcDbLine
 10
22.323414856906
 20
47.753376963897
 30
0.0
 11
-13.42658514308999
 21
47.753376963897
 31
0.0
1001
Sigma
1000

  0
LINE
  5
6A2
330
1F
100
AcDbEntity
  8
1
  6
Continuous
 62
     7
370
    30
100
AcDbLine
 10
22.323414856906
 20
47.753376963897
 30
0.0
 11
22.323414856906
 21
87.753376963895
 31
0.0
1001
Sigma
1000

  0
LINE
  5
6A4
330
1F
100
AcDbEntity
  8
1
  6
Continuous
 62
     7
370
    30
100
AcDbLine
 10
-13.42658514308999
 20
87.753376963895
 30
0.0
 11
-13.42658514308999
 21
47.753376963897
 31
0.0
1001
Sigma
1000

  0
CIRCLE
  5
6A6
330
1F
100
AcDbEntity
  8
1
  6
Continuous
 62
     7
370
    30
100
AcDbCircle
 10
4.448414856907099
 20
67.753376963897
 30
0.0
 40
11.75
1001
Sigma
1000

  0
LINE
  5
6A8
330
1F
100
AcDbEntity
  8
1
  6
Continuous
 62
     7
370
    30
100
AcDbLine
 10
-7.551585143091999
 20
47.753376963897
 30
0.0
 11
-7.551585143091999
 21
37.753376963897
 31
0.0
1001
Sigma
1000

  0
LINE
  5
6AA
330
1F
100
AcDbEntity
  8
1
  6
Continuous
 62
     7
370
    30
100
AcDbLine
 10
16.448414856907
 20
37.753376963897
 30
0.0
 11
16.448414856907
 21
47.753376963897
 31
0.0
1001
Sigma
1000

  0
LINE
  5
6AC
330
1F
100
AcDbEntity
  8
1
  6
Continuous
 62
     7
370
    30
100
AcDbLine
 10
19.84841485690699
 20
37.753376963897
 30
0.0
 11
-10.95158514309
 21
37.753376963897
 31
0.0
1001
Sigma
1000

  0
LINE
  5
6AE
330
1F
100
AcDbEntity
  8
1
  6
Continuous
 62
     7
370
    30
100
AcDbLine
 10
-10.95158514309
 20
37.753376963897
 30
0.0
 11
-10.95158514309
 21
30.253376963897
 31
0.0
1001
Sigma
1000

  0
LINE
  5
6B0
330
1F
100
AcDbEntity
  8
1
  6
Continuous
 62
     7
370
    30
100
AcDbLine
 10
19.84841485690699
 20
30.253376963897
 30
0.0
 11
19.84841485690699
 21
37.753376963897
 31
0.0
1001
Sigma
1000

  0
LINE
  5
6B2
330
1F
100
AcDbEntity
  8
1
  6
Continuous
 62
     7
370
    30
100
AcDbLine
 10
20.34841485690699
 20
30.253376963897
 30
0.0
 11
-11.45158514308999
 21
30.253376963897
 31
0.0
1001
Sigma
1000

  0
LINE
  5
6B4
330
1F
100
AcDbEntity
  8
1
  6
Continuous
 62
     7
370
    30
100
AcDbLine
 10
-11.45158514308999
 20
30.253376963897
 30
0.0
 11
-11.45158514308999
 21
21.253376963897
 31
0.0
1001
Sigma
1000

  0
LINE
  5
6B6
330
1F
100
AcDbEntity
  8
1
  6
Continuous
 62
     7
370
    30
100
AcDbLine
 10
-11.45158514308999
 20
21.253376963897
 30
0.0
 11
20.34841485690699
 21
21.253376963897
 31
0.0
1001
Sigma
1000

  0
LINE
  5
6B8
330
1F
100
AcDbEntity
  8
1
  6
Continuous
 62
     7
370
    30
100
AcDbLine
 10
20.34841485690699
 20
21.253376963897
 30
0.0
 11
20.34841485690699
 21
30.253376963897
 31
0.0
1001
Sigma
1000

  0
LINE
  5
6BA
330
1F
100
AcDbEntity
  8
1
  6
Continuous
 62
     7
370
    30
100
AcDbLine
 10
-10.95158514309
 20
21.253376963897
 30
0.0
 11
-10.95158514309
 21
12.253376963887
 31
0.0
1001
Sigma
1000

  0
LINE
  5
6BC
330
1F
100
AcDbEntity
  8
1
  6
Continuous
 62
     7
370
    30
100
AcDbLine
 10
19.84841485690699
 20
12.253376963887
 30
0.0
 11
19.84841485690699
 21
21.253376963897
 31
0.0
1001
Sigma
1000

  0
LINE
  5
6BE
330
1F
100
AcDbEntity
  8
1
  6
Continuous
 62
     7
370
    30
100
AcDbLine
 10
20.34841485690699
 20
12.253376963887
 30
0.0
 11
-11.45158514308999
 21
12.253376963887
 31
0.0
1001
Sigma
1000

  0
LINE
  5
6C0
330
1F
100
AcDbEntity
  8
1
  6
Continuous
 62
     7
370
    30
100
AcDbLine
 10
-11.45158514308999
 20
12.253376963887
 30
0.0
 11
-11.45158514308999
 21
3.2533769638867
 31
0.0
1001
Sigma
1000

  0
LINE
  5
6C2
330
1F
100
AcDbEntity
  8
1
  6
Continuous
 62
     7
370
    30
100
AcDbLine
 10
-11.45158514308999
 20
3.2533769638867
 30
0.0
 11
20.34841485690699
 21
3.2533769638867
 31
0.0
1001
Sigma
1000

  0
LINE
  5
6C4
330
1F
100
AcDbEntity
  8
1
  6
Continuous
 62
     7
370
    30
100
AcDbLine
 10
20.34841485690699
 20
3.2533769638867
 30
0.0
 11
20.34841485690699
 21
12.253376963887
 31
0.0
1001
Sigma
1000

  0
LINE
  5
6C6
330
1F
100
AcDbEntity
  8
1
  6
Continuous
 62
     7
370
    30
100
AcDbLine
 10
19.84841485690699
 20
-1.246623036112999
 30
0.0
 11
4.448414856907099
 21
-1.246623036112999
 31
0.0
1001
Sigma
1000

  0
LINE
  5
6C8
330
1F
100
AcDbEntity
  8
1
  6
Continuous
 62
     7
370
    30
100
AcDbLine
 10
19.84841485690699
 20
-1.246623036112999
 30
0.0
 11
19.84841485690699
 21
3.2533769638867
 31
0.0
1001
Sigma
1000

  0
LINE
  5
6CA
330
1F
100
AcDbEntity
  8
1
  6
Continuous
 62
     7
370
    30
100
AcDbLine
 10
19.84841485690699
 20
-6.746623036113
 30
0.0
 11
4.448414856907099
 21
-6.746623036113
 31
0.0
1001
Sigma
1000

  0
LINE
  5
6CC
330
1F
100
AcDbEntity
  8
1
  6
Continuous
 62
     7
370
    30
100
AcDbLine
 10
-7.951585143095
 20
-79.74662303621
 30
0.0
 11
16.84841485690699
 21
-79.74662303621
 31
0.0
1001
Sigma
1000

  0
LINE
  5
6CE
330
1F
100
AcDbEntity
  8
1
  6
Continuous
 62
     7
370
    30
100
AcDbLine
 10
16.84841485690699
 20
-79.74662303621
 30
0.0
 11
19.84841485690699
 21
-76.74662303621
 31
0.0
1001
Sigma
1000

  0
LINE
  5
6D0
330
1F
100
AcDbEntity
  8
1
  6
Continuous
 62
     7
370
    30
100
AcDbLine
 10
-7.951585143095
 20
-79.74662303621
 30
0.0
 11
-10.95158514309
 21
-76.74662303621
 31
0.0
1001
Sigma
1000

  0
LINE
  5
6D2
330
1F
100
AcDbEntity
  8
1
  6
Continuous
 62
     7
370
    30
100
AcDbLine
 10
-10.95158514309
 20
-76.74662303621
 30
0.0
 11
19.84841485690699
 21
-76.74662303621
 31
0.0
1001
Sigma
1000

  0
LINE
  5
6D4
330
1F
100
AcDbEntity
  8
1
  6
Continuous
 62
     7
370
    30
100
AcDbLine
 10
4.448414856907099
 20
-1.246623036112999
 30
0.0
 11
4.448414856907099
 21
-6.746623036113
 31
0.0
1001
Sigma
1000

  0
LINE
  5
6D8
102
{ACAD_REACTORS
330
6D6
330
6D7
102
}
330
1F
100
AcDbEntity
  8
1
  6
Continuous
 62
     7
370
    15
100
AcDbLine
 10
-2.070870185427
 20
-79.74662303621
 30
0.0
 11
-8.534174666416998
 21
-90.23219793011
 31
0.0
1001
Sigma
1000

  0
INSERT
  5
6DA
102
{ACAD_REACTORS
330
6D6
330
6D7
102
}
330
1F
100
AcDbEntity
  8
1
  6
Continuous
 62
     7
370
    15
100
AcDbBlockReference
  2
_OPEN30
 10
-2.070870185427
 20
-79.74662303621
 30
0.0
 41
3.0
 42
3.0
 43
3.0
 50
58.35033502036235
1001
Sigma
1000
_BRRS
  0
TEXT
  5
6DC
330
1F
100
AcDbEntity
  8
1
  6
Continuous
 62
     7
370
    15
100
AcDbText
 10
-51.69806301270895
 20
-61.91107234131
 30
0.0
 40
4.5
  1
φ１３
 50
0.0000000000001
 41
0.8179047811031342
  7
KCADTEXTSTANDARD
100
AcDbText
1001
Sigma
1000

  0
LINE
  5
6DE
330
1F
100
AcDbEntity
  8
1
  6
Continuous
 62
     7
370
    15
100
AcDbLine
 10
-22.70513137665
 20
-64.14755079711
 30
0.0
 11
-65.89304798410998
 21
-64.14755079711
 31
0.0
1001
Sigma
1000

  0
TEXT
  5
6E0
330
1F
100
AcDbEntity
  8
1
  6
Continuous
 62
     7
370
    15
100
AcDbText
 10
-61.81363925508134
 20
-70.63415134291
 30
0.0
 40
4.5
  1
ライトガイド差込
 50
0.0000000000001
 41
0.8360000251978634
  7
KCADTEXTSTANDARD
100
AcDbText
1001
Sigma
1000

  0
LINE
  5
6E2
330
1F
100
AcDbEntity
  8
1
  6
Continuous
 62
     7
370
    15
100
AcDbLine
 10
-8.534174666416998
 20
-90.23219793011
 30
0.0
 11
-22.70513137665
 21
-64.14755079711
 31
0.0
1001
Sigma
1000

  0
LINE
  5
6E4
330
1F
100
AcDbEntity
  8
1
  6
HIDDEN
 62
     7
370
    30
100
AcDbLine
 10
-2.051585143092999
 20
-79.74662303621
 30
0.0
 11
-2.051585143092999
 21
-64.53187610781
 31
0.0
1001
Sigma
1000

  0
LINE
  5
6E6
330
1F
100
AcDbEntity
  8
1
  6
HIDDEN
 62
     7
370
    30
100
AcDbLine
 10
10.948414856906
 20
-79.74662303621
 30
0.0
 11
10.948414856906
 21
-64.53187610781
 31
0.0
1001
Sigma
1000

  0
DIMENSION
  5
6E8
330
1F
100
AcDbEntity
  8
KCAD_DIMS
 62
     7
100
AcDbDimension
  2
*D48
 10
45.72501410430899
 20
47.753376963897
 30
0.0
 11
43.59168110430899
 21
-15.99662303610999
 31
0.0
 70
    32
 71
     5
 42
-1.0
 53
90.0
  3
Standard
100
AcDbAlignedDimension
 13
16.84841485690699
 23
-79.74662303621
 33
0.0
 14
22.323414856906
 24
47.753376963897
 34
0.0
 50
90.0
100
AcDbRotatedDimension
1001
Sigma
1000
DIM_TPVO
1001
KCAD_DIM_EXT
1002
{
1071
 20001212
1070
     0
1070
     2
1070
     2
1040
3.0
1040
0.0
1040
0.0
1040
0.0
1040
0.0
1040
0.0
1040
0.0
1040
0.0
1070
     0
1040
50.0
1040
-1.0
1013
1.0
1023
0.0
1033
0.0
1040
0.0
1013
1.0
1023
0.0
1033
0.0
1000
_None
1040
1.0
1040
127.50000000006
1070
     0
1070
     0
1070
     0
1012
1.0
1022
0.0
1032
0.0
1013
1.0
1023
0.0
1033
0.0
1002
}
1001
ACAD
1000
DSTYLE
1002
{
1070
    41
1040
3.0
1070
    42
1040
1.0
1070
    43
1040
8.0
1070
    44
1040
1.0
1070
    45
1040
0.0
1070
    73
1070
     0
1070
    74
1070
     0
1070
    77
1070
     1
1070
    78
1070
     8
1070
    79
1070
     2
1070
   140
1040
3.2
1070
   141
1040
2.5
1070
   145
1040
0.0001
1070
   146
1040
0.667
1070
   147
1040
0.5333000000000001
1070
   172
1070
     1
1070
   173
1070
     1
1070
   179
1070
     3
1070
   271
1070
     3
1070
   272
1070
     3
1070
   279
1070
     2
1070
   284
1070
     8
1070
   289
1070
     2
1070
   340
1005
189
1070
   341
1005
21
1070
   343
1005
12D
1070
   344
1005
12D
1002
}
  0
DIMENSION
  5
724
330
1F
100
AcDbEntity
  8
KCAD_DIMS
 62
     7
100
AcDbDimension
  2
*D49
 10
45.72501410430901
 20
87.753376963895
 30
0.0
 11
43.59168110430899
 21
96.71906163372
 31
0.0
 70
    32
 71
     5
 42
-1.0
 53
90.0
  3
Standard
100
AcDbAlignedDimension
 13
22.323414856906
 23
47.753376963897
 33
0.0
 14
22.323414856906
 24
87.753376963895
 34
0.0
 50
90.0
100
AcDbRotatedDimension
1001
Sigma
1000
DIM_TPVO
1001
KCAD_DIM_EXT
1002
{
1071
 20001212
1070
     0
1070
     1
1070
     1
1040
3.0
1040
5.0
1040
11.96568492198099
1040
0.0
1040
0.0
1040
0.0
1040
0.0
1040
0.0
1070
     0
1040
50.0
1040
-1.0
1013
1.0
1023
0.0
1033
0.0
1040
0.0
1013
1.0
1023
0.0
1033
0.0
1000
_None
1040
1.0
1040
40.0
1070
     0
1070
     0
1070
     0
1012
1.0
1022
0.0
1032
0.0
1013
1.0
1023
0.0
1033
0.0
1002
}
1001
ACAD
1000
DSTYLE
1002
{
1070
     3
1000
%%c<>
1070
    41
1040
3.0
1070
    42
1040
1.0
1070
    43
1040
8.0
1070
    44
1040
1.0
1070
    45
1040
0.0
1070
    73
1070
     0
1070
    74
1070
     0
1070
    77
1070
     1
1070
    78
1070
     8
1070
    79
1070
     2
1070
   140
1040
3.2
1070
   141
1040
2.5
1070
   145
1040
0.0001
1070
   146
1040
0.667
1070
   147
1040
0.5333000000000001
1070
   172
1070
     1
1070
   173
1070
     1
1070
   179
1070
     3
1070
   271
1070
     3
1070
   272
1070
     3
1070
   279
1070
     2
1070
   284
1070
     8
1070
   289
1070
     2
1070
   340
1005
189
1070
   341
1005
21
1070
   343
1005
12D
1070
   344
1005
12D
1002
}
  0
DIMENSION
  5
762
330
1F
100
AcDbEntity
  8
KCAD_DIMS
 62
     7
100
AcDbDimension
  2
*D56
 10
134.87341485691
 20
98.025775110122
 30
0.0
 11
129.9009268972876
 21
101.3582552863942
 31
0.0
 70
    32
 71
     5
 42
-1.0
  3
Standard
100
AcDbAlignedDimension
 13
124.87341485691
 23
81.753376963894
 33
0.0
 14
134.87341485691
 24
81.753376963894
 34
0.0
100
AcDbRotatedDimension
1001
Sigma
1000
DIM_TPHO
1001
KCAD_DIM_EXT
1002
{
1071
 20001212
1070
     0
1070
     1
1070
     1
1040
3.0
1040
9.6694876121006
1040
5.0
1040
0.0
1040
0.0
1040
0.0
1040
0.0
1040
0.0
1070
     0
1040
50.0
1040
-1.0
1013
1.0
1023
0.0
1033
0.0
1040
0.0
1013
1.0
1023
0.0
1033
0.0
1000
_None
1040
1.0
1040
10.0
1070
     0
1070
     0
1070
     0
1012
1.0
1022
0.0
1032
0.0
1013
1.0
1023
0.0
1033
0.0
1002
}
1001
ACAD
1000
DSTYLE
1002
{
1070
    41
1040
3.0
1070
    42
1040
0.4
1070
    43
1040
8.0
1070
    44
1040
0.4
1070
    45
1040
0.0
1070
    73
1070
     0
1070
    74
1070
     0
1070
    77
1070
     1
1070
    78
1070
     8
1070
    79
1070
     2
1070
   140
1040
3.2
1070
   141
1040
2.5
1070
   145
1040
0.0001
1070
   146
1040
0.667
1070
   147
1040
0.5333000000000001
1070
   172
1070
     1
1070
   173
1070
     1
1070
   179
1070
     3
1070
   271
1070
     3
1070
   272
1070
     3
1070
   279
1070
     2
1070
   284
1070
     8
1070
   289
1070
     2
1070
   340
1005
189
1070
   341
1005
21
1070
   343
1005
12D
1070
   344
1005
12D
1002
}
  0
LINE
  5
7A0
330
1F
100
AcDbEntity
  8
1
  6
Continuous
 62
     7
370
    30
100
AcDbLine
 10
120.07341485689
 20
81.603376963894
 30
0.0
 11
120.07341485689
 21
84.253376963894
 31
0.0
1001
Sigma
1000

  0
LINE
  5
7A2
330
1F
100
AcDbEntity
  8
1
  6
Continuous
 62
     7
370
    30
100
AcDbLine
 10
120.07341485689
 20
84.253376963894
 30
0.0
 11
118.87341485689
 21
84.253376963894
 31
0.0
1001
Sigma
1000

  0
LINE
  5
7A4
330
1F
100
AcDbEntity
  8
1
  6
Continuous
 62
     7
370
    30
100
AcDbLine
 10
118.87341485689
 20
84.253376963894
 30
0.0
 11
118.5734148568899
 21
84.553376963894
 31
0.0
1001
Sigma
1000

  0
LINE
  5
7A6
330
1F
100
AcDbEntity
  8
1
  6
Continuous
 62
     7
370
    30
100
AcDbLine
 10
118.5734148568899
 20
84.553376963894
 30
0.0
 11
118.5734148568899
 21
89.953376963894
 31
0.0
1001
Sigma
1000

  0
LINE
  5
7A8
330
1F
100
AcDbEntity
  8
1
  6
Continuous
 62
     7
370
    30
100
AcDbLine
 10
118.5734148568899
 20
89.953376963894
 30
0.0
 11
118.87341485689
 21
90.25337696389398
 31
0.0
1001
Sigma
1000

  0
LINE
  5
7AA
330
1F
100
AcDbEntity
  8
1
  6
Continuous
 62
     7
370
    30
100
AcDbLine
 10
118.87341485689
 20
90.25337696389398
 30
0.0
 11
124.27341485689
 21
90.25337696389398
 31
0.0
1001
Sigma
1000

  0
LINE
  5
7AC
330
1F
100
AcDbEntity
  8
1
  6
Continuous
 62
     7
370
    30
100
AcDbLine
 10
124.27341485689
 20
90.25337696389398
 30
0.0
 11
124.5734148568899
 21
89.953376963894
 31
0.0
1001
Sigma
1000

  0
LINE
  5
7AE
330
1F
100
AcDbEntity
  8
1
  6
Continuous
 62
     7
370
    30
100
AcDbLine
 10
124.5734148568899
 20
89.953376963894
 30
0.0
 11
124.5734148568899
 21
84.553376963894
 31
0.0
1001
Sigma
1000

  0
LINE
  5
7B0
330
1F
100
AcDbEntity
  8
1
  6
Continuous
 62
     7
370
    30
100
AcDbLine
 10
124.5734148568899
 20
84.553376963894
 30
0.0
 11
124.27341485689
 21
84.253376963894
 31
0.0
1001
Sigma
1000

  0
LINE
  5
7B2
330
1F
100
AcDbEntity
  8
1
  6
Continuous
 62
     7
370
    30
100
AcDbLine
 10
123.07341485689
 20
84.253376963894
 30
0.0
 11
123.07341485689
 21
81.603376963894
 31
0.0
1001
Sigma
1000

  0
LINE
  5
7B4
330
1F
100
AcDbEntity
  8
1
  6
Continuous
 62
     7
370
    30
100
AcDbLine
 10
124.5734148568899
 20
81.603376963894
 30
0.0
 11
124.5734148568899
 21
81.753376963894
 31
0.0
1001
Sigma
1000

  0
LINE
  5
7B6
330
1F
100
AcDbEntity
  8
1
  6
Continuous
 62
     7
370
    30
100
AcDbLine
 10
124.5734148568899
 20
81.753376963894
 30
0.0
 11
125.5734148568899
 21
82.75337696389398
 31
0.0
1001
Sigma
1000

  0
LINE
  5
7B8
330
1F
100
AcDbEntity
  8
1
  6
Continuous
 62
     7
370
    30
100
AcDbLine
 10
125.5734148568899
 20
82.75337696389398
 30
0.0
 11
133.57341485689
 21
82.75337696389398
 31
0.0
1001
Sigma
1000

  0
LINE
  5
7BA
330
1F
100
AcDbEntity
  8
1
  6
Continuous
 62
     7
370
    30
100
AcDbLine
 10
133.57341485689
 20
82.75337696389398
 30
0.0
 11
134.57341485689
 21
81.753376963894
 31
0.0
1001
Sigma
1000

  0
LINE
  5
7BC
330
1F
100
AcDbEntity
  8
1
  6
Continuous
 62
     7
370
    30
100
AcDbLine
 10
134.57341485689
 20
81.753376963894
 30
0.0
 11
134.57341485689
 21
79.703376963897
 31
0.0
1001
Sigma
1000

  0
LINE
  5
7BE
330
1F
100
AcDbEntity
  8
1
  6
Continuous
 62
     7
370
    30
100
AcDbLine
 10
134.57341485689
 20
79.703376963897
 30
0.0
 11
135.3234148568899
 21
79.703376963897
 31
0.0
1001
Sigma
1000

  0
LINE
  5
7C0
330
1F
100
AcDbEntity
  8
1
  6
Continuous
 62
     7
370
    30
100
AcDbLine
 10
135.3234148568899
 20
79.703376963897
 30
0.0
 11
135.3234148568899
 21
80.45337696389699
 31
0.0
1001
Sigma
1000

  0
LINE
  5
7C2
330
1F
100
AcDbEntity
  8
1
  6
Continuous
 62
     7
370
    30
100
AcDbLine
 10
135.3234148568899
 20
80.45337696389699
 30
0.0
 11
137.82341485689
 21
80.45337696389699
 31
0.0
1001
Sigma
1000

  0
LINE
  5
7C4
330
1F
100
AcDbEntity
  8
1
  6
Continuous
 62
     7
370
    30
100
AcDbLine
 10
137.82341485689
 20
80.45337696389699
 30
0.0
 11
138.57341485689
 21
79.703376963897
 31
0.0
1001
Sigma
1000

  0
LINE
  5
7C6
330
1F
100
AcDbEntity
  8
1
  6
Continuous
 62
     7
370
    30
100
AcDbLine
 10
138.57341485689
 20
79.703376963897
 30
0.0
 11
138.57341485689
 21
55.80337696388699
 31
0.0
1001
Sigma
1000

  0
LINE
  5
7C8
330
1F
100
AcDbEntity
  8
1
  6
Continuous
 62
     7
370
    30
100
AcDbLine
 10
124.5734148568899
 20
53.903376963897
 30
0.0
 11
124.5734148568899
 21
53.75337696389699
 31
0.0
1001
Sigma
1000

  0
LINE
  5
7CA
330
1F
100
AcDbEntity
  8
1
  6
Continuous
 62
     7
370
    30
100
AcDbLine
 10
124.5734148568899
 20
53.75337696389699
 30
0.0
 11
125.5734148568899
 21
52.753376963897
 31
0.0
1001
Sigma
1000

  0
LINE
  5
7CC
330
1F
100
AcDbEntity
  8
1
  6
Continuous
 62
     7
370
    30
100
AcDbLine
 10
125.5734148568899
 20
52.753376963897
 30
0.0
 11
133.57341485689
 21
52.753376963897
 31
0.0
1001
Sigma
1000

  0
LINE
  5
7CE
330
1F
100
AcDbEntity
  8
1
  6
Continuous
 62
     7
370
    30
100
AcDbLine
 10
133.57341485689
 20
52.753376963897
 30
0.0
 11
134.57341485689
 21
53.75337696389699
 31
0.0
1001
Sigma
1000

  0
LINE
  5
7D0
330
1F
100
AcDbEntity
  8
1
  6
Continuous
 62
     7
370
    30
100
AcDbLine
 10
134.57341485689
 20
53.75337696389699
 30
0.0
 11
134.57341485689
 21
55.803376963897
 31
0.0
1001
Sigma
1000

  0
LINE
  5
7D2
330
1F
100
AcDbEntity
  8
1
  6
Continuous
 62
     7
370
    30
100
AcDbLine
 10
134.57341485689
 20
55.803376963897
 30
0.0
 11
135.3234148568899
 21
55.803376963897
 31
0.0
1001
Sigma
1000

  0
LINE
  5
7D4
330
1F
100
AcDbEntity
  8
1
  6
Continuous
 62
     7
370
    30
100
AcDbLine
 10
135.3234148568899
 20
55.803376963897
 30
0.0
 11
135.3234148568899
 21
55.053376963897
 31
0.0
1001
Sigma
1000

  0
LINE
  5
7D6
330
1F
100
AcDbEntity
  8
1
  6
Continuous
 62
     7
370
    30
100
AcDbLine
 10
135.3234148568899
 20
55.053376963897
 30
0.0
 11
137.82341485689
 21
55.053376963897
 31
0.0
1001
Sigma
1000

  0
LINE
  5
7D8
330
1F
100
AcDbEntity
  8
1
  6
Continuous
 62
     7
370
    30
100
AcDbLine
 10
137.82341485689
 20
55.053376963897
 30
0.0
 11
138.57341485689
 21
55.803376963897
 31
0.0
1001
Sigma
1000

  0
LINE
  5
7DA
330
1F
100
AcDbEntity
  8
1
  6
Continuous
 62
     7
370
    30
100
AcDbLine
 10
-10.95158514309
 20
3.2533769638867
 30
0.0
 11
-10.95158514309
 21
-76.74662303621
 31
0.0
1001
Sigma
1000

  0
LINE
  5
7DC
330
1F
100
AcDbEntity
  8
1
  6
Continuous
 62
     7
370
    30
100
AcDbLine
 10
19.84841485690699
 20
-76.74662303621
 30
0.0
 11
19.848414856909
 21
-1.246623036112999
 31
0.0
1001
Sigma
1000

  0
DIMENSION
  5
7DE
330
1F
100
AcDbEntity
  8
KCAD_DIMS
 62
     7
100
AcDbDimension
  2
*D51
 10
4.4484148569071
 20
-26.66208141801
 30
0.0
 11
-21.05077625595
 21
-24.52874841801
 31
0.0
 70
    32
 71
     5
 42
-1.0
  3
Standard
100
AcDbAlignedDimension
 13
-10.95158514309
 23
-36.74662303611
 33
0.0
 14
4.448414856907099
 24
-6.746623036113
 34
0.0
100
AcDbRotatedDimension
1001
Sigma
1000
DIM_TPOSH
1001
KCAD_DIM_EXT
1002
{
1071
 20001212
1070
    11
1070
     2
1070
     0
1040
0.0
1040
0.0
1040
28.59919177038
1040
0.0
1040
0.0
1040
0.0
1040
0.0
1040
0.0
1070
     0
1040
50.0
1040
-1.0
1013
1.0
1023
0.0
1033
0.0
1040
0.0
1013
1.0
1023
0.0
1033
0.0
1000
_None
1040
1.0
1040
30.800000000004
1070
     0
1070
     0
1070
     0
1012
1.0
1022
0.0
1032
0.0
1013
1.0
1023
0.0
1033
0.0
1002
}
1001
ACAD
1000
DSTYLE
1002
{
1070
     3
1000
%%c<>
1070
    41
1040
3.0
1070
    42
1040
1.0
1070
    43
1040
8.0
1070
    44
1040
1.0
1070
    45
1040
0.0
1070
    73
1070
     0
1070
    74
1070
     0
1070
    76
1070
     1
1070
    77
1070
     1
1070
    78
1070
     8
1070
    79
1070
     2
1070
   140
1040
3.2
1070
   141
1040
2.5
1070
   144
1040
2.000000000000636
1070
   145
1040
0.0001
1070
   146
1040
0.667
1070
   147
1040
0.5333000000000001
1070
   172
1070
     1
1070
   173
1070
     1
1070
   179
1070
     3
1070
   271
1070
     3
1070
   272
1070
     3
1070
   279
1070
     2
1070
   284
1070
     8
1070
   289
1070
     2
1070
   340
1005
189
1070
   341
1005
21
1070
   343
1005
12D
1070
   344
1005
222
1002
}
  0
LINE
  5
812
330
1F
100
AcDbEntity
  8
1
  6
HIDDEN
 62
     7
370
    30
100
AcDbLine
 10
-105.1267464334999
 20
56.503376963899
 30
0.0
 11
-101.1267464335
 21
56.503376963899
 31
0.0
1001
Sigma
1000

  0
LINE
  5
814
330
1F
100
AcDbEntity
  8
1
  6
Continuous
 62
     7
370
    30
100
AcDbLine
 10
-45.07174643341
 20
83.75337696389698
 30
0.0
 11
-45.07174643341
 21
51.753376963887
 31
0.0
1001
Sigma
1000

  0
LINE
  5
816
330
1F
100
AcDbEntity
  8
1
  6
Continuous
 62
     7
370
    30
100
AcDbLine
 10
-45.82174643341
 20
84.503376963897
 30
0.0
 11
-56.32174643341
 21
84.503376963897
 31
0.0
1001
Sigma
1000

  0
LINE
  5
818
330
1F
100
AcDbEntity
  8
1
  6
Continuous
 62
     7
370
    30
100
AcDbLine
 10
-45.82174643342
 20
51.003376963887
 30
0.0
 11
-56.32174643341
 21
51.003376963897
 31
0.0
1001
Sigma
1000

  0
LINE
  5
81A
330
1F
100
AcDbEntity
  8
1
  6
Continuous
 62
     7
370
    30
100
AcDbLine
 10
-57.07174643341
 20
51.753376963897
 30
0.0
 11
-57.07174643341
 21
83.75337696389698
 31
0.0
1001
Sigma
1000

  0
LINE
  5
81C
330
1F
100
AcDbEntity
  8
1
  6
Continuous
 62
     7
370
    30
100
AcDbLine
 10
-57.07174643341
 20
69.753376963897
 30
0.0
 11
-45.07174643341
 21
69.753376963897
 31
0.0
1001
Sigma
1000

  0
LINE
  5
81E
330
1F
100
AcDbEntity
  8
1
  6
Continuous
 62
     7
370
    30
100
AcDbLine
 10
-57.07174643341
 20
71.753376963897
 30
0.0
 11
-45.07174643341
 21
71.753376963897
 31
0.0
1001
Sigma
1000

  0
LINE
  5
820
330
1F
100
AcDbEntity
  8
1
  6
Continuous
 62
     7
370
    30
100
AcDbLine
 10
-57.07174643341
 20
63.75337696389699
 30
0.0
 11
-45.07174643341
 21
63.75337696389699
 31
0.0
1001
Sigma
1000

  0
LINE
  5
822
330
1F
100
AcDbEntity
  8
1
  6
Continuous
 62
     7
370
    30
100
AcDbLine
 10
-57.07174643341
 20
83.75337696389698
 30
0.0
 11
-56.32174643341
 21
84.503376963897
 31
0.0
1001
Sigma
1000

  0
LINE
  5
824
330
1F
100
AcDbEntity
  8
1
  6
Continuous
 62
     7
370
    30
100
AcDbLine
 10
-45.07174643341
 20
83.75337696389698
 30
0.0
 11
-45.82174643341
 21
84.503376963897
 31
0.0
1001
Sigma
1000

  0
LINE
  5
826
330
1F
100
AcDbEntity
  8
1
  6
Continuous
 62
     7
370
    30
100
AcDbLine
 10
-57.07174643341
 20
51.753376963897
 30
0.0
 11
-56.32174643341
 21
51.003376963897
 31
0.0
1001
Sigma
1000

  0
LINE
  5
828
330
1F
100
AcDbEntity
  8
1
  6
Continuous
 62
     7
370
    30
100
AcDbLine
 10
-45.82174643341
 20
51.003376963897
 30
0.0
 11
-45.07174643341
 21
51.753376963897
 31
0.0
1001
Sigma
1000

  0
LINE
  5
82A
330
1F
100
AcDbEntity
  8
1
  6
Continuous
 62
     7
370
    30
100
AcDbLine
 10
-57.07174643341
 20
73.653376963897
 30
0.0
 11
-45.07174643341
 21
73.653376963897
 31
0.0
1001
Sigma
1000

  0
LINE
  5
82C
330
1F
100
AcDbEntity
  8
1
  6
Continuous
 62
     7
370
    30
100
AcDbLine
 10
-57.07174643341
 20
61.853376963897
 30
0.0
 11
-45.07174643341
 21
61.853376963897
 31
0.0
1001
Sigma
1000

  0
LINE
  5
82E
330
1F
100
AcDbEntity
  8
1
  6
Continuous
 62
     7
370
    30
100
AcDbLine
 10
-57.07174643341
 20
75.453376963897
 30
0.0
 11
-45.07174643341
 21
75.453376963897
 31
0.0
1001
Sigma
1000

  0
LINE
  5
830
330
1F
100
AcDbEntity
  8
1
  6
Continuous
 62
     7
370
    30
100
AcDbLine
 10
-57.07174643341
 20
60.053376963897
 30
0.0
 11
-45.07174643341
 21
60.053376963897
 31
0.0
1001
Sigma
1000

  0
LINE
  5
832
330
1F
100
AcDbEntity
  8
1
  6
Continuous
 62
     7
370
    30
100
AcDbLine
 10
-57.07174643341
 20
77.153376963897
 30
0.0
 11
-45.07174643341
 21
77.153376963897
 31
0.0
1001
Sigma
1000

  0
LINE
  5
834
330
1F
100
AcDbEntity
  8
1
  6
Continuous
 62
     7
370
    30
100
AcDbLine
 10
-57.07174643341
 20
58.353376963897
 30
0.0
 11
-45.07174643341
 21
58.353376963897
 31
0.0
1001
Sigma
1000

  0
LINE
  5
836
330
1F
100
AcDbEntity
  8
1
  6
Continuous
 62
     7
370
    30
100
AcDbLine
 10
-57.07174643341
 20
78.75337696389698
 30
0.0
 11
-45.07174643341
 21
78.75337696389698
 31
0.0
1001
Sigma
1000

  0
LINE
  5
838
330
1F
100
AcDbEntity
  8
1
  6
Continuous
 62
     7
370
    30
100
AcDbLine
 10
-57.07174643341
 20
56.753376963897
 30
0.0
 11
-45.07174643341
 21
56.753376963897
 31
0.0
1001
Sigma
1000

  0
LINE
  5
83A
330
1F
100
AcDbEntity
  8
1
  6
Continuous
 62
     7
370
    30
100
AcDbLine
 10
-57.07174643341
 20
80.153376963897
 30
0.0
 11
-45.07174643341
 21
80.153376963897
 31
0.0
1001
Sigma
1000

  0
LINE
  5
83C
330
1F
100
AcDbEntity
  8
1
  6
Continuous
 62
     7
370
    30
100
AcDbLine
 10
-57.07174643341
 20
55.35337696389699
 30
0.0
 11
-45.07174643341
 21
55.35337696389699
 31
0.0
1001
Sigma
1000

  0
LINE
  5
83E
330
1F
100
AcDbEntity
  8
1
  6
Continuous
 62
     7
370
    30
100
AcDbLine
 10
-57.07174643341
 20
81.45337696389701
 30
0.0
 11
-45.07174643341
 21
81.45337696389701
 31
0.0
1001
Sigma
1000

  0
LINE
  5
840
330
1F
100
AcDbEntity
  8
1
  6
Continuous
 62
     7
370
    30
100
AcDbLine
 10
-57.07174643341
 20
54.053376963897
 30
0.0
 11
-45.07174643341
 21
54.053376963897
 31
0.0
1001
Sigma
1000

  0
LINE
  5
842
330
1F
100
AcDbEntity
  8
1
  6
Continuous
 62
     7
370
    30
100
AcDbLine
 10
-57.07174643341
 20
82.553376963897
 30
0.0
 11
-45.07174643341
 21
82.553376963897
 31
0.0
1001
Sigma
1000

  0
LINE
  5
844
330
1F
100
AcDbEntity
  8
1
  6
Continuous
 62
     7
370
    30
100
AcDbLine
 10
-57.07174643341
 20
52.953376963897
 30
0.0
 11
-45.07174643341
 21
52.953376963897
 31
0.0
1001
Sigma
1000

  0
LINE
  5
846
330
1F
100
AcDbEntity
  8
1
  6
Continuous
 62
     7
370
    30
100
AcDbLine
 10
-57.07174643341
 20
83.353376963897
 30
0.0
 11
-45.07174643341
 21
83.353376963897
 31
0.0
1001
Sigma
1000

  0
LINE
  5
848
330
1F
100
AcDbEntity
  8
1
  6
Continuous
 62
     7
370
    30
100
AcDbLine
 10
-57.07174643341
 20
52.153376963897
 30
0.0
 11
-45.07174643341
 21
52.153376963897
 31
0.0
1001
Sigma
1000

  0
LINE
  5
84A
330
1F
100
AcDbEntity
  8
1
  6
Continuous
 62
     7
370
    30
100
AcDbLine
 10
-56.87174643341
 20
83.95337696389701
 30
0.0
 11
-45.27174643341
 21
83.95337696389701
 31
0.0
1001
Sigma
1000

  0
LINE
  5
84C
330
1F
100
AcDbEntity
  8
1
  6
Continuous
 62
     7
370
    30
100
AcDbLine
 10
-45.27174643341
 20
51.553376963897
 30
0.0
 11
-56.87174643341
 21
51.553376963897
 31
0.0
1001
Sigma
1000

  0
LINE
  5
84E
330
1F
100
AcDbEntity
  8
1
  6
Continuous
 62
     7
370
    30
100
AcDbLine
 10
-56.47174643340999
 20
84.353376963897
 30
0.0
 11
-45.67174643341
 21
84.353376963897
 31
0.0
1001
Sigma
1000

  0
LINE
  5
850
330
1F
100
AcDbEntity
  8
1
  6
Continuous
 62
     7
370
    30
100
AcDbLine
 10
-45.67174643341
 20
51.153376963897
 30
0.0
 11
-56.47174643340999
 21
51.153376963897
 31
0.0
1001
Sigma
1000

  0
LINE
  5
852
330
1F
100
AcDbEntity
  8
1
  6
Continuous
 62
     7
370
    30
100
AcDbLine
 10
-56.37174643341
 20
84.45337696389699
 30
0.0
 11
-45.77174643341
 21
84.45337696389699
 31
0.0
1001
Sigma
1000

  0
LINE
  5
854
330
1F
100
AcDbEntity
  8
1
  6
Continuous
 62
     7
370
    30
100
AcDbLine
 10
-45.77174643341
 20
51.053376963897
 30
0.0
 11
-56.37174643341
 21
51.053376963897
 31
0.0
1001
Sigma
1000

  0
LINE
  5
856
330
1F
100
AcDbEntity
  8
1
  6
Continuous
 62
     7
370
    30
100
AcDbLine
 10
-57.07174643341
 20
65.75337696389698
 30
0.0
 11
-45.07174643341
 21
65.75337696389698
 31
0.0
1001
Sigma
1000

  0
LINE
  5
858
330
1F
100
AcDbEntity
  8
1
  6
Continuous
 62
     7
370
    30
100
AcDbLine
 10
-57.07174643341
 20
67.753376963897
 30
0.0
 11
-45.07174643341
 21
67.753376963897
 31
0.0
1001
Sigma
1000

  0
LINE
  5
85A
330
1F
100
AcDbEntity
  8
1
  6
Continuous
 62
     7
370
    30
100
AcDbLine
 10
-55.07174643341
 20
84.45337696389699
 30
0.0
 11
-55.07174643341
 21
51.003376963887
 31
0.0
1001
Sigma
1000

  0
LINE
  5
85C
330
1F
100
AcDbEntity
  8
1
  6
Continuous
 62
     7
370
    30
100
AcDbLine
 10
-53.07174643340999
 20
84.45337696389699
 30
0.0
 11
-53.07174643340999
 21
51.003376963887
 31
0.0
1001
Sigma
1000

  0
LINE
  5
85E
330
1F
100
AcDbEntity
  8
1
  6
Continuous
 62
     7
370
    30
100
AcDbLine
 10
-51.07174643341
 20
84.45337696389699
 30
0.0
 11
-51.07174643341
 21
51.003376963887
 31
0.0
1001
Sigma
1000

  0
LINE
  5
860
330
1F
100
AcDbEntity
  8
1
  6
Continuous
 62
     7
370
    30
100
AcDbLine
 10
-49.07174643341
 20
84.45337696389699
 30
0.0
 11
-49.07174643341
 21
51.003376963887
 31
0.0
1001
Sigma
1000

  0
LINE
  5
862
330
1F
100
AcDbEntity
  8
1
  6
Continuous
 62
     7
370
    30
100
AcDbLine
 10
-47.07174643341
 20
84.45337696389699
 30
0.0
 11
-47.07174643341
 21
51.003376963887
 31
0.0
1001
Sigma
1000

  0
DIMENSION
  5
864
330
1F
100
AcDbEntity
  8
KCAD_DIMS
 62
     7
100
AcDbDimension
  2
*D52
 10
77.086726239771
 20
81.603376963897
 30
0.0
 11
74.152343239771
 21
41.14027518028599
 31
0.0
 70
    32
 71
     5
 42
-1.0
 53
90.0
  3
Standard
100
AcDbAlignedDimension
 13
124.5734148569199
 23
53.903376963897
 33
0.0
 14
39.573414856906
 24
81.603376963897
 34
0.0
 50
90.0
100
AcDbRotatedDimension
1001
Sigma
1000
DIM_TPVO
1001
KCAD_DIM_EXT
1002
{
1071
 20001212
1070
     0
1070
     1
1070
     1
1040
3.0
1040
21.431102387636
1040
5.0
1040
0.0
1040
0.0
1040
0.0
1040
0.0
1040
0.0
1070
     0
1040
50.0
1040
-1.0
1013
1.0
1023
0.0
1033
0.0
1040
0.0
1013
1.0
1023
0.0
1033
0.0
1000
_None
1040
1.0
1040
27.700000000003
1070
     0
1070
     0
1070
     0
1012
1.0
1022
0.0
1032
0.0
1013
1.0
1023
0.0
1033
0.0
1002
}
1001
ACAD
1000
DSTYLE
1002
{
1070
     3
1000
%%c<>
1070
    41
1040
3.0
1070
    42
1040
1.0
1070
    43
1040
8.0
1070
    44
1040
1.0
1070
    45
1040
0.0
1070
    48
1040
0.1
1070
    71
1070
     1
1070
    73
1070
     0
1070
    74
1070
     0
1070
    77
1070
     1
1070
    78
1070
     8
1070
    79
1070
     2
1070
   140
1040
3.2
1070
   141
1040
2.5
1070
   145
1040
0.0001
1070
   146
1040
0.667
1070
   147
1040
0.5333000000000001
1070
   172
1070
     1
1070
   173
1070
     1
1070
   179
1070
     3
1070
   271
1070
     3
1070
   272
1070
     1
1070
   279
1070
     2
1070
   284
1070
     8
1070
   289
1070
     2
1070
   340
1005
189
1070
   341
1005
21
1070
   343
1005
12D
1070
   344
1005
12D
1002
}
  0
LINE
  5
8A2
330
1F
100
AcDbEntity
  8
99
  6
CENTER
 62
     7
370
    15
100
AcDbLine
 10
-164.911689525
 20
67.753376963896
 30
0.0
 11
-159.3191239058999
 21
77.439984760841
 31
0.0
1001
Sigma
1000

  0
LINE
  5
8A4
330
1F
100
AcDbEntity
  8
99
  6
CENTER
 62
     7
370
    15
100
AcDbLine
 10
-153.7265582868
 20
67.753376963896
 30
0.0
 11
-159.3191239058999
 21
77.439984760841
 31
0.0
1001
Sigma
1000

  0
LINE
  5
8A6
330
1F
100
AcDbEntity
  8
99
  6
CENTER
 62
     7
370
    15
100
AcDbLine
 10
-142.5414270486
 20
67.753376963898
 30
0.0
 11
-148.1339926677
 21
58.066769166953
 31
0.0
1001
Sigma
1000

  0
LINE
  5
8A8
330
1F
100
AcDbEntity
  8
99
  6
CENTER
 62
     7
370
    15
100
AcDbLine
 10
-153.7265582868
 20
67.753376963898
 30
0.0
 11
-148.1339926677
 21
58.066769166953
 31
0.0
1001
Sigma
1000

  0
LINE
  5
8AA
330
1F
100
AcDbEntity
  8
1
  6
CENTER
 62
     7
370
    15
100
AcDbLine
 10
-142.5414270486
 20
67.753376963898
 30
0.0
 11
154.64953903377
 21
67.753376963897
 31
0.0
1001
Sigma
1000

  0
TEXT
  5
8AD
102
{ACAD_REACTORS
330
8AC
102
}
330
1F
100
AcDbEntity
  8
1
  6
Continuous
 62
     7
370
    15
100
AcDbText
 10
-114.7492066685272
 20
7.7414685452925
 30
0.0
 40
4.5
  1
M22.5 P0.5 フィルターネジ
 41
0.583269916764564
  7
KCADTEXTSTANDARD
100
AcDbText
1001
Sigma
1000

  0
LINE
  5
8AF
330
1F
100
AcDbEntity
  8
1
  6
Continuous
 62
     7
370
    15
100
AcDbLine
 10
-124.7400313172
 20
6.122087992179499
 30
0.0
 11
-59.27355377240999
 21
6.122087992179499
 31
0.0
1001
Sigma
1000

  0
LINE
  5
8B3
102
{ACAD_REACTORS
330
8B1
330
8B2
102
}
330
1F
100
AcDbEntity
  8
1
  6
Continuous
 62
     7
370
    15
100
AcDbLine
 10
-105.1267464334999
 20
56.503376963899
 30
0.0
 11
-124.7400313172
 21
6.122087992179499
 31
0.0
1001
Sigma
1000

  0
INSERT
  5
8B5
102
{ACAD_REACTORS
330
8B1
330
8B2
102
}
330
1F
100
AcDbEntity
  8
1
  6
Continuous
 62
     7
370
    15
100
AcDbBlockReference
  2
_OPEN30
 10
-105.1267464334999
 20
56.503376963899
 30
0.0
 41
3.0
 42
3.0
 43
3.0
 50
68.72918578841481
1001
Sigma
1000
_BRRS
  0
LINE
  5
8B9
102
{ACAD_REACTORS
330
8B8
330
8B7
102
}
330
1F
100
AcDbEntity
  8
1
  6
Continuous
 62
     7
370
    15
100
AcDbLine
 10
138.3934148569099
 20
80.453376963899
 30
0.0
 11
144.2939734494399
 21
96.540233211772
 31
0.0
1001
Sigma
1000

  0
INSERT
  5
8BB
102
{ACAD_REACTORS
330
8B8
330
8B7
102
}
330
1F
100
AcDbEntity
  8
1
  6
Continuous
 62
     7
370
    15
100
AcDbBlockReference
  2
_OPEN30
 10
138.3934148569099
 20
80.453376963899
 30
0.0
 41
3.0
 42
3.0
 43
3.0
 50
249.8572775896874
1001
Sigma
1000
_BRRS
  0
LINE
  5
8BD
330
1F
100
AcDbEntity
  8
1
  6
Continuous
 62
     7
370
    15
100
AcDbLine
 10
144.2939734494399
 20
96.540233211772
 30
0.0
 11
169.1977832454599
 21
96.540233211772
 31
0.0
1001
Sigma
1000

  0
TEXT
  5
8C0
102
{ACAD_REACTORS
330
8BF
102
}
330
1F
100
AcDbEntity
  8
1
  6
Continuous
 62
     7
370
    15
100
AcDbText
 10
146.426682931682
 20
98.23662989858
 30
0.0
 40
4.5
  1
Ｃマウント
 41
0.8294857373237609
  7
KCADTEXTSTANDARD
100
AcDbText
1001
Sigma
1000

  0
LINE
  5
8C2
330
1F
100
AcDbEntity
  8
1
  6
CENTER
 62
     7
370
    15
100
AcDbLine
 10
4.448414856907099
 20
-82.14893617021
 30
0.0
 11
4.448414856906899
 21
99.246079441965
 31
0.0
1001
Sigma
1000

  0
TEXT
  5
8C5
330
1F
100
AcDbEntity
  8
2
  6
Continuous
 62
     7
370
    30
100
AcDbText
 10
40.59324371036967
 20
-91.28802758995234
 30
0.0
 40
3.307499957084655
  1
外観図
 41
0.9771428572895999
  7
KCADTEXTSTANDARD
100
AcDbText
1001
Sigma
1000

  0
DIMENSION
  5
8C7
330
1F
100
AcDbEntity
  8
KCAD_DIMS
 62
     7
100
AcDbDimension
  2
*D53
 10
135.1434148569099
 20
35.83076482642999
 30
0.0
 11
168.3720602069599
 21
37.96409782642999
 31
0.0
 70
    32
 71
     5
 42
-1.0
  3
Standard
100
AcDbAlignedDimension
 13
152.66941485691
 23
64.801974870264
 33
0.0
 14
135.1434148569099
 24
53.75337696389699
 34
0.0
100
AcDbRotatedDimension
1001
Sigma
1000
DIM_TPHO
1001
KCAD_DIM_EXT
1002
{
1071
 20001212
1070
     0
1070
     1
1070
     1
1040
3.0
1040
27.627623090667
1040
5.0
1040
0.0
1040
0.0
1040
0.0
1040
0.0
1040
0.0
1070
     0
1040
50.0
1040
-1.0
1013
1.0
1023
0.0
1033
0.0
1040
0.0
1013
1.0
1023
0.0
1033
0.0
1000
_None
1040
1.0
1040
17.526
1070
     0
1070
     0
1070
     0
1012
1.0
1022
0.0
1032
0.0
1013
1.0
1023
0.0
1033
0.0
1002
}
1001
ACAD
1000
DSTYLE
1002
{
1070
     3
1000
F.B.=<>
1070
    41
1040
3.0
1070
    42
1040
1.0
1070
    43
1040
8.0
1070
    44
1040
1.0
1070
    45
1040
0.0
1070
    73
1070
     0
1070
    74
1070
     0
1070
    77
1070
     1
1070
    78
1070
     8
1070
    79
1070
     2
1070
   140
1040
3.2
1070
   141
1040
2.5
1070
   145
1040
0.0001
1070
   146
1040
0.667
1070
   147
1040
0.5333000000000001
1070
   172
1070
     1
1070
   173
1070
     1
1070
   179
1070
     3
1070
   271
1070
     3
1070
   272
1070
     3
1070
   279
1070
     2
1070
   284
1070
     8
1070
   289
1070
     2
1070
   340
1005
189
1070
   341
1005
21
1070
   343
1005
12D
1070
   344
1005
12D
1002
}
  0
DIMENSION
  5
905
330
1F
100
AcDbEntity
  8
KCAD_DIMS
 62
     7
100
AcDbDimension
  2
*D54
 10
4.448414856906993
 20
108.2154255319099
 30
0.0
 11
-50.33916578829
 21
110.3487585319099
 31
0.0
 70
    32
 71
     5
 42
-1.0
  3
Standard
100
AcDbAlignedDimension
 13
-105.1267464334999
 23
67.753376963898
 33
0.0
 14
4.448414856907
 24
67.753376963897
 34
0.0
100
AcDbRotatedDimension
1001
Sigma
1000
DIM_TPHO
1001
KCAD_DIM_EXT
1002
{
1071
 20001212
1070
     0
1070
     2
1070
     2
1040
3.0
1040
0.0
1040
0.0
1040
0.0
1040
0.0
1040
0.0
1040
0.0
1040
0.0
1070
     0
1040
50.0
1040
-1.0
1013
1.0
1023
0.0
1033
0.0
1040
0.0
1013
1.0
1023
0.0
1033
0.0
1000
_None
1040
1.0
1040
109.5751612903899
1070
     0
1070
     0
1070
     0
1012
1.0
1022
0.0
1032
0.0
1013
1.0
1023
0.0
1033
0.0
1002
}
1001
ACAD
1000
DSTYLE
1002
{
1070
    41
1040
3.0
1070
    42
1040
0.0
1070
    43
1040
8.0
1070
    44
1040
0.0
1070
    45
1040
0.0
1070
    73
1070
     0
1070
    74
1070
     0
1070
    77
1070
     1
1070
    78
1070
     8
1070
    79
1070
     2
1070
   140
1040
3.2
1070
   141
1040
2.5
1070
   145
1040
0.0001
1070
   146
1040
0.667
1070
   147
1040
0.5333000000000001
1070
   172
1070
     1
1070
   173
1070
     1
1070
   179
1070
     3
1070
   271
1070
     0
1070
   272
1070
     3
1070
   279
1070
     2
1070
   284
1070
     8
1070
   289
1070
     2
1070
   340
1005
189
1070
   341
1005
21
1070
   343
1005
12D
1070
   344
1005
12D
1002
}
  0
TEXT
  5
941
330
1F
100
AcDbEntity
  8
99
  6
Continuous
 62
     7
370
    30
100
AcDbText
 10
31.397162516126
 20
-97.61062087276
 30
0.0
 40
3.6
  1
部   品   名
 41
0.725694442871544
  7
KCADTEXTSTANDARD
100
AcDbText
1001
Sigma
1000

  0
TEXT
  5
943
330
1F
100
AcDbEntity
  8
99
  6
Continuous
 62
     7
370
    30
100
AcDbText
 10
22.46345057771899
 20
-132.7954216058
 30
0.0
 40
3.6
  1
 担当
 41
0.8510416666666667
  7
KCADTEXTSTANDARD
100
AcDbText
1001
Sigma
1000

  0
TEXT
  5
945
330
1F
100
AcDbEntity
  8
99
  6
Continuous
 62
     7
370
    30
100
AcDbText
 10
37.230618969064
 20
-132.6966445597
 30
0.0
 40
3.6
  1
 訂 正 記 事
 41
0.78671875
  7
KCADTEXTSTANDARD
100
AcDbText
1001
Sigma
1000

  0
TEXT
  5
947
330
1F
100
AcDbEntity
  8
99
  6
Continuous
 62
     7
370
    30
100
AcDbText
 10
86.35953316523201
 20
-117.6989337568
 30
0.0
 40
3.6
  1
 製図
 41
1.029166666666666
  7
KCADTEXTSTANDARD
100
AcDbText
1001
Sigma
1000

  0
TEXT
  5
949
330
1F
100
AcDbEntity
  8
99
  6
Continuous
 62
     7
370
    30
100
AcDbText
 10
100.8303704182899
 20
-117.6989337568
 30
0.0
 40
3.6
  1
 検図
 41
1.029166666666666
  7
KCADTEXTSTANDARD
100
AcDbText
1001
Sigma
1000

  0
TEXT
  5
94B
330
1F
100
AcDbEntity
  8
99
  6
Continuous
 62
     7
370
    30
100
AcDbText
 10
115.59753880963
 20
-118.0940419412
 30
0.0
 40
3.6
  1
 承認
 41
1.029166666666666
  7
KCADTEXTSTANDARD
100
AcDbText
1001
Sigma
1000

  0
TEXT
  5
94D
330
1F
100
AcDbEntity
  8
99
  6
Continuous
 62
     7
370
    30
100
AcDbText
 10
141.3877551784099
 20
-97.696487849
 30
0.0
 40
3.6
  1
 表  面  処  理
 41
0.7459659074179151
  7
KCADTEXTSTANDARD
100
AcDbText
1001
Sigma
1000

  0
TEXT
  5
A00
330
1F
100
AcDbEntity
  8
99
  6
Continuous
 62
     7
370
    30
100
AcDbText
 10
96.39968560195507
 20
-140.4773241940643
 30
0.0
 40
4.0
  1
株式会社トキナー
  7
KCADTEXTSTANDARD
100
AcDbText
1001
Sigma
1000

  0
TEXT
  5
A01
330
1F
100
AcDbEntity
  8
99
  6
Continuous
 62
     7
370
    30
100
AcDbText
 10
155.8509332505362
 20
-140.5451386298955
 30
0.0
 40
4.0
  1
Tokina Co.,Ltd.
 41
0.7000000000000001
  7
KCADTEXTSTANDARD
100
AcDbText
1001
Sigma
1000

  0
OLE2FRAME
  5
A03
330
1F
100
AcDbEntity
  8
0
  6
Continuous
 62
   134
370
    15
100
AcDbOle2Frame
 70
     2
 10
-16.87756961170516
 20
-135.5531805687375
 30
0.0
 11
23.12218679788055
 21
-141.7069892471353
 31
0.0
 72
     0
 73
   205
 90
     9344
310
0055B13CEE66A8E030C05370BCA7B3F160C0000000000000000061E64CA2471F
310
37405370BCA7B3F160C0000000000000000061E64CA2471F37403BE2E9A79FB6
310
61C00000000000000000B13CEE66A8E030C03BE2E9A79FB661C0000000000000
310
0000000000000100000000010000010000000100000000000100000000240000
310
D0CF11E0A1B11AE1000000000000000000000000000000003E000300FEFF0900
310
0600000000000000000000000100000001000000000000000010000002000000
310
01000000FEFFFFFF0000000000000000FFFFFFFFFFFFFFFFFFFFFFFFFFFFFFFF
310
FFFFFFFFFFFFFFFFFFFFFFFFFFFFFFFFFFFFFFFFFFFFFFFFFFFFFFFFFFFFFFFF
310
FFFFFFFFFFFFFFFFFFFFFFFFFFFFFFFFFFFFFFFFFFFFFFFFFFFFFFFFFFFFFFFF
310
FFFFFFFFFFFFFFFFFFFFFFFFFFFFFFFFFFFFFFFFFFFFFFFFFFFFFFFFFFFFFFFF
310
FFFFFFFFFFFFFFFFFFFFFFFFFFFFFFFFFFFFFFFFFFFFFFFFFFFFFFFFFFFFFFFF
310
FFFFFFFFFFFFFFFFFFFFFFFFFFFFFFFFFFFFFFFFFFFFFFFFFFFFFFFFFFFFFFFF
310
FFFFFFFFFFFFFFFFFFFFFFFFFFFFFFFFFFFFFFFFFFFFFFFFFFFFFFFFFFFFFFFF
310
FFFFFFFFFFFFFFFFFFFFFFFFFFFFFFFFFFFFFFFFFFFFFFFFFFFFFFFFFFFFFFFF
310
FFFFFFFFFFFFFFFFFFFFFFFFFFFFFFFFFFFFFFFFFFFFFFFFFFFFFFFFFFFFFFFF
310
FFFFFFFFFFFFFFFFFFFFFFFFFFFFFFFFFFFFFFFFFFFFFFFFFFFFFFFFFFFFFFFF
310
FFFFFFFFFFFFFFFFFFFFFFFFFFFFFFFFFFFFFFFFFFFFFFFFFFFFFFFFFFFFFFFF
310
FFFFFFFFFFFFFFFFFFFFFFFFFFFFFFFFFFFFFFFFFFFFFFFFFFFFFFFFFFFFFFFF
310
FFFFFFFFFFFFFFFFFFFFFFFFFFFFFFFFFFFFFFFFFFFFFFFFFFFFFFFFFFFFFFFF
310
FFFFFFFFFFFFFFFFFFFFFFFFFFFFFFFFFFFFFFFFFFFFFFFFFFFFFFFFFFFFFFFF
310
FDFFFFFFFEFFFFFFFEFFFFFFFEFFFFFF05000000060000000700000008000000
310
090000000A0000000B0000000C0000000D0000000E0000000F00000010000000
310
FEFFFFFFFFFFFFFFFFFFFFFFFFFFFFFFFFFFFFFFFFFFFFFFFFFFFFFFFFFFFFFF
310
FFFFFFFFFFFFFFFFFFFFFFFFFFFFFFFFFFFFFFFFFFFFFFFFFFFFFFFFFFFFFFFF
310
FFFFFFFFFFFFFFFFFFFFFFFFFFFFFFFFFFFFFFFFFFFFFFFFFFFFFFFFFFFFFFFF
310
FFFFFFFFFFFFFFFFFFFFFFFFFFFFFFFFFFFFFFFFFFFFFFFFFFFFFFFFFFFFFFFF
310
FFFFFFFFFFFFFFFFFFFFFFFFFFFFFFFFFFFFFFFFFFFFFFFFFFFFFFFFFFFFFFFF
310
FFFFFFFFFFFFFFFFFFFFFFFFFFFFFFFFFFFFFFFFFFFFFFFFFFFFFFFFFFFFFFFF
310
FFFFFFFFFFFFFFFFFFFFFFFFFFFFFFFFFFFFFFFFFFFFFFFFFFFFFFFFFFFFFFFF
310
FFFFFFFFFFFFFFFFFFFFFFFFFFFFFFFFFFFFFFFFFFFFFFFFFFFFFFFFFFFFFFFF
310
FFFFFFFFFFFFFFFFFFFFFFFFFFFFFFFFFFFFFFFFFFFFFFFFFFFFFFFFFFFFFFFF
310
FFFFFFFFFFFFFFFFFFFFFFFFFFFFFFFFFFFFFFFFFFFFFFFFFFFFFFFFFFFFFFFF
310
FFFFFFFFFFFFFFFFFFFFFFFFFFFFFFFFFFFFFFFFFFFFFFFFFFFFFFFFFFFFFFFF
310
FFFFFFFFFFFFFFFFFFFFFFFFFFFFFFFFFFFFFFFFFFFFFFFFFFFFFFFFFFFFFFFF
310
FFFFFFFFFFFFFFFFFFFFFFFFFFFFFFFFFFFFFFFFFFFFFFFFFFFFFFFFFFFFFFFF
310
FFFFFFFFFFFFFFFFFFFFFFFFFFFFFFFFFFFFFFFFFFFFFFFFFFFFFFFFFFFFFFFF
310
52006F006F007400200045006E00740072007900000000000000000000000000
310
0000000000000000000000000000000000000000000000000000000000000000
310
16000500FFFFFFFFFFFFFFFF020000000A00030000000000C000000000000046
310
000000000000000000000000B0792944279AC80103000000C000000000000000
310
01004F006C006500000000000000000000000000000000000000000000000000
310
0000000000000000000000000000000000000000000000000000000000000000
310
0A000200FFFFFFFFFFFFFFFFFFFFFFFF00000000000000000000000000000000
310
0000000000000000000000000000000000000000000000001400000000000000
310
010043006F006D0070004F0062006A0000000000000000000000000000000000
310
0000000000000000000000000000000000000000000000000000000000000000
310
120002010100000003000000FFFFFFFF00000000000000000000000000000000
310
0000000000000000000000000000000000000000010000004D00000000000000
310
01004F006C006500310030004E00610074006900760065000000000000000000
310
0000000000000000000000000000000000000000000000000000000000000000
310
1A000200FFFFFFFFFFFFFFFFFFFFFFFF00000000000000000000000000000000
310
0000000000000000000000000000000000000000040000000419000000000000
310
FEFFFFFF02000000FEFFFFFFFFFFFFFFFFFFFFFFFFFFFFFFFFFFFFFFFFFFFFFF
310
FFFFFFFFFFFFFFFFFFFFFFFFFFFFFFFFFFFFFFFFFFFFFFFFFFFFFFFFFFFFFFFF
310
FFFFFFFFFFFFFFFFFFFFFFFFFFFFFFFFFFFFFFFFFFFFFFFFFFFFFFFFFFFFFFFF
310
FFFFFFFFFFFFFFFFFFFFFFFFFFFFFFFFFFFFFFFFFFFFFFFFFFFFFFFFFFFFFFFF
310
FFFFFFFFFFFFFFFFFFFFFFFFFFFFFFFFFFFFFFFFFFFFFFFFFFFFFFFFFFFFFFFF
310
FFFFFFFFFFFFFFFFFFFFFFFFFFFFFFFFFFFFFFFFFFFFFFFFFFFFFFFFFFFFFFFF
310
FFFFFFFFFFFFFFFFFFFFFFFFFFFFFFFFFFFFFFFFFFFFFFFFFFFFFFFFFFFFFFFF
310
FFFFFFFFFFFFFFFFFFFFFFFFFFFFFFFFFFFFFFFFFFFFFFFFFFFFFFFFFFFFFFFF
310
FFFFFFFFFFFFFFFFFFFFFFFFFFFFFFFFFFFFFFFFFFFFFFFFFFFFFFFFFFFFFFFF
310
FFFFFFFFFFFFFFFFFFFFFFFFFFFFFFFFFFFFFFFFFFFFFFFFFFFFFFFFFFFFFFFF
310
FFFFFFFFFFFFFFFFFFFFFFFFFFFFFFFFFFFFFFFFFFFFFFFFFFFFFFFFFFFFFFFF
310
FFFFFFFFFFFFFFFFFFFFFFFFFFFFFFFFFFFFFFFFFFFFFFFFFFFFFFFFFFFFFFFF
310
FFFFFFFFFFFFFFFFFFFFFFFFFFFFFFFFFFFFFFFFFFFFFFFFFFFFFFFFFFFFFFFF
310
FFFFFFFFFFFFFFFFFFFFFFFFFFFFFFFFFFFFFFFFFFFFFFFFFFFFFFFFFFFFFFFF
310
FFFFFFFFFFFFFFFFFFFFFFFFFFFFFFFFFFFFFFFFFFFFFFFFFFFFFFFFFFFFFFFF
310
FFFFFFFFFFFFFFFFFFFFFFFFFFFFFFFFFFFFFFFFFFFFFFFFFFFFFFFFFFFFFFFF
310
0100000200000000000000000000000000000000000000000000000000000000
310
0000000000000000000000000000000000000000000000000000000000000000
310
0100FEFF030A0000FFFFFFFF0A00030000000000C00000000000004607000000
310
5042727573680007000000504272757368000700000050427275736800F439B2
310
7100000000000000000000000000000000000000000000000000000000000000
310
0000000000000000000000000000000000000000000000000000000000000000
310
0000000000000000000000000000000000000000000000000000000000000000
310
0000000000000000000000000000000000000000000000000000000000000000
310
0000000000000000000000000000000000000000000000000000000000000000
310
0000000000000000000000000000000000000000000000000000000000000000
310
0000000000000000000000000000000000000000000000000000000000000000
310
0000000000000000000000000000000000000000000000000000000000000000
310
0000000000000000000000000000000000000000000000000000000000000000
310
0000000000000000000000000000000000000000000000000000000000000000
310
0000000000000000000000000000000000000000000000000000000000000000
310
0000000000000000000000000000000000000000000000000000000000000000
310
00190000424DF618000000000000360000002800000075000000120000000100
310
180000000000C018000000000000000000000000000000000000FFFFFFFFFFFF
310
FFFFFFFFFFFFFFFFFFFFFFFFFFFFFFFFFFFF6666660808081212120C0C0C3535
310
35FFFFFFFFFFFFFFFFFFFFFFFFFFFFFFFFFFFFFFFFFFFFFFFFFFFFFFC0C0C045
310
4545151515121212121212121212131313141414151515151515161616181818
310
1818181919191919191E1E1E484848B0B0B0FFFFFFFFFFFFFFFFFFD4D4D42424
310
242424242424242E2E2EF1F1F1FFFFFFFFFFFFFFFFFFFFFFFFFFFFFFFFFFFFFF
310
FFFFDEDEDE4B4B4B3333333838383A3A3A3838382C2C2C5E5E5EEBEBEBFFFFFF
310
F1F1F14949494242424444444D4D4DF5F5F5FFFFFFA5A5A54343435050504848
310
48999999FFFFFFFFFFFFFFFFFFFFFFFFFFFFFFFFFFFFFFFFFFFFFFFFFFFFFFFF
310
FFFFFFFFFFBCBCBC6666667171716C6C6C9A9A9AFFFFFFFFFFFFFFFFFFE9E9E9
310
9393938181818080808282828484848484848585858888888888888989898B8B
310
8B8C8C8C8D8D8D8F8F8F90909090909092929291919199999900FFFFFFFFFFFF
310
FFFFFFFFFFFFFFFFFFFFFFFFFFFFFFFFFFFF5D5D5D0000000202020000002727
310
27FFFFFFFFFFFFFFFFFFFFFFFFFFFFFFFFFFFFFFFFFFFFFFFFA6A6A600000000
310
0000020202030303020202030303020202020202020202020202020202020202
310
0202020202020101010000000000000000006B6B6BFFFFFFFFFFFFCECECE0000
310
00000000000000080808EDEDEDFFFFFFFFFFFFFFFFFFFFFFFFFFFFFFFFFFFF9B
310
9B9B000000000000000000000000000000000000838383FFFFFFFFFFFFFFFFFF
310
ECECEC060606000000000000050505EEEEEEFFFFFF7B7B7B0000000000000000
310
00656565FFFFFFFFFFFFFFFFFFFFFFFFFFFFFFFFFFFFFFFFFFFFFFFFFFFFFFFF
310
FFFFFFFFFF8888880000000000000000003F3F3FFFFFFFFFFFFFC1C1C1000000
310
0000000000000000000000000000000000000000000000000000000000000000
310
0000000000000000000000000000000000000000000003030300FFFFFFFFFFFF
310
FFFFFFFFFFFFFFFFFFFFFFFFFFFFFFFFFFFF5E5E5E0000000404040000002525
310
25FFFFFFFFFFFFFFFFFFFFFFFFFFFFFFFFFFFFFFFFFFFEFEFE13131300000005
310
0505030303000000000000000000000000000000000000000000000000000000
310
000000000000000000000000050505010101000000CDCDCDFFFFFFCECECE0303
310
030202020101010B0B0BEDEDEDFFFFFFFFFFFFFFFFFFFFFFFFF7F7F759595900
310
0000000000050505000000000000383838D8D8D8FFFFFFFFFFFFFFFFFFFFFFFF
310
EDEDED0B0B0B0101010101010B0B0BEFEFEFFFFFFF7F7F7F0000000505050000
310
00686868FFFFFFFFFFFFFFFFFFFFFFFFFFFFFFFFFFFFFFFFFFFFFFFFFFFFFFFF
310
FFFFFFFFFF8D8D8D000000040404000000464646FFFFFFFFFFFF2E2E2E000000
310
0404040404040000000000000000000000000000000000000000000000000000
310
0000000000000000000000000003030305050503030312121200FFFFFFFFFFFF
310
FFFFFFFFFFFFFFFFFFFFFFFFFFFFFFFFFFFF5F5F5F0000000505050000002424
310
24FFFFFFFFFFFFFFFFFFFFFFFFFFFFFFFFFFFFFFFFFFD9D9D900000003030304
310
04040000007070709D9D9D9797979797979696969393939292928F8F8F8C8C8C
310
8A8A8A8B8B8B7E7E7E131313010101040404000000858585FFFFFFCECECE0404
310
040202020101010C0C0CEDEDEDFFFFFFFFFFFFFFFFFFCBCBCB23232300000003
310
03030404040000000606068D8D8DFFFFFFFFFFFFFFFFFFFFFFFFFFFFFFFFFFFF
310
EDEDED0C0C0C0101010101010B0B0BEFEFEFFFFFFF7F7F7F0000000505050000
310
00686868FFFFFFFFFFFFFFFFFFFFFFFFFFFFFFFFFFFFFFFFFFFFFFFFFFFFFFFF
310
FFFFFFFFFF8D8D8D000000050505000000444444FFFFFFFEFEFE050505010101
310
0404040101015A5A5A6666666464646464646464646464646363636262626262
310
626060606060606060605E5E5E00000004040403030312121200FFFFFFFFFFFF
310
FFFFFFFFFFFFFFFFFFFFFFFFFFFFFFFFFFFF5F5F5F0000000404040000002323
310
23FFFFFFFFFFFFFFFFFFFFFFFFFFFFFFFFFFFFFFFFFFD2D2D200000003030302
310
0202060606FFFFFFFFFFFFFFFFFFFFFFFFFFFFFFFFFFFFFFFFFFFFFFFFFFFFFF
310
FFFFFFFFFFFFFFFFFF666666000000040404000000808080FFFFFFCECECE0404
310
040202020101010B0B0BEDEDEDFFFFFFFFFFFF8C8C8C03030300000003030300
310
00000000003E3E3ED9D9D9FFFFFFFFFFFFFFFFFFFFFFFFFFFFFFFFFFFFFFFFFF
310
EDEDED0C0C0C0101010101010B0B0BEFEFEFFFFFFF7F7F7F0000000505050000
310
00676767FFFFFFFFFFFFFFFFFFFFFFFFFFFFFFFFFFFFFFFFFFFFFFFFFFFFFFFF
310
FFFFFFFFFF8D8D8D000000040404000000444444FFFFFFFFFFFF070707010101
310
030303000000F7F7F7FFFFFFFFFFFFFFFFFFFFFFFFFFFFFFFFFFFFFFFFFFFFFF
310
FFFFFFFFFFFFFFFFFFFFFFFFFF00000003030303030311111100FFFFFFFFFFFF
310
FFFFFFFFFFFFFFFFFFFFFFFFFFFFFFFFFFFF6161610000000404040000002222
310
22FFFFFFFFFFFFFFFFFFFFFFFFFFFFFFFFFFFFFFFFFFD3D3D300000002020202
310
0202070707FCFCFCFFFFFFFFFFFFFFFFFFFFFFFFFFFFFFFFFFFFFFFFFFFFFFFF
310
FFFFFFFFFFFFFFFFFF696969000000040404000000818181FFFFFFCECECE0404
310
040202020101010D0D0DFAFAFAEEEEEE4D4D4D0000000000000303030000000D
310
0D0D949494FFFFFFFFFFFFFFFFFFFFFFFFFFFFFFFFFFFFFFFFFFFFFFFFFFFFFF
310
EDEDED0C0C0C0101010101010B0B0BEFEFEFFFFFFF7F7F7F0000000505050000
310
00676767FFFFFFFFFFFFFFFFFFFFFFFFFFFFFFFFFFFFFFFFFFFFFFFFFFFFFFFF
310
FFFFFFFFFF8D8D8D000000040404000000434343FFFFFFFEFEFE050505010101
310
030303010101A9A9A9C1C1C1BEBEBEC1C1C1C1C1C1C2C2C2C3C3C3C4C4C4C5C5
310
C5C5C5C5C8C8C8CACACACCCCCC00000003030303030311111100FFFFFFFFFFFF
310
FFFFFFFFFFFFFFFFFFFFFFFFFFFFFFFFFFFF6161610000000404040000002121
310
21FFFFFFFFFFFFFFFFFFFFFFFFFFFFFFFFFFFFFFFFFFD5D5D500000002020202
310
0202060606FCFCFCFFFFFFFFFFFFFFFFFFFFFFFFFFFFFFFFFFFFFFFFFFFFFFFF
310
FFFFFFFFFFFFFFFFFF686868000000050505000000818181FFFFFFCCCCCC0303
310
030202020202020D0D0D9898981D1D1D000000030303040404010101545454E1
310
E1E1FFFFFFFFFFFFFFFFFFFFFFFFFFFFFFFFFFFFFFFFFFFFFFFFFFFFFFFFFFFF
310
EDEDED0C0C0C0101010101010B0B0BEFEFEFFFFFFF7F7F7F0000000505050000
310
00666666FFFFFFFFFFFFFFFFFFFFFFFFFFFFFFFFFFFFFFFFFFFFFFFFFFFFFFFF
310
FFFFFFFFFF8D8D8D000000040404000000424242FFFFFFFFFFFF1E1E1E000000
310
0505050303030000000000000000000000000000000101010101010101010202
310
0202020203030304040405050502020204040403030311111100FFFFFFFFFFFF
310
FFFFFFFFFFFFFFFFFFFFFFFFFFFFFFFFFFFF6363630000000505050000001F1F
310
1FFFFFFFFFFFFFFFFFFFFFFFFFFFFFFFFEFEFEFFFFFFD5D5D500000003030302
310
0202050505FCFCFCFFFFFFFFFFFFFFFFFFFFFFFFFFFFFFFFFFFFFFFFFFFFFFFF
310
FFFFFFFFFFFFFFFFFF686868000000040404000000818181FFFFFFCDCDCD0303
310
030202020303030707074545450000000000000404040303030303039E9E9EFF
310
FFFFFFFFFFFFFFFFFFFFFFFFFFFFFFFFFFFFFFFFFFFFFFFFFFFFFFFFFFFFFFFF
310
EDEDED0C0C0C0101010101010B0B0BEEEEEEFFFFFF7F7F7F0000000505050000
310
00666666FFFFFFFFFFFFFFFFFFFFFFFFFFFFFFFFFFFFFFFFFFFFFFFFFFFFFFFF
310
FFFFFFFFFF8D8D8D000000040404000000434343FFFFFFFFFFFF9C9C9C000000
310
0000000000000000000000000000000000000000000000000000000000000000
310
0000000000000000000000000004040405050503030311111100FFFFFFFFFFFF
310
FFFFFFFFFFFFFFFFFFFFFFFFFFFFFFFFFFFF6262620000000505050000002121
310
21FFFFFFFFFFFFFFFFFFFFFFFFFFFFFFFEFEFEFFFFFFD5D5D500000002020201
310
0101070707FDFDFDFFFFFFFFFFFFFFFFFFFFFFFFFFFFFFFFFFFFFFFFFFFFFFFF
310
FFFFFFFFFFFFFFFFFF696969000000050505000000818181FFFFFFCCCCCC0303
310
030202020101010D0D0DF6F6F6B3B3B319191900000003030302020200000057
310
5757E8E8E8FFFFFFFFFFFFFFFFFFFFFFFFFFFFFFFFFFFFFFFFFFFFFFFFFFFFFF
310
EDEDED0C0C0C0101010101010C0C0CEDEDEDFFFFFF7F7F7F0000000505050000
310
00666666FFFFFFFFFFFFFFFFFFFFFFFFFFFFFFFFFFFFFFFFFFFFFFFFFFFFFFFF
310
FFFFFFFFFF8D8D8D000000040404000000434343FFFFFFFFFFFFFFFFFFA8A8A8
310
3C3C3C2E2E2E2C2C2C2B2B2B2A2A2A2A2A2A2929292828282727272727272626
310
2626262625252525252524242400000004040403030311111100FFFFFFFFFFFF
310
FFFFFFFFFFFFFFFFFFFFFFFFFFFFFFFFFFFF6161610000000505050000002121
310
21FFFFFFFFFFFFFFFFFFFFFFFFFFFFFFFFFFFFFFFFFFD2D2D200000003030302
310
0202060606FFFFFFFFFFFFFFFFFFFFFFFFFFFFFFFFFFFFFFFFFFFFFFFFFFFFFF
310
FFFFFFFFFFFFFFFFFF666666000000050505000000808080FFFFFFCCCCCC0202
310
020202020101010B0B0BECECECFFFFFFE5E5E54D4D4D00000000000003030300
310
00001B1B1BABABABFFFFFFFFFFFFFFFFFFFFFFFFFFFFFFFFFFFFFFFFFFFFFFFF
310
EDEDED0C0C0C0101010101010B0B0BEEEEEEFFFFFF7F7F7F0000000505050000
310
00696969FFFFFFFFFFFFFFFFFFFFFFFFFFFFFFFFFFFFFFFFFFFFFFFFFFFFFFFF
310
FFFFFFFFFF909090000000040404000000414141FFFFFFFFFFFFFFFFFFFFFFFF
310
FFFFFFFDFDFDFAFAFAF9F9F9F9F9F9F7F7F7F7F7F7F7F7F7F5F5F5F5F5F5F4F4
310
F4F4F4F4F2F2F2F4F4F4F7F7F700000004040403030311111100FFFFFFFFFFFF
310
FFFFFFFFFFFFFFFFFFFFFFFFFFFFFFFFFFFF5F5F5F0000000505050000002222
310
22FFFFFFFFFFFFFFFFFFFFFFFFFFFFFFFFFFFFFFFFFFDBDBDB00000003030304
310
04040000005858588585858383838585858686868989898989898D8D8D8E8E8E
310
919191949494898989161616010101040404000000828282FFFFFFCCCCCC0303
310
030202020101010B0B0BECECECFFFFFFFFFFFFFFFFFF8F8F8F0A0A0A00000003
310
0303000000000000636363EDEDEDFFFFFFFFFFFFFFFFFFFFFFFFFFFFFFFFFFFF
310
ECECEC0C0C0C0101010101010B0B0BEFEFEFFFFFFF7F7F7F0000000505050000
310
00555555D8D8D8D1D1D1D1D1D1D2D2D2D2D2D2D2D2D2D4D4D4D4D4D4D4D4D4D5
310
D5D5DCDCDC565656000000050505000000424242FFFFFFFFFFFFFFFFFFFFFFFF
310
FFFFFFFFFFFFFFFFFFFFFFFFFFFFFFFFFFFFFFFFFFFFFFFFFFFFFFFFFFFFFFFF
310
FFFFFFFFFFFFFFFFFFFFFDFDFD00000003030303030310101000FFFFFFFFFFFF
310
FFFFFFFFFFFFFFFFFFFFFFFFFFFFFFFFFFFF5F5F5F0000000505050000002121
310
21FFFFFFFFFFFFFFFFFFFFFFFFFFFFFFFFFFFFFFFFFFFFFFFF1D1D1D00000004
310
0404040404000000000000000000000000000000000000000000000000000000
310
000000000000000000000000050505020202000000BFBFBFFFFFFFCBCBCB0202
310
020202020101010C0C0CECECECFFFFFFFFFFFFFFFFFFFFFFFFD2D2D235353500
310
00000101010202020000001F1F1FB5B5B5FFFFFFFFFFFFFFFFFFFFFFFFFFFFFF
310
ECECEC0C0C0C0101010101010B0B0BEFEFEFFFFFFF7F7F7F0000000505050404
310
0400000000000000000000000000000000000000000000000000000000000000
310
00000000000000000404040404040000006E6E6EFFFFFFFFFFFF7C7C7C464646
310
4D4D4D4D4D4D4D4D4D4D4D4D4D4D4D4D4D4D4D4D4D4D4D4D4C4C4C4D4D4D4E4E
310
4E4F4F4F50505055555530303000000004040401010115151500FFFFFFFFFFFF
310
FFFFFFFFFFFFFFFFFFFFFFFFFFFFFFFFFFFF6060600000000505050000001F1F
310
1FFFFFFFFFFFFFFFFFFFFFFFFFFFFFFFFFFFFFFFFFFFFFFFFFB3B3B300000000
310
0000000000000000000000000000000000000000000000000000000000000000
310
000000000000000000000000000000000000585858FFFFFFFFFFFFCCCCCC0303
310
030202020101010B0B0BEAEAEAFFFFFFFFFFFFFFFFFFFFFFFFFFFFFFFEFEFE77
310
7777010101000000010101000000000000656565F0F0F0FFFFFFFFFFFFFFFFFF
310
EDEDED0A0A0A0000000000000A0A0AEDEDEDFFFFFF7E7E7E0000000303030303
310
0303030302020202020202020202020202020202020202020202020202020202
310
0202020202030303020202000000040404DADADAFFFFFFFFFFFF3F3F3F000000
310
0000000000000000000000000000000000000000000000000000000000000000
310
0000000000000000000000000004040402020200000082828200F1F1F1F1F1F1
310
F1F1F1F1F1F1F2F2F2F2F2F2F3F3F3FFFFFF5F5F5F0000000505050000001E1E
310
1EFFFFFFFCFCFCFCFCFCFBFBFBFDFDFDFDFDFDFEFEFEFEFEFEFFFFFFC6C6C646
310
4646131313131313131313131313121212121212121212111111111111111111
310
1010101010101010100F0F0F1C1C1C848484FEFEFEFFFFFFFFFFFFCDCDCD0404
310
040202020101010B0B0BEBEBEBFFFFFFFFFFFFFFFFFFFFFFFFFFFFFFFFFFFFFF
310
FFFFC0C0C0222222030303060606030303000000222222BCBCBCFFFFFFFFFFFF
310
ECECEC0D0D0D0000000000000B0B0BECECECFFFFFF7E7E7E0000000000000000
310
0000000000000000000000000000000000000000000000000000000000000000
310
00000000000000000000001C1C1CBBBBBBFFFFFFFFFFFFFFFFFF3F3F3F000000
310
0000000000000000000000000000000000000000000000000000000000000000
310
000000000000000000000000000000000000004F4F4FFFFFFF00111111101010
310
1010101111111313131313131515151919190909090303030505050404040404
310
043030302E2E2E2F2F2F3131313333333333333636362F2F2F7F7F7FFFFFFFFF
310
FFFFFFFFFFFDFDFDFCFCFCFBFBFBFAFAFAF8F8F8F7F7F7F7F7F7F6F6F6F5F5F5
310
F3F3F3F3F3F3F0F0F0F4F4F4FFFFFFFFFFFFFFFFFFFFFFFFFFFFFFCECECE0404
310
040303030000000B0B0BEBEBEBFFFFFFFFFFFFFFFFFFFFFFFFFFFFFFFFFFFFFF
310
FFFFFFFFFFF5F5F5D3D3D3D5D5D5D3D3D3D1D1D1C6C6C6C9C9C9FCFCFCFFFFFF
310
FFFFFFD5D5D5D4D4D4D4D4D4D1D1D1FDFDFDFFFFFFDFDFDFBBBBBBBDBDBDBDBD
310
BDBBBBBBB9B9B9B8B8B8B5B5B5B4B4B4B3B3B3B1B1B1AFAFAFAEAEAEADADADAB
310
ABABA9A9A9A9A9A9C4C4C4FDFDFDFFFFFFFFFFFFFFFFFFFFFFFFB8B8B89B9B9B
310
9D9D9D9B9B9B9B9B9B9999999999999999999999999999999999999999999999
310
999A9A9A989898979797979797989898CCCCCCFFFFFFFFFFFF00010101000000
310
0000000000000000000000000000000000000303030505050505050404040404
310
04000000000000000000000000000000000000000000000000555555FFFFFFFF
310
FFFFFFFFFFFFFFFFFFFFFFFFFFFFFFFFFFFFFFFFFFFFFFFFFFFFFFFFFFFFFFFF
310
FFFFFFFFFFFFFFFFFFFFFFFFFFFFFFFFFFFFFFFFFFFFFFFFFFFFFFCECECE0404
310
040101010101010B0B0BEBEBEBFFFFFFFFFFFFFFFFFFFFFFFFFFFFFFFFFFFFFF
310
FFFFFFFFFFFFFFFFFFFFFFFFFFFFFFFFFFFFFFFFFFFFFFFFFFFFFFFFFFFFFFFF
310
F5F5F57979797272727373737A7A7AF6F6F6FFFFFFFFFFFFFFFFFFFFFFFFFFFF
310
FFFFFFFFFFFFFFFFFFFFFFFFFFFFFFFFFFFFFFFFFFFFFFFFFFFFFFFFFFFFFFFF
310
FFFFFFFFFFFFFFFFFFFFFFFFFFFFFFFFFFFFFFFFFFFFFFFFFFFFFFFFFFFFFFFF
310
FFFFFFFFFFFFFFFFFFFFFFFFFFFFFFFFFFFFFFFFFFFFFFFFFFFFFFFFFFFFFFFF
310
FFFFFFFFFFFFFFFFFFFFFFFFFFFFFFFFFFFFFFFFFFFFFFFFFF00030303020202
310
0303030202020303030303030303030303030303030303030303030303030303
310
030303030303030303030303030303030303030303030000005A5A5AFFFFFFFF
310
FFFFFFFFFFFFFFFFFFFFFFFFFFFFFFFFFFFFFFFFFFFFFFFFFFFFFFFFFFFFFFFF
310
FFFFFFFFFFFFFFFFFFFFFFFFFFFFFFFFFFFFFFFFFFFFFFFFFFFFFFCECECE0303
310
030202020101010A0A0AEBEBEBFFFFFFFFFFFFFFFFFFFFFFFFFFFFFFFFFFFFFF
310
FFFFFFFFFFFFFFFFFFFFFFFFFFFFFFFFFFFFFFFFFFFFFFFFFFFFFFFFFFFFFFFF
310
EDEDED000000000000000000000000EDEDEDFFFFFFFFFFFFFFFFFFFFFFFFFFFF
310
FFFFFFFFFFFFFFFFFFFFFFFFFFFFFFFFFFFFFFFFFFFFFFFFFFFFFFFFFFFFFFFF
310
FFFFFFFFFFFFFFFFFFFFFFFFFFFFFFFFFFFFFFFFFFFFFFFFFFFFFFFFFFFFFFFF
310
FFFFFFFFFFFFFFFFFFFFFFFFFFFFFFFFFFFFFFFFFFFFFFFFFFFFFFFFFFFFFFFF
310
FFFFFFFFFFFFFFFFFFFFFFFFFFFFFFFFFFFFFFFFFFFFFFFFFF00141414121212
310
1212121212121111111212121111111111111111111111111111111010101010
310
101010100F0F0F1010101010100F0F0F0F0F0F0F0F0F030303646464FFFFFFFF
310
FFFFFFFFFFFFFFFFFFFFFFFFFFFFFFFFFFFFFFFFFFFFFFFFFFFFFFFFFFFFFFFF
310
FFFFFFFFFFFFFFFFFFFFFFFFFFFFFFFFFFFFFFFFFFFFFFFFFFFFFFD0D0D00A0A
310
0A070707060606111111ECECECFFFFFFFFFFFFFFFFFFFFFFFFFFFFFFFFFFFFFF
310
FFFFFFFFFFFFFFFFFFFFFFFFFFFFFFFFFFFFFFFFFFFFFFFFFFFFFFFFFFFFFFFF
310
F0F0F00E0E0E0000000101010C0C0CEFEFEFFFFFFFFFFFFFFFFFFFFFFFFFFFFF
310
FFFFFFFFFFFFFFFFFFFFFFFFFFFFFFFFFFFFFFFFFFFFFFFFFFFFFFFFFFFFFFFF
310
FFFFFFFFFFFFFFFFFFFFFFFFFFFFFFFFFFFFFFFFFFFFFFFFFFFFFFFFFFFFFFFF
310
FFFFFFFFFFFFFFFFFFFFFFFFFFFFFFFFFFFFFFFFFFFFFFFFFFFFFFFFFFFFFFFF
310
FFFFFFFFFFFFFFFFFFFFFFFFFFFFFFFFFFFFFFFFFFFFFFFFFF00000000000000
310
00000000460DF00702D95205930101D700019A0D03C4070156012C0116011715
310
B74912894101DA4007A24B01BB0F016F011E1CC54201E30604F84A01F60C01C3
310
4B01E0030121F1CC000201D00020000000000000000000000000000000000000
310
0000000000000000000000000000000000000000000000000000000000000000
310
0000000000000000000000000000000000000000000000000000000000000000
310
0000000000000000000000000000000000000000000000000000000000000000
310
00BF00001100002923BE84E16CD6AE529049F1F1BBE9EBB390450700A8416441
310
65406441AB436441AB416441AB41644100000000FC00C100FC018004A100B801
  1
OLE
  0
TEXT
  5
B53
330
1F
100
AcDbEntity
  8
99
  6
Continuous
 62
     7
370
    30
100
AcDbText
 10
89.54319096860075
 20
-127.2758142297338
 30
0.0
 40
2.5
  1
図番登録
 41
0.7000000000000001
  7
KCADTEXTSTANDARD
100
AcDbText
1001
Sigma
1000

  0
TEXT
  5
B54
330
1F
100
AcDbEntity
  8
99
  6
Continuous
 62
     7
370
    30
100
AcDbText
 10
89.0867399018271
 20
-132.4514631834481
 30
0.0
 40
2.0
  1
2008.5.15
 41
0.7000000000000001
  7
KCADTEXTSTANDARD
100
AcDbText
1001
Sigma
1000

  0
ENDSEC
  0
SECTION
  2
OBJECTS
  0
DICTIONARY
  5
C
330
0
100
AcDbDictionary
281
     1
  3
ACAD_COLOR
350
6C
  3
ACAD_GROUP
350
D
  3
ACAD_LAYOUT
350
1A
  3
ACAD_MATERIAL
350
6B
  3
ACAD_MLINESTYLE
350
17
  3
ACAD_PLOTSETTINGS
350
19
  3
ACAD_PLOTSTYLENAME
350
E
  3
ACAD_TABLESTYLE
350
92
  3
ACDBHEADERROUNDTRIPXREC
350
CE8
  3
AcDbVariableDictionary
350
59
  3
DWGPROPS
350
CEB
  3
KCADFRAMEINFO
350
2A7
  0
DICTIONARY
  5
6C
102
{ACAD_REACTORS
330
C
102
}
330
C
100
AcDbDictionary
281
     1
  0
DICTIONARY
  5
D
102
{ACAD_REACTORS
330
C
102
}
330
C
100
AcDbDictionary
281
     1
  3
*A1
350
395
  3
*A10
350
6D6
  3
*A11
350
6D7
  3
*A12
350
8AC
  3
*A13
350
8B1
  3
*A14
350
8B2
  3
*A15
350
8B7
  3
*A2
350
8B8
  3
*A3
350
8BF
  3
*A4
350
396
  3
*A5
350
39D
  3
*A6
350
3A0
  3
*A7
350
3A5
  3
*A8
350
3AA
  3
*A9
350
3AF
  0
DICTIONARY
  5
1A
102
{ACAD_REACTORS
330
C
102
}
330
C
100
AcDbDictionary
281
     1
  3
Model
350
22
  3
ﾚｲｱｳﾄ1
350
22F
  0
DICTIONARY
  5
6B
102
{ACAD_REACTORS
330
C
102
}
330
C
100
AcDbDictionary
281
     1
  0
DICTIONARY
  5
17
102
{ACAD_REACTORS
330
C
102
}
330
C
100
AcDbDictionary
281
     1
  3
Standard
350
18
  0
DICTIONARY
  5
19
102
{ACAD_REACTORS
330
C
102
}
330
C
100
AcDbDictionary
281
     1
  0
ACDBDICTIONARYWDFLT
  5
E
102
{ACAD_REACTORS
330
C
102
}
330
C
100
AcDbDictionary
281
     1
  3
Normal
350
F
100
AcDbDictionaryWithDefault
340
F
  0
DICTIONARY
  5
92
102
{ACAD_REACTORS
330
C
102
}
330
C
100
AcDbDictionary
281
     1
  3
Standard
350
93
  0
DICTIONARY
  5
CE8
102
{ACAD_REACTORS
330
C
102
}
330
C
100
AcDbDictionary
281
     1
  3
COLORDICT
350
CE9
  3
MATERIALDICT
350
CEA
  0
DICTIONARY
  5
59
102
{ACAD_REACTORS
330
C
102
}
330
C
100
AcDbDictionary
281
     1
  3
CTABLESTYLE
350
98
  3
DIMASSOC
350
CE7
  3
HIDETEXT
350
C60
  0
XRECORD
  5
CEB
102
{ACAD_REACTORS
330
C
102
}
330
C
100
AcDbXrecord
280
     1
  1
DWGPROPS COOKIE
  2

  3

  4

  6

  7

  8
fottrem
  9

300
=
301
=
302
=
303
=
304
=
305
=
306
=
307
=
308
=
309
=
 40
0.0
 41
2453353.717125822
 42
2453294.176384896
  1

 90
        0
  0
XRECORD
  5
2A7
102
{ACAD_REACTORS
330
C
102
}
330
C
100
AcDbXrecord
280
     1
  1
A3
 40
420.0
 40
297.0
 90
        1
 90
        1
  0
GROUP
  5
395
102
{ACAD_REACTORS
330
D
102
}
330
D
100
AcDbGroup
300
group from kcad family
 70
     1
 71
     1
340
397
340
399
  0
GROUP
  5
6D6
102
{ACAD_REACTORS
330
D
102
}
330
D
100
AcDbGroup
300
group from kcad family
 70
     1
 71
     1
340
6D8
340
6DA
  0
GROUP
  5
6D7
102
{ACAD_REACTORS
330
D
102
}
330
D
100
AcDbGroup
300
line with arrowBlockRef from kcad family
 70
     1
 71
     1
340
6D8
340
6DA
  0
GROUP
  5
8AC
102
{ACAD_REACTORS
330
D
102
}
330
D
100
AcDbGroup
300
group from kcad family
 70
     1
 71
     1
340
8AD
  0
GROUP
  5
8B1
102
{ACAD_REACTORS
330
D
102
}
330
D
100
AcDbGroup
300
group from kcad family
 70
     1
 71
     1
340
8B3
340
8B5
  0
GROUP
  5
8B2
102
{ACAD_REACTORS
330
D
102
}
330
D
100
AcDbGroup
300
line with arrowBlockRef from kcad family
 70
     1
 71
     1
340
8B3
340
8B5
  0
GROUP
  5
8B7
102
{ACAD_REACTORS
330
D
102
}
330
D
100
AcDbGroup
300
group from kcad family
 70
     1
 71
     1
340
8B9
340
8BB
  0
GROUP
  5
8B8
102
{ACAD_REACTORS
330
D
102
}
330
D
100
AcDbGroup
300
line with arrowBlockRef from kcad family
 70
     1
 71
     1
340
8B9
340
8BB
  0
GROUP
  5
8BF
102
{ACAD_REACTORS
330
D
102
}
330
D
100
AcDbGroup
300
group from kcad family
 70
     1
 71
     1
340
8C0
  0
GROUP
  5
396
102
{ACAD_REACTORS
330
D
102
}
330
D
100
AcDbGroup
300
line with arrowBlockRef from kcad family
 70
     1
 71
     1
340
397
340
399
  0
GROUP
  5
39D
102
{ACAD_REACTORS
330
D
102
}
330
D
100
AcDbGroup
300
group from kcad family
 70
     1
 71
     1
340
39E
  0
GROUP
  5
3A0
102
{ACAD_REACTORS
330
D
102
}
330
D
100
AcDbGroup
300
group from kcad family
 70
     1
 71
     1
340
3A1
340
3A3
340
3A6
340
3A8
  0
GROUP
  5
3A5
102
{ACAD_REACTORS
330
D
102
}
330
D
100
AcDbGroup
300
line with arrowBlockRef from kcad family
 70
     1
 71
     1
340
3A6
340
3A8
  0
GROUP
  5
3AA
102
{ACAD_REACTORS
330
D
102
}
330
D
100
AcDbGroup
300
group from kcad family
 70
     1
 71
     1
340
3AB
340
3AD
340
3B0
340
3B2
  0
GROUP
  5
3AF
102
{ACAD_REACTORS
330
D
102
}
330
D
100
AcDbGroup
300
line with arrowBlockRef from kcad family
 70
     1
 71
     1
340
3B0
340
3B2
  0
LAYOUT
  5
22
102
{ACAD_REACTORS
330
1A
102
}
330
1A
100
AcDbPlotSettings
  1

  2
DWF ePlot.pc3
  4
ISO_A3_(297.00_x_420.00_MM)
  6

 40
5.793749809265136
 41
17.79375076293945
 42
5.79376220703125
 43
17.79376220703125
 44
297.0
 45
420.0
 46
0.0
 47
0.0
 48
0.0
 49
0.0
140
0.0
141
0.0
142
0.0
143
0.0
 70
 11952
 72
     1
 73
     0
 74
     2
  7

 75
     0
147
1.0
148
0.0
149
0.0
100
AcDbLayout
  1
Model
 70
     1
 71
     0
 10
-210.0
 20
-148.5
 11
210.0
 21
148.5
 12
0.0
 22
0.0
 32
0.0
 14
-188.7000001506
 24
-141.7069892471353
 34
0.0
 15
191.79999984941
 25
138.5
 35
0.0
146
0.0
 13
0.0
 23
0.0
 33
0.0
 16
1.0
 26
0.0
 36
0.0
 17
0.0
 27
1.0
 37
0.0
 76
     0
330
1F
  0
LAYOUT
  5
22F
102
{ACAD_REACTORS
330
1A
102
}
330
1A
100
AcDbPlotSettings
  1

  2
D:\ACAD2000\plotters\HP DesignJet 700(System).pc3
  4

  6

 40
0.0
 41
0.0
 42
0.0
 43
0.0
 44
0.0
 45
0.0
 46
0.0
 47
0.0
 48
0.0
 49
0.0
140
0.0
141
0.0
142
1.0
143
1.0
 70
   688
 72
     0
 73
     0
 74
     5
  7
monochrome.ctb
 75
    16
147
1.0
148
0.0
149
0.0
100
AcDbLayout
  1
ﾚｲｱｳﾄ1
 70
     1
 71
     1
 10
0.0
 20
0.0
 11
12.0
 21
9.0
 12
0.0
 22
0.0
 32
0.0
 14
0.0
 24
0.0
 34
0.0
 15
0.0
 25
0.0
 35
0.0
146
0.0
 13
0.0
 23
0.0
 33
0.0
 16
1.0
 26
0.0
 36
0.0
 17
0.0
 27
1.0
 37
0.0
 76
     0
330
73
  0
MLINESTYLE
  5
18
102
{ACAD_REACTORS
330
17
102
}
330
17
100
AcDbMlineStyle
  2
Standard
 70
     0
  3

 62
   256
 51
90.0
 52
90.0
 71
     2
 49
0.5
 62
   256
  6
BYLAYER
 49
-0.5
 62
   256
  6
BYLAYER
  0
ACDBPLACEHOLDER
  5
F
102
{ACAD_REACTORS
330
E
102
}
330
E
  0
TABLESTYLE
  5
93
102
{ACAD_REACTORS
330
92
102
}
330
92
100
AcDbTableStyle
  3
Standard
 70
     0
 71
     0
 40
0.06
 41
0.06
280
     0
281
     0
  7
Standard
140
0.18
170
     2
 62
     0
 63
     7
283
     0
274
    -2
284
     1
 64
     0
275
    -2
285
     1
 65
     0
276
    -2
286
     1
 66
     0
277
    -2
287
     1
 67
     0
278
    -2
288
     1
 68
     0
279
    -2
289
     1
 69
     0
  7
Standard
140
0.25
170
     5
 62
     0
 63
     7
283
     0
274
    -2
284
     1
 64
     0
275
    -2
285
     1
 65
     0
276
    -2
286
     1
 66
     0
277
    -2
287
     1
 67
     0
278
    -2
288
     1
 68
     0
279
    -2
289
     1
 69
     0
  7
Standard
140
0.18
170
     5
 62
     0
 63
     7
283
     0
274
    -2
284
     1
 64
     0
275
    -2
285
     1
 65
     0
276
    -2
286
     1
 66
     0
277
    -2
287
     1
 67
     0
278
    -2
288
     1
 68
     0
279
    -2
289
     1
 69
     0
  0
XRECORD
  5
CE9
102
{ACAD_REACTORS
330
CE8
102
}
330
CE8
100
AcDbXrecord
280
     1
340
6C
  0
XRECORD
  5
CEA
102
{ACAD_REACTORS
330
CE8
102
}
330
CE8
100
AcDbXrecord
280
     1
340
6B
  0
DICTIONARYVAR
  5
98
102
{ACAD_REACTORS
330
59
102
}
330
59
100
DictionaryVariables
280
     0
  1
STANDARD
  0
DICTIONARYVAR
  5
CE7
102
{ACAD_REACTORS
330
59
102
}
330
59
100
DictionaryVariables
280
     0
  1
1
  0
DICTIONARYVAR
  5
C60
102
{ACAD_REACTORS
330
59
102
}
330
59
100
DictionaryVariables
280
     0
  1
1
  0
ENDSEC
  0
EOF
