  0
SECTION
  2
HEADER
  9
$ACADVER
  1
AC1015
  9
$ACADMAINTVER
 70
     6
  9
$DWGCODEPAGE
  3
ANSI_932
  9
$INSBASE
 10
0.0
 20
0.0
 30
0.0
  9
$EXTMIN
 10
57.629
 20
43.500003561653
 30
0.0
  9
$EXTMAX
 10
362.7315963697391
 20
253.4999964389
 30
0.0
  9
$LIMMIN
 10
0.0
 20
0.0
  9
$LIMMAX
 10
420.0
 20
297.0
  9
$ORTHOMODE
 70
     0
  9
$REGENMODE
 70
     1
  9
$FILLMODE
 70
     1
  9
$QTEXTMODE
 70
     0
  9
$MIRRTEXT
 70
     1
  9
$LTSCALE
 40
0.2
  9
$ATTMODE
 70
     1
  9
$TEXTSIZE
 40
3.2
  9
$TRACEWID
 40
1.0
  9
$TEXTSTYLE
  7
KCADTEXTSTANDARD
  9
$CLAYER
  8
0
  9
$CELTYPE
  6
Continuous
  9
$CECOLOR
 62
   134
  9
$CELTSCALE
 40
1.0
  9
$DISPSILH
 70
     0
  9
$DIMSCALE
 40
1.0
  9
$DIMASZ
 40
3.0
  9
$DIMEXO
 40
1.0
  9
$DIMDLI
 40
8.0
  9
$DIMRND
 40
0.0
  9
$DIMDLE
 40
0.0
  9
$DIMEXE
 40
1.0
  9
$DIMTP
 40
0.0
  9
$DIMTM
 40
0.0
  9
$DIMTXT
 40
3.2
  9
$DIMCEN
 40
2.5
  9
$DIMTSZ
 40
0.0
  9
$DIMTOL
 70
     0
  9
$DIMLIM
 70
     0
  9
$DIMTIH
 70
     0
  9
$DIMTOH
 70
     0
  9
$DIMSE1
 70
     0
  9
$DIMSE2
 70
     0
  9
$DIMTAD
 70
     1
  9
$DIMZIN
 70
     8
  9
$DIMBLK
  1

  9
$DIMASO
 70
     1
  9
$DIMSHO
 70
     1
  9
$DIMPOST
  1

  9
$DIMAPOST
  1

  9
$DIMALT
 70
     0
  9
$DIMALTD
 70
     2
  9
$DIMALTF
 40
25.4
  9
$DIMLFAC
 40
1.0
  9
$DIMTOFL
 70
     1
  9
$DIMTVP
 40
0.0
  9
$DIMTIX
 70
     0
  9
$DIMSOXD
 70
     0
  9
$DIMSAH
 70
     1
  9
$DIMBLK1
  1
KCAD_OPEN30
  9
$DIMBLK2
  1
KCAD_OPEN30
  9
$DIMSTYLE
  2
Standard
  9
$DIMCLRD
 70
     0
  9
$DIMCLRE
 70
     0
  9
$DIMCLRT
 70
     0
  9
$DIMTFAC
 40
0.667
  9
$DIMGAP
 40
0.5333000000000001
  9
$DIMJUST
 70
     0
  9
$DIMSD1
 70
     0
  9
$DIMSD2
 70
     0
  9
$DIMTOLJ
 70
     1
  9
$DIMTZIN
 70
     8
  9
$DIMALTZ
 70
     0
  9
$DIMALTTZ
 70
     0
  9
$DIMUPT
 70
     0
  9
$DIMDEC
 70
     3
  9
$DIMTDEC
 70
     3
  9
$DIMALTU
 70
     2
  9
$DIMALTTD
 70
     2
  9
$DIMTXSTY
  7
KCADDIMSTANDARD
  9
$DIMAUNIT
 70
     0
  9
$DIMADEC
 70
     3
  9
$DIMALTRND
 40
0.0
  9
$DIMAZIN
 70
     2
  9
$DIMDSEP
 70
    46
  9
$DIMATFIT
 70
     3
  9
$DIMFRAC
 70
     0
  9
$DIMLDRBLK
  1
KCAD_OPEN
  9
$DIMLUNIT
 70
     2
  9
$DIMLWD
 70
    -2
  9
$DIMLWE
 70
    -2
  9
$DIMTMOVE
 70
     0
  9
$LUNITS
 70
     2
  9
$LUPREC
 70
     4
  9
$SKETCHINC
 40
1.0
  9
$FILLETRAD
 40
5.0
  9
$AUNITS
 70
     0
  9
$AUPREC
 70
     0
  9
$MENU
  1
.
  9
$ELEVATION
 40
0.0
  9
$PELEVATION
 40
0.0
  9
$THICKNESS
 40
0.0
  9
$LIMCHECK
 70
     0
  9
$CHAMFERA
 40
5.0
  9
$CHAMFERB
 40
5.0
  9
$CHAMFERC
 40
5.0
  9
$CHAMFERD
 40
0.7853981633974483
  9
$SKPOLY
 70
     0
  9
$TDCREATE
 40
2453354.092125822
  9
$TDUCREATE
 40
2453353.717125822
  9
$TDUPDATE
 40
2453295.480389352
  9
$TDUUPDATE
 40
2453295.105389352
  9
$TDINDWG
 40
0.0508096759
  9
$TDUSRTIMER
 40
0.0507749653
  9
$USRTIMER
 70
     1
  9
$ANGBASE
 50
0.0
  9
$ANGDIR
 70
     0
  9
$PDMODE
 70
     0
  9
$PDSIZE
 40
0.0
  9
$PLINEWID
 40
0.0
  9
$SPLFRAME
 70
     0
  9
$SPLINETYPE
 70
     6
  9
$SPLINESEGS
 70
     8
  9
$HANDSEED
  5
A62
  9
$SURFTAB1
 70
     6
  9
$SURFTAB2
 70
     6
  9
$SURFTYPE
 70
     6
  9
$SURFU
 70
     6
  9
$SURFV
 70
     6
  9
$UCSBASE
  2

  9
$UCSNAME
  2

  9
$UCSORG
 10
0.0
 20
0.0
 30
0.0
  9
$UCSXDIR
 10
1.0
 20
0.0
 30
0.0
  9
$UCSYDIR
 10
0.0
 20
1.0
 30
0.0
  9
$UCSORTHOREF
  2

  9
$UCSORTHOVIEW
 70
     0
  9
$UCSORGTOP
 10
0.0
 20
0.0
 30
0.0
  9
$UCSORGBOTTOM
 10
0.0
 20
0.0
 30
0.0
  9
$UCSORGLEFT
 10
0.0
 20
0.0
 30
0.0
  9
$UCSORGRIGHT
 10
0.0
 20
0.0
 30
0.0
  9
$UCSORGFRONT
 10
0.0
 20
0.0
 30
0.0
  9
$UCSORGBACK
 10
0.0
 20
0.0
 30
0.0
  9
$PUCSBASE
  2

  9
$PUCSNAME
  2

  9
$PUCSORG
 10
0.0
 20
0.0
 30
0.0
  9
$PUCSXDIR
 10
1.0
 20
0.0
 30
0.0
  9
$PUCSYDIR
 10
0.0
 20
1.0
 30
0.0
  9
$PUCSORTHOREF
  2

  9
$PUCSORTHOVIEW
 70
     0
  9
$PUCSORGTOP
 10
0.0
 20
0.0
 30
0.0
  9
$PUCSORGBOTTOM
 10
0.0
 20
0.0
 30
0.0
  9
$PUCSORGLEFT
 10
0.0
 20
0.0
 30
0.0
  9
$PUCSORGRIGHT
 10
0.0
 20
0.0
 30
0.0
  9
$PUCSORGFRONT
 10
0.0
 20
0.0
 30
0.0
  9
$PUCSORGBACK
 10
0.0
 20
0.0
 30
0.0
  9
$USERI1
 70
     0
  9
$USERI2
 70
     0
  9
$USERI3
 70
     0
  9
$USERI4
 70
   257
  9
$USERI5
 70
     0
  9
$USERR1
 40
0.0
  9
$USERR2
 40
0.0
  9
$USERR3
 40
0.0
  9
$USERR4
 40
0.0
  9
$USERR5
 40
0.0
  9
$WORLDVIEW
 70
     1
  9
$SHADEDGE
 70
     3
  9
$SHADEDIF
 70
    70
  9
$TILEMODE
 70
     1
  9
$MAXACTVP
 70
    48
  9
$PINSBASE
 10
0.0
 20
0.0
 30
0.0
  9
$PLIMCHECK
 70
     0
  9
$PEXTMIN
 10
0.0
 20
0.0
 30
0.0
  9
$PEXTMAX
 10
0.0
 20
0.0
 30
0.0
  9
$PLIMMIN
 10
0.0
 20
0.0
  9
$PLIMMAX
 10
12.0
 20
9.0
  9
$UNITMODE
 70
     0
  9
$VISRETAIN
 70
     1
  9
$PLINEGEN
 70
     0
  9
$PSLTSCALE
 70
     1
  9
$TREEDEPTH
 70
  3020
  9
$CMLSTYLE
  2
Standard
  9
$CMLJUST
 70
     0
  9
$CMLSCALE
 40
20.0
  9
$PROXYGRAPHICS
 70
     1
  9
$MEASUREMENT
 70
     1
  9
$CELWEIGHT
370
    15
  9
$ENDCAPS
280
     0
  9
$JOINSTYLE
280
     0
  9
$LWDISPLAY
290
     0
  9
$INSUNITS
 70
     0
  9
$HYPERLINKBASE
  1

  9
$STYLESHEET
  1

  9
$XEDIT
290
     0
  9
$CEPSNTYPE
380
     0
  9
$PSTYLEMODE
290
     1
  9
$FINGERPRINTGUID
  2
{1989D620-E742-11D2-9219-00105A146177}
  9
$VERSIONGUID
  2
{7D1014A5-3329-4B09-AFB4-45492961FF2E}
  9
$EXTNAMES
290
     1
  9
$PSVPSCALE
 40
0.0
  9
$OLESTARTUP
290
     0
  0
ENDSEC
  0
SECTION
  2
CLASSES
  0
CLASS
  1
ACDBDICTIONARYWDFLT
  2
AcDbDictionaryWithDefault
  3
ObjectDBX Classes
 90
        0
280
     0
281
     0
  0
CLASS
  1
ACDBPLACEHOLDER
  2
AcDbPlaceHolder
  3
ObjectDBX Classes
 90
        0
280
     0
281
     0
  0
CLASS
  1
LAYOUT
  2
AcDbLayout
  3
ObjectDBX Classes
 90
        0
280
     0
281
     0
  0
CLASS
  1
DICTIONARYVAR
  2
AcDbDictionaryVar
  3
ObjectDBX Classes
 90
        0
280
     0
281
     0
  0
CLASS
  1
TABLESTYLE
  2
AcDbTableStyle
  3
ObjectDBX Classes
 90
     2047
280
     0
281
     0
  0
ENDSEC
  0
SECTION
  2
TABLES
  0
TABLE
  2
VPORT
  5
8
330
0
100
AcDbSymbolTable
 70
     2
  0
VPORT
  5
97
330
8
100
AcDbSymbolTableRecord
100
AcDbViewportTableRecord
  2
*Active
 70
     0
 10
0.0
 20
0.0
 11
1.0
 21
1.0
 12
210.1802981848695
 22
148.5000000002765
 13
0.0
 23
0.0
 14
10.0
 24
10.0
 15
10.0
 25
10.0
 16
0.0
 26
0.0
 36
1.0
 17
0.0
 27
0.0
 37
0.0
 40
260.7087017585363
 41
2.207885304659498
 42
50.0
 43
0.0
 44
0.0
 50
0.0
 51
0.0
 71
    16
 72
 20000
 73
     1
 74
     1
 75
     0
 76
     0
 77
     0
 78
     0
281
     0
 65
     0
110
0.0
120
0.0
130
0.0
111
1.0
121
0.0
131
0.0
112
0.0
122
1.0
132
0.0
 79
     0
146
0.0
  0
ENDTAB
  0
TABLE
  2
LTYPE
  5
5
330
0
100
AcDbSymbolTable
 70
     6
  0
LTYPE
  5
14
330
5
100
AcDbSymbolTableRecord
100
AcDbLinetypeTableRecord
  2
ByBlock
 70
     0
  3

 72
    65
 73
     0
 40
0.0
  0
LTYPE
  5
15
330
5
100
AcDbSymbolTableRecord
100
AcDbLinetypeTableRecord
  2
ByLayer
 70
     0
  3

 72
    65
 73
     0
 40
0.0
  0
LTYPE
  5
16
330
5
100
AcDbSymbolTableRecord
100
AcDbLinetypeTableRecord
  2
Continuous
 70
     0
  3
Solid line
 72
    65
 73
     0
 40
0.0
  0
LTYPE
  5
9F2
330
5
100
AcDbSymbolTableRecord
100
AcDbLinetypeTableRecord
  2
CENTER
 70
     0
  3
Center ____ _ ____ _ ____ _ ____ _ ____ _ ____
 72
    65
 73
     4
 40
50.8
 49
31.75
 74
     4
 75
     0
340
0
 46
1.0
 50
0.0
 44
0.0
 45
0.0
 49
-6.349999999999999
 74
     4
 75
     0
340
0
 46
1.0
 50
0.0
 44
0.0
 45
0.0
 49
6.349999999999999
 74
     4
 75
     0
340
0
 46
1.0
 50
0.0
 44
0.0
 45
0.0
 49
-6.349999999999999
 74
     4
 75
     0
340
0
 46
1.0
 50
0.0
 44
0.0
 45
0.0
  0
LTYPE
  5
9F3
330
5
100
AcDbSymbolTableRecord
100
AcDbLinetypeTableRecord
  2
DASHED
 70
     0
  3
Dashed __ __ __ __ __ __ __ __ __ __ __ __ __ _
 72
    65
 73
     2
 40
19.05
 49
12.7
 74
     4
 75
     0
340
0
 46
1.0
 50
0.0
 44
0.0
 45
0.0
 49
-6.349999999999999
 74
     4
 75
     0
340
0
 46
1.0
 50
0.0
 44
0.0
 45
0.0
  0
LTYPE
  5
9F4
330
5
100
AcDbSymbolTableRecord
100
AcDbLinetypeTableRecord
  2
HIDDEN
 70
     0
  3
Hidden __ __ __ __ __ __ __ __ __ __ __ __ __ _
 72
    65
 73
     2
 40
9.524999999999999
 49
6.349999999999999
 74
     4
 75
     0
340
0
 46
1.0
 50
0.0
 44
0.0
 45
0.0
 49
-3.174999999999999
 74
     4
 75
     0
340
0
 46
1.0
 50
0.0
 44
0.0
 45
0.0
  0
LTYPE
  5
9F5
330
5
100
AcDbSymbolTableRecord
100
AcDbLinetypeTableRecord
  2
PHANTOM
 70
     0
  3
Phantom ______  __  __  ______  __  __  ______
 72
    65
 73
     6
 40
63.50000000000001
 49
31.75
 74
     4
 75
     0
340
0
 46
1.0
 50
0.0
 44
0.0
 45
0.0
 49
-6.349999999999999
 74
     4
 75
     0
340
0
 46
1.0
 50
0.0
 44
0.0
 45
0.0
 49
6.349999999999999
 74
     4
 75
     0
340
0
 46
1.0
 50
0.0
 44
0.0
 45
0.0
 49
-6.349999999999999
 74
     4
 75
     0
340
0
 46
1.0
 50
0.0
 44
0.0
 45
0.0
 49
6.349999999999999
 74
     4
 75
     0
340
0
 46
1.0
 50
0.0
 44
0.0
 45
0.0
 49
-6.349999999999999
 74
     4
 75
     0
340
0
 46
1.0
 50
0.0
 44
0.0
 45
0.0
  0
LTYPE
  5
9F6
330
5
100
AcDbSymbolTableRecord
100
AcDbLinetypeTableRecord
  2
RUPTURE
 70
     0
  3
Rupture line
 72
    65
 73
     4
 40
45.72
 49
25.4
 74
     4
 75
     0
340
0
 46
1.0
 50
0.0
 44
0.0
 45
0.0
 49
-5.08
 74
     4
 75
   131
340
11
 46
5.08
 50
0.0
 44
-5.08
 45
0.0
 49
-10.16
 74
     4
 75
   131
340
11
 46
5.08
 50
180.0
 44
5.08
 45
0.0
 49
-5.08
 74
     4
 75
     0
340
0
 46
1.0
 50
0.0
 44
0.0
 45
0.0
  0
ENDTAB
  0
TABLE
  2
LAYER
  5
2
330
0
100
AcDbSymbolTable
 70
    18
  0
LAYER
  5
10
330
2
100
AcDbSymbolTableRecord
100
AcDbLayerTableRecord
  2
0
 70
     0
 62
     7
  6
Continuous
370
    -3
390
F
  0
LAYER
  5
7EA
330
2
100
AcDbSymbolTableRecord
100
AcDbLayerTableRecord
  2
KCAD_DIMS
 70
     0
 62
   134
  6
Continuous
370
    15
390
F
  0
LAYER
  5
4F
330
2
100
AcDbSymbolTableRecord
100
AcDbLayerTableRecord
  2
DEFPOINTS
 70
     0
 62
     7
  6
Continuous
290
     0
370
    -3
390
F
  0
LAYER
  5
20B
330
2
100
AcDbSymbolTableRecord
100
AcDbLayerTableRecord
  2
KCAD_ASST
 70
     0
 62
   134
  6
Continuous
370
    15
390
F
  0
LAYER
  5
20C
330
2
100
AcDbSymbolTableRecord
100
AcDbLayerTableRecord
  2
KCAD_RASTER
 70
     0
 62
     7
  6
Continuous
370
    30
390
F
  0
LAYER
  5
20D
330
2
100
AcDbSymbolTableRecord
100
AcDbLayerTableRecord
  2
SYBCENTER
 70
     0
 62
   134
  6
CENTER
370
    15
390
F
  0
LAYER
  5
20E
330
2
100
AcDbSymbolTableRecord
100
AcDbLayerTableRecord
  2
SYBHIDE
 70
     0
 62
   134
  6
HIDDEN
370
    15
390
F
  0
LAYER
  5
20F
330
2
100
AcDbSymbolTableRecord
100
AcDbLayerTableRecord
  2
SYBOUTLINE
 70
     0
 62
     7
  6
Continuous
370
    30
390
F
  0
LAYER
  5
210
330
2
100
AcDbSymbolTableRecord
100
AcDbLayerTableRecord
  2
SYBTHREAD
 70
     0
 62
   134
  6
Continuous
370
    15
390
F
  0
LAYER
  5
211
330
2
100
AcDbSymbolTableRecord
100
AcDbLayerTableRecord
  2
SYBTHRHID
 70
     0
 62
   134
  6
HIDDEN
370
    15
390
F
  0
LAYER
  5
282
330
2
100
AcDbSymbolTableRecord
100
AcDbLayerTableRecord
  2
KCAD_UIR_TMP_LAYER_
 70
     0
 62
     7
  6
Continuous
370
    -3
390
F
  0
LAYER
  5
2A8
330
2
100
AcDbSymbolTableRecord
100
AcDbLayerTableRecord
  2
KCAD_CPM_MAX_LAYER
 70
     3
 62
     7
  6
Continuous
370
    -3
390
F
  0
LAYER
  5
2F1
330
2
100
AcDbSymbolTableRecord
100
AcDbLayerTableRecord
  2
1
 70
     0
 62
     7
  6
Continuous
370
    -3
390
F
  0
LAYER
  5
306
330
2
100
AcDbSymbolTableRecord
100
AcDbLayerTableRecord
  2
99
 70
     0
 62
     7
  6
Continuous
370
    -3
390
F
  0
LAYER
  5
38D
330
2
100
AcDbSymbolTableRecord
100
AcDbLayerTableRecord
  2
2
 70
     0
 62
     7
  6
Continuous
370
    -3
390
F
  0
LAYER
  5
39D
330
2
100
AcDbSymbolTableRecord
100
AcDbLayerTableRecord
  2
7
 70
     0
 62
     7
  6
Continuous
370
    -3
390
F
  0
LAYER
  5
3D9
330
2
100
AcDbSymbolTableRecord
100
AcDbLayerTableRecord
  2
3
 70
     0
 62
     7
  6
Continuous
370
    -3
390
F
  0
LAYER
  5
4C3
330
2
100
AcDbSymbolTableRecord
100
AcDbLayerTableRecord
  2
4
 70
     0
 62
     7
  6
Continuous
370
    -3
390
F
  0
ENDTAB
  0
TABLE
  2
STYLE
  5
3
330
0
100
AcDbSymbolTable
 70
     5
  0
STYLE
  5
11
330
3
100
AcDbSymbolTableRecord
100
AcDbTextStyleTableRecord
  2
Standard
 70
     0
 40
0.0
 41
1.0
 50
0.0
 71
     0
 42
3.2
  3
txt.shx
  4
bigfont.shx
  0
STYLE
  5
17F
330
3
100
AcDbSymbolTableRecord
100
AcDbTextStyleTableRecord
  2

 70
     1
 40
0.0
 41
1.0
 50
0.0
 71
     0
 42
3.2
  3
ltypeshp.shx
  4

  0
STYLE
  5
189
330
3
100
AcDbSymbolTableRecord
100
AcDbTextStyleTableRecord
  2
KCADDIMSTANDARD
 70
     0
 40
0.0
 41
1.0
 50
0.0
 71
     0
 42
3.2
  3
txt.shx
  4
bigfont.shx
  0
STYLE
  5
18A
330
3
100
AcDbSymbolTableRecord
100
AcDbTextStyleTableRecord
  2
KCADTEXTSTANDARD
 70
     0
 40
0.0
 41
1.0
 50
0.0
 71
     0
 42
3.2
  3
txt.shx
  4
bigfont.shx
  0
STYLE
  5
1AD
330
3
100
AcDbSymbolTableRecord
100
AcDbTextStyleTableRecord
  2
KCADTEXT2
 70
     0
 40
0.0
 41
1.0
 50
0.0
 71
     0
 42
3.2
  3
txt.shx
  4
extfont.shx
  0
ENDTAB
  0
TABLE
  2
VIEW
  5
6
330
0
100
AcDbSymbolTable
 70
     0
  0
ENDTAB
  0
TABLE
  2
UCS
  5
7
330
0
100
AcDbSymbolTable
 70
     0
  0
ENDTAB
  0
TABLE
  2
APPID
  5
9
330
0
100
AcDbSymbolTable
 70
     3
  0
APPID
  5
12
330
9
100
AcDbSymbolTableRecord
100
AcDbRegAppTableRecord
  2
ACAD
 70
     0
  0
APPID
  5
9F0
330
9
100
AcDbSymbolTableRecord
100
AcDbRegAppTableRecord
  2
Sigma
 70
     0
  0
APPID
  5
9F1
330
9
100
AcDbSymbolTableRecord
100
AcDbRegAppTableRecord
  2
KCAD_DIM_EXT
 70
     0
  0
ENDTAB
  0
TABLE
  2
DIMSTYLE
  5
A
330
0
100
AcDbSymbolTable
 70
     1
100
AcDbDimStyleTable
  0
DIMSTYLE
105
27
102
{ACAD_REACTORS
330
4CE
330
50C
330
548
330
588
330
5C4
330
600
330
63C
330
693
330
703
102
}
330
A
100
AcDbSymbolTableRecord
100
AcDbDimStyleTableRecord
  2
Standard
 70
     0
340
11
  0
ENDTAB
  0
TABLE
  2
BLOCK_RECORD
  5
1
330
0
100
AcDbSymbolTable
 70
    51
  0
BLOCK_RECORD
  5
1F
330
1
100
AcDbSymbolTableRecord
100
AcDbBlockTableRecord
  2
*Model_Space
340
22
  0
BLOCK_RECORD
  5
73
330
1
100
AcDbSymbolTableRecord
100
AcDbBlockTableRecord
  2
*Paper_Space
340
22F
  0
BLOCK_RECORD
  5
7EB
330
1
100
AcDbSymbolTableRecord
100
AcDbBlockTableRecord
  2
KCAD_OPEN
340
0
  0
BLOCK_RECORD
  5
3C
330
1
100
AcDbSymbolTableRecord
100
AcDbBlockTableRecord
  2
KCAD_DOTSMALL
340
0
  0
BLOCK_RECORD
  5
44
330
1
100
AcDbSymbolTableRecord
100
AcDbBlockTableRecord
  2
KCAD_NONE
340
0
  0
BLOCK_RECORD
  5
FC
330
1
100
AcDbSymbolTableRecord
100
AcDbBlockTableRecord
  2
_CLOSED
340
0
  0
BLOCK_RECORD
  5
103
330
1
100
AcDbSymbolTableRecord
100
AcDbBlockTableRecord
  2
_DOT
340
0
  0
BLOCK_RECORD
  5
10B
330
1
100
AcDbSymbolTableRecord
100
AcDbBlockTableRecord
  2
_CLOSEDBLANK
340
0
  0
BLOCK_RECORD
  5
111
330
1
100
AcDbSymbolTableRecord
100
AcDbBlockTableRecord
  2
_OBLIQUE
340
0
  0
BLOCK_RECORD
  5
115
330
1
100
AcDbSymbolTableRecord
100
AcDbBlockTableRecord
  2
_ARCHTICK
340
0
  0
BLOCK_RECORD
  5
11C
330
1
100
AcDbSymbolTableRecord
100
AcDbBlockTableRecord
  2
_OPEN
340
0
  0
BLOCK_RECORD
  5
122
330
1
100
AcDbSymbolTableRecord
100
AcDbBlockTableRecord
  2
_ORIGIN
340
0
  0
BLOCK_RECORD
  5
127
330
1
100
AcDbSymbolTableRecord
100
AcDbBlockTableRecord
  2
_OPEN90
340
0
  0
BLOCK_RECORD
  5
12D
330
1
100
AcDbSymbolTableRecord
100
AcDbBlockTableRecord
  2
_OPEN30
340
0
102
{BLKREFS
331
496
331
503
331
504
331
541
331
542
331
57D
331
57E
331
5BD
331
5BE
331
5F9
331
5FA
331
635
331
636
331
671
331
672
331
6C8
331
6C9
331
6FD
331
73A
331
73B
331
67B
331
680
331
691
102
}
  0
BLOCK_RECORD
  5
133
330
1
100
AcDbSymbolTableRecord
100
AcDbBlockTableRecord
  2
_DOTBLANK
340
0
  0
BLOCK_RECORD
  5
138
330
1
100
AcDbSymbolTableRecord
100
AcDbBlockTableRecord
  2
_DOTSMALL
340
0
  0
BLOCK_RECORD
  5
13F
330
1
100
AcDbSymbolTableRecord
100
AcDbBlockTableRecord
  2
_BOXFILLED
340
0
  0
BLOCK_RECORD
  5
144
330
1
100
AcDbSymbolTableRecord
100
AcDbBlockTableRecord
  2
_BOXBLANK
340
0
  0
BLOCK_RECORD
  5
14C
330
1
100
AcDbSymbolTableRecord
100
AcDbBlockTableRecord
  2
_DATUMFILLED
340
0
  0
BLOCK_RECORD
  5
150
330
1
100
AcDbSymbolTableRecord
100
AcDbBlockTableRecord
  2
_DATUMBLANK
340
0
  0
BLOCK_RECORD
  5
156
330
1
100
AcDbSymbolTableRecord
100
AcDbBlockTableRecord
  2
_INTEGRAL
340
0
  0
BLOCK_RECORD
  5
1F1
330
1
100
AcDbSymbolTableRecord
100
AcDbBlockTableRecord
  2
_Origin2
340
0
  0
BLOCK_RECORD
  5
1F7
330
1
100
AcDbSymbolTableRecord
100
AcDbBlockTableRecord
  2
KCAD_OPEN30
340
0
102
{BLKREFS
331
86D
331
86E
331
879
331
87A
331
883
331
884
331
88B
331
88C
102
}
  0
BLOCK_RECORD
  5
222
330
1
100
AcDbSymbolTableRecord
100
AcDbBlockTableRecord
  2
_None
340
0
  0
BLOCK_RECORD
  5
283
330
1
100
AcDbSymbolTableRecord
100
AcDbBlockTableRecord
  2
_Small
340
0
  0
BLOCK_RECORD
  5
287
330
1
100
AcDbSymbolTableRecord
100
AcDbBlockTableRecord
  2
KCAD_OPEN_2
340
0
  0
BLOCK_RECORD
  5
28E
330
1
100
AcDbSymbolTableRecord
100
AcDbBlockTableRecord
  2
KCAD_OPEN30_2
340
0
  0
BLOCK_RECORD
  5
2AD
330
1
100
AcDbSymbolTableRecord
100
AcDbBlockTableRecord
  2
KCAD_OPEN30ANG
340
0
  0
BLOCK_RECORD
  5
2B6
330
1
100
AcDbSymbolTableRecord
100
AcDbBlockTableRecord
  2
KCAD_DOTANG
340
0
  0
BLOCK_RECORD
  5
46B
330
1
100
AcDbSymbolTableRecord
100
AcDbBlockTableRecord
  2
*D27
340
0
  0
BLOCK_RECORD
  5
4CF
330
1
100
AcDbSymbolTableRecord
100
AcDbBlockTableRecord
  2
*D28
340
0
  0
BLOCK_RECORD
  5
50D
330
1
100
AcDbSymbolTableRecord
100
AcDbBlockTableRecord
  2
*D29
340
0
  0
BLOCK_RECORD
  5
549
330
1
100
AcDbSymbolTableRecord
100
AcDbBlockTableRecord
  2
*D30
340
0
  0
BLOCK_RECORD
  5
589
330
1
100
AcDbSymbolTableRecord
100
AcDbBlockTableRecord
  2
*D31
340
0
  0
BLOCK_RECORD
  5
5C5
330
1
100
AcDbSymbolTableRecord
100
AcDbBlockTableRecord
  2
*D32
340
0
  0
BLOCK_RECORD
  5
601
330
1
100
AcDbSymbolTableRecord
100
AcDbBlockTableRecord
  2
*D33
340
0
  0
BLOCK_RECORD
  5
63D
330
1
100
AcDbSymbolTableRecord
100
AcDbBlockTableRecord
  2
*D34
340
0
  0
BLOCK_RECORD
  5
694
330
1
100
AcDbSymbolTableRecord
100
AcDbBlockTableRecord
  2
*D35
340
0
  0
BLOCK_RECORD
  5
6D0
330
1
100
AcDbSymbolTableRecord
100
AcDbBlockTableRecord
  2
*D36
340
0
  0
BLOCK_RECORD
  5
704
330
1
100
AcDbSymbolTableRecord
100
AcDbBlockTableRecord
  2
*D37
340
0
  0
BLOCK_RECORD
  5
769
330
1
100
AcDbSymbolTableRecord
100
AcDbBlockTableRecord
  2
*D38
340
0
  0
BLOCK_RECORD
  5
775
330
1
100
AcDbSymbolTableRecord
100
AcDbBlockTableRecord
  2
*D39
340
0
  0
BLOCK_RECORD
  5
782
330
1
100
AcDbSymbolTableRecord
100
AcDbBlockTableRecord
  2
*D40
340
0
  0
BLOCK_RECORD
  5
78E
330
1
100
AcDbSymbolTableRecord
100
AcDbBlockTableRecord
  2
*D41
340
0
  0
BLOCK_RECORD
  5
79A
330
1
100
AcDbSymbolTableRecord
100
AcDbBlockTableRecord
  2
*D42
340
0
  0
BLOCK_RECORD
  5
7A6
330
1
100
AcDbSymbolTableRecord
100
AcDbBlockTableRecord
  2
*D43
340
0
  0
BLOCK_RECORD
  5
7B2
330
1
100
AcDbSymbolTableRecord
100
AcDbBlockTableRecord
  2
*D44
340
0
  0
BLOCK_RECORD
  5
7BE
330
1
100
AcDbSymbolTableRecord
100
AcDbBlockTableRecord
  2
*D45
340
0
  0
BLOCK_RECORD
  5
7CA
330
1
100
AcDbSymbolTableRecord
100
AcDbBlockTableRecord
  2
*D46
340
0
  0
BLOCK_RECORD
  5
7D5
330
1
100
AcDbSymbolTableRecord
100
AcDbBlockTableRecord
  2
*D47
340
0
  0
BLOCK_RECORD
  5
7E1
330
1
100
AcDbSymbolTableRecord
100
AcDbBlockTableRecord
  2
*D48
340
0
  0
BLOCK_RECORD
  5
871
330
1
100
AcDbSymbolTableRecord
100
AcDbBlockTableRecord
  2
*D49
340
0
  0
BLOCK_RECORD
  5
87D
330
1
100
AcDbSymbolTableRecord
100
AcDbBlockTableRecord
  2
*D50
340
0
  0
ENDTAB
  0
ENDSEC
  0
SECTION
  2
BLOCKS
  0
BLOCK
  5
20
330
1F
100
AcDbEntity
  8
0
100
AcDbBlockBegin
  2
*Model_Space
 70
     0
 71
     0
 10
0.0
 20
0.0
 30
0.0
  3
*Model_Space
  1

  0
ENDBLK
  5
21
330
1F
100
AcDbEntity
  8
0
100
AcDbBlockEnd
  0
BLOCK
  5
75
330
73
100
AcDbEntity
 67
     1
  8
0
100
AcDbBlockBegin
  2
*Paper_Space
 70
     0
 71
     0
 10
0.0
 20
0.0
 30
0.0
  3
*Paper_Space
  1

  0
ENDBLK
  5
76
330
73
100
AcDbEntity
 67
     1
  8
0
100
AcDbBlockEnd
  0
BLOCK
  5
9F7
330
7EB
100
AcDbEntity
  8
KCAD_DIMS
100
AcDbBlockBegin
  2
KCAD_OPEN
 70
     0
 71
     0
 10
0.0
 20
0.0
 30
0.0
  3
KCAD_OPEN
  1

  0
LINE
  5
84E
330
7EB
100
AcDbEntity
  8
0
  6
Continuous
 62
     0
370
    -2
100
AcDbLine
 10
0.0
 20
0.0
 30
0.0
 11
-1.0
 21
0.0
 31
0.0
  0
LINE
  5
23
330
7EB
100
AcDbEntity
  8
0
  6
Continuous
 62
     0
370
    -2
100
AcDbLine
 10
0.0
 20
0.0
 30
0.0
 11
-1.0
 21
0.158384
 31
0.0
  0
LINE
  5
24
330
7EB
100
AcDbEntity
  8
0
  6
Continuous
 62
     0
370
    -2
100
AcDbLine
 10
0.0
 20
0.0
 30
0.0
 11
-1.0
 21
-0.158384
 31
0.0
  0
ENDBLK
  5
9F8
330
7EB
100
AcDbEntity
  8
KCAD_DIMS
100
AcDbBlockEnd
  0
BLOCK
  5
9F9
330
3C
100
AcDbEntity
  8
KCAD_DIMS
100
AcDbBlockBegin
  2
KCAD_DOTSMALL
 70
     0
 71
     0
 10
0.0
 20
0.0
 30
0.0
  3
KCAD_DOTSMALL
  1

  0
LWPOLYLINE
  5
3D
330
3C
100
AcDbEntity
  8
KCAD_DIMS
 62
     0
100
AcDbPolyline
 90
        2
 70
     1
 43
0.5
 10
0.06252
 20
0.0
 42
1.0
 10
-0.06262
 20
0.0
 42
1.0
  0
LINE
  5
41
330
3C
100
AcDbEntity
  8
0
  6
Continuous
 62
     0
370
    -2
100
AcDbLine
 10
0.0
 20
0.0
 30
0.0
 11
-1.0
 21
0.0
 31
0.0
  0
ENDBLK
  5
9FA
330
3C
100
AcDbEntity
  8
0
100
AcDbBlockEnd
  0
BLOCK
  5
9FB
330
44
100
AcDbEntity
  8
KCAD_DIMS
100
AcDbBlockBegin
  2
KCAD_NONE
 70
     0
 71
     0
 10
0.0
 20
0.0
 30
0.0
  3
KCAD_NONE
  1

  0
LINE
  5
45
330
44
100
AcDbEntity
  8
0
  6
Continuous
 62
     0
370
    -2
100
AcDbLine
 10
0.0
 20
0.0
 30
0.0
 11
-1.0
 21
0.0
 31
0.0
  0
ENDBLK
  5
9FC
330
44
100
AcDbEntity
  8
0
100
AcDbBlockEnd
  0
BLOCK
  5
9FD
330
FC
100
AcDbEntity
  8
0
100
AcDbBlockBegin
  2
_CLOSED
 70
     0
 71
     0
 10
0.0
 20
0.0
 30
0.0
  3
_CLOSED
  1

  0
LINE
  5
FE
330
FC
100
AcDbEntity
  8
0
  6
Continuous
 62
     0
370
    -2
100
AcDbLine
 10
-1.0
 20
0.166667
 30
0.0
 11
0.0
 21
0.0
 31
0.0
  0
LINE
  5
FF
330
FC
100
AcDbEntity
  8
0
  6
Continuous
 62
     0
370
    -2
100
AcDbLine
 10
0.0
 20
0.0
 30
0.0
 11
-1.0
 21
-0.166667
 31
0.0
  0
LINE
  5
100
330
FC
100
AcDbEntity
  8
0
  6
Continuous
 62
     0
370
    -2
100
AcDbLine
 10
-1.0
 20
0.166667
 30
0.0
 11
-1.0
 21
-0.166667
 31
0.0
  0
LINE
  5
101
330
FC
100
AcDbEntity
  8
0
  6
Continuous
 62
     0
370
    -2
100
AcDbLine
 10
0.0
 20
0.0
 30
0.0
 11
-1.0
 21
0.0
 31
0.0
  0
ENDBLK
  5
9FE
330
FC
100
AcDbEntity
  8
0
100
AcDbBlockEnd
  0
BLOCK
  5
9FF
330
103
100
AcDbEntity
  8
0
100
AcDbBlockBegin
  2
_DOT
 70
     0
 71
     0
 10
0.0
 20
0.0
 30
0.0
  3
_DOT
  1

  0
LWPOLYLINE
  5
105
330
103
100
AcDbEntity
  8
0
  6
ByBlock
 62
     0
100
AcDbPolyline
 90
        2
 70
     1
 43
0.5
 10
-0.25
 20
0.0
 42
1.0
 10
0.25
 20
0.0
 42
1.0
  0
LINE
  5
109
330
103
100
AcDbEntity
  8
0
  6
Continuous
 62
     0
370
    -2
100
AcDbLine
 10
-0.5
 20
0.0
 30
0.0
 11
-1.0
 21
0.0
 31
0.0
  0
ENDBLK
  5
A00
330
103
100
AcDbEntity
  8
0
100
AcDbBlockEnd
  0
BLOCK
  5
A01
330
10B
100
AcDbEntity
  8
0
100
AcDbBlockBegin
  2
_CLOSEDBLANK
 70
     0
 71
     0
 10
0.0
 20
0.0
 30
0.0
  3
_CLOSEDBLANK
  1

  0
LINE
  5
10D
330
10B
100
AcDbEntity
  8
0
  6
Continuous
 62
     0
370
    -2
100
AcDbLine
 10
-1.0
 20
0.166667
 30
0.0
 11
0.0
 21
0.0
 31
0.0
  0
LINE
  5
10E
330
10B
100
AcDbEntity
  8
0
  6
Continuous
 62
     0
370
    -2
100
AcDbLine
 10
0.0
 20
0.0
 30
0.0
 11
-1.0
 21
-0.166667
 31
0.0
  0
LINE
  5
10F
330
10B
100
AcDbEntity
  8
0
  6
Continuous
 62
     0
370
    -2
100
AcDbLine
 10
-1.0
 20
0.166667
 30
0.0
 11
-1.0
 21
-0.166667
 31
0.0
  0
ENDBLK
  5
A02
330
10B
100
AcDbEntity
  8
0
100
AcDbBlockEnd
  0
BLOCK
  5
A03
330
111
100
AcDbEntity
  8
0
100
AcDbBlockBegin
  2
_OBLIQUE
 70
     0
 71
     0
 10
0.0
 20
0.0
 30
0.0
  3
_OBLIQUE
  1

  0
LINE
  5
113
330
111
100
AcDbEntity
  8
0
  6
Continuous
 62
     0
370
    -2
100
AcDbLine
 10
-0.5
 20
-0.5
 30
0.0
 11
0.5
 21
0.5
 31
0.0
  0
ENDBLK
  5
A04
330
111
100
AcDbEntity
  8
0
100
AcDbBlockEnd
  0
BLOCK
  5
A05
330
115
100
AcDbEntity
  8
0
100
AcDbBlockBegin
  2
_ARCHTICK
 70
     0
 71
     0
 10
0.0
 20
0.0
 30
0.0
  3
_ARCHTICK
  1

  0
LWPOLYLINE
  5
117
330
115
100
AcDbEntity
  8
0
  6
ByBlock
 62
     0
100
AcDbPolyline
 90
        2
 70
     0
 43
0.15
 10
-0.5
 20
-0.5
 10
0.5
 20
0.5
  0
ENDBLK
  5
A06
330
115
100
AcDbEntity
  8
0
100
AcDbBlockEnd
  0
BLOCK
  5
A07
330
11C
100
AcDbEntity
  8
0
100
AcDbBlockBegin
  2
_OPEN
 70
     0
 71
     0
 10
0.0
 20
0.0
 30
0.0
  3
_OPEN
  1

  0
LINE
  5
11E
330
11C
100
AcDbEntity
  8
0
  6
Continuous
 62
     0
370
    -2
100
AcDbLine
 10
-1.0
 20
0.166667
 30
0.0
 11
0.0
 21
0.0
 31
0.0
  0
LINE
  5
11F
330
11C
100
AcDbEntity
  8
0
  6
Continuous
 62
     0
370
    -2
100
AcDbLine
 10
0.0
 20
0.0
 30
0.0
 11
-1.0
 21
-0.166667
 31
0.0
  0
LINE
  5
120
330
11C
100
AcDbEntity
  8
0
  6
Continuous
 62
     0
370
    -2
100
AcDbLine
 10
0.0
 20
0.0
 30
0.0
 11
-1.0
 21
0.0
 31
0.0
  0
ENDBLK
  5
A08
330
11C
100
AcDbEntity
  8
0
100
AcDbBlockEnd
  0
BLOCK
  5
A09
330
122
100
AcDbEntity
  8
0
100
AcDbBlockBegin
  2
_ORIGIN
 70
     0
 71
     0
 10
0.0
 20
0.0
 30
0.0
  3
_ORIGIN
  1

  0
CIRCLE
  5
124
330
122
100
AcDbEntity
  8
0
  6
ByBlock
 62
     0
100
AcDbCircle
 10
0.0
 20
0.0
 30
0.0
 40
0.5
  0
LINE
  5
125
330
122
100
AcDbEntity
  8
0
  6
Continuous
 62
     0
370
    -2
100
AcDbLine
 10
0.0
 20
0.0
 30
0.0
 11
-1.0
 21
0.0
 31
0.0
  0
ENDBLK
  5
A0A
330
122
100
AcDbEntity
  8
0
100
AcDbBlockEnd
  0
BLOCK
  5
A0B
330
127
100
AcDbEntity
  8
0
100
AcDbBlockBegin
  2
_OPEN90
 70
     0
 71
     0
 10
0.0
 20
0.0
 30
0.0
  3
_OPEN90
  1

  0
LINE
  5
129
330
127
100
AcDbEntity
  8
0
  6
Continuous
 62
     0
370
    -2
100
AcDbLine
 10
-0.5
 20
0.5
 30
0.0
 11
0.0
 21
0.0
 31
0.0
  0
LINE
  5
12A
330
127
100
AcDbEntity
  8
0
  6
Continuous
 62
     0
370
    -2
100
AcDbLine
 10
0.0
 20
0.0
 30
0.0
 11
-0.5
 21
-0.5
 31
0.0
  0
LINE
  5
12B
330
127
100
AcDbEntity
  8
0
  6
Continuous
 62
     0
370
    -2
100
AcDbLine
 10
0.0
 20
0.0
 30
0.0
 11
-1.0
 21
0.0
 31
0.0
  0
ENDBLK
  5
A0C
330
127
100
AcDbEntity
  8
0
100
AcDbBlockEnd
  0
BLOCK
  5
A0D
330
12D
100
AcDbEntity
  8
0
100
AcDbBlockBegin
  2
_OPEN30
 70
     0
 71
     0
 10
0.0
 20
0.0
 30
0.0
  3
_OPEN30
  1

  0
LINE
  5
12F
330
12D
100
AcDbEntity
  8
0
  6
Continuous
 62
     0
370
    -2
100
AcDbLine
 10
-1.0
 20
0.267949
 30
0.0
 11
0.0
 21
0.0
 31
0.0
  0
LINE
  5
130
330
12D
100
AcDbEntity
  8
0
  6
Continuous
 62
     0
370
    -2
100
AcDbLine
 10
0.0
 20
0.0
 30
0.0
 11
-1.0
 21
-0.267949
 31
0.0
  0
LINE
  5
131
330
12D
100
AcDbEntity
  8
0
  6
Continuous
 62
     0
370
    -2
100
AcDbLine
 10
0.0
 20
0.0
 30
0.0
 11
-1.0
 21
0.0
 31
0.0
  0
ENDBLK
  5
A0E
330
12D
100
AcDbEntity
  8
0
100
AcDbBlockEnd
  0
BLOCK
  5
A0F
330
133
100
AcDbEntity
  8
0
100
AcDbBlockBegin
  2
_DOTBLANK
 70
     0
 71
     0
 10
0.0
 20
0.0
 30
0.0
  3
_DOTBLANK
  1

  0
CIRCLE
  5
135
330
133
100
AcDbEntity
  8
0
  6
ByBlock
 62
     0
100
AcDbCircle
 10
0.0
 20
0.0
 30
0.0
 40
0.5
  0
LINE
  5
136
330
133
100
AcDbEntity
  8
0
  6
Continuous
 62
     0
370
    -2
100
AcDbLine
 10
-0.5
 20
0.0
 30
0.0
 11
-1.0
 21
0.0
 31
0.0
  0
ENDBLK
  5
A10
330
133
100
AcDbEntity
  8
0
100
AcDbBlockEnd
  0
BLOCK
  5
A11
330
138
100
AcDbEntity
  8
0
100
AcDbBlockBegin
  2
_DOTSMALL
 70
     0
 71
     0
 10
0.0
 20
0.0
 30
0.0
  3
_DOTSMALL
  1

  0
LWPOLYLINE
  5
13A
330
138
100
AcDbEntity
  8
0
  6
ByBlock
 62
     0
100
AcDbPolyline
 90
        2
 70
     1
 43
0.5
 10
-0.0625
 20
0.0
 42
1.0
 10
0.0625
 20
0.0
 42
1.0
  0
ENDBLK
  5
A12
330
138
100
AcDbEntity
  8
0
100
AcDbBlockEnd
  0
BLOCK
  5
A13
330
13F
100
AcDbEntity
  8
0
100
AcDbBlockBegin
  2
_BOXFILLED
 70
     0
 71
     0
 10
0.0
 20
0.0
 30
0.0
  3
_BOXFILLED
  1

  0
SOLID
  5
141
330
13F
100
AcDbEntity
  8
0
  6
ByBlock
 62
     0
100
AcDbTrace
 10
-0.5
 20
0.5
 30
0.0
 11
0.5
 21
0.5
 31
0.0
 12
-0.5
 22
-0.5
 32
0.0
 13
0.5
 23
-0.5
 33
0.0
  0
LINE
  5
142
330
13F
100
AcDbEntity
  8
0
  6
Continuous
 62
     0
370
    -2
100
AcDbLine
 10
-0.5
 20
0.0
 30
0.0
 11
-1.0
 21
0.0
 31
0.0
  0
ENDBLK
  5
A14
330
13F
100
AcDbEntity
  8
0
100
AcDbBlockEnd
  0
BLOCK
  5
A15
330
144
100
AcDbEntity
  8
0
100
AcDbBlockBegin
  2
_BOXBLANK
 70
     0
 71
     0
 10
0.0
 20
0.0
 30
0.0
  3
_BOXBLANK
  1

  0
LINE
  5
146
330
144
100
AcDbEntity
  8
0
  6
Continuous
 62
     0
370
    -2
100
AcDbLine
 10
-0.5
 20
-0.5
 30
0.0
 11
0.5
 21
-0.5
 31
0.0
  0
LINE
  5
147
330
144
100
AcDbEntity
  8
0
  6
Continuous
 62
     0
370
    -2
100
AcDbLine
 10
0.5
 20
-0.5
 30
0.0
 11
0.5
 21
0.5
 31
0.0
  0
LINE
  5
148
330
144
100
AcDbEntity
  8
0
  6
Continuous
 62
     0
370
    -2
100
AcDbLine
 10
0.5
 20
0.5
 30
0.0
 11
-0.5
 21
0.5
 31
0.0
  0
LINE
  5
149
330
144
100
AcDbEntity
  8
0
  6
Continuous
 62
     0
370
    -2
100
AcDbLine
 10
-0.5
 20
0.5
 30
0.0
 11
-0.5
 21
-0.5
 31
0.0
  0
LINE
  5
14A
330
144
100
AcDbEntity
  8
0
  6
Continuous
 62
     0
370
    -2
100
AcDbLine
 10
-0.5
 20
0.0
 30
0.0
 11
-1.0
 21
0.0
 31
0.0
  0
ENDBLK
  5
A16
330
144
100
AcDbEntity
  8
0
100
AcDbBlockEnd
  0
BLOCK
  5
A17
330
14C
100
AcDbEntity
  8
0
100
AcDbBlockBegin
  2
_DATUMFILLED
 70
     0
 71
     0
 10
0.0
 20
0.0
 30
0.0
  3
_DATUMFILLED
  1

  0
SOLID
  5
14E
330
14C
100
AcDbEntity
  8
0
  6
ByBlock
 62
     0
100
AcDbTrace
 10
0.0
 20
0.5773500000000001
 30
0.0
 11
-1.0
 21
0.0
 31
0.0
 12
0.0
 22
-0.5773500000000001
 32
0.0
 13
0.0
 23
-0.5773500000000001
 33
0.0
  0
ENDBLK
  5
A18
330
14C
100
AcDbEntity
  8
0
100
AcDbBlockEnd
  0
BLOCK
  5
A19
330
150
100
AcDbEntity
  8
0
100
AcDbBlockBegin
  2
_DATUMBLANK
 70
     0
 71
     0
 10
0.0
 20
0.0
 30
0.0
  3
_DATUMBLANK
  1

  0
LINE
  5
152
330
150
100
AcDbEntity
  8
0
  6
Continuous
 62
     0
370
    -2
100
AcDbLine
 10
0.0
 20
0.5773500000000001
 30
0.0
 11
-1.0
 21
0.0
 31
0.0
  0
LINE
  5
153
330
150
100
AcDbEntity
  8
0
  6
Continuous
 62
     0
370
    -2
100
AcDbLine
 10
-1.0
 20
0.0
 30
0.0
 11
0.0
 21
-0.5773500000000001
 31
0.0
  0
LINE
  5
154
330
150
100
AcDbEntity
  8
0
  6
Continuous
 62
     0
370
    -2
100
AcDbLine
 10
0.0
 20
-0.5773500000000001
 30
0.0
 11
0.0
 21
0.5773500000000001
 31
0.0
  0
ENDBLK
  5
A1A
330
150
100
AcDbEntity
  8
0
100
AcDbBlockEnd
  0
BLOCK
  5
A1B
330
156
100
AcDbEntity
  8
0
100
AcDbBlockBegin
  2
_INTEGRAL
 70
     0
 71
     0
 10
0.0
 20
0.0
 30
0.0
  3
_INTEGRAL
  1

  0
ARC
  5
158
330
156
100
AcDbEntity
  8
0
  6
ByBlock
 62
     0
100
AcDbCircle
 10
0.444888
 20
-0.091335
 30
0.0
 40
0.454167
100
AcDbArc
 50
102.0
 51
168.0
  0
ARC
  5
159
330
156
100
AcDbEntity
  8
0
  6
ByBlock
 62
     0
100
AcDbCircle
 10
-0.444888
 20
0.091335
 30
0.0
 40
0.454167
100
AcDbArc
 50
282.0
 51
348.0
  0
ENDBLK
  5
A1C
330
156
100
AcDbEntity
  8
0
100
AcDbBlockEnd
  0
BLOCK
  5
A1D
330
1F1
100
AcDbEntity
  8
0
100
AcDbBlockBegin
  2
_Origin2
 70
     0
 71
     0
 10
0.0
 20
0.0
 30
0.0
  3
_Origin2
  1

  0
CIRCLE
  5
1F2
330
1F1
100
AcDbEntity
  8
0
  6
Continuous
 62
     0
370
    -2
100
AcDbCircle
 10
0.0
 20
0.0
 30
0.0
 40
0.5
  0
CIRCLE
  5
1F3
330
1F1
100
AcDbEntity
  8
0
  6
Continuous
 62
     0
370
    -2
100
AcDbCircle
 10
0.0
 20
0.0
 30
0.0
 40
0.25
  0
LINE
  5
1F4
330
1F1
100
AcDbEntity
  8
0
  6
Continuous
 62
     0
370
    -2
100
AcDbLine
 10
-0.5
 20
0.0
 30
0.0
 11
-1.0
 21
0.0
 31
0.0
  0
ENDBLK
  5
A1E
330
1F1
100
AcDbEntity
  8
0
100
AcDbBlockEnd
  0
BLOCK
  5
A1F
330
1F7
100
AcDbEntity
  8
0
100
AcDbBlockBegin
  2
KCAD_OPEN30
 70
     0
 71
     0
 10
0.0
 20
0.0
 30
0.0
  3
KCAD_OPEN30
  1

  0
LINE
  5
1F8
330
1F7
100
AcDbEntity
  8
0
  6
Continuous
 62
     0
370
    -2
100
AcDbLine
 10
0.0
 20
0.0
 30
0.0
 11
-1.0
 21
0.0
 31
0.0
  0
LINE
  5
1F9
330
1F7
100
AcDbEntity
  8
0
  6
Continuous
 62
     0
370
    -2
100
AcDbLine
 10
0.0
 20
0.0
 30
0.0
 11
-1.0
 21
0.2679491924311227
 31
0.0
  0
LINE
  5
1FA
330
1F7
100
AcDbEntity
  8
0
  6
Continuous
 62
     0
370
    -2
100
AcDbLine
 10
0.0
 20
0.0
 30
0.0
 11
-1.0
 21
-0.2679491924311227
 31
0.0
  0
ENDBLK
  5
A20
330
1F7
100
AcDbEntity
  8
0
100
AcDbBlockEnd
  0
BLOCK
  5
A21
330
222
100
AcDbEntity
  8
0
100
AcDbBlockBegin
  2
_None
 70
     0
 71
     0
 10
0.0
 20
0.0
 30
0.0
  3
_None
  1

  0
ENDBLK
  5
A22
330
222
100
AcDbEntity
  8
0
100
AcDbBlockEnd
  0
BLOCK
  5
A23
330
283
100
AcDbEntity
  8
0
100
AcDbBlockBegin
  2
_Small
 70
     0
 71
     0
 10
0.0
 20
0.0
 30
0.0
  3
_Small
  1

  0
CIRCLE
  5
284
330
283
100
AcDbEntity
  8
0
  6
ByBlock
 62
     0
370
    -2
100
AcDbCircle
 10
0.0
 20
0.0
 30
0.0
 40
0.25
  0
ENDBLK
  5
A24
330
283
100
AcDbEntity
  8
0
100
AcDbBlockEnd
  0
BLOCK
  5
A25
330
287
100
AcDbEntity
  8
0
100
AcDbBlockBegin
  2
KCAD_OPEN_2
 70
     0
 71
     0
 10
0.0
 20
0.0
 30
0.0
  3
KCAD_OPEN_2
  1

  0
LINE
  5
288
330
287
100
AcDbEntity
  8
0
  6
Continuous
 62
     0
370
    -2
100
AcDbLine
 10
0.0
 20
0.0
 30
0.0
 11
-2.0
 21
0.0
 31
0.0
  0
LINE
  5
289
330
287
100
AcDbEntity
  8
0
  6
Continuous
 62
     0
370
    -2
100
AcDbLine
 10
0.0
 20
0.0
 30
0.0
 11
-2.0
 21
0.3167688806490725
 31
0.0
  0
LINE
  5
28A
330
287
100
AcDbEntity
  8
0
  6
Continuous
 62
     0
370
    -2
100
AcDbLine
 10
0.0
 20
0.0
 30
0.0
 11
-2.0
 21
-0.3167688806490725
 31
0.0
  0
LINE
  5
28B
330
287
100
AcDbEntity
  8
0
  6
Continuous
 62
     0
370
    -2
100
AcDbLine
 10
-2.0
 20
0.0
 30
0.0
 11
-4.0
 21
0.0
 31
0.0
  0
ENDBLK
  5
A26
330
287
100
AcDbEntity
  8
0
100
AcDbBlockEnd
  0
BLOCK
  5
A27
330
28E
100
AcDbEntity
  8
0
100
AcDbBlockBegin
  2
KCAD_OPEN30_2
 70
     0
 71
     0
 10
0.0
 20
0.0
 30
0.0
  3
KCAD_OPEN30_2
  1

  0
LINE
  5
28F
330
28E
100
AcDbEntity
  8
0
  6
Continuous
 62
     0
370
    -2
100
AcDbLine
 10
0.0
 20
0.0
 30
0.0
 11
-2.0
 21
0.0
 31
0.0
  0
LINE
  5
290
330
28E
100
AcDbEntity
  8
0
  6
Continuous
 62
     0
370
    -2
100
AcDbLine
 10
0.0
 20
0.0
 30
0.0
 11
-2.0
 21
0.5358983848622455
 31
0.0
  0
LINE
  5
291
330
28E
100
AcDbEntity
  8
0
  6
Continuous
 62
     0
370
    -2
100
AcDbLine
 10
0.0
 20
0.0
 30
0.0
 11
-2.0
 21
-0.5358983848622455
 31
0.0
  0
LINE
  5
292
330
28E
100
AcDbEntity
  8
0
  6
Continuous
 62
     0
370
    -2
100
AcDbLine
 10
-2.0
 20
0.0
 30
0.0
 11
-4.0
 21
0.0
 31
0.0
  0
ENDBLK
  5
A28
330
28E
100
AcDbEntity
  8
0
100
AcDbBlockEnd
  0
BLOCK
  5
A29
330
2AD
100
AcDbEntity
  8
0
100
AcDbBlockBegin
  2
KCAD_OPEN30ANG
 70
     0
 71
     0
 10
0.0
 20
0.0
 30
0.0
  3
KCAD_OPEN30ANG
  1

  0
LINE
  5
2D7
330
2AD
100
AcDbEntity
  8
0
  6
Continuous
 62
     0
370
    -2
100
AcDbLine
 10
0.0
 20
0.0
 30
0.0
 11
-1.0
 21
-0.267949
 31
0.0
  0
LINE
  5
2D8
330
2AD
100
AcDbEntity
  8
0
  6
Continuous
 62
     0
370
    -2
100
AcDbLine
 10
-1.0
 20
0.267949
 30
0.0
 11
0.0
 21
0.0
 31
0.0
  0
ENDBLK
  5
A2A
330
2AD
100
AcDbEntity
  8
0
100
AcDbBlockEnd
  0
BLOCK
  5
A2B
330
2B6
100
AcDbEntity
  8
0
100
AcDbBlockBegin
  2
KCAD_DOTANG
 70
     0
 71
     0
 10
0.0
 20
0.0
 30
0.0
  3
KCAD_DOTANG
  1

  0
LWPOLYLINE
  5
2DD
330
2B6
100
AcDbEntity
  8
0
  6
ByBlock
 62
     0
100
AcDbPolyline
 90
        2
 70
     1
 43
0.5
 10
-0.25
 20
0.0
 42
1.0
 10
0.25
 20
0.0
 42
1.0
  0
ENDBLK
  5
A2C
330
2B6
100
AcDbEntity
  8
0
100
AcDbBlockEnd
  0
BLOCK
  5
A2D
330
46B
100
AcDbEntity
  8
0
100
AcDbBlockBegin
  2
*D27
 70
     1
 71
     0
 10
0.0
 20
0.0
 30
0.0
  3
*D27
  1

  0
LINE
  5
495
330
46B
100
AcDbEntity
  8
KCAD_DIMS
 62
     0
370
    -2
100
AcDbLine
 10
211.9030397745499
 20
178.7814045428399
 30
0.0
 11
201.6937265102
 21
178.7814045428399
 31
0.0
  0
INSERT
  5
496
330
46B
100
AcDbEntity
  8
KCAD_DIMS
 62
     0
370
    -2
100
AcDbBlockReference
  2
_OPEN30
 10
211.9030397745499
 20
178.7814045428399
 30
0.0
 41
2.5
 42
2.5
 43
2.5
 50
270.0
  0
LINE
  5
497
330
46B
100
AcDbEntity
  8
KCAD_DIMS
 62
     0
370
    -2
100
AcDbLine
 10
211.9030397745499
 20
181.28140454284
 30
0.0
 11
211.9030397745499
 21
203.49214319943
 31
0.0
  0
POINT
  5
498
330
46B
100
AcDbEntity
  8
DEFPOINTS
 62
     0
370
    15
100
AcDbPoint
 10
201.6937265102
 20
178.7814045428399
 30
0.0
  0
POINT
  5
499
330
46B
100
AcDbEntity
  8
DEFPOINTS
 62
     0
370
    15
100
AcDbPoint
 10
211.90303977455
 20
186.7814045428399
 30
0.0
  0
POINT
  5
49A
330
46B
100
AcDbEntity
  8
DEFPOINTS
 62
     0
370
    15
100
AcDbPoint
 10
211.9030397745499
 20
186.7814045428399
 30
0.0
  0
MTEXT
  5
49B
330
46B
100
AcDbEntity
  8
KCAD_DIMS
 62
     0
100
AcDbMText
 10
208.1298568210892
 20
195.02842596955
 30
0.0
 40
3.2
 41
0.0
 71
     5
 72
     1
  1
\A1;φ16{\H2.134400;\S-0.006^ -0.024;}
  7
KCADDIMSTANDARD
 11
1.000000000000000E-16
 21
1.0
 31
0.0
 73
     1
 44
1.0
  0
ENDBLK
  5
A2E
330
46B
100
AcDbEntity
  8
0
100
AcDbBlockEnd
  0
BLOCK
  5
A2F
330
4CF
100
AcDbEntity
  8
0
100
AcDbBlockBegin
  2
*D28
 70
     1
 71
     0
 10
0.0
 20
0.0
 30
0.0
  3
*D28
  1

  0
LINE
  5
501
330
4CF
100
AcDbEntity
  8
KCAD_DIMS
 62
     0
370
    -2
100
AcDbLine
 10
139.8970190784
 20
178.7814045428399
 30
0.0
 11
158.8937265101999
 21
178.7814045428399
 31
0.0
  0
LINE
  5
502
330
4CF
100
AcDbEntity
  8
KCAD_DIMS
 62
     0
370
    -2
100
AcDbLine
 10
139.8970190784
 20
162.78140454284
 30
0.0
 11
158.8937265101999
 21
162.78140454284
 31
0.0
  0
INSERT
  5
503
330
4CF
100
AcDbEntity
  8
KCAD_DIMS
 62
     0
370
    -2
100
AcDbBlockReference
  2
_OPEN30
 10
139.8970190784
 20
178.7814045428399
 30
0.0
 41
2.5
 42
2.5
 43
2.5
 50
270.0
  0
INSERT
  5
504
330
4CF
100
AcDbEntity
  8
KCAD_DIMS
 62
     0
370
    -2
100
AcDbBlockReference
  2
_OPEN30
 10
139.8970190784
 20
162.78140454284
 30
0.0
 41
2.5
 42
2.5
 43
2.5
 50
90.0
  0
LINE
  5
505
330
4CF
100
AcDbEntity
  8
KCAD_DIMS
 62
     0
370
    -2
100
AcDbLine
 10
139.8970190784
 20
178.7814045428399
 30
0.0
 11
139.8970190784
 21
162.78140454284
 31
0.0
  0
LINE
  5
506
330
4CF
100
AcDbEntity
  8
KCAD_DIMS
 62
     0
370
    -2
100
AcDbLine
 10
139.8970190784
 20
181.28140454284
 30
0.0
 11
139.8970190784
 21
183.78140454284
 31
0.0
  0
LINE
  5
507
330
4CF
100
AcDbEntity
  8
KCAD_DIMS
 62
     0
370
    -2
100
AcDbLine
 10
139.8970190784
 20
160.2814045428399
 30
0.0
 11
139.8970190784
 21
140.7610253467019
 31
0.0
  0
POINT
  5
508
330
4CF
100
AcDbEntity
  8
DEFPOINTS
 62
     0
370
    15
100
AcDbPoint
 10
158.8937265101999
 20
178.7814045428399
 30
0.0
  0
POINT
  5
509
330
4CF
100
AcDbEntity
  8
DEFPOINTS
 62
     0
370
    15
100
AcDbPoint
 10
158.8937265101999
 20
162.78140454284
 30
0.0
  0
POINT
  5
50A
330
4CF
100
AcDbEntity
  8
DEFPOINTS
 62
     0
370
    15
100
AcDbPoint
 10
139.8970190784
 20
162.78140454284
 30
0.0
  0
MTEXT
  5
50B
330
4CF
100
AcDbEntity
  8
KCAD_DIMS
 62
     0
100
AcDbMText
 10
136.1238361249393
 20
149.6741971237599
 30
0.0
 40
3.2
 41
0.0
 71
     5
 72
     1
  1
\A1;φ16{\H2.134400;\S-0.006^ -0.024;}
  7
KCADDIMSTANDARD
 11
1.000000000000000E-16
 21
1.0
 31
0.0
 73
     1
 44
1.0
  0
ENDBLK
  5
A30
330
4CF
100
AcDbEntity
  8
0
100
AcDbBlockEnd
  0
BLOCK
  5
A31
330
50D
100
AcDbEntity
  8
0
100
AcDbBlockBegin
  2
*D29
 70
     1
 71
     0
 10
0.0
 20
0.0
 30
0.0
  3
*D29
  1

  0
LINE
  5
53F
330
50D
100
AcDbEntity
  8
KCAD_DIMS
 62
     0
370
    -2
100
AcDbLine
 10
83.893726510199
 20
229.34623381237
 30
0.0
 11
83.893726510199
 21
171.7814045428399
 31
0.0
  0
LINE
  5
540
330
50D
100
AcDbEntity
  8
KCAD_DIMS
 62
     0
370
    -2
100
AcDbLine
 10
290.8937265102
 20
229.34623381237
 30
0.0
 11
290.8937265102
 21
171.7814045428399
 31
0.0
  0
INSERT
  5
541
330
50D
100
AcDbEntity
  8
KCAD_DIMS
 62
     0
370
    -2
100
AcDbBlockReference
  2
_OPEN30
 10
83.893726510199
 20
228.34623381237
 30
0.0
 41
2.0
 42
2.0
 43
2.0
 50
180.0
  0
INSERT
  5
542
330
50D
100
AcDbEntity
  8
KCAD_DIMS
 62
     0
370
    -2
100
AcDbBlockReference
  2
_OPEN30
 10
290.8937265102
 20
228.34623381237
 30
0.0
 41
2.0
 42
2.0
 43
2.0
  0
LINE
  5
543
330
50D
100
AcDbEntity
  8
KCAD_DIMS
 62
     0
370
    -2
100
AcDbLine
 10
85.893726510199
 20
228.34623381237
 30
0.0
 11
288.8937265102
 21
228.34623381237
 31
0.0
  0
POINT
  5
544
330
50D
100
AcDbEntity
  8
DEFPOINTS
 62
     0
370
    15
100
AcDbPoint
 10
83.893726510199
 20
170.7814045428399
 30
0.0
  0
POINT
  5
545
330
50D
100
AcDbEntity
  8
DEFPOINTS
 62
     0
370
    15
100
AcDbPoint
 10
290.8937265102
 20
170.7814045428399
 30
0.0
  0
POINT
  5
546
330
50D
100
AcDbEntity
  8
DEFPOINTS
 62
     0
370
    15
100
AcDbPoint
 10
290.8937265102
 20
228.34623381237
 30
0.0
  0
MTEXT
  5
547
330
50D
100
AcDbEntity
  8
KCAD_DIMS
 62
     0
100
AcDbMText
 10
187.3937265102
 20
230.47953381237
 30
0.0
 40
3.2
 41
0.0
 71
     5
 72
     1
  1
\A1;207
  7
KCADDIMSTANDARD
 73
     1
 44
1.0
  0
ENDBLK
  5
A32
330
50D
100
AcDbEntity
  8
0
100
AcDbBlockEnd
  0
BLOCK
  5
A33
330
549
100
AcDbEntity
  8
0
100
AcDbBlockBegin
  2
*D30
 70
     1
 71
     0
 10
0.0
 20
0.0
 30
0.0
  3
*D30
  1

  0
LINE
  5
57B
330
549
100
AcDbEntity
  8
KCAD_DIMS
 62
     0
370
    -2
100
AcDbLine
 10
313.0366886171199
 20
178.53140454284
 30
0.0
 11
290.9292333019799
 21
178.53140454284
 31
0.0
  0
LINE
  5
57C
330
549
100
AcDbEntity
  8
KCAD_DIMS
 62
     0
370
    -2
100
AcDbLine
 10
313.0366886171199
 20
163.0314045428399
 30
0.0
 11
290.9292333019799
 21
163.0314045428399
 31
0.0
  0
INSERT
  5
57D
330
549
100
AcDbEntity
  8
KCAD_DIMS
 62
     0
370
    -2
100
AcDbBlockReference
  2
_OPEN30
 10
312.0366886171199
 20
178.53140454284
 30
0.0
 41
2.0
 42
2.0
 43
2.0
 50
270.0
  0
INSERT
  5
57E
330
549
100
AcDbEntity
  8
KCAD_DIMS
 62
     0
370
    -2
100
AcDbBlockReference
  2
_OPEN30
 10
312.0366886171199
 20
163.0314045428399
 30
0.0
 41
2.0
 42
2.0
 43
2.0
 50
90.0
  0
LINE
  5
57F
330
549
100
AcDbEntity
  8
KCAD_DIMS
 62
     0
370
    -2
100
AcDbLine
 10
312.0366886171199
 20
178.53140454284
 30
0.0
 11
312.0366886171199
 21
163.0314045428399
 31
0.0
  0
LINE
  5
580
330
549
100
AcDbEntity
  8
KCAD_DIMS
 62
     0
370
    -2
100
AcDbLine
 10
312.0366886171199
 20
180.5314045428399
 30
0.0
 11
312.0366886171199
 21
183.53140454284
 31
0.0
  0
LINE
  5
581
330
549
100
AcDbEntity
  8
KCAD_DIMS
 62
     0
370
    -2
100
AcDbLine
 10
312.0366886171199
 20
161.0314045428399
 30
0.0
 11
312.0366886171199
 21
134.2309965351339
 31
0.0
  0
POINT
  5
582
330
549
100
AcDbEntity
  8
DEFPOINTS
 62
     0
370
    15
100
AcDbPoint
 10
289.92923330198
 20
178.53140454284
 30
0.0
  0
POINT
  5
583
330
549
100
AcDbEntity
  8
DEFPOINTS
 62
     0
370
    15
100
AcDbPoint
 10
289.92923330198
 20
163.0314045428399
 30
0.0
  0
POINT
  5
584
330
549
100
AcDbEntity
  8
DEFPOINTS
 62
     0
370
    15
100
AcDbPoint
 10
312.0366886171199
 20
163.0314045428399
 30
0.0
  0
MTEXT
  5
585
330
549
100
AcDbEntity
  8
KCAD_DIMS
 62
     0
100
AcDbMText
 10
309.9033886171199
 20
146.78359120114
 30
0.0
 40
3.2
 41
0.0
 71
     5
 72
     1
  1
\A1;M15.5 ×P0.5
  7
KCADDIMSTANDARD
 11
1.000000000000000E-16
 21
1.0
 31
0.0
 73
     1
 44
1.0
  0
ENDBLK
  5
A34
330
549
100
AcDbEntity
  8
0
100
AcDbBlockEnd
  0
BLOCK
  5
A35
330
589
100
AcDbEntity
  8
0
100
AcDbBlockBegin
  2
*D31
 70
     1
 71
     0
 10
0.0
 20
0.0
 30
0.0
  3
*D31
  1

  0
LINE
  5
5BB
330
589
100
AcDbEntity
  8
KCAD_DIMS
 62
     0
370
    -2
100
AcDbLine
 10
158.8937265101999
 20
133.39259872701
 30
0.0
 11
158.8937265101999
 21
170.7814045428399
 31
0.0
  0
LINE
  5
5BC
330
589
100
AcDbEntity
  8
KCAD_DIMS
 62
     0
370
    -2
100
AcDbLine
 10
257.8937265102
 20
133.39259872701
 30
0.0
 11
257.8937265102
 21
170.7814045428399
 31
0.0
  0
INSERT
  5
5BD
330
589
100
AcDbEntity
  8
KCAD_DIMS
 62
     0
370
    -2
100
AcDbBlockReference
  2
_OPEN30
 10
158.8937265101999
 20
133.39259872701
 30
0.0
 41
2.5
 42
2.5
 43
2.5
 50
180.0
  0
INSERT
  5
5BE
330
589
100
AcDbEntity
  8
KCAD_DIMS
 62
     0
370
    -2
100
AcDbBlockReference
  2
_OPEN30
 10
257.8937265102
 20
133.39259872701
 30
0.0
 41
2.5
 42
2.5
 43
2.5
  0
LINE
  5
5BF
330
589
100
AcDbEntity
  8
KCAD_DIMS
 62
     0
370
    -2
100
AcDbLine
 10
161.3937265102
 20
133.39259872701
 30
0.0
 11
255.3937265101999
 21
133.39259872701
 31
0.0
  0
POINT
  5
5C0
330
589
100
AcDbEntity
  8
DEFPOINTS
 62
     0
370
    15
100
AcDbPoint
 10
158.8937265101999
 20
170.7814045428399
 30
0.0
  0
POINT
  5
5C1
330
589
100
AcDbEntity
  8
DEFPOINTS
 62
     0
370
    15
100
AcDbPoint
 10
257.8937265102
 20
170.7814045428399
 30
0.0
  0
POINT
  5
5C2
330
589
100
AcDbEntity
  8
DEFPOINTS
 62
     0
370
    15
100
AcDbPoint
 10
257.8937265102
 20
133.39259872701
 30
0.0
  0
MTEXT
  5
5C3
330
589
100
AcDbEntity
  8
KCAD_DIMS
 62
     0
100
AcDbMText
 10
208.3937265102
 20
135.5259317270099
 30
0.0
 40
3.2
 41
0.0
 71
     5
 72
     1
  1
\A1;99
  7
KCADDIMSTANDARD
 73
     1
 44
1.0
  0
ENDBLK
  5
A36
330
589
100
AcDbEntity
  8
0
100
AcDbBlockEnd
  0
BLOCK
  5
A37
330
5C5
100
AcDbEntity
  8
0
100
AcDbBlockBegin
  2
*D32
 70
     1
 71
     0
 10
0.0
 20
0.0
 30
0.0
  3
*D32
  1

  0
LINE
  5
5F7
330
5C5
100
AcDbEntity
  8
KCAD_DIMS
 62
     0
370
    -2
100
AcDbLine
 10
257.8937265102
 20
203.5102617541699
 30
0.0
 11
257.8937265102
 21
178.7814045428399
 31
0.0
  0
LINE
  5
5F8
330
5C5
100
AcDbEntity
  8
KCAD_DIMS
 62
     0
370
    -2
100
AcDbLine
 10
290.8937265102
 20
203.5102617541699
 30
0.0
 11
290.8937265102
 21
180.68140454284
 31
0.0
  0
INSERT
  5
5F9
330
5C5
100
AcDbEntity
  8
KCAD_DIMS
 62
     0
370
    -2
100
AcDbBlockReference
  2
_OPEN30
 10
257.8937265102
 20
203.5102617541699
 30
0.0
 41
2.5
 42
2.5
 43
2.5
 50
180.0
  0
INSERT
  5
5FA
330
5C5
100
AcDbEntity
  8
KCAD_DIMS
 62
     0
370
    -2
100
AcDbBlockReference
  2
_OPEN30
 10
290.8937265102
 20
203.5102617541699
 30
0.0
 41
2.5
 42
2.5
 43
2.5
  0
LINE
  5
5FB
330
5C5
100
AcDbEntity
  8
KCAD_DIMS
 62
     0
370
    -2
100
AcDbLine
 10
260.3937265102
 20
203.5102617541699
 30
0.0
 11
288.3937265101999
 21
203.5102617541699
 31
0.0
  0
POINT
  5
5FC
330
5C5
100
AcDbEntity
  8
DEFPOINTS
 62
     0
370
    15
100
AcDbPoint
 10
257.8937265102
 20
178.7814045428399
 30
0.0
  0
POINT
  5
5FD
330
5C5
100
AcDbEntity
  8
DEFPOINTS
 62
     0
370
    15
100
AcDbPoint
 10
290.8937265102
 20
180.68140454284
 30
0.0
  0
POINT
  5
5FE
330
5C5
100
AcDbEntity
  8
DEFPOINTS
 62
     0
370
    15
100
AcDbPoint
 10
290.8937265102
 20
203.5102617541699
 30
0.0
  0
MTEXT
  5
5FF
330
5C5
100
AcDbEntity
  8
KCAD_DIMS
 62
     0
100
AcDbMText
 10
274.3937265102
 20
205.6435947541699
 30
0.0
 40
3.2
 41
0.0
 71
     5
 72
     1
  1
\A1;33
  7
KCADDIMSTANDARD
 73
     1
 44
1.0
  0
ENDBLK
  5
A38
330
5C5
100
AcDbEntity
  8
0
100
AcDbBlockEnd
  0
BLOCK
  5
A39
330
601
100
AcDbEntity
  8
0
100
AcDbBlockBegin
  2
*D33
 70
     1
 71
     0
 10
0.0
 20
0.0
 30
0.0
  3
*D33
  1

  0
LINE
  5
633
330
601
100
AcDbEntity
  8
KCAD_DIMS
 62
     0
370
    -2
100
AcDbLine
 10
158.8937265101999
 20
219.6927528472199
 30
0.0
 11
158.8937265101999
 21
170.7814045428399
 31
0.0
  0
LINE
  5
634
330
601
100
AcDbEntity
  8
KCAD_DIMS
 62
     0
370
    -2
100
AcDbLine
 10
189.1937265102
 20
219.6927528472199
 30
0.0
 11
189.1937265102
 21
181.3814045428399
 31
0.0
  0
INSERT
  5
635
330
601
100
AcDbEntity
  8
KCAD_DIMS
 62
     0
370
    -2
100
AcDbBlockReference
  2
_OPEN30
 10
158.8937265101999
 20
219.6927528472199
 30
0.0
 41
2.5
 42
2.5
 43
2.5
 50
180.0
  0
INSERT
  5
636
330
601
100
AcDbEntity
  8
KCAD_DIMS
 62
     0
370
    -2
100
AcDbBlockReference
  2
_OPEN30
 10
189.1937265102
 20
219.6927528472199
 30
0.0
 41
2.5
 42
2.5
 43
2.5
  0
LINE
  5
637
330
601
100
AcDbEntity
  8
KCAD_DIMS
 62
     0
370
    -2
100
AcDbLine
 10
161.3937265102
 20
219.6927528472199
 30
0.0
 11
186.6937265102
 21
219.6927528472199
 31
0.0
  0
POINT
  5
638
330
601
100
AcDbEntity
  8
DEFPOINTS
 62
     0
370
    15
100
AcDbPoint
 10
158.8937265101999
 20
170.7814045428399
 30
0.0
  0
POINT
  5
639
330
601
100
AcDbEntity
  8
DEFPOINTS
 62
     0
370
    15
100
AcDbPoint
 10
189.1937265102
 20
181.3814045428399
 30
0.0
  0
POINT
  5
63A
330
601
100
AcDbEntity
  8
DEFPOINTS
 62
     0
370
    15
100
AcDbPoint
 10
189.1937265102
 20
219.6927528472199
 30
0.0
  0
MTEXT
  5
63B
330
601
100
AcDbEntity
  8
KCAD_DIMS
 62
     0
100
AcDbMText
 10
174.0437265102
 20
221.8260858472199
 30
0.0
 40
3.2
 41
0.0
 71
     5
 72
     1
  1
\A1;30.3
  7
KCADDIMSTANDARD
 73
     1
 44
1.0
  0
ENDBLK
  5
A3A
330
601
100
AcDbEntity
  8
0
100
AcDbBlockEnd
  0
BLOCK
  5
A3B
330
63D
100
AcDbEntity
  8
0
100
AcDbBlockBegin
  2
*D34
 70
     1
 71
     0
 10
0.0
 20
0.0
 30
0.0
  3
*D34
  1

  0
LINE
  5
66F
330
63D
100
AcDbEntity
  8
KCAD_DIMS
 62
     0
370
    -2
100
AcDbLine
 10
158.8937265101999
 20
219.6927528472199
 30
0.0
 11
158.8937265101999
 21
170.7814045428399
 31
0.0
  0
LINE
  5
670
330
63D
100
AcDbEntity
  8
KCAD_DIMS
 62
     0
370
    -2
100
AcDbLine
 10
83.893726510197
 20
219.6927528472199
 30
0.0
 11
83.893726510197
 21
170.7814045428399
 31
0.0
  0
INSERT
  5
671
330
63D
100
AcDbEntity
  8
KCAD_DIMS
 62
     0
370
    -2
100
AcDbBlockReference
  2
_OPEN30
 10
158.8937265101999
 20
219.6927528472199
 30
0.0
 41
2.5
 42
2.5
 43
2.5
  0
INSERT
  5
672
330
63D
100
AcDbEntity
  8
KCAD_DIMS
 62
     0
370
    -2
100
AcDbBlockReference
  2
_OPEN30
 10
83.893726510197
 20
219.6927528472199
 30
0.0
 41
2.5
 42
2.5
 43
2.5
 50
180.0
  0
LINE
  5
673
330
63D
100
AcDbEntity
  8
KCAD_DIMS
 62
     0
370
    -2
100
AcDbLine
 10
156.3937265102
 20
219.6927528472199
 30
0.0
 11
86.393726510197
 21
219.6927528472199
 31
0.0
  0
POINT
  5
674
330
63D
100
AcDbEntity
  8
DEFPOINTS
 62
     0
370
    15
100
AcDbPoint
 10
158.8937265101999
 20
170.7814045428399
 30
0.0
  0
POINT
  5
675
330
63D
100
AcDbEntity
  8
DEFPOINTS
 62
     0
370
    15
100
AcDbPoint
 10
83.893726510197
 20
170.7814045428399
 30
0.0
  0
POINT
  5
676
330
63D
100
AcDbEntity
  8
DEFPOINTS
 62
     0
370
    15
100
AcDbPoint
 10
83.893726510197
 20
219.6927528472199
 30
0.0
  0
MTEXT
  5
677
330
63D
100
AcDbEntity
  8
KCAD_DIMS
 62
     0
100
AcDbMText
 10
121.3937265101999
 20
221.8260858472199
 30
0.0
 40
3.2
 41
0.0
 71
     5
 72
     1
  1
\A1;WD= 75
  7
KCADDIMSTANDARD
 73
     1
 44
1.0
  0
ENDBLK
  5
A3C
330
63D
100
AcDbEntity
  8
0
100
AcDbBlockEnd
  0
BLOCK
  5
A3D
330
694
100
AcDbEntity
  8
0
100
AcDbBlockBegin
  2
*D35
 70
     1
 71
     0
 10
0.0
 20
0.0
 30
0.0
  3
*D35
  1

  0
LINE
  5
6C6
330
694
100
AcDbEntity
  8
KCAD_DIMS
 62
     0
370
    -2
100
AcDbLine
 10
158.8937265101999
 20
124.69198850103
 30
0.0
 11
158.8937265101999
 21
170.7814045428399
 31
0.0
  0
LINE
  5
6C7
330
694
100
AcDbEntity
  8
KCAD_DIMS
 62
     0
370
    -2
100
AcDbLine
 10
290.8937265102
 20
124.69198850103
 30
0.0
 11
290.8937265102
 21
160.8814045428399
 31
0.0
  0
INSERT
  5
6C8
330
694
100
AcDbEntity
  8
KCAD_DIMS
 62
     0
370
    -2
100
AcDbBlockReference
  2
_OPEN30
 10
158.8937265101999
 20
124.69198850103
 30
0.0
 41
2.5
 42
2.5
 43
2.5
 50
180.0
  0
INSERT
  5
6C9
330
694
100
AcDbEntity
  8
KCAD_DIMS
 62
     0
370
    -2
100
AcDbBlockReference
  2
_OPEN30
 10
290.8937265102
 20
124.69198850103
 30
0.0
 41
2.5
 42
2.5
 43
2.5
  0
LINE
  5
6CA
330
694
100
AcDbEntity
  8
KCAD_DIMS
 62
     0
370
    -2
100
AcDbLine
 10
161.3937265102
 20
124.69198850103
 30
0.0
 11
288.3937265101999
 21
124.69198850103
 31
0.0
  0
POINT
  5
6CB
330
694
100
AcDbEntity
  8
DEFPOINTS
 62
     0
370
    15
100
AcDbPoint
 10
158.8937265101999
 20
170.7814045428399
 30
0.0
  0
POINT
  5
6CC
330
694
100
AcDbEntity
  8
DEFPOINTS
 62
     0
370
    15
100
AcDbPoint
 10
290.8937265102
 20
160.8814045428399
 30
0.0
  0
POINT
  5
6CD
330
694
100
AcDbEntity
  8
DEFPOINTS
 62
     0
370
    15
100
AcDbPoint
 10
290.8937265102
 20
124.69198850103
 30
0.0
  0
MTEXT
  5
6CE
330
694
100
AcDbEntity
  8
KCAD_DIMS
 62
     0
100
AcDbMText
 10
224.8937265102
 20
126.8253215010299
 30
0.0
 40
3.2
 41
0.0
 71
     5
 72
     1
  1
\A1;132
  7
KCADDIMSTANDARD
 73
     1
 44
1.0
  0
ENDBLK
  5
A3E
330
694
100
AcDbEntity
  8
0
100
AcDbBlockEnd
  0
BLOCK
  5
A3F
330
6D0
100
AcDbEntity
  8
0
100
AcDbBlockBegin
  2
*D36
 70
     1
 71
     0
 10
0.0
 20
0.0
 30
0.0
  3
*D36
  1

  0
LINE
  5
6FC
330
6D0
100
AcDbEntity
  8
KCAD_DIMS
 62
     0
370
    -2
100
AcDbLine
 10
269.36500470367
 20
160.78140454284
 30
0.0
 11
257.9937265102
 21
160.78140454284
 31
0.0
  0
INSERT
  5
6FD
330
6D0
100
AcDbEntity
  8
KCAD_DIMS
 62
     0
370
    -2
100
AcDbBlockReference
  2
_OPEN30
 10
269.36500470367
 20
160.78140454284
 30
0.0
 41
2.5
 42
2.5
 43
2.5
 50
270.0
  0
LINE
  5
6FE
330
6D0
100
AcDbEntity
  8
KCAD_DIMS
 62
     0
370
    -2
100
AcDbLine
 10
269.36500470367
 20
163.2814045428399
 30
0.0
 11
269.36500470367
 21
172.3289090239999
 31
0.0
  0
POINT
  5
6FF
330
6D0
100
AcDbEntity
  8
DEFPOINTS
 62
     0
370
    15
100
AcDbPoint
 10
257.9937265102
 20
160.78140454284
 30
0.0
  0
POINT
  5
700
330
6D0
100
AcDbEntity
  8
DEFPOINTS
 62
     0
370
    15
100
AcDbPoint
 10
301.26389934149
 20
170.7814045428399
 30
0.0
  0
POINT
  5
701
330
6D0
100
AcDbEntity
  8
DEFPOINTS
 62
     0
370
    15
100
AcDbPoint
 10
269.36500470367
 20
170.7814045428399
 30
0.0
  0
MTEXT
  5
702
330
6D0
100
AcDbEntity
  8
KCAD_DIMS
 62
     0
100
AcDbMText
 10
267.23167170367
 20
152.63782375253
 30
0.0
 40
3.2
 41
0.0
 71
     5
 72
     1
  1
\A1;Φ20
  7
KCADDIMSTANDARD
 11
1.000000000000000E-16
 21
1.0
 31
0.0
 73
     1
 44
1.0
  0
ENDBLK
  5
A40
330
6D0
100
AcDbEntity
  8
0
100
AcDbBlockEnd
  0
BLOCK
  5
A41
330
704
100
AcDbEntity
  8
0
100
AcDbBlockBegin
  2
*D37
 70
     1
 71
     0
 10
0.0
 20
0.0
 30
0.0
  3
*D37
  1

  0
LINE
  5
736
330
704
100
AcDbEntity
  8
KCAD_DIMS
 62
     0
370
    -2
100
AcDbLine
 10
183.1937265102
 20
207.09262599828
 30
0.0
 11
183.1937265102
 21
200.3814045428399
 31
0.0
  0
LINE
  5
737
330
704
100
AcDbEntity
  8
KCAD_DIMS
 62
     0
370
    -2
100
AcDbLine
 10
195.1937265102
 20
207.09262599828
 30
0.0
 11
195.1937265102
 21
200.3814045428399
 31
0.0
  0
LINE
  5
738
330
704
100
AcDbEntity
  8
KCAD_DIMS
 62
     0
370
    -2
100
AcDbLine
 10
189.1937265102
 20
207.09262599828
 30
0.0
 11
176.5763170272807
 21
211.2165676727853
 31
0.0
  0
LINE
  5
739
330
704
100
AcDbEntity
  8
KCAD_DIMS
 62
     0
370
    -2
100
AcDbLine
 10
176.5763170272807
 20
211.2165676727853
 30
0.0
 11
164.1842929327617
 21
211.2165676727853
 31
0.0
  0
INSERT
  5
73A
330
704
100
AcDbEntity
  8
KCAD_DIMS
 62
     0
370
    -2
100
AcDbBlockReference
  2
_OPEN30
 10
183.1937265102
 20
207.09262599828
 30
0.0
 41
2.5
 42
2.5
 43
2.5
 50
180.0
  0
INSERT
  5
73B
330
704
100
AcDbEntity
  8
KCAD_DIMS
 62
     0
370
    -2
100
AcDbBlockReference
  2
_OPEN30
 10
195.1937265102
 20
207.09262599828
 30
0.0
 41
2.5
 42
2.5
 43
2.5
  0
LINE
  5
73C
330
704
100
AcDbEntity
  8
KCAD_DIMS
 62
     0
370
    -2
100
AcDbLine
 10
185.6937265102
 20
207.09262599828
 30
0.0
 11
192.6937265101999
 21
207.09262599828
 31
0.0
  0
POINT
  5
73D
330
704
100
AcDbEntity
  8
DEFPOINTS
 62
     0
370
    15
100
AcDbPoint
 10
183.1937265102
 20
200.3814045428399
 30
0.0
  0
POINT
  5
73E
330
704
100
AcDbEntity
  8
DEFPOINTS
 62
     0
370
    15
100
AcDbPoint
 10
195.1937265102
 20
200.3814045428399
 30
0.0
  0
POINT
  5
73F
330
704
100
AcDbEntity
  8
DEFPOINTS
 62
     0
370
    15
100
AcDbPoint
 10
195.1937265102
 20
207.09262599828
 30
0.0
  0
MTEXT
  5
740
330
704
100
AcDbEntity
  8
KCAD_DIMS
 62
     0
100
AcDbMText
 10
170.3803049800199
 20
213.34990067279
 30
0.0
 40
3.2
 41
0.0
 71
     5
 72
     1
  1
\A1;%%c12　穴
  7
KCADDIMSTANDARD
 73
     1
 44
1.0
  0
ENDBLK
  5
A42
330
704
100
AcDbEntity
  8
0
100
AcDbBlockEnd
  0
BLOCK
  5
A43
330
769
100
AcDbEntity
  8
0
100
AcDbBlockBegin
  2
*D38
 70
     1
 71
     0
 10
0.0
 20
0.0
 30
0.0
  3
*D38
  1

  0
POINT
  5
760
330
769
100
AcDbEntity
  8
DEFPOINTS
  6
ByBlock
 62
     0
370
    15
100
AcDbPoint
 10
201.6937265102
 20
178.7814045428399
 30
0.0
  0
POINT
  5
761
330
769
100
AcDbEntity
  8
DEFPOINTS
  6
ByBlock
 62
     0
370
    15
100
AcDbPoint
 10
211.90303977455
 20
186.7814045428399
 30
0.0
  0
LINE
  5
762
330
769
100
AcDbEntity
  8
0
  6
ByBlock
 62
     0
370
    -2
100
AcDbLine
 10
201.6937265102
 20
178.7814045428399
 30
0.0
 11
211.9030397745499
 21
178.7814045428399
 31
0.0
  0
LINE
  5
763
330
769
100
AcDbEntity
  8
0
  6
ByBlock
 62
     0
370
    -2
100
AcDbLine
 10
211.9030397745499
 20
178.7814045428399
 30
0.0
 11
211.9030397745499
 21
186.7814045428399
 31
0.0
  0
SOLID
  5
764
330
769
100
AcDbEntity
  8
0
  6
ByBlock
 62
     0
370
    15
100
AcDbTrace
 10
211.9030397745499
 20
178.7814045428399
 30
0.0
 11
212.3197064412167
 21
181.2814045428399
 31
0.0
 12
211.4863731078832
 22
181.2814045428399
 32
0.0
 13
211.4863731078832
 23
181.2814045428399
 33
0.0
  0
SOLID
  5
765
330
769
100
AcDbEntity
  8
0
  6
ByBlock
 62
     0
370
    15
100
AcDbTrace
 10
211.9030397745499
 20
186.7814045428399
 30
0.0
 11
212.3197064412167
 21
184.2814045428399
 31
0.0
 12
211.4863731078832
 22
184.2814045428399
 32
0.0
 13
211.4863731078832
 23
184.2814045428399
 33
0.0
  0
LINE
  5
766
330
769
100
AcDbEntity
  8
0
  6
ByBlock
 62
     0
370
    -2
100
AcDbLine
 10
201.6937265102
 20
178.7814045428399
 30
0.0
 11
201.6937265102
 21
178.7814045428399
 31
0.0
  0
MTEXT
  5
767
330
769
100
AcDbEntity
  8
0
  6
ByBlock
 62
     0
100
AcDbMText
 10
208.1298568210892
 20
195.02842596955
 30
0.0
 40
3.2
 41
0.0
 71
     5
 72
     1
  1
\A1;φ16{\H2.134400;\S-0.006^ -0.024;}
  7
KCADDIMSTANDARD
 11
6.123031769111886E-17
 21
1.0
 31
0.0
 73
     1
 44
1.0
  0
ENDBLK
  5
A44
330
769
100
AcDbEntity
  8
0
100
AcDbBlockEnd
  0
BLOCK
  5
A45
330
775
100
AcDbEntity
  8
0
100
AcDbBlockBegin
  2
*D39
 70
     1
 71
     0
 10
0.0
 20
0.0
 30
0.0
  3
*D39
  1

  0
POINT
  5
76B
330
775
100
AcDbEntity
  8
DEFPOINTS
  6
ByBlock
 62
     0
370
    15
100
AcDbPoint
 10
158.8937265101999
 20
178.7814045428399
 30
0.0
  0
POINT
  5
76C
330
775
100
AcDbEntity
  8
DEFPOINTS
  6
ByBlock
 62
     0
370
    15
100
AcDbPoint
 10
158.8937265101999
 20
162.78140454284
 30
0.0
  0
LINE
  5
76D
330
775
100
AcDbEntity
  8
0
  6
ByBlock
 62
     0
370
    -2
100
AcDbLine
 10
158.8937265101999
 20
178.7814045428399
 30
0.0
 11
139.8970190784
 21
178.7814045428399
 31
0.0
  0
LINE
  5
76E
330
775
100
AcDbEntity
  8
0
  6
ByBlock
 62
     0
370
    -2
100
AcDbLine
 10
158.8937265101999
 20
162.78140454284
 30
0.0
 11
139.8970190784
 21
162.78140454284
 31
0.0
  0
LINE
  5
76F
330
775
100
AcDbEntity
  8
0
  6
ByBlock
 62
     0
370
    -2
100
AcDbLine
 10
139.8970190784
 20
178.7814045428399
 30
0.0
 11
139.8970190784
 21
162.78140454284
 31
0.0
  0
SOLID
  5
770
330
775
100
AcDbEntity
  8
0
  6
ByBlock
 62
     0
370
    15
100
AcDbTrace
 10
139.8970190784
 20
178.7814045428399
 30
0.0
 11
139.4803524117333
 21
176.2814045428399
 31
0.0
 12
140.3136857450667
 22
176.2814045428399
 32
0.0
 13
140.3136857450667
 23
176.2814045428399
 33
0.0
  0
SOLID
  5
771
330
775
100
AcDbEntity
  8
0
  6
ByBlock
 62
     0
370
    15
100
AcDbTrace
 10
139.8970190784
 20
162.78140454284
 30
0.0
 11
139.4803524117333
 21
165.28140454284
 31
0.0
 12
140.3136857450667
 22
165.28140454284
 32
0.0
 13
140.3136857450667
 23
165.28140454284
 33
0.0
  0
LINE
  5
772
330
775
100
AcDbEntity
  8
0
  6
ByBlock
 62
     0
370
    -2
100
AcDbLine
 10
158.8937265101999
 20
178.7814045428399
 30
0.0
 11
158.8937265101999
 21
178.7814045428399
 31
0.0
  0
MTEXT
  5
773
330
775
100
AcDbEntity
  8
0
  6
ByBlock
 62
     0
100
AcDbMText
 10
136.1238361249393
 20
149.6741971237599
 30
0.0
 40
3.2
 41
0.0
 71
     5
 72
     1
  1
\A1;φ16{\H2.134400;\S-0.006^ -0.024;}
  7
KCADDIMSTANDARD
 11
6.123031769111886E-17
 21
1.0
 31
0.0
 73
     1
 44
1.0
  0
ENDBLK
  5
A46
330
775
100
AcDbEntity
  8
0
100
AcDbBlockEnd
  0
BLOCK
  5
A47
330
782
100
AcDbEntity
  8
0
100
AcDbBlockBegin
  2
*D40
 70
     1
 71
     0
 10
0.0
 20
0.0
 30
0.0
  3
*D40
  1

  0
POINT
  5
777
330
782
100
AcDbEntity
  8
DEFPOINTS
  6
ByBlock
 62
     0
370
    15
100
AcDbPoint
 10
83.893726510199
 20
170.7814045428399
 30
0.0
  0
POINT
  5
778
330
782
100
AcDbEntity
  8
DEFPOINTS
  6
ByBlock
 62
     0
370
    15
100
AcDbPoint
 10
290.8937265102
 20
170.7814045428399
 30
0.0
  0
LINE
  5
779
330
782
100
AcDbEntity
  8
0
  6
ByBlock
 62
     0
370
    -2
100
AcDbLine
 10
83.893726510199
 20
171.7814045428399
 30
0.0
 11
83.893726510199
 21
229.34623381237
 31
0.0
  0
LINE
  5
77A
330
782
100
AcDbEntity
  8
0
  6
ByBlock
 62
     0
370
    -2
100
AcDbLine
 10
290.8937265102
 20
171.7814045428399
 30
0.0
 11
290.8937265102
 21
229.34623381237
 31
0.0
  0
LINE
  5
77B
330
782
100
AcDbEntity
  8
0
  6
ByBlock
 62
     0
370
    -2
100
AcDbLine
 10
83.893726510199
 20
228.34623381237
 30
0.0
 11
182.8604265102
 21
228.34623381237
 31
0.0
  0
SOLID
  5
77C
330
782
100
AcDbEntity
  8
0
  6
ByBlock
 62
     0
370
    15
100
AcDbTrace
 10
83.893726510199
 20
228.34623381237
 30
0.0
 11
85.893726510199
 21
228.0129004790366
 31
0.0
 12
85.893726510199
 22
228.6795671457034
 32
0.0
 13
85.893726510199
 23
228.6795671457034
 33
0.0
  0
LINE
  5
77D
330
782
100
AcDbEntity
  8
0
  6
ByBlock
 62
     0
370
    -2
100
AcDbLine
 10
290.8937265102
 20
228.34623381237
 30
0.0
 11
191.9270265102
 21
228.34623381237
 31
0.0
  0
SOLID
  5
77E
330
782
100
AcDbEntity
  8
0
  6
ByBlock
 62
     0
370
    15
100
AcDbTrace
 10
290.8937265102
 20
228.34623381237
 30
0.0
 11
288.8937265102
 21
228.0129004790366
 31
0.0
 12
288.8937265102
 22
228.6795671457034
 32
0.0
 13
288.8937265102
 23
228.6795671457034
 33
0.0
  0
LINE
  5
77F
330
782
100
AcDbEntity
  8
0
  6
ByBlock
 62
     0
370
    -2
100
AcDbLine
 10
83.893726510199
 20
170.7814045428399
 30
0.0
 11
83.893726510199
 21
170.7814045428399
 31
0.0
  0
MTEXT
  5
780
330
782
100
AcDbEntity
  8
0
  6
ByBlock
 62
     0
100
AcDbMText
 10
187.3937265102
 20
230.47953381237
 30
0.0
 40
3.2
 41
0.0
 71
     5
 72
     1
  1
207
  7
KCADDIMSTANDARD
 73
     1
 44
1.0
  0
ENDBLK
  5
A48
330
782
100
AcDbEntity
  8
0
100
AcDbBlockEnd
  0
BLOCK
  5
A49
330
78E
100
AcDbEntity
  8
0
100
AcDbBlockBegin
  2
*D41
 70
     1
 71
     0
 10
0.0
 20
0.0
 30
0.0
  3
*D41
  1

  0
POINT
  5
784
330
78E
100
AcDbEntity
  8
DEFPOINTS
  6
ByBlock
 62
     0
370
    15
100
AcDbPoint
 10
289.92923330198
 20
178.53140454284
 30
0.0
  0
POINT
  5
785
330
78E
100
AcDbEntity
  8
DEFPOINTS
  6
ByBlock
 62
     0
370
    15
100
AcDbPoint
 10
289.92923330198
 20
163.0314045428399
 30
0.0
  0
LINE
  5
786
330
78E
100
AcDbEntity
  8
0
  6
ByBlock
 62
     0
370
    -2
100
AcDbLine
 10
290.92923330198
 20
178.53140454284
 30
0.0
 11
313.0366886171199
 21
178.53140454284
 31
0.0
  0
LINE
  5
787
330
78E
100
AcDbEntity
  8
0
  6
ByBlock
 62
     0
370
    -2
100
AcDbLine
 10
290.92923330198
 20
163.0314045428399
 30
0.0
 11
313.0366886171199
 21
163.0314045428399
 31
0.0
  0
LINE
  5
788
330
78E
100
AcDbEntity
  8
0
  6
ByBlock
 62
     0
370
    -2
100
AcDbLine
 10
312.0366886171199
 20
178.53140454284
 30
0.0
 11
312.0366886171199
 21
163.0314045428399
 31
0.0
  0
SOLID
  5
789
330
78E
100
AcDbEntity
  8
0
  6
ByBlock
 62
     0
370
    15
100
AcDbTrace
 10
312.0366886171199
 20
178.53140454284
 30
0.0
 11
311.7033552837865
 21
176.53140454284
 31
0.0
 12
312.3700219504533
 22
176.53140454284
 32
0.0
 13
312.3700219504533
 23
176.53140454284
 33
0.0
  0
SOLID
  5
78A
330
78E
100
AcDbEntity
  8
0
  6
ByBlock
 62
     0
370
    15
100
AcDbTrace
 10
312.0366886171199
 20
163.0314045428399
 30
0.0
 11
311.7033552837865
 21
165.0314045428399
 31
0.0
 12
312.3700219504533
 22
165.0314045428399
 32
0.0
 13
312.3700219504533
 23
165.0314045428399
 33
0.0
  0
LINE
  5
78B
330
78E
100
AcDbEntity
  8
0
  6
ByBlock
 62
     0
370
    -2
100
AcDbLine
 10
289.92923330198
 20
178.53140454284
 30
0.0
 11
289.92923330198
 21
178.53140454284
 31
0.0
  0
MTEXT
  5
78C
330
78E
100
AcDbEntity
  8
0
  6
ByBlock
 62
     0
100
AcDbMText
 10
309.9033886171199
 20
146.78359120114
 30
0.0
 40
3.2
 41
0.0
 71
     5
 72
     1
  1
\A1;M15.5 ×P0.5
  7
KCADDIMSTANDARD
 11
6.123031769111886E-17
 21
1.0
 31
0.0
 73
     1
 44
1.0
  0
ENDBLK
  5
A4A
330
78E
100
AcDbEntity
  8
0
100
AcDbBlockEnd
  0
BLOCK
  5
A4B
330
79A
100
AcDbEntity
  8
0
100
AcDbBlockBegin
  2
*D42
 70
     1
 71
     0
 10
0.0
 20
0.0
 30
0.0
  3
*D42
  1

  0
POINT
  5
790
330
79A
100
AcDbEntity
  8
DEFPOINTS
  6
ByBlock
 62
     0
370
    15
100
AcDbPoint
 10
158.8937265101999
 20
170.7814045428399
 30
0.0
  0
POINT
  5
791
330
79A
100
AcDbEntity
  8
DEFPOINTS
  6
ByBlock
 62
     0
370
    15
100
AcDbPoint
 10
257.8937265102
 20
170.7814045428399
 30
0.0
  0
LINE
  5
792
330
79A
100
AcDbEntity
  8
0
  6
ByBlock
 62
     0
370
    -2
100
AcDbLine
 10
158.8937265101999
 20
170.7814045428399
 30
0.0
 11
158.8937265101999
 21
133.39259872701
 31
0.0
  0
LINE
  5
793
330
79A
100
AcDbEntity
  8
0
  6
ByBlock
 62
     0
370
    -2
100
AcDbLine
 10
257.8937265102
 20
170.7814045428399
 30
0.0
 11
257.8937265102
 21
133.39259872701
 31
0.0
  0
LINE
  5
794
330
79A
100
AcDbEntity
  8
0
  6
ByBlock
 62
     0
370
    -2
100
AcDbLine
 10
158.8937265101999
 20
133.39259872701
 30
0.0
 11
257.8937265102
 21
133.39259872701
 31
0.0
  0
SOLID
  5
795
330
79A
100
AcDbEntity
  8
0
  6
ByBlock
 62
     0
370
    15
100
AcDbTrace
 10
158.8937265101999
 20
133.39259872701
 30
0.0
 11
161.3937265101999
 21
132.9759320603433
 31
0.0
 12
161.3937265101999
 22
133.8092653936768
 32
0.0
 13
161.3937265101999
 23
133.8092653936768
 33
0.0
  0
SOLID
  5
796
330
79A
100
AcDbEntity
  8
0
  6
ByBlock
 62
     0
370
    15
100
AcDbTrace
 10
257.8937265102
 20
133.39259872701
 30
0.0
 11
255.3937265102
 21
132.9759320603433
 31
0.0
 12
255.3937265102
 22
133.8092653936768
 32
0.0
 13
255.3937265102
 23
133.8092653936768
 33
0.0
  0
LINE
  5
797
330
79A
100
AcDbEntity
  8
0
  6
ByBlock
 62
     0
370
    -2
100
AcDbLine
 10
158.8937265101999
 20
170.7814045428399
 30
0.0
 11
158.8937265101999
 21
170.7814045428399
 31
0.0
  0
MTEXT
  5
798
330
79A
100
AcDbEntity
  8
0
  6
ByBlock
 62
     0
100
AcDbMText
 10
208.3937265102
 20
135.5259317270099
 30
0.0
 40
3.2
 41
0.0
 71
     5
 72
     1
  1
99
  7
KCADDIMSTANDARD
 73
     1
 44
1.0
  0
ENDBLK
  5
A4C
330
79A
100
AcDbEntity
  8
0
100
AcDbBlockEnd
  0
BLOCK
  5
A4D
330
7A6
100
AcDbEntity
  8
0
100
AcDbBlockBegin
  2
*D43
 70
     1
 71
     0
 10
0.0
 20
0.0
 30
0.0
  3
*D43
  1

  0
POINT
  5
79C
330
7A6
100
AcDbEntity
  8
DEFPOINTS
  6
ByBlock
 62
     0
370
    15
100
AcDbPoint
 10
257.8937265102
 20
178.7814045428399
 30
0.0
  0
POINT
  5
79D
330
7A6
100
AcDbEntity
  8
DEFPOINTS
  6
ByBlock
 62
     0
370
    15
100
AcDbPoint
 10
290.8937265102
 20
180.68140454284
 30
0.0
  0
LINE
  5
79E
330
7A6
100
AcDbEntity
  8
0
  6
ByBlock
 62
     0
370
    -2
100
AcDbLine
 10
257.8937265102
 20
178.7814045428399
 30
0.0
 11
257.8937265102
 21
203.5102617541699
 31
0.0
  0
LINE
  5
79F
330
7A6
100
AcDbEntity
  8
0
  6
ByBlock
 62
     0
370
    -2
100
AcDbLine
 10
290.8937265102
 20
180.68140454284
 30
0.0
 11
290.8937265102
 21
203.5102617541699
 31
0.0
  0
LINE
  5
7A0
330
7A6
100
AcDbEntity
  8
0
  6
ByBlock
 62
     0
370
    -2
100
AcDbLine
 10
257.8937265102
 20
203.5102617541699
 30
0.0
 11
290.8937265102
 21
203.5102617541699
 31
0.0
  0
SOLID
  5
7A1
330
7A6
100
AcDbEntity
  8
0
  6
ByBlock
 62
     0
370
    15
100
AcDbTrace
 10
257.8937265102
 20
203.5102617541699
 30
0.0
 11
260.3937265102
 21
203.0935950875032
 31
0.0
 12
260.3937265102
 22
203.9269284208366
 32
0.0
 13
260.3937265102
 23
203.9269284208366
 33
0.0
  0
SOLID
  5
7A2
330
7A6
100
AcDbEntity
  8
0
  6
ByBlock
 62
     0
370
    15
100
AcDbTrace
 10
290.8937265102
 20
203.5102617541699
 30
0.0
 11
288.3937265102
 21
203.0935950875032
 31
0.0
 12
288.3937265102
 22
203.9269284208366
 32
0.0
 13
288.3937265102
 23
203.9269284208366
 33
0.0
  0
LINE
  5
7A3
330
7A6
100
AcDbEntity
  8
0
  6
ByBlock
 62
     0
370
    -2
100
AcDbLine
 10
257.8937265102
 20
178.7814045428399
 30
0.0
 11
257.8937265102
 21
178.7814045428399
 31
0.0
  0
MTEXT
  5
7A4
330
7A6
100
AcDbEntity
  8
0
  6
ByBlock
 62
     0
100
AcDbMText
 10
274.3937265102
 20
205.6435947541699
 30
0.0
 40
3.2
 41
0.0
 71
     5
 72
     1
  1
33
  7
KCADDIMSTANDARD
 73
     1
 44
1.0
  0
ENDBLK
  5
A4E
330
7A6
100
AcDbEntity
  8
0
100
AcDbBlockEnd
  0
BLOCK
  5
A4F
330
7B2
100
AcDbEntity
  8
0
100
AcDbBlockBegin
  2
*D44
 70
     1
 71
     0
 10
0.0
 20
0.0
 30
0.0
  3
*D44
  1

  0
POINT
  5
7A8
330
7B2
100
AcDbEntity
  8
DEFPOINTS
  6
ByBlock
 62
     0
370
    15
100
AcDbPoint
 10
158.8937265101999
 20
170.7814045428399
 30
0.0
  0
POINT
  5
7A9
330
7B2
100
AcDbEntity
  8
DEFPOINTS
  6
ByBlock
 62
     0
370
    15
100
AcDbPoint
 10
189.1937265102
 20
181.3814045428399
 30
0.0
  0
LINE
  5
7AA
330
7B2
100
AcDbEntity
  8
0
  6
ByBlock
 62
     0
370
    -2
100
AcDbLine
 10
158.8937265101999
 20
170.7814045428399
 30
0.0
 11
158.8937265101999
 21
219.6927528472199
 31
0.0
  0
LINE
  5
7AB
330
7B2
100
AcDbEntity
  8
0
  6
ByBlock
 62
     0
370
    -2
100
AcDbLine
 10
189.1937265102
 20
181.3814045428399
 30
0.0
 11
189.1937265102
 21
219.6927528472199
 31
0.0
  0
LINE
  5
7AC
330
7B2
100
AcDbEntity
  8
0
  6
ByBlock
 62
     0
370
    -2
100
AcDbLine
 10
158.8937265101999
 20
219.6927528472199
 30
0.0
 11
189.1937265102
 21
219.6927528472199
 31
0.0
  0
SOLID
  5
7AD
330
7B2
100
AcDbEntity
  8
0
  6
ByBlock
 62
     0
370
    15
100
AcDbTrace
 10
158.8937265101999
 20
219.6927528472199
 30
0.0
 11
161.3937265101999
 21
219.2760861805532
 31
0.0
 12
161.3937265101999
 22
220.1094195138866
 32
0.0
 13
161.3937265101999
 23
220.1094195138866
 33
0.0
  0
SOLID
  5
7AE
330
7B2
100
AcDbEntity
  8
0
  6
ByBlock
 62
     0
370
    15
100
AcDbTrace
 10
189.1937265102
 20
219.6927528472199
 30
0.0
 11
186.6937265102
 21
219.2760861805532
 31
0.0
 12
186.6937265102
 22
220.1094195138866
 32
0.0
 13
186.6937265102
 23
220.1094195138866
 33
0.0
  0
LINE
  5
7AF
330
7B2
100
AcDbEntity
  8
0
  6
ByBlock
 62
     0
370
    -2
100
AcDbLine
 10
158.8937265101999
 20
170.7814045428399
 30
0.0
 11
158.8937265101999
 21
170.7814045428399
 31
0.0
  0
MTEXT
  5
7B0
330
7B2
100
AcDbEntity
  8
0
  6
ByBlock
 62
     0
100
AcDbMText
 10
174.0437265102
 20
221.8260858472199
 30
0.0
 40
3.2
 41
0.0
 71
     5
 72
     1
  1
30.3
  7
KCADDIMSTANDARD
 73
     1
 44
1.0
  0
ENDBLK
  5
A50
330
7B2
100
AcDbEntity
  8
0
100
AcDbBlockEnd
  0
BLOCK
  5
A51
330
7BE
100
AcDbEntity
  8
0
100
AcDbBlockBegin
  2
*D45
 70
     1
 71
     0
 10
0.0
 20
0.0
 30
0.0
  3
*D45
  1

  0
POINT
  5
7B4
330
7BE
100
AcDbEntity
  8
DEFPOINTS
  6
ByBlock
 62
     0
370
    15
100
AcDbPoint
 10
158.8937265101999
 20
170.7814045428399
 30
0.0
  0
POINT
  5
7B5
330
7BE
100
AcDbEntity
  8
DEFPOINTS
  6
ByBlock
 62
     0
370
    15
100
AcDbPoint
 10
83.893726510197
 20
170.7814045428399
 30
0.0
  0
LINE
  5
7B6
330
7BE
100
AcDbEntity
  8
0
  6
ByBlock
 62
     0
370
    -2
100
AcDbLine
 10
158.8937265101999
 20
170.7814045428399
 30
0.0
 11
158.8937265101999
 21
219.6927528472199
 31
0.0
  0
LINE
  5
7B7
330
7BE
100
AcDbEntity
  8
0
  6
ByBlock
 62
     0
370
    -2
100
AcDbLine
 10
83.893726510197
 20
170.7814045428399
 30
0.0
 11
83.893726510197
 21
219.6927528472199
 31
0.0
  0
LINE
  5
7B8
330
7BE
100
AcDbEntity
  8
0
  6
ByBlock
 62
     0
370
    -2
100
AcDbLine
 10
158.8937265101999
 20
219.6927528472199
 30
0.0
 11
83.893726510197
 21
219.6927528472199
 31
0.0
  0
SOLID
  5
7B9
330
7BE
100
AcDbEntity
  8
0
  6
ByBlock
 62
     0
370
    15
100
AcDbTrace
 10
158.8937265101999
 20
219.6927528472199
 30
0.0
 11
156.3937265101999
 21
220.1094195138866
 31
0.0
 12
156.3937265101999
 22
219.2760861805532
 32
0.0
 13
156.3937265101999
 23
219.2760861805532
 33
0.0
  0
SOLID
  5
7BA
330
7BE
100
AcDbEntity
  8
0
  6
ByBlock
 62
     0
370
    15
100
AcDbTrace
 10
83.893726510197
 20
219.6927528472199
 30
0.0
 11
86.393726510197
 21
220.1094195138866
 31
0.0
 12
86.393726510197
 22
219.2760861805532
 32
0.0
 13
86.393726510197
 23
219.2760861805532
 33
0.0
  0
LINE
  5
7BB
330
7BE
100
AcDbEntity
  8
0
  6
ByBlock
 62
     0
370
    -2
100
AcDbLine
 10
158.8937265101999
 20
170.7814045428399
 30
0.0
 11
158.8937265101999
 21
170.7814045428399
 31
0.0
  0
MTEXT
  5
7BC
330
7BE
100
AcDbEntity
  8
0
  6
ByBlock
 62
     0
100
AcDbMText
 10
121.3937265101999
 20
221.8260858472199
 30
0.0
 40
3.2
 41
0.0
 71
     5
 72
     1
  1
\A1;WD= 75
  7
KCADDIMSTANDARD
 73
     1
 44
1.0
  0
ENDBLK
  5
A52
330
7BE
100
AcDbEntity
  8
0
100
AcDbBlockEnd
  0
BLOCK
  5
A53
330
7CA
100
AcDbEntity
  8
0
100
AcDbBlockBegin
  2
*D46
 70
     1
 71
     0
 10
0.0
 20
0.0
 30
0.0
  3
*D46
  1

  0
POINT
  5
7C0
330
7CA
100
AcDbEntity
  8
DEFPOINTS
  6
ByBlock
 62
     0
370
    15
100
AcDbPoint
 10
158.8937265101999
 20
170.7814045428399
 30
0.0
  0
POINT
  5
7C1
330
7CA
100
AcDbEntity
  8
DEFPOINTS
  6
ByBlock
 62
     0
370
    15
100
AcDbPoint
 10
290.8937265102
 20
160.8814045428399
 30
0.0
  0
LINE
  5
7C2
330
7CA
100
AcDbEntity
  8
0
  6
ByBlock
 62
     0
370
    -2
100
AcDbLine
 10
158.8937265101999
 20
170.7814045428399
 30
0.0
 11
158.8937265101999
 21
124.69198850103
 31
0.0
  0
LINE
  5
7C3
330
7CA
100
AcDbEntity
  8
0
  6
ByBlock
 62
     0
370
    -2
100
AcDbLine
 10
290.8937265102
 20
160.8814045428399
 30
0.0
 11
290.8937265102
 21
124.69198850103
 31
0.0
  0
LINE
  5
7C4
330
7CA
100
AcDbEntity
  8
0
  6
ByBlock
 62
     0
370
    -2
100
AcDbLine
 10
158.8937265101999
 20
124.69198850103
 30
0.0
 11
290.8937265102
 21
124.69198850103
 31
0.0
  0
SOLID
  5
7C5
330
7CA
100
AcDbEntity
  8
0
  6
ByBlock
 62
     0
370
    15
100
AcDbTrace
 10
158.8937265101999
 20
124.69198850103
 30
0.0
 11
161.3937265101999
 21
124.2753218343632
 31
0.0
 12
161.3937265101999
 22
125.1086551676968
 32
0.0
 13
161.3937265101999
 23
125.1086551676968
 33
0.0
  0
SOLID
  5
7C6
330
7CA
100
AcDbEntity
  8
0
  6
ByBlock
 62
     0
370
    15
100
AcDbTrace
 10
290.8937265102
 20
124.69198850103
 30
0.0
 11
288.3937265102
 21
124.2753218343632
 31
0.0
 12
288.3937265102
 22
125.1086551676968
 32
0.0
 13
288.3937265102
 23
125.1086551676968
 33
0.0
  0
LINE
  5
7C7
330
7CA
100
AcDbEntity
  8
0
  6
ByBlock
 62
     0
370
    -2
100
AcDbLine
 10
158.8937265101999
 20
170.7814045428399
 30
0.0
 11
158.8937265101999
 21
170.7814045428399
 31
0.0
  0
MTEXT
  5
7C8
330
7CA
100
AcDbEntity
  8
0
  6
ByBlock
 62
     0
100
AcDbMText
 10
224.8937265102
 20
126.8253215010299
 30
0.0
 40
3.2
 41
0.0
 71
     5
 72
     1
  1
132
  7
KCADDIMSTANDARD
 73
     1
 44
1.0
  0
ENDBLK
  5
A54
330
7CA
100
AcDbEntity
  8
0
100
AcDbBlockEnd
  0
BLOCK
  5
A55
330
7D5
100
AcDbEntity
  8
0
100
AcDbBlockBegin
  2
*D47
 70
     1
 71
     0
 10
0.0
 20
0.0
 30
0.0
  3
*D47
  1

  0
POINT
  5
7CC
330
7D5
100
AcDbEntity
  8
DEFPOINTS
  6
ByBlock
 62
     0
370
    15
100
AcDbPoint
 10
257.9937265102
 20
160.78140454284
 30
0.0
  0
POINT
  5
7CD
330
7D5
100
AcDbEntity
  8
DEFPOINTS
  6
ByBlock
 62
     0
370
    15
100
AcDbPoint
 10
301.26389934149
 20
170.7814045428399
 30
0.0
  0
LINE
  5
7CE
330
7D5
100
AcDbEntity
  8
0
  6
ByBlock
 62
     0
370
    -2
100
AcDbLine
 10
257.9937265102
 20
160.78140454284
 30
0.0
 11
269.36500470367
 21
160.78140454284
 31
0.0
  0
LINE
  5
7CF
330
7D5
100
AcDbEntity
  8
0
  6
ByBlock
 62
     0
370
    -2
100
AcDbLine
 10
269.36500470367
 20
160.78140454284
 30
0.0
 11
269.36500470367
 21
170.7814045428399
 31
0.0
  0
SOLID
  5
7D0
330
7D5
100
AcDbEntity
  8
0
  6
ByBlock
 62
     0
370
    15
100
AcDbTrace
 10
269.36500470367
 20
160.78140454284
 30
0.0
 11
269.7816713703368
 21
163.28140454284
 31
0.0
 12
268.9483380370033
 22
163.28140454284
 32
0.0
 13
268.9483380370033
 23
163.28140454284
 33
0.0
  0
SOLID
  5
7D1
330
7D5
100
AcDbEntity
  8
0
  6
ByBlock
 62
     0
370
    15
100
AcDbTrace
 10
269.36500470367
 20
170.7814045428399
 30
0.0
 11
269.7816713703368
 21
168.2814045428399
 31
0.0
 12
268.9483380370033
 22
168.2814045428399
 32
0.0
 13
268.9483380370033
 23
168.2814045428399
 33
0.0
  0
LINE
  5
7D2
330
7D5
100
AcDbEntity
  8
0
  6
ByBlock
 62
     0
370
    -2
100
AcDbLine
 10
257.9937265102
 20
160.78140454284
 30
0.0
 11
257.9937265102
 21
160.78140454284
 31
0.0
  0
MTEXT
  5
7D3
330
7D5
100
AcDbEntity
  8
0
  6
ByBlock
 62
     0
100
AcDbMText
 10
267.23167170367
 20
152.63782375253
 30
0.0
 40
3.2
 41
0.0
 71
     5
 72
     1
  1
\A1;Φ20
  7
KCADDIMSTANDARD
 11
6.123031769111886E-17
 21
1.0
 31
0.0
 73
     1
 44
1.0
  0
ENDBLK
  5
A56
330
7D5
100
AcDbEntity
  8
0
100
AcDbBlockEnd
  0
BLOCK
  5
A57
330
7E1
100
AcDbEntity
  8
0
100
AcDbBlockBegin
  2
*D48
 70
     1
 71
     0
 10
0.0
 20
0.0
 30
0.0
  3
*D48
  1

  0
POINT
  5
7D7
330
7E1
100
AcDbEntity
  8
DEFPOINTS
  6
ByBlock
 62
     0
370
    15
100
AcDbPoint
 10
183.1937265102
 20
200.3814045428399
 30
0.0
  0
POINT
  5
7D8
330
7E1
100
AcDbEntity
  8
DEFPOINTS
  6
ByBlock
 62
     0
370
    15
100
AcDbPoint
 10
195.1937265102
 20
200.3814045428399
 30
0.0
  0
LINE
  5
7D9
330
7E1
100
AcDbEntity
  8
0
  6
ByBlock
 62
     0
370
    -2
100
AcDbLine
 10
183.1937265102
 20
200.3814045428399
 30
0.0
 11
183.1937265102
 21
207.09262599828
 31
0.0
  0
LINE
  5
7DA
330
7E1
100
AcDbEntity
  8
0
  6
ByBlock
 62
     0
370
    -2
100
AcDbLine
 10
195.1937265102
 20
200.3814045428399
 30
0.0
 11
195.1937265102
 21
207.09262599828
 31
0.0
  0
LINE
  5
7DB
330
7E1
100
AcDbEntity
  8
0
  6
ByBlock
 62
     0
370
    -2
100
AcDbLine
 10
183.1937265102
 20
207.09262599828
 30
0.0
 11
195.1937265102
 21
207.09262599828
 31
0.0
  0
SOLID
  5
7DC
330
7E1
100
AcDbEntity
  8
0
  6
ByBlock
 62
     0
370
    15
100
AcDbTrace
 10
183.1937265102
 20
207.09262599828
 30
0.0
 11
185.6937265102
 21
206.6759593316133
 31
0.0
 12
185.6937265102
 22
207.5092926649467
 32
0.0
 13
185.6937265102
 23
207.5092926649467
 33
0.0
  0
SOLID
  5
7DD
330
7E1
100
AcDbEntity
  8
0
  6
ByBlock
 62
     0
370
    15
100
AcDbTrace
 10
195.1937265102
 20
207.09262599828
 30
0.0
 11
192.6937265102
 21
206.6759593316133
 31
0.0
 12
192.6937265102
 22
207.5092926649467
 32
0.0
 13
192.6937265102
 23
207.5092926649467
 33
0.0
  0
LINE
  5
7DE
330
7E1
100
AcDbEntity
  8
0
  6
ByBlock
 62
     0
370
    -2
100
AcDbLine
 10
183.1937265102
 20
200.3814045428399
 30
0.0
 11
183.1937265102
 21
200.3814045428399
 31
0.0
  0
MTEXT
  5
7DF
330
7E1
100
AcDbEntity
  8
0
  6
ByBlock
 62
     0
100
AcDbMText
 10
170.3803049800199
 20
213.34990067279
 30
0.0
 40
3.2
 41
0.0
 71
     5
 72
     1
  1
\A1;%%c12　穴
  7
KCADDIMSTANDARD
 73
     1
 44
1.0
  0
ENDBLK
  5
A58
330
7E1
100
AcDbEntity
  8
0
100
AcDbBlockEnd
  0
BLOCK
  5
A59
330
871
100
AcDbEntity
  8
0
100
AcDbBlockBegin
  2
*D49
 70
     1
 71
     0
 10
0.0
 20
0.0
 30
0.0
  3
*D49
  1

  0
POINT
  5
868
330
871
100
AcDbEntity
  8
DEFPOINTS
  6
ByBlock
 62
     0
370
    15
100
AcDbPoint
 10
207.0937265102
 20
178.7814045428399
 30
0.0
  0
POINT
  5
869
330
871
100
AcDbEntity
  8
DEFPOINTS
  6
ByBlock
 62
     0
370
    15
100
AcDbPoint
 10
207.0937265102
 20
162.78140454284
 30
0.0
  0
LINE
  5
86A
330
871
100
AcDbEntity
  8
0
  6
ByBlock
 62
     0
370
    -2
100
AcDbLine
 10
208.0937265102
 20
178.7814045428399
 30
0.0
 11
215.3434290247447
 21
178.7814045428399
 31
0.0
  0
LINE
  5
86B
330
871
100
AcDbEntity
  8
0
  6
ByBlock
 62
     0
370
    -2
100
AcDbLine
 10
208.0937265102
 20
162.78140454284
 30
0.0
 11
215.3434290247447
 21
162.78140454284
 31
0.0
  0
LINE
  5
86C
330
871
100
AcDbEntity
  8
0
  6
ByBlock
 62
     0
370
    -2
100
AcDbLine
 10
214.3434290247447
 20
175.7814045428399
 30
0.0
 11
214.3434290247447
 21
165.78140454284
 31
0.0
  0
INSERT
  5
86D
330
871
100
AcDbEntity
  8
0
  6
ByBlock
 62
   134
370
    -2
100
AcDbBlockReference
  2
KCAD_OPEN30
 10
214.3434290247447
 20
178.7814045428399
 30
0.0
 41
3.0
 42
3.0
 43
3.0
 50
90.0
  0
INSERT
  5
86E
330
871
100
AcDbEntity
  8
0
  6
ByBlock
 62
   134
370
    -2
100
AcDbBlockReference
  2
KCAD_OPEN30
 10
214.3434290247447
 20
162.78140454284
 30
0.0
 41
3.0
 42
3.0
 43
3.0
 50
270.0
  0
MTEXT
  5
86F
330
871
100
AcDbEntity
  8
0
  6
ByBlock
 62
     0
370
    15
100
AcDbMText
 10
212.2101290247447
 20
170.7814045428399
 30
0.0
 40
3.2
 41
0.0
 71
     5
 72
     1
  1
16
  7
KCADDIMSTANDARD
 11
6.123031769111886E-17
 21
1.0
 31
0.0
 73
     1
 44
1.0
  0
ENDBLK
  5
A5A
330
871
100
AcDbEntity
  8
0
100
AcDbBlockEnd
  0
BLOCK
  5
A5B
330
87D
100
AcDbEntity
  8
0
100
AcDbBlockBegin
  2
*D50
 70
     1
 71
     0
 10
0.0
 20
0.0
 30
0.0
  3
*D50
  1

  0
POINT
  5
874
330
87D
100
AcDbEntity
  8
DEFPOINTS
  6
ByBlock
 62
     0
370
    15
100
AcDbPoint
 10
257.9937265102
 20
180.78140454284
 30
0.0
  0
POINT
  5
875
330
87D
100
AcDbEntity
  8
DEFPOINTS
  6
ByBlock
 62
     0
370
    15
100
AcDbPoint
 10
257.9937265102
 20
160.78140454284
 30
0.0
  0
LINE
  5
876
330
87D
100
AcDbEntity
  8
0
  6
ByBlock
 62
     0
370
    -2
100
AcDbLine
 10
258.9937265102
 20
180.78140454284
 30
0.0
 11
270.966734172966
 21
180.78140454284
 31
0.0
  0
LINE
  5
877
330
87D
100
AcDbEntity
  8
0
  6
ByBlock
 62
     0
370
    -2
100
AcDbLine
 10
258.9937265102
 20
160.78140454284
 30
0.0
 11
270.966734172966
 21
160.78140454284
 31
0.0
  0
LINE
  5
878
330
87D
100
AcDbEntity
  8
0
  6
ByBlock
 62
     0
370
    -2
100
AcDbLine
 10
269.966734172966
 20
177.78140454284
 30
0.0
 11
269.966734172966
 21
163.78140454284
 31
0.0
  0
INSERT
  5
879
330
87D
100
AcDbEntity
  8
0
  6
ByBlock
 62
   134
370
    -2
100
AcDbBlockReference
  2
KCAD_OPEN30
 10
269.966734172966
 20
180.78140454284
 30
0.0
 41
3.0
 42
3.0
 43
3.0
 50
90.0
  0
INSERT
  5
87A
330
87D
100
AcDbEntity
  8
0
  6
ByBlock
 62
   134
370
    -2
100
AcDbBlockReference
  2
KCAD_OPEN30
 10
269.966734172966
 20
160.78140454284
 30
0.0
 41
3.0
 42
3.0
 43
3.0
 50
270.0
  0
MTEXT
  5
87B
330
87D
100
AcDbEntity
  8
0
  6
ByBlock
 62
     0
370
    15
100
AcDbMText
 10
267.833434172966
 20
170.78140454284
 30
0.0
 40
3.2
 41
0.0
 71
     5
 72
     1
  1
20
  7
KCADDIMSTANDARD
 11
6.123031769111886E-17
 21
1.0
 31
0.0
 73
     1
 44
1.0
  0
ENDBLK
  5
A5C
330
87D
100
AcDbEntity
  8
0
100
AcDbBlockEnd
  0
ENDSEC
  0
SECTION
  2
ENTITIES
  0
TEXT
  5
2EF
330
1F
100
AcDbEntity
  8
0
  6
Continuous
 62
     7
370
    30
100
AcDbText
 10
359.5309999957042
 20
48.11500354019618
 30
0.0
 40
2.880000042915344
  1
Ａ４
 41
0.5748197425183692
  7
KCADTEXTSTANDARD
100
AcDbText
1001
Sigma
1000

  0
POINT
  5
2F2
330
1F
100
AcDbEntity
  8
1
  6
Continuous
 62
     7
370
    15
100
AcDbPoint
 10
354.629
 20
43.500003561653
 30
0.0
1001
Sigma
1000

  0
POINT
  5
2F4
330
1F
100
AcDbEntity
  8
1
  6
Continuous
 62
     7
370
    15
100
AcDbPoint
 10
57.629
 20
253.4999964389
 30
0.0
1001
Sigma
1000

  0
LINE
  5
2F6
330
1F
100
AcDbEntity
  8
DEFPOINTS
  6
HIDDEN
 62
   253
370
    15
100
AcDbLine
 10
354.629
 20
253.4999964389
 30
0.0
 11
354.629
 21
43.500003561653
 31
0.0
1001
Sigma
1000

  0
LINE
  5
2F8
330
1F
100
AcDbEntity
  8
DEFPOINTS
  6
HIDDEN
 62
   253
370
    15
100
AcDbLine
 10
57.629
 20
43.500003561653
 30
0.0
 11
354.629
 21
43.500003561653
 31
0.0
1001
Sigma
1000

  0
LINE
  5
2FA
330
1F
100
AcDbEntity
  8
DEFPOINTS
  6
HIDDEN
 62
   253
370
    15
100
AcDbLine
 10
57.629
 20
253.4999964389
 30
0.0
 11
57.629
 21
43.500003561653
 31
0.0
1001
Sigma
1000

  0
LINE
  5
2FC
330
1F
100
AcDbEntity
  8
DEFPOINTS
  6
HIDDEN
 62
   253
370
    15
100
AcDbLine
 10
57.629
 20
253.4999964389
 30
0.0
 11
354.629
 21
253.4999964389
 31
0.0
1001
Sigma
1000

  0
LINE
  5
2FE
330
1F
100
AcDbEntity
  8
1
  6
Continuous
 62
     7
370
    30
100
AcDbLine
 10
339.629
 20
238.4999964389
 30
0.0
 11
339.629
 21
58.500003114619
 31
0.0
1001
Sigma
1000

  0
LINE
  5
300
330
1F
100
AcDbEntity
  8
1
  6
Continuous
 62
     7
370
    30
100
AcDbLine
 10
72.629
 20
238.4999964389
 30
0.0
 11
72.629
 21
58.500003114619
 31
0.0
1001
Sigma
1000

  0
LINE
  5
302
330
1F
100
AcDbEntity
  8
1
  6
Continuous
 62
     7
370
    30
100
AcDbLine
 10
72.629
 20
58.500003114619
 30
0.0
 11
339.629
 21
58.500003114619
 31
0.0
1001
Sigma
1000

  0
LINE
  5
304
330
1F
100
AcDbEntity
  8
1
  6
Continuous
 62
     7
370
    30
100
AcDbLine
 10
339.629
 20
238.4999964389
 30
0.0
 11
72.629
 21
238.4999964389
 31
0.0
1001
Sigma
1000

  0
LINE
  5
307
330
1F
100
AcDbEntity
  8
99
  6
Continuous
 62
     7
370
    30
100
AcDbLine
 10
149.6289999999999
 20
106.00000311462
 30
0.0
 11
339.629
 21
106.00000311462
 31
0.0
1001
Sigma
1000

  0
LINE
  5
309
330
1F
100
AcDbEntity
  8
99
  6
Continuous
 62
     7
370
    30
100
AcDbLine
 10
278.629
 20
58.500003114619
 30
0.0
 11
278.629
 21
106.00000311462
 31
0.0
1001
Sigma
1000

  0
LINE
  5
30B
330
1F
100
AcDbEntity
  8
99
  6
Continuous
 62
     7
370
    30
100
AcDbLine
 10
218.629
 20
78.500003114619
 30
0.0
 11
339.629
 21
78.500003114619
 31
0.0
1001
Sigma
1000

  0
LINE
  5
30D
330
1F
100
AcDbEntity
  8
99
  6
Continuous
 62
     7
370
    30
100
AcDbLine
 10
263.629
 20
58.500003114619
 30
0.0
 11
263.629
 21
78.500003114619
 31
0.0
1001
Sigma
1000

  0
LINE
  5
30F
330
1F
100
AcDbEntity
  8
99
  6
Continuous
 62
     7
370
    30
100
AcDbLine
 10
248.6289999999999
 20
58.500003114619
 30
0.0
 11
248.6289999999999
 21
78.500003114619
 31
0.0
1001
Sigma
1000

  0
LINE
  5
311
330
1F
100
AcDbEntity
  8
99
  6
Continuous
 62
     7
370
    30
100
AcDbLine
 10
233.6289999999999
 20
58.500003114619
 30
0.0
 11
233.6289999999999
 21
106.00000311462
 31
0.0
1001
Sigma
1000

  0
LINE
  5
313
330
1F
100
AcDbEntity
  8
99
  6
Continuous
 62
     7
370
    30
100
AcDbLine
 10
218.629
 20
58.500003114619
 30
0.0
 11
218.629
 21
106.00000311462
 31
0.0
1001
Sigma
1000

  0
LINE
  5
315
330
1F
100
AcDbEntity
  8
99
  6
Continuous
 62
     7
370
    15
100
AcDbLine
 10
149.6289999999999
 20
63.500003114619
 30
0.0
 11
218.629
 21
63.500003114619
 31
0.0
1001
Sigma
1000

  0
LINE
  5
317
330
1F
100
AcDbEntity
  8
99
  6
Continuous
 62
     7
370
    15
100
AcDbLine
 10
149.6289999999999
 20
68.500003114619
 30
0.0
 11
218.629
 21
68.500003114619
 31
0.0
1001
Sigma
1000

  0
LINE
  5
319
330
1F
100
AcDbEntity
  8
99
  6
Continuous
 62
     7
370
    15
100
AcDbLine
 10
149.6289999999999
 20
73.500003114619
 30
0.0
 11
278.629
 21
73.500003114619
 31
0.0
1001
Sigma
1000

  0
LINE
  5
31B
330
1F
100
AcDbEntity
  8
99
  6
Continuous
 62
     7
370
    15
100
AcDbLine
 10
149.6289999999999
 20
78.500003114619
 30
0.0
 11
218.629
 21
78.500003114619
 31
0.0
1001
Sigma
1000

  0
LINE
  5
31D
330
1F
100
AcDbEntity
  8
99
  6
Continuous
 62
     7
370
    15
100
AcDbLine
 10
149.6289999999999
 20
83.500003114619
 30
0.0
 11
218.629
 21
83.500003114619
 31
0.0
1001
Sigma
1000

  0
LINE
  5
31F
330
1F
100
AcDbEntity
  8
99
  6
Continuous
 62
     7
370
    15
100
AcDbLine
 10
170.6289999999999
 20
58.500003114619
 30
0.0
 11
170.6289999999999
 21
93.500003114619
 31
0.0
1001
Sigma
1000

  0
LINE
  5
321
330
1F
100
AcDbEntity
  8
99
  6
Continuous
 62
     7
370
    15
100
AcDbLine
 10
181.629
 20
58.500003114619
 30
0.0
 11
181.629
 21
93.500003114619
 31
0.0
1001
Sigma
1000

  0
LINE
  5
323
330
1F
100
AcDbEntity
  8
99
  6
Continuous
 62
     7
370
    15
100
AcDbLine
 10
283.629
 20
58.500003114619
 30
0.0
 11
283.629
 21
93.500003114619
 31
0.0
1001
Sigma
1000

  0
LINE
  5
325
330
1F
100
AcDbEntity
  8
99
  6
Continuous
 62
     7
370
    30
100
AcDbLine
 10
278.629
 20
68.500003114619
 30
0.0
 11
339.629
 21
68.500003114619
 31
0.0
1001
Sigma
1000

  0
TEXT
  5
327
330
1F
100
AcDbEntity
  8
99
  6
Continuous
 62
     7
370
    30
100
AcDbText
 10
279.35891426151
 20
75.38555495221901
 30
0.0
 40
2.7
  1
製
 41
1.266666666666666
  7
KCADTEXTSTANDARD
100
AcDbText
1001
Sigma
1000

  0
TEXT
  5
329
330
1F
100
AcDbEntity
  8
99
  6
Continuous
 62
     7
370
    30
100
AcDbText
 10
232.8539999999999
 20
87.725003114619
 30
0.0
 40
4.049999999999999
  1
 三角法
 41
0.7916666674531168
  7
KCADTEXTSTANDARD
100
AcDbText
1001
Sigma
1000

  0
TEXT
  5
32B
330
1F
100
AcDbEntity
  8
99
  6
Continuous
 62
     7
370
    30
100
AcDbText
 10
279.35891426151
 20
72.285554952219
 30
0.0
 40
2.7
  1
品
 41
1.266666666666666
  7
KCADTEXTSTANDARD
100
AcDbText
1001
Sigma
1000

  0
LINE
  5
32D
330
1F
100
AcDbEntity
  8
99
  6
Continuous
 62
     7
370
    15
100
AcDbLine
 10
153.7611941526999
 20
64.20047596911898
 30
0.0
 11
150.5611941527
 21
64.20047596911898
 31
0.0
1001
Sigma
1000

  0
TEXT
  5
32F
330
1F
100
AcDbEntity
  8
99
  6
Continuous
 62
     7
370
    30
100
AcDbText
 10
279.35891426151
 20
69.18555495221901
 30
0.0
 40
2.7
  1
名
 41
1.266666666666666
  7
KCADTEXTSTANDARD
100
AcDbText
1001
Sigma
1000

  0
TEXT
  5
331
330
1F
100
AcDbEntity
  8
99
  6
Continuous
 62
     7
370
    30
100
AcDbText
 10
218.4768682171
 20
74.301069357819
 30
0.0
 40
3.6
  1
 設計  製図  検図  承認
 41
1.147916666666666
  7
KCADTEXTSTANDARD
100
AcDbText
1001
Sigma
1000

  0
TEXT
  5
333
330
1F
100
AcDbEntity
  8
99
  6
Continuous
 62
     7
370
    30
100
AcDbText
 10
154.1362889221
 20
59.303358554919
 30
0.0
 40
3.6
  1
 年月日   担当   訂 正 記 事
 41
0.8102941176470586
  7
KCADTEXTSTANDARD
100
AcDbText
1001
Sigma
1000

  0
TEXT
  5
335
330
1F
100
AcDbEntity
  8
99
  6
Continuous
 62
     7
370
    30
100
AcDbText
 10
150.3329062499999
 20
59.469758551819
 30
0.0
 40
3.6
  1
符号
 41
0.4987500003539026
  7
KCADTEXTSTANDARD
100
AcDbText
1001
Sigma
1000

  0
LINE
  5
337
330
1F
100
AcDbEntity
  8
99
  6
Continuous
 62
     7
370
    15
100
AcDbLine
 10
153.7611941526999
 20
84.20047596911898
 30
0.0
 11
150.5611941527
 21
84.20047596911898
 31
0.0
1001
Sigma
1000

  0
LINE
  5
339
330
1F
100
AcDbEntity
  8
99
  6
Continuous
 62
     7
370
    15
100
AcDbLine
 10
152.1611941527
 20
87.664577584319
 30
0.0
 11
153.7611941526999
 21
84.20047596911898
 31
0.0
1001
Sigma
1000

  0
TEXT
  5
33B
330
1F
100
AcDbEntity
  8
99
  6
Continuous
 62
     7
370
    15
100
AcDbText
 10
151.7631035374274
 20
84.78678088934616
 30
0.0
 40
2.082815953445434
  1
5
 41
0.577433628318584
  7
KCADTEXTSTANDARD
100
AcDbText
1001
Sigma
1000

  0
LINE
  5
33D
330
1F
100
AcDbEntity
  8
99
  6
Continuous
 62
     7
370
    15
100
AcDbLine
 10
150.5611941527
 20
84.20047596911898
 30
0.0
 11
152.1611941527
 21
87.664577584319
 31
0.0
1001
Sigma
1000

  0
LINE
  5
33F
330
1F
100
AcDbEntity
  8
99
  6
Continuous
 62
     7
370
    15
100
AcDbLine
 10
153.7611941526999
 20
79.20047596911898
 30
0.0
 11
150.5611941527
 21
79.20047596911898
 31
0.0
1001
Sigma
1000

  0
LINE
  5
341
330
1F
100
AcDbEntity
  8
99
  6
Continuous
 62
     7
370
    15
100
AcDbLine
 10
152.1611941527
 20
82.664577584319
 30
0.0
 11
153.7611941526999
 21
79.20047596911898
 31
0.0
1001
Sigma
1000

  0
TEXT
  5
343
330
1F
100
AcDbEntity
  8
99
  6
Continuous
 62
     7
370
    15
100
AcDbText
 10
151.7631035374274
 20
79.78678088934616
 30
0.0
 40
2.082815953445434
  1
4
 41
0.577433628318584
  7
KCADTEXTSTANDARD
100
AcDbText
1001
Sigma
1000

  0
LINE
  5
345
330
1F
100
AcDbEntity
  8
99
  6
Continuous
 62
     7
370
    15
100
AcDbLine
 10
150.5611941527
 20
79.20047596911898
 30
0.0
 11
152.1611941527
 21
82.664577584319
 31
0.0
1001
Sigma
1000

  0
LINE
  5
347
330
1F
100
AcDbEntity
  8
99
  6
Continuous
 62
     7
370
    15
100
AcDbLine
 10
153.7611941526999
 20
74.20047596911898
 30
0.0
 11
150.5611941527
 21
74.20047596911898
 31
0.0
1001
Sigma
1000

  0
LINE
  5
349
330
1F
100
AcDbEntity
  8
99
  6
Continuous
 62
     7
370
    15
100
AcDbLine
 10
152.1611941527
 20
77.664577584319
 30
0.0
 11
153.7611941526999
 21
74.20047596911898
 31
0.0
1001
Sigma
1000

  0
TEXT
  5
34B
330
1F
100
AcDbEntity
  8
99
  6
Continuous
 62
     7
370
    15
100
AcDbText
 10
151.7631035374274
 20
74.78678088934616
 30
0.0
 40
2.082815953445434
  1
3
 41
0.577433628318584
  7
KCADTEXTSTANDARD
100
AcDbText
1001
Sigma
1000

  0
LINE
  5
34D
330
1F
100
AcDbEntity
  8
99
  6
Continuous
 62
     7
370
    15
100
AcDbLine
 10
152.1611941527
 20
67.664577584319
 30
0.0
 11
153.7611941526999
 21
64.20047596911898
 31
0.0
1001
Sigma
1000

  0
LINE
  5
34F
330
1F
100
AcDbEntity
  8
99
  6
Continuous
 62
     7
370
    15
100
AcDbLine
 10
150.5611941527
 20
64.20047596911898
 30
0.0
 11
152.1611941527
 21
67.664577584319
 31
0.0
1001
Sigma
1000

  0
LINE
  5
351
330
1F
100
AcDbEntity
  8
99
  6
Continuous
 62
     7
370
    15
100
AcDbLine
 10
150.5611941527
 20
74.20047596911898
 30
0.0
 11
152.1611941527
 21
77.664577584319
 31
0.0
1001
Sigma
1000

  0
TEXT
  5
353
330
1F
100
AcDbEntity
  8
99
  6
Continuous
 62
     7
370
    15
100
AcDbText
 10
151.7631035374274
 20
69.78678088934616
 30
0.0
 40
2.082815953445434
  1
2
 41
0.577433628318584
  7
KCADTEXTSTANDARD
100
AcDbText
1001
Sigma
1000

  0
LINE
  5
355
330
1F
100
AcDbEntity
  8
99
  6
Continuous
 62
     7
370
    15
100
AcDbLine
 10
153.7611941526999
 20
69.20047596911898
 30
0.0
 11
150.5611941527
 21
69.20047596911898
 31
0.0
1001
Sigma
1000

  0
LINE
  5
357
330
1F
100
AcDbEntity
  8
99
  6
Continuous
 62
     7
370
    15
100
AcDbLine
 10
152.1611941527
 20
72.664577584319
 30
0.0
 11
153.7611941526999
 21
69.20047596911898
 31
0.0
1001
Sigma
1000

  0
LINE
  5
359
330
1F
100
AcDbEntity
  8
99
  6
Continuous
 62
     7
370
    15
100
AcDbLine
 10
150.5611941527
 20
69.20047596911898
 30
0.0
 11
152.1611941527
 21
72.664577584319
 31
0.0
1001
Sigma
1000

  0
TEXT
  5
35B
330
1F
100
AcDbEntity
  8
99
  6
Continuous
 62
     7
370
    15
100
AcDbText
 10
151.7631035374274
 20
64.78678088934616
 30
0.0
 40
2.082815953445434
  1
1
 41
0.577433628318584
  7
KCADTEXTSTANDARD
100
AcDbText
1001
Sigma
1000

  0
TEXT
  5
35D
330
1F
100
AcDbEntity
  8
99
  6
Continuous
 62
     7
370
    30
100
AcDbText
 10
279.3469140596299
 20
79.26187357741901
 30
0.0
 40
2.7
  1
差
 41
1.266666666666666
  7
KCADTEXTSTANDARD
100
AcDbText
1001
Sigma
1000

  0
TEXT
  5
35F
330
1F
100
AcDbEntity
  8
99
  6
Continuous
 62
     7
370
    30
100
AcDbText
 10
279.3469140596299
 20
82.76187357741902
 30
0.0
 40
2.7
  1
公
 41
1.266666666666666
  7
KCADTEXTSTANDARD
100
AcDbText
1001
Sigma
1000

  0
TEXT
  5
361
330
1F
100
AcDbEntity
  8
99
  6
Continuous
 62
     7
370
    30
100
AcDbText
 10
249.4469140834418
 20
90.26187357741902
 30
0.0
 40
2.7
  1
面
 41
1.203333318233489
  7
KCADTEXTSTANDARD
100
AcDbText
1001
Sigma
1000

  0
TEXT
  5
363
330
1F
100
AcDbEntity
  8
99
  6
Continuous
 62
     7
370
    30
100
AcDbText
 10
279.3469140596299
 20
86.761873577419
 30
0.0
 40
2.7
  1
上
 41
1.266666666666666
  7
KCADTEXTSTANDARD
100
AcDbText
1001
Sigma
1000

  0
TEXT
  5
365
330
1F
100
AcDbEntity
  8
99
  6
Continuous
 62
     7
370
    30
100
AcDbText
 10
279.3469140596299
 20
90.26187357741902
 30
0.0
 40
2.7
  1
仕
 41
1.266666666666666
  7
KCADTEXTSTANDARD
100
AcDbText
1001
Sigma
1000

  0
LINE
  5
367
330
1F
100
AcDbEntity
  8
99
  6
Continuous
 62
     7
370
    30
100
AcDbLine
 10
170.6289999999999
 20
93.500003114619
 30
0.0
 11
170.6289999999999
 21
106.00000311462
 31
0.0
1001
Sigma
1000

  0
TEXT
  5
369
330
1F
100
AcDbEntity
  8
99
  6
Continuous
 62
     7
370
    30
100
AcDbText
 10
279.279
 20
64.65000311461901
 30
0.0
 40
2.7
  1
図
 41
1.266666666666666
  7
KCADTEXTSTANDARD
100
AcDbText
1001
Sigma
1000

  0
TEXT
  5
36B
330
1F
100
AcDbEntity
  8
99
  6
Continuous
 62
     7
370
    30
100
AcDbText
 10
279.279
 20
60.150003114619
 30
0.0
 40
2.7
  1
番
 41
1.266666666666666
  7
KCADTEXTSTANDARD
100
AcDbText
1001
Sigma
1000

  0
LINE
  5
36D
330
1F
100
AcDbEntity
  8
99
  6
Continuous
 62
     7
370
    15
100
AcDbLine
 10
149.6289999999999
 20
98.500003114619
 30
0.0
 11
339.629
 21
98.500003114619
 31
0.0
1001
Sigma
1000

  0
LINE
  5
36F
330
1F
100
AcDbEntity
  8
99
  6
Continuous
 62
     7
370
    15
100
AcDbLine
 10
253.629
 20
93.500003114619
 30
0.0
 11
253.629
 21
86.000003114619
 31
0.0
1001
Sigma
1000

  0
TEXT
  5
371
330
1F
100
AcDbEntity
  8
99
  6
Continuous
 62
     7
370
    30
100
AcDbText
 10
221.0208918919
 20
89.402135601019
 30
0.0
 40
3.6
  1
尺度
 41
1.1875
  7
KCADTEXTSTANDARD
100
AcDbText
1001
Sigma
1000

  0
LINE
  5
373
330
1F
100
AcDbEntity
  8
99
  6
Continuous
 62
     7
370
    15
100
AcDbLine
 10
150.5611941527
 20
89.20047596911898
 30
0.0
 11
152.1611941527
 21
92.664577584289
 31
0.0
1001
Sigma
1000

  0
TEXT
  5
375
330
1F
100
AcDbEntity
  8
99
  6
Continuous
 62
     7
370
    15
100
AcDbText
 10
151.7631035374274
 20
89.78678088934616
 30
0.0
 40
2.082815953445434
  1
6
 41
0.577433628318584
  7
KCADTEXTSTANDARD
100
AcDbText
1001
Sigma
1000

  0
LINE
  5
377
330
1F
100
AcDbEntity
  8
99
  6
Continuous
 62
     7
370
    15
100
AcDbLine
 10
152.1611941527
 20
92.664577584289
 30
0.0
 11
153.7611941526999
 21
89.20047596911898
 31
0.0
1001
Sigma
1000

  0
LINE
  5
379
330
1F
100
AcDbEntity
  8
99
  6
Continuous
 62
     7
370
    15
100
AcDbLine
 10
153.7611941526999
 20
89.20047596911898
 30
0.0
 11
150.5611941527
 21
89.20047596911898
 31
0.0
1001
Sigma
1000

  0
LINE
  5
37B
330
1F
100
AcDbEntity
  8
99
  6
Continuous
 62
     7
370
    30
100
AcDbLine
 10
248.6289999999999
 20
86.000003114619
 30
0.0
 11
248.6289999999999
 21
93.500003114619
 31
0.0
1001
Sigma
1000

  0
LINE
  5
37D
330
1F
100
AcDbEntity
  8
99
  6
Continuous
 62
     7
370
    30
100
AcDbLine
 10
149.6289999999999
 20
93.500003114619
 30
0.0
 11
339.629
 21
93.500003114619
 31
0.0
1001
Sigma
1000

  0
LINE
  5
37F
330
1F
100
AcDbEntity
  8
99
  6
Continuous
 62
     7
370
    15
100
AcDbLine
 10
149.6289999999999
 20
88.500003114619
 30
0.0
 11
233.6289999999999
 21
88.500003114619
 31
0.0
1001
Sigma
1000

  0
LINE
  5
381
330
1F
100
AcDbEntity
  8
99
  6
Continuous
 62
     7
370
    15
100
AcDbLine
 10
154.6289999999999
 20
58.500003114619
 30
0.0
 11
154.6289999999999
 21
93.500003114619
 31
0.0
1001
Sigma
1000

  0
TEXT
  5
383
330
1F
100
AcDbEntity
  8
99
  6
Continuous
 62
     7
370
    30
100
AcDbText
 10
151.4636979441999
 20
94.20473821951899
 30
0.0
 40
3.6
  1
部品番号     部   品   名
 41
0.7659374981911647
  7
KCADTEXTSTANDARD
100
AcDbText
1001
Sigma
1000

  0
TEXT
  5
385
330
1F
100
AcDbEntity
  8
99
  6
Continuous
 62
     7
370
    30
100
AcDbText
 10
221.0208918919
 20
94.502135601009
 30
0.0
 40
3.6
  1
個数
 41
1.1875
  7
KCADTEXTSTANDARD
100
AcDbText
1001
Sigma
1000

  0
TEXT
  5
387
330
1F
100
AcDbEntity
  8
99
  6
Continuous
 62
     7
370
    30
100
AcDbText
 10
242.4768682170999
 20
94.50106935780899
 30
0.0
 40
3.6
  1
材       質                   表  面  処  理
 41
0.6678663776994779
  7
KCADTEXTSTANDARD
100
AcDbText
1001
Sigma
1000

  0
LINE
  5
389
330
1F
100
AcDbEntity
  8
99
  6
Continuous
 62
     7
370
    30
100
AcDbLine
 10
149.6289999999999
 20
106.00000311462
 30
0.0
 11
149.6289999999999
 21
58.500003114619
 31
0.0
1001
Sigma
1000

  0
TEXT
  5
38B
330
1F
100
AcDbEntity
  8
99
  6
Continuous
 62
     7
370
    30
100
AcDbText
 10
221.2634239355
 20
81.769784916019
 30
0.0
 40
4.067999999999999
  1
1/1
 41
1.222959685349064
  7
KCADTEXTSTANDARD
100
AcDbText
1001
Sigma
1000

  0
TEXT
  5
38E
330
1F
100
AcDbEntity
  8
2
  6
Continuous
 62
     7
370
    30
100
AcDbText
 10
187.9222438609576
 20
100.7119755246676
 30
0.0
 40
3.307499957084655
  1
組立図
 41
0.9771428572895999
  7
KCADTEXTSTANDARD
100
AcDbText
1001
Sigma
1000

  0
TEXT
  5
390
330
1F
100
AcDbEntity
  8
2
  6
Continuous
 62
     7
370
    30
100
AcDbText
 10
155.5158830282999
 20
101.2188945680499
 30
0.0
 40
2.3625
  1
１００
 41
1.007904760610489
  7
KCADTEXTSTANDARD
100
AcDbText
1001
Sigma
1000

  0
TEXT
  5
392
330
1F
100
AcDbEntity
  8
99
  6
Continuous
 62
     7
370
    30
100
AcDbText
 10
295.60440573543
 20
99.53250183024
 30
0.0
 40
4.5
  1
梨地黒アルマイト
 41
0.653125
  7
KCADTEXTSTANDARD
100
AcDbText
1001
Sigma
1000

  0
LINE
  5
394
330
1F
100
AcDbEntity
  8
99
  6
Continuous
 62
     7
370
    30
100
AcDbLine
 10
233.6289999999999
 20
86.000003114619
 30
0.0
 11
339.629
 21
86.000003114619
 31
0.0
1001
Sigma
1000

  0
TEXT
  5
396
330
1F
100
AcDbEntity
  8
1
  6
Continuous
 62
     7
370
    30
100
AcDbText
 10
237.1672763938153
 20
80.78111507325035
 30
0.0
 40
3.239999914169311
  1
２００１年０４月２５日
 41
0.9559974749957229
  7
KCADTEXTSTANDARD
100
AcDbText
1001
Sigma
1000

  0
TEXT
  5
398
330
1F
100
AcDbEntity
  8
0
  6
Continuous
 62
     7
370
    30
100
AcDbText
 10
291.36252117198
 20
71.67434133227898
 30
0.0
 40
4.5
  1
ＫＣＭ－８ＤＭ（１５．５）
 41
0.587538461799805
  7
KCADTEXTSTANDARD
100
AcDbText
1001
Sigma
1000

  0
TEXT
  5
39A
330
1F
100
AcDbEntity
  8
0
  6
Continuous
 62
     7
370
    30
100
AcDbText
 10
294.9662968745899
 20
61.436285823053
 30
0.0
 40
5.85
  1
TSTM-143
 41
0.6485576923076924
  7
KCADTEXTSTANDARD
100
AcDbText
1001
Sigma
1000

  0
LINE
  5
39E
102
{ACAD_REACTORS
330
39C
102
}
330
1F
100
AcDbEntity
  8
7
  6
Continuous
 62
     7
370
    15
100
AcDbLine
 10
211.8849256700999
 20
162.78140454284
 30
0.0
 11
214.8849256700999
 21
159.78140454284
 31
0.0
1001
Sigma
1000

  0
LINE
  5
3A0
102
{ACAD_REACTORS
330
39C
102
}
330
1F
100
AcDbEntity
  8
7
  6
Continuous
 62
     7
370
    15
100
AcDbLine
 10
217.8849256701
 20
162.78140454284
 30
0.0
 11
214.8849256700999
 21
159.78140454284
 31
0.0
1001
Sigma
1000

  0
LINE
  5
3A2
102
{ACAD_REACTORS
330
39C
102
}
330
1F
100
AcDbEntity
  8
7
  6
Continuous
 62
     7
370
    15
100
AcDbLine
 10
214.8849256700999
 20
159.78140454284
 30
0.0
 11
214.8849256700999
 21
155.8231370942299
 31
0.0
1001
Sigma
1000

  0
LINE
  5
3A4
102
{ACAD_REACTORS
330
39C
102
}
330
1F
100
AcDbEntity
  8
7
  6
Continuous
 62
     7
370
    15
100
AcDbLine
 10
214.8849256700999
 20
155.8231370942299
 30
0.0
 11
216.86046659202
 21
155.8231370942299
 31
0.0
1001
Sigma
1000

  0
TEXT
  5
3A6
102
{ACAD_REACTORS
330
39C
102
}
330
1F
100
AcDbEntity
  8
7
  6
Continuous
 62
     7
370
    30
100
AcDbText
 10
219.4204665705541
 20
154.3831370727741
 30
0.0
 40
2.880000042915344
  1
Ａ
 41
0.95
  7
KCADTEXTSTANDARD
100
AcDbText
1001
Sigma
1000

  0
LINE
  5
3A8
102
{ACAD_REACTORS
330
39C
102
}
330
1F
100
AcDbEntity
  8
7
  6
Continuous
 62
     7
370
    30
100
AcDbLine
 10
216.86046659202
 20
159.8231370942299
 30
0.0
 11
224.86046659202
 21
159.8231370942299
 31
0.0
1001
Sigma
1000

  0
LINE
  5
3AA
102
{ACAD_REACTORS
330
39C
102
}
330
1F
100
AcDbEntity
  8
7
  6
Continuous
 62
     7
370
    30
100
AcDbLine
 10
224.86046659202
 20
159.8231370942299
 30
0.0
 11
224.86046659202
 21
151.8231370942299
 31
0.0
1001
Sigma
1000

  0
LINE
  5
3AC
102
{ACAD_REACTORS
330
39C
102
}
330
1F
100
AcDbEntity
  8
7
  6
Continuous
 62
     7
370
    30
100
AcDbLine
 10
224.86046659202
 20
151.8231370942299
 30
0.0
 11
216.86046659202
 21
151.8231370942299
 31
0.0
1001
Sigma
1000

  0
LINE
  5
3AE
102
{ACAD_REACTORS
330
39C
102
}
330
1F
100
AcDbEntity
  8
7
  6
Continuous
 62
     7
370
    30
100
AcDbLine
 10
216.86046659202
 20
151.8231370942299
 30
0.0
 11
216.86046659202
 21
159.8231370942299
 31
0.0
1001
Sigma
1000

  0
LINE
  5
3B1
102
{ACAD_REACTORS
330
3B0
102
}
330
1F
100
AcDbEntity
  8
7
  6
Continuous
 62
     7
370
    15
100
AcDbLine
 10
173.62328571454
 20
162.78140454284
 30
0.0
 11
172.9762381017899
 21
160.3665899771199
 31
0.0
1001
Sigma
1000

  0
LINE
  5
3B3
102
{ACAD_REACTORS
330
3B0
102
}
330
1F
100
AcDbEntity
  8
7
  6
Continuous
 62
     7
370
    15
100
AcDbLine
 10
173.62328571454
 20
162.78140454284
 30
0.0
 11
174.2703333272999
 21
160.3665899771199
 31
0.0
1001
Sigma
1000

  0
LINE
  5
3B5
102
{ACAD_REACTORS
330
3B0
102
}
330
1F
100
AcDbEntity
  8
7
  6
Continuous
 62
     7
370
    15
100
AcDbLine
 10
173.62328571454
 20
162.78140454284
 30
0.0
 11
173.62328571454
 21
155.6271263933799
 31
0.0
1001
Sigma
1000

  0
LINE
  5
3B7
102
{ACAD_REACTORS
330
3B0
102
}
330
1F
100
AcDbEntity
  8
7
  6
Continuous
 62
     7
370
    15
100
AcDbLine
 10
173.62328571454
 20
155.6271263933799
 30
0.0
 11
176.98170528181
 21
155.6271263933799
 31
0.0
1001
Sigma
1000

  0
LINE
  5
3B9
102
{ACAD_REACTORS
330
3B0
102
}
330
1F
100
AcDbEntity
  8
7
  6
Continuous
 62
     7
370
    15
100
AcDbLine
 10
176.98170528181
 20
155.6271263933799
 30
0.0
 11
180.53767894126
 21
155.6271263933799
 31
0.0
1001
Sigma
1000

  0
LINE
  5
3BB
102
{ACAD_REACTORS
330
3B0
102
}
330
1F
100
AcDbEntity
  8
7
  6
Continuous
 62
     7
370
    30
100
AcDbLine
 10
180.53767894126
 20
159.6271263933799
 30
0.0
 11
188.53767894126
 21
159.6271263933799
 31
0.0
1001
Sigma
1000

  0
LINE
  5
3BD
102
{ACAD_REACTORS
330
3B0
102
}
330
1F
100
AcDbEntity
  8
7
  6
Continuous
 62
     7
370
    30
100
AcDbLine
 10
188.53767894126
 20
159.6271263933799
 30
0.0
 11
188.53767894126
 21
151.62712639338
 31
0.0
1001
Sigma
1000

  0
LINE
  5
3BF
102
{ACAD_REACTORS
330
3B0
102
}
330
1F
100
AcDbEntity
  8
7
  6
Continuous
 62
     7
370
    30
100
AcDbLine
 10
188.53767894126
 20
151.62712639338
 30
0.0
 11
180.53767894126
 21
151.62712639338
 31
0.0
1001
Sigma
1000

  0
LINE
  5
3C1
102
{ACAD_REACTORS
330
3B0
102
}
330
1F
100
AcDbEntity
  8
7
  6
Continuous
 62
     7
370
    30
100
AcDbLine
 10
180.53767894126
 20
151.62712639338
 30
0.0
 11
180.53767894126
 21
159.6271263933799
 31
0.0
1001
Sigma
1000

  0
CIRCLE
  5
3C3
102
{ACAD_REACTORS
330
3B0
102
}
330
1F
100
AcDbEntity
  8
7
  6
Continuous
 62
     7
370
    30
100
AcDbCircle
 10
184.53767894126
 20
155.6271263933799
 30
0.0
 40
2.56
1001
Sigma
1000

  0
CIRCLE
  5
3C5
102
{ACAD_REACTORS
330
3B0
102
}
330
1F
100
AcDbEntity
  8
7
  6
Continuous
 62
     7
370
    30
100
AcDbCircle
 10
184.53767894126
 20
155.6271263933799
 30
0.0
 40
1.28
1001
Sigma
1000

  0
TEXT
  5
3C7
102
{ACAD_REACTORS
330
3B0
102
}
330
1F
100
AcDbEntity
  8
7
  6
Continuous
 62
     7
370
    30
100
AcDbText
 10
190.3936788715047
 20
154.5071263766925
 30
0.0
 40
2.603520038795471
  1
0.02
 41
0.92380445490183
  7
KCADTEXTSTANDARD
100
AcDbText
1001
Sigma
1000

  0
LINE
  5
3C9
102
{ACAD_REACTORS
330
3B0
102
}
330
1F
100
AcDbEntity
  8
7
  6
Continuous
 62
     7
370
    30
100
AcDbLine
 10
188.53767894126
 20
159.6271263933799
 30
0.0
 11
198.82339340254
 21
159.6271263933799
 31
0.0
1001
Sigma
1000

  0
LINE
  5
3CB
102
{ACAD_REACTORS
330
3B0
102
}
330
1F
100
AcDbEntity
  8
7
  6
Continuous
 62
     7
370
    30
100
AcDbLine
 10
198.82339340254
 20
159.6271263933799
 30
0.0
 11
198.82339340254
 21
151.62712639338
 31
0.0
1001
Sigma
1000

  0
LINE
  5
3CD
102
{ACAD_REACTORS
330
3B0
102
}
330
1F
100
AcDbEntity
  8
7
  6
Continuous
 62
     7
370
    30
100
AcDbLine
 10
198.82339340254
 20
151.62712639338
 30
0.0
 11
188.53767894126
 21
151.62712639338
 31
0.0
1001
Sigma
1000

  0
TEXT
  5
3CF
102
{ACAD_REACTORS
330
3B0
102
}
330
1F
100
AcDbEntity
  8
7
  6
Continuous
 62
     7
370
    30
100
AcDbText
 10
201.3833933810841
 20
154.1871263719241
 30
0.0
 40
2.880000042915344
  1
Ａ
 41
0.95
  7
KCADTEXTSTANDARD
100
AcDbText
1001
Sigma
1000

  0
LINE
  5
3D1
102
{ACAD_REACTORS
330
3B0
102
}
330
1F
100
AcDbEntity
  8
7
  6
Continuous
 62
     7
370
    30
100
AcDbLine
 10
198.82339340254
 20
159.6271263933799
 30
0.0
 11
206.8233934025399
 21
159.6271263933799
 31
0.0
1001
Sigma
1000

  0
LINE
  5
3D3
102
{ACAD_REACTORS
330
3B0
102
}
330
1F
100
AcDbEntity
  8
7
  6
Continuous
 62
     7
370
    30
100
AcDbLine
 10
206.8233934025399
 20
159.6271263933799
 30
0.0
 11
206.8233934025399
 21
151.62712639338
 31
0.0
1001
Sigma
1000

  0
LINE
  5
3D5
102
{ACAD_REACTORS
330
3B0
102
}
330
1F
100
AcDbEntity
  8
7
  6
Continuous
 62
     7
370
    30
100
AcDbLine
 10
206.8233934025399
 20
151.62712639338
 30
0.0
 11
198.82339340254
 21
151.62712639338
 31
0.0
1001
Sigma
1000

  0
LINE
  5
3D7
330
1F
100
AcDbEntity
  8
0
  6
CENTER
 62
     7
370
    15
100
AcDbLine
 10
117.88535397963
 20
170.7814045428399
 30
0.0
 11
301.26389934149
 21
170.7814045428399
 31
0.0
1001
Sigma
1000

  0
LINE
  5
3DA
330
1F
100
AcDbEntity
  8
3
  6
Continuous
 62
     7
370
    30
100
AcDbLine
 10
84.827254411961
 20
171.7149324446
 30
0.0
 11
82.85171349004199
 21
169.73939152268
 31
0.0
1001
Sigma
1000

  0
LINE
  5
3DC
330
1F
100
AcDbEntity
  8
3
  6
Continuous
 62
     7
370
    30
100
AcDbLine
 10
82.96019860843498
 20
171.7149324446
 30
0.0
 11
84.93573953035398
 21
169.73939152268
 31
0.0
1001
Sigma
1000

  0
LINE
  5
3DE
330
1F
100
AcDbEntity
  8
7
  6
CENTER
 62
     7
370
    15
100
AcDbLine
 10
117.88535397963
 20
170.7814045428399
 30
0.0
 11
83.893726510199
 21
170.7814045428399
 31
0.0
1001
Sigma
1000

  0
LINE
  5
3E0
330
1F
100
AcDbEntity
  8
3
  6
Continuous
 62
     7
370
    30
100
AcDbLine
 10
284.35325441196
 20
171.7149324446
 30
0.0
 11
282.3777134900399
 21
169.73939152268
 31
0.0
1001
Sigma
1000

  0
LINE
  5
3E2
330
1F
100
AcDbEntity
  8
3
  6
Continuous
 62
     7
370
    30
100
AcDbLine
 10
282.48619860844
 20
171.7149324446
 30
0.0
 11
284.46173953036
 21
169.73939152268
 31
0.0
1001
Sigma
1000

  0
LINE
  5
3E4
330
1F
100
AcDbEntity
  8
2
  6
Continuous
 62
     7
370
    30
100
AcDbLine
 10
158.8937265101999
 20
162.78140454284
 30
0.0
 11
158.8937265101999
 21
178.7814045428399
 31
0.0
1001
Sigma
1000

  0
LINE
  5
3E6
330
1F
100
AcDbEntity
  8
7
  6
CENTER
 62
     7
370
    15
100
AcDbLine
 10
189.1937265102
 20
170.7814045428399
 30
0.0
 11
189.1937265102
 21
215.15949815856
 31
0.0
1001
Sigma
1000

  0
LINE
  5
3E8
330
1F
100
AcDbEntity
  8
7
  6
CENTER
 62
     7
370
    15
100
AcDbLine
 10
83.893726510199
 20
170.7814045428399
 30
0.0
 11
83.893726510199
 21
181.05518559206
 31
0.0
1001
Sigma
1000

  0
LINE
  5
3EA
330
1F
100
AcDbEntity
  8
7
  6
Continuous
 62
     7
370
    15
100
AcDbLine
 10
301.38667654727
 20
195.4680755303
 30
0.0
 11
327.8857552415299
 21
195.4680755303
 31
0.0
1001
Sigma
1000

  0
TEXT
  5
3EC
330
1F
100
AcDbEntity
  8
7
  6
Continuous
 62
     7
370
    15
100
AcDbText
 10
304.52552885206
 20
196.7546230373599
 30
0.0
 40
3.6
  1
親指マウント
 41
0.95
  7
KCADTEXTSTANDARD
100
AcDbText
1001
Sigma
1000

  0
LINE
  5
3EE
330
1F
100
AcDbEntity
  8
7
  6
Continuous
 62
     7
370
    15
100
AcDbLine
 10
83.893726510197
 20
170.7814045428399
 30
0.0
 11
83.893726510197
 21
146.7298393219699
 31
0.0
1001
Sigma
1000

  0
LINE
  5
3F0
330
1F
100
AcDbEntity
  8
7
  6
Continuous
 62
     7
370
    15
100
AcDbLine
 10
79.445466867678
 20
146.7298393219699
 30
0.0
 11
89.12561738508101
 21
146.7298393219699
 31
0.0
1001
Sigma
1000

  0
LINE
  5
3F2
330
1F
100
AcDbEntity
  8
7
  6
CENTER
 62
     7
370
    15
100
AcDbLine
 10
180.3129057199799
 20
197.4565736747599
 30
0.0
 11
201.79691324585
 21
197.4565736747599
 31
0.0
1001
Sigma
1000

  0
TEXT
  5
3F4
330
1F
100
AcDbEntity
  8
7
  6
Continuous
 62
     7
370
    15
100
AcDbText
 10
77.59607834463
 20
142.6474002695099
 30
0.0
 40
3.6
  1
物体面
 41
0.95
  7
KCADTEXTSTANDARD
100
AcDbText
1001
Sigma
1000

  0
LINE
  5
3F6
330
1F
100
AcDbEntity
  8
7
  6
Continuous
 62
     7
370
    15
100
AcDbLine
 10
278.97146686768
 20
146.7298393219699
 30
0.0
 11
288.6516173850799
 21
146.7298393219699
 31
0.0
1001
Sigma
1000

  0
TEXT
  5
3F8
330
1F
100
AcDbEntity
  8
7
  6
Continuous
 62
     7
370
    15
100
AcDbText
 10
277.1220783446299
 20
142.6474002695099
 30
0.0
 40
3.6
  1
結像面
 41
0.95
  7
KCADTEXTSTANDARD
100
AcDbText
1001
Sigma
1000

  0
LINE
  5
3FA
330
1F
100
AcDbEntity
  8
7
  6
Continuous
 62
     7
370
    15
100
AcDbLine
 10
283.4197265102
 20
170.7814045428399
 30
0.0
 11
283.4197265102
 21
146.7298393219699
 31
0.0
1001
Sigma
1000

  0
LINE
  5
3FC
330
1F
100
AcDbEntity
  8
2
  6
Continuous
 62
     7
370
    30
100
AcDbLine
 10
176.6937265102
 20
173.56528672426
 30
0.0
 11
176.6937265102
 21
181.3814045428399
 31
0.0
1001
Sigma
1000

  0
LINE
  5
3FE
330
1F
100
AcDbEntity
  8
2
  6
Continuous
 62
     7
370
    30
100
AcDbLine
 10
201.6937265102
 20
173.56528672426
 30
0.0
 11
201.6937265102
 21
181.3814045428399
 31
0.0
1001
Sigma
1000

  0
LINE
  5
400
330
1F
100
AcDbEntity
  8
2
  6
Continuous
 62
     7
370
    30
100
AcDbLine
 10
176.6937265102
 20
173.56528672426
 30
0.0
 11
201.6937265102
 21
173.56528672426
 31
0.0
1001
Sigma
1000

  0
LINE
  5
402
330
1F
100
AcDbEntity
  8
2
  6
Continuous
 62
     7
370
    30
100
AcDbLine
 10
176.6937265102
 20
178.2059780623
 30
0.0
 11
181.6937265102
 21
178.2059780623
 31
0.0
1001
Sigma
1000

  0
LINE
  5
404
330
1F
100
AcDbEntity
  8
2
  6
Continuous
 62
     7
370
    30
100
AcDbLine
 10
181.6937265102
 20
178.2059780623
 30
0.0
 11
181.6937265102
 21
181.3814045428399
 31
0.0
1001
Sigma
1000

  0
LINE
  5
406
330
1F
100
AcDbEntity
  8
2
  6
Continuous
 62
     7
370
    30
100
AcDbLine
 10
181.6937265102
 20
181.3814045428399
 30
0.0
 11
176.6937265102
 21
181.3814045428399
 31
0.0
1001
Sigma
1000

  0
LINE
  5
408
330
1F
100
AcDbEntity
  8
2
  6
Continuous
 62
     7
370
    30
100
AcDbLine
 10
201.6937265102
 20
178.2059780623
 30
0.0
 11
196.6937265102
 21
178.2059780623
 31
0.0
1001
Sigma
1000

  0
LINE
  5
40A
330
1F
100
AcDbEntity
  8
2
  6
Continuous
 62
     7
370
    30
100
AcDbLine
 10
196.6937265102
 20
178.2059780623
 30
0.0
 11
196.6937265102
 21
181.3814045428399
 31
0.0
1001
Sigma
1000

  0
LINE
  5
40C
330
1F
100
AcDbEntity
  8
2
  6
Continuous
 62
     7
370
    30
100
AcDbLine
 10
207.0937265102
 20
170.7814045428399
 30
0.0
 11
207.0937265102
 21
178.7814045428399
 31
0.0
1001
Sigma
1000

  0
LINE
  5
40E
330
1F
100
AcDbEntity
  8
2
  6
Continuous
 62
     7
370
    30
100
AcDbLine
 10
207.0937265102
 20
170.7814045428399
 30
0.0
 11
207.0937265102
 21
162.78140454284
 31
0.0
1001
Sigma
1000

  0
LINE
  5
410
330
1F
100
AcDbEntity
  8
2
  6
Continuous
 62
     7
370
    30
100
AcDbLine
 10
201.6937265102
 20
181.3814045428399
 30
0.0
 11
196.6937265102
 21
181.3814045428399
 31
0.0
1001
Sigma
1000

  0
LINE
  5
412
330
1F
100
AcDbEntity
  8
2
  6
Continuous
 62
     7
370
    30
100
AcDbLine
 10
158.8937265101999
 20
178.7814045428399
 30
0.0
 11
176.6937265102
 21
178.7814045428399
 31
0.0
1001
Sigma
1000

  0
LINE
  5
414
330
1F
100
AcDbEntity
  8
2
  6
Continuous
 62
     7
370
    30
100
AcDbLine
 10
196.6937265102
 20
181.3814045428399
 30
0.0
 11
181.6937265102
 21
181.3814045428399
 31
0.0
1001
Sigma
1000

  0
LINE
  5
416
330
1F
100
AcDbEntity
  8
2
  6
Continuous
 62
     7
370
    30
100
AcDbLine
 10
158.8937265101999
 20
162.78140454284
 30
0.0
 11
207.0937265102
 21
162.78140454284
 31
0.0
1001
Sigma
1000

  0
LINE
  5
418
330
1F
100
AcDbEntity
  8
2
  6
Continuous
 62
     7
370
    30
100
AcDbLine
 10
257.8937265102
 20
178.7814045428399
 30
0.0
 11
201.6937265102
 21
178.7814045428399
 31
0.0
1001
Sigma
1000

  0
LINE
  5
41A
330
1F
100
AcDbEntity
  8
2
  6
Continuous
 62
     7
370
    30
100
AcDbLine
 10
207.0937265102
 20
162.78140454284
 30
0.0
 11
257.8937265102
 21
162.78140454284
 31
0.0
1001
Sigma
1000

  0
LINE
  5
41C
330
1F
100
AcDbEntity
  8
2
  6
Continuous
 62
     7
370
    30
100
AcDbLine
 10
181.6937265102
 20
181.3814045428399
 30
0.0
 11
181.6937265102
 21
194.3814045428399
 31
0.0
1001
Sigma
1000

  0
LINE
  5
41E
330
1F
100
AcDbEntity
  8
2
  6
Continuous
 62
     7
370
    30
100
AcDbLine
 10
181.6937265102
 20
194.3814045428399
 30
0.0
 11
196.6937265102
 21
194.3814045428399
 31
0.0
1001
Sigma
1000

  0
LINE
  5
420
330
1F
100
AcDbEntity
  8
2
  6
Continuous
 62
     7
370
    30
100
AcDbLine
 10
196.6937265102
 20
181.3814045428399
 30
0.0
 11
196.6937265102
 21
194.3814045428399
 31
0.0
1001
Sigma
1000

  0
LINE
  5
422
330
1F
100
AcDbEntity
  8
2
  6
Continuous
 62
     7
370
    30
100
AcDbLine
 10
181.6937265102
 20
194.3814045428399
 30
0.0
 11
180.2437265102
 21
194.3814045428399
 31
0.0
1001
Sigma
1000

  0
LINE
  5
424
330
1F
100
AcDbEntity
  8
2
  6
Continuous
 62
     7
370
    30
100
AcDbLine
 10
196.6937265102
 20
194.3814045428399
 30
0.0
 11
198.1437265102
 21
194.3814045428399
 31
0.0
1001
Sigma
1000

  0
LINE
  5
426
330
1F
100
AcDbEntity
  8
2
  6
Continuous
 62
     7
370
    30
100
AcDbLine
 10
198.1437265102
 20
194.3814045428399
 30
0.0
 11
198.1437265102
 21
200.3814045428399
 31
0.0
1001
Sigma
1000

  0
LINE
  5
428
330
1F
100
AcDbEntity
  8
2
  6
Continuous
 62
     7
370
    30
100
AcDbLine
 10
198.1437265102
 20
200.3814045428399
 30
0.0
 11
180.2437265102
 21
200.3814045428399
 31
0.0
1001
Sigma
1000

  0
LINE
  5
42A
330
1F
100
AcDbEntity
  8
2
  6
Continuous
 62
     7
370
    30
100
AcDbLine
 10
180.2437265102
 20
194.3814045428399
 30
0.0
 11
180.2437265102
 21
200.3814045428399
 31
0.0
1001
Sigma
1000

  0
POINT
  5
42C
330
1F
100
AcDbEntity
  8
2
  6
Continuous
 62
     7
370
    15
100
AcDbPoint
 10
212.0937265101999
 20
170.7814045428399
 30
0.0
1001
Sigma
1000

  0
LINE
  5
42E
330
1F
100
AcDbEntity
  8
2
  6
Continuous
 62
     7
370
    30
100
AcDbLine
 10
187.9437265102
 20
197.4565736747599
 30
0.0
 11
188.5687265101999
 21
198.53910542949
 31
0.0
1001
Sigma
1000

  0
LINE
  5
430
330
1F
100
AcDbEntity
  8
2
  6
Continuous
 62
     7
370
    30
100
AcDbLine
 10
188.5687265101999
 20
198.53910542949
 30
0.0
 11
189.8187265102
 21
198.53910542949
 31
0.0
1001
Sigma
1000

  0
LINE
  5
432
330
1F
100
AcDbEntity
  8
2
  6
Continuous
 62
     7
370
    30
100
AcDbLine
 10
189.8187265102
 20
198.53910542949
 30
0.0
 11
190.4437265102
 21
197.4565736747599
 31
0.0
1001
Sigma
1000

  0
LINE
  5
434
330
1F
100
AcDbEntity
  8
2
  6
Continuous
 62
     7
370
    30
100
AcDbLine
 10
190.4437265102
 20
197.4565736747599
 30
0.0
 11
189.8187265102
 21
196.37404192003
 31
0.0
1001
Sigma
1000

  0
LINE
  5
436
330
1F
100
AcDbEntity
  8
2
  6
Continuous
 62
     7
370
    30
100
AcDbLine
 10
189.8187265102
 20
196.37404192003
 30
0.0
 11
188.5687265101999
 21
196.37404192003
 31
0.0
1001
Sigma
1000

  0
LINE
  5
438
330
1F
100
AcDbEntity
  8
2
  6
Continuous
 62
     7
370
    30
100
AcDbLine
 10
188.5687265101999
 20
196.37404192003
 30
0.0
 11
187.9437265102
 21
197.4565736747599
 31
0.0
1001
Sigma
1000

  0
CIRCLE
  5
43A
330
1F
100
AcDbEntity
  8
2
  6
Continuous
 62
     7
370
    30
100
AcDbCircle
 10
212.0937265101999
 20
170.7814045428399
 30
0.0
 40
1.0
1001
Sigma
1000

  0
CIRCLE
  5
43C
330
1F
100
AcDbEntity
  8
2
  6
Continuous
 62
     7
370
    30
100
AcDbCircle
 10
212.0937265101999
 20
170.7814045428399
 30
0.0
 40
0.7
1001
Sigma
1000

  0
LINE
  5
43E
330
1F
100
AcDbEntity
  8
2
  6
Continuous
 62
     7
370
    30
100
AcDbLine
 10
216.6899988526299
 20
172.74023173749
 30
0.0
 11
216.6899988526299
 21
168.82257734819
 31
0.0
1001
Sigma
1000

  0
CIRCLE
  5
440
330
1F
100
AcDbEntity
  8
2
  6
Continuous
 62
     7
370
    30
100
AcDbCircle
 10
217.0937265102
 20
170.7814045428399
 30
0.0
 40
2.0
1001
Sigma
1000

  0
LINE
  5
442
330
1F
100
AcDbEntity
  8
2
  6
Continuous
 62
     7
370
    30
100
AcDbLine
 10
217.50490948292
 20
168.8230060548
 30
0.0
 11
217.50490948292
 21
172.73868034429
 31
0.0
1001
Sigma
1000

  0
LINE
  5
444
330
1F
100
AcDbEntity
  8
2
  6
Continuous
 62
     7
370
    30
100
AcDbLine
 10
212.25593162607
 20
171.46235204477
 30
0.0
 11
211.58511123282
 21
170.30045704091
 31
0.0
1001
Sigma
1000

  0
LINE
  5
446
330
1F
100
AcDbEntity
  8
2
  6
Continuous
 62
     7
370
    30
100
AcDbLine
 10
212.60234178758
 20
171.26235204477
 30
0.0
 11
211.9315213943299
 21
170.1004570409099
 31
0.0
1001
Sigma
1000

  0
LINE
  5
448
330
1F
100
AcDbEntity
  8
7
  6
Continuous
 62
     7
370
    15
100
AcDbLine
 10
141.2305092006999
 20
203.76454639349
 30
0.0
 11
100.25870178739
 21
203.76454639349
 31
0.0
1001
Sigma
1000

  0
TEXT
  5
44A
330
1F
100
AcDbEntity
  8
7
  6
Continuous
 62
     7
370
    15
100
AcDbText
 10
101.3019579307099
 20
204.56918451121
 30
0.0
 40
2.7
  1
３－Ｍ３六角穴付き止めネジ
 41
0.95
  7
KCADTEXTSTANDARD
100
AcDbText
1001
Sigma
1000

  0
TEXT
  5
44C
330
1F
100
AcDbEntity
  8
7
  6
Continuous
 62
     7
370
    15
100
AcDbText
 10
107.12980365037
 20
201.0132108517599
 30
0.0
 40
2.7
  1
（ライトガイド固定用）
 41
0.95
  7
KCADTEXTSTANDARD
100
AcDbText
1001
Sigma
1000

  0
LINE
  5
44E
330
1F
100
AcDbEntity
  8
2
  6
CENTER
 62
     7
370
    15
100
AcDbLine
 10
179.1937265101999
 20
178.58094724865
 30
0.0
 11
179.1937265101999
 21
181.0503734010499
 31
0.0
1001
Sigma
1000

  0
LINE
  5
450
330
1F
100
AcDbEntity
  8
2
  6
CENTER
 62
     7
370
    15
100
AcDbLine
 10
176.9831697134
 20
179.79369130257
 30
0.0
 11
181.32935974162
 21
179.79369130257
 31
0.0
1001
Sigma
1000

  0
LINE
  5
452
330
1F
100
AcDbEntity
  8
2
  6
Continuous
 62
     7
370
    30
100
AcDbLine
 10
179.1937265101999
 20
179.79369130257
 30
0.0
 11
177.8844191687799
 21
180.5496202485899
 31
0.0
1001
Sigma
1000

  0
ELLIPSE
  5
454
330
1F
100
AcDbEntity
  8
2
  6
Continuous
 62
     7
370
    30
100
AcDbEllipse
 10
179.1937265101999
 20
179.79369130257
 30
0.0
 11
2.0
 21
0.0
 31
0.0
210
0.0
220
0.0
230
1.0
 40
0.5
 41
0.0
 42
6.283185307179586
1001
Sigma
1000

  0
LINE
  5
456
330
1F
100
AcDbEntity
  8
2
  6
Continuous
 62
     7
370
    30
100
AcDbLine
 10
179.1937265101999
 20
179.79369130257
 30
0.0
 11
180.5030338516199
 21
180.5496202485899
 31
0.0
1001
Sigma
1000

  0
LINE
  5
458
330
1F
100
AcDbEntity
  8
2
  6
Continuous
 62
     7
370
    30
100
AcDbLine
 10
179.1937265101999
 20
179.79369130257
 30
0.0
 11
177.8844191687799
 21
179.03776235655
 31
0.0
1001
Sigma
1000

  0
LINE
  5
45A
330
1F
100
AcDbEntity
  8
2
  6
Continuous
 62
     7
370
    30
100
AcDbLine
 10
179.1937265101999
 20
179.79369130257
 30
0.0
 11
180.5030338516199
 21
179.03776235655
 31
0.0
1001
Sigma
1000

  0
LINE
  5
45C
330
1F
100
AcDbEntity
  8
2
  6
CENTER
 62
     7
370
    15
100
AcDbLine
 10
199.1937265102
 20
178.58094724865
 30
0.0
 11
199.1937265102
 21
181.0503734010499
 31
0.0
1001
Sigma
1000

  0
LINE
  5
45E
330
1F
100
AcDbEntity
  8
2
  6
CENTER
 62
     7
370
    15
100
AcDbLine
 10
196.9831697133999
 20
179.79369130257
 30
0.0
 11
201.32935974162
 21
179.79369130257
 31
0.0
1001
Sigma
1000

  0
LINE
  5
460
330
1F
100
AcDbEntity
  8
2
  6
Continuous
 62
     7
370
    30
100
AcDbLine
 10
199.1937265102
 20
179.79369130257
 30
0.0
 11
197.88441916878
 21
180.5496202485899
 31
0.0
1001
Sigma
1000

  0
ELLIPSE
  5
462
330
1F
100
AcDbEntity
  8
2
  6
Continuous
 62
     7
370
    30
100
AcDbEllipse
 10
199.1937265102
 20
179.79369130257
 30
0.0
 11
2.0
 21
0.0
 31
0.0
210
0.0
220
0.0
230
1.0
 40
0.5
 41
0.0
 42
6.283185307179586
1001
Sigma
1000

  0
LINE
  5
464
330
1F
100
AcDbEntity
  8
2
  6
Continuous
 62
     7
370
    30
100
AcDbLine
 10
199.1937265102
 20
179.79369130257
 30
0.0
 11
200.50303385162
 21
180.5496202485899
 31
0.0
1001
Sigma
1000

  0
LINE
  5
466
330
1F
100
AcDbEntity
  8
2
  6
Continuous
 62
     7
370
    30
100
AcDbLine
 10
199.1937265102
 20
179.79369130257
 30
0.0
 11
197.88441916878
 21
179.03776235655
 31
0.0
1001
Sigma
1000

  0
LINE
  5
468
330
1F
100
AcDbEntity
  8
2
  6
Continuous
 62
     7
370
    30
100
AcDbLine
 10
199.1937265102
 20
179.79369130257
 30
0.0
 11
200.50303385162
 21
179.03776235655
 31
0.0
1001
Sigma
1000

  0
LINE
  5
49C
330
1F
100
AcDbEntity
  8
0
  6
Continuous
 62
     7
370
    30
100
AcDbLine
 10
290.7937265101999
 20
180.78140454284
 30
0.0
 11
257.9937265102
 21
180.78140454284
 31
0.0
1001
Sigma
1000

  0
LINE
  5
49E
330
1F
100
AcDbEntity
  8
0
  6
Continuous
 62
     7
370
    30
100
AcDbLine
 10
290.7937265101999
 20
160.78140454284
 30
0.0
 11
257.9937265102
 21
160.78140454284
 31
0.0
1001
Sigma
1000

  0
LINE
  5
4A1
102
{ACAD_REACTORS
330
4A0
102
}
330
1F
100
AcDbEntity
  8
0
  6
CENTER
 62
     7
370
    15
100
AcDbLine
 10
259.3937265101999
 20
170.7814045428399
 30
0.0
 11
266.3937265102
 21
170.7814045428399
 31
0.0
1001
Sigma
1000

  0
LINE
  5
4A3
102
{ACAD_REACTORS
330
4A0
102
}
330
1F
100
AcDbEntity
  8
0
  6
CENTER
 62
     7
370
    15
100
AcDbLine
 10
262.8937265101999
 20
174.2814045428399
 30
0.0
 11
262.8937265101999
 21
167.2814045428399
 31
0.0
1001
Sigma
1000

  0
CIRCLE
  5
4A5
102
{ACAD_REACTORS
330
4A0
102
}
330
1F
100
AcDbEntity
  8
0
  6
CENTER
 62
     7
370
    15
100
AcDbCircle
 10
262.8937265101999
 20
170.7814045428399
 30
0.0
 40
1.0
1001
Sigma
1000

  0
CIRCLE
  5
4A7
102
{ACAD_REACTORS
330
4A0
102
}
330
1F
100
AcDbEntity
  8
0
  6
CENTER
 62
     7
370
    15
100
AcDbCircle
 10
262.8937265101999
 20
170.7814045428399
 30
0.0
 40
0.783
1001
Sigma
1000

  0
LINE
  5
4A9
330
1F
100
AcDbEntity
  8
0
  6
Continuous
 62
     7
370
    30
100
AcDbLine
 10
257.8937265102
 20
160.8814045428399
 30
0.0
 11
257.8937265102
 21
180.68140454284
 31
0.0
1001
Sigma
1000

  0
LINE
  5
4AB
330
1F
100
AcDbEntity
  8
0
  6
Continuous
 62
     7
370
    30
100
AcDbLine
 10
257.8937265102
 20
160.8814045428399
 30
0.0
 11
257.9937265102
 21
160.78140454284
 31
0.0
1001
Sigma
1000

  0
LINE
  5
4AD
330
1F
100
AcDbEntity
  8
0
  6
Continuous
 62
     7
370
    30
100
AcDbLine
 10
257.8937265102
 20
180.68140454284
 30
0.0
 11
257.9937265102
 21
180.78140454284
 31
0.0
1001
Sigma
1000

  0
LINE
  5
4AF
330
1F
100
AcDbEntity
  8
0
  6
Continuous
 62
     7
370
    30
100
AcDbLine
 10
290.8937265102
 20
180.68140454284
 30
0.0
 11
290.8937265102
 21
160.8814045428399
 31
0.0
1001
Sigma
1000

  0
LINE
  5
4B1
330
1F
100
AcDbEntity
  8
0
  6
Continuous
 62
     7
370
    30
100
AcDbLine
 10
290.7937265101999
 20
160.78140454284
 30
0.0
 11
290.8937265102
 21
160.8814045428399
 31
0.0
1001
Sigma
1000

  0
LINE
  5
4B3
330
1F
100
AcDbEntity
  8
0
  6
CENTER
 62
     7
370
    15
100
AcDbLine
 10
262.8937265101999
 20
180.78140454284
 30
0.0
 11
262.8937265101999
 21
185.4629424950799
 31
0.0
1001
Sigma
1000

  0
LINE
  5
4B5
330
1F
100
AcDbEntity
  8
0
  6
CENTER
 62
     7
370
    15
100
AcDbLine
 10
263.7587265102
 20
180.78140454284
 30
0.0
 11
263.7587265102
 21
181.28140454284
 31
0.0
1001
Sigma
1000

  0
LINE
  5
4B7
330
1F
100
AcDbEntity
  8
0
  6
CENTER
 62
     7
370
    15
100
AcDbLine
 10
262.0287265101999
 20
180.78140454284
 30
0.0
 11
262.0287265101999
 21
181.28140454284
 31
0.0
1001
Sigma
1000

  0
LINE
  5
4B9
330
1F
100
AcDbEntity
  8
0
  6
Continuous
 62
     7
370
    30
100
AcDbLine
 10
261.8937265102
 20
180.78140454284
 30
0.0
 11
261.8937265102
 21
181.28140454284
 31
0.0
1001
Sigma
1000

  0
LINE
  5
4BB
330
1F
100
AcDbEntity
  8
0
  6
Continuous
 62
     7
370
    30
100
AcDbLine
 10
263.8937265102
 20
180.78140454284
 30
0.0
 11
263.8937265102
 21
181.28140454284
 31
0.0
1001
Sigma
1000

  0
LINE
  5
4BD
330
1F
100
AcDbEntity
  8
0
  6
Continuous
 62
     7
370
    30
100
AcDbLine
 10
290.7937265101999
 20
180.78140454284
 30
0.0
 11
290.8937265102
 21
180.68140454284
 31
0.0
1001
Sigma
1000

  0
LINE
  5
4BF
330
1F
100
AcDbEntity
  8
0
  6
CENTER
 62
     7
370
    15
100
AcDbLine
 10
262.8937265101999
 20
181.28140454284
 30
0.0
 11
261.8937265102
 21
181.28140454284
 31
0.0
1001
Sigma
1000

  0
LINE
  5
4C1
330
1F
100
AcDbEntity
  8
0
  6
CENTER
 62
     7
370
    15
100
AcDbLine
 10
262.8937265101999
 20
181.28140454284
 30
0.0
 11
263.8937265102
 21
181.28140454284
 31
0.0
1001
Sigma
1000

  0
LINE
  5
4C4
330
1F
100
AcDbEntity
  8
4
  6
Continuous
 62
     7
370
    15
100
AcDbLine
 10
204.0706138858699
 20
221.06407241497
 30
0.0
 11
252.32919081133
 21
221.06407241497
 31
0.0
1001
Sigma
1000

  0
TEXT
  5
4C6
330
1F
100
AcDbEntity
  8
4
  6
Continuous
 62
     7
370
    15
100
AcDbText
 10
203.9965425104795
 20
222.5648449939616
 30
0.0
 40
3.239999914169311
  1
２－Ｍ２　６角穴付き止めねじ（９０°）
 41
0.6187500167638067
  7
KCADTEXTSTANDARD
100
AcDbText
1001
Sigma
1000

  0
TEXT
  5
4C8
330
1F
100
AcDbEntity
  8
4
  6
Continuous
 62
     7
370
    15
100
AcDbText
 10
208.4547560141042
 20
217.4206682478541
 30
0.0
 40
3.2000004529953
  1
（ﾒｹﾝ可）
 41
0.9999998658895682
  7
KCADTEXTSTANDARD
100
AcDbText
1001
Sigma
1000

  0
CIRCLE
  5
4CA
330
1F
100
AcDbEntity
  8
4
  6
Continuous
 62
     7
370
    15
100
AcDbCircle
 10
189.1937265102
 20
197.4565736747599
 30
0.0
 40
1.25
1001
Sigma
1000

  0
CIRCLE
  5
4CC
330
1F
100
AcDbEntity
  8
4
  6
Continuous
 62
     7
370
    15
100
AcDbCircle
 10
189.1937265102
 20
197.4565736747599
 30
0.0
 40
1.082531754730599
1001
Sigma
1000

  0
DIMENSION
  5
4CE
330
1F
100
AcDbEntity
  8
KCAD_DIMS
 62
     7
100
AcDbDimension
  2
*D39
 10
139.8970190784
 20
162.78140454284
 30
0.0
 11
136.1238361249393
 21
149.6741971237599
 31
0.0
 70
    32
 71
     5
 42
-1.0
 53
90.0
  3
Standard
100
AcDbAlignedDimension
 13
158.8937265101999
 23
178.7814045428399
 33
0.0
 14
158.8937265101999
 24
162.78140454284
 34
0.0
 50
90.0
100
AcDbRotatedDimension
1001
Sigma
1000
DIM_TPPO
1001
KCAD_DIM_EXT
1002
{
1071
 20001212
1070
     0
1070
     1
1070
     1
1040
2.5
1040
5.0
1040
22.020379196138
1040
0.0
1040
0.0
1040
0.0
1040
0.0
1040
0.0
1070
     0
1040
50.0
1040
-1.0
1013
1.0
1023
0.0
1033
0.0
1040
0.0
1013
1.0
1023
0.0
1033
0.0
1000
_None
1040
1.0
1040
16.000000000001
1070
     0
1070
     0
1070
     0
1012
1.0
1022
0.0
1032
0.0
1013
1.0
1023
0.0
1033
0.0
1002
}
1001
ACAD
1000
DSTYLE
1002
{
1070
     3
1000
φ<>
1070
    41
1040
2.5
1070
    42
1040
0.0
1070
    43
1040
8.0
1070
    44
1040
0.0
1070
    45
1040
0.0
1070
    47
1040
-0.006
1070
    48
1040
0.024
1070
    71
1070
     1
1070
    73
1070
     0
1070
    74
1070
     0
1070
    77
1070
     1
1070
    78
1070
     8
1070
    79
1070
     2
1070
   140
1040
3.2
1070
   141
1040
2.5
1070
   145
1040
0.0001
1070
   146
1040
0.667
1070
   147
1040
0.5333000000000001
1070
   172
1070
     1
1070
   173
1070
     1
1070
   179
1070
     3
1070
   271
1070
     1
1070
   272
1070
     3
1070
   279
1070
     2
1070
   284
1070
     8
1070
   289
1070
     2
1070
   340
1005
189
1070
   341
1005
21
1070
   343
1005
12D
1070
   344
1005
12D
1002
}
  0
DIMENSION
  5
50C
330
1F
100
AcDbEntity
  8
KCAD_DIMS
 62
     7
100
AcDbDimension
  2
*D40
 10
290.8937265102
 20
228.34623381237
 30
0.0
 11
187.3937265102
 21
230.47953381237
 31
0.0
 70
    32
 71
     5
 42
-1.0
  3
Standard
100
AcDbAlignedDimension
 13
83.893726510199
 23
170.7814045428399
 33
0.0
 14
290.8937265102
 24
170.7814045428399
 34
0.0
100
AcDbRotatedDimension
1001
Sigma
1000
DIM_TPPO
1001
KCAD_DIM_EXT
1002
{
1071
 20001212
1070
     0
1070
     2
1070
     2
1040
2.0
1040
0.0
1040
0.0
1040
0.0
1040
0.0
1040
0.0
1040
0.0
1040
0.0
1070
     0
1040
50.0
1040
-1.0
1013
1.0
1023
0.0
1033
0.0
1040
0.0
1013
1.0
1023
0.0
1033
0.0
1000
_None
1040
1.0
1040
207.0
1070
     0
1070
     0
1070
     0
1012
1.0
1022
0.0
1032
0.0
1013
1.0
1023
0.0
1033
0.0
1002
}
1001
ACAD
1000
DSTYLE
1002
{
1070
    41
1040
2.0
1070
    42
1040
1.0
1070
    43
1040
8.0
1070
    44
1040
1.0
1070
    45
1040
0.0
1070
    73
1070
     0
1070
    74
1070
     0
1070
    77
1070
     1
1070
    78
1070
     8
1070
    79
1070
     2
1070
   140
1040
3.2
1070
   141
1040
2.5
1070
   145
1040
0.0001
1070
   146
1040
0.667
1070
   147
1040
0.5333000000000001
1070
   172
1070
     1
1070
   173
1070
     1
1070
   179
1070
     3
1070
   271
1070
     2
1070
   272
1070
     3
1070
   279
1070
     2
1070
   284
1070
     8
1070
   289
1070
     2
1070
   340
1005
189
1070
   341
1005
21
1070
   343
1005
12D
1070
   344
1005
12D
1002
}
  0
DIMENSION
  5
548
330
1F
100
AcDbEntity
  8
KCAD_DIMS
 62
     7
100
AcDbDimension
  2
*D41
 10
312.0366886171199
 20
163.0314045428399
 30
0.0
 11
309.9033886171199
 21
146.78359120114
 31
0.0
 70
    32
 71
     5
 42
-1.0
 53
90.0
  3
Standard
100
AcDbAlignedDimension
 13
289.92923330198
 23
178.53140454284
 33
0.0
 14
289.92923330198
 24
163.0314045428399
 34
0.0
 50
90.0
100
AcDbRotatedDimension
1001
Sigma
1000
DIM_TPPO
1001
KCAD_DIM_EXT
1002
{
1071
 20001212
1070
     0
1070
     1
1070
     1
1040
2.0
1040
5.0
1040
28.800408007706
1040
0.0
1040
0.0
1040
0.0
1040
0.0
1040
0.0
1070
     0
1040
50.0
1040
-1.0
1013
1.0
1023
0.0
1033
0.0
1040
0.0
1013
1.0
1023
0.0
1033
0.0
1000
_None
1040
1.0
1040
15.5
1070
     0
1070
     0
1070
     0
1012
1.0
1022
0.0
1032
0.0
1013
1.0
1023
0.0
1033
0.0
1002
}
1001
ACAD
1000
DSTYLE
1002
{
1070
     3
1000
M<> ×P0.5
1070
    41
1040
2.0
1070
    42
1040
1.0
1070
    43
1040
8.0
1070
    44
1040
1.0
1070
    45
1040
0.0
1070
    73
1070
     0
1070
    74
1070
     0
1070
    77
1070
     1
1070
    78
1070
     8
1070
    79
1070
     2
1070
   140
1040
3.2
1070
   141
1040
2.5
1070
   145
1040
0.0001
1070
   146
1040
0.667
1070
   147
1040
0.5333000000000001
1070
   172
1070
     1
1070
   173
1070
     1
1070
   179
1070
     3
1070
   271
1070
     2
1070
   272
1070
     3
1070
   279
1070
     2
1070
   284
1070
     8
1070
   289
1070
     2
1070
   340
1005
189
1070
   341
1005
21
1070
   343
1005
12D
1070
   344
1005
12D
1002
}
  0
POINT
  5
586
330
1F
100
AcDbEntity
  8
0
  6
Continuous
 62
     7
370
    15
100
AcDbPoint
 10
216.9085195487699
 20
170.73201601979
 30
0.0
1001
Sigma
1000

  0
DIMENSION
  5
588
330
1F
100
AcDbEntity
  8
KCAD_DIMS
 62
     7
100
AcDbDimension
  2
*D42
 10
257.8937265102
 20
133.39259872701
 30
0.0
 11
208.3937265102
 21
135.5259317270099
 31
0.0
 70
    32
 71
     5
 42
-1.0
  3
Standard
100
AcDbAlignedDimension
 13
158.8937265101999
 23
170.7814045428399
 33
0.0
 14
257.8937265102
 24
170.7814045428399
 34
0.0
100
AcDbRotatedDimension
1001
Sigma
1000
DIM_TPHO
1001
KCAD_DIM_EXT
1002
{
1071
 20001212
1070
     0
1070
     2
1070
     2
1040
2.5
1040
0.0
1040
0.0
1040
0.0
1040
0.0
1040
0.0
1040
0.0
1040
0.0
1070
     0
1040
50.0
1040
-1.0
1013
1.0
1023
0.0
1033
0.0
1040
0.0
1013
1.0
1023
0.0
1033
0.0
1000
_None
1040
1.0
1040
99.0
1070
     0
1070
     0
1070
     0
1012
1.0
1022
0.0
1032
0.0
1013
1.0
1023
0.0
1033
0.0
1002
}
1001
ACAD
1000
DSTYLE
1002
{
1070
    41
1040
2.5
1070
    42
1040
0.0
1070
    43
1040
8.0
1070
    44
1040
0.0
1070
    45
1040
0.0
1070
    73
1070
     0
1070
    74
1070
     0
1070
    77
1070
     1
1070
    78
1070
     8
1070
    79
1070
     2
1070
   140
1040
3.2
1070
   141
1040
2.5
1070
   145
1040
0.0001
1070
   146
1040
0.667
1070
   147
1040
0.5333000000000001
1070
   172
1070
     1
1070
   173
1070
     1
1070
   179
1070
     3
1070
   271
1070
     1
1070
   272
1070
     3
1070
   279
1070
     2
1070
   284
1070
     8
1070
   289
1070
     2
1070
   340
1005
189
1070
   341
1005
21
1070
   343
1005
12D
1070
   344
1005
12D
1002
}
  0
DIMENSION
  5
5C4
330
1F
100
AcDbEntity
  8
KCAD_DIMS
 62
     7
100
AcDbDimension
  2
*D43
 10
290.8937265102
 20
203.5102617541699
 30
0.0
 11
274.3937265102
 21
205.6435947541699
 31
0.0
 70
    32
 71
     5
 42
-1.0
  3
Standard
100
AcDbAlignedDimension
 13
257.8937265102
 23
178.7814045428399
 33
0.0
 14
290.8937265102
 24
180.68140454284
 34
0.0
100
AcDbRotatedDimension
1001
Sigma
1000
DIM_TPHO
1001
KCAD_DIM_EXT
1002
{
1071
 20001212
1070
     0
1070
     2
1070
     2
1040
2.5
1040
0.0
1040
0.0
1040
0.0
1040
0.0
1040
0.0
1040
0.0
1040
0.0
1070
     0
1040
50.0
1040
-1.0
1013
1.0
1023
0.0
1033
0.0
1040
0.0
1013
1.0
1023
0.0
1033
0.0
1000
_None
1040
1.0
1040
33.0
1070
     0
1070
     0
1070
     0
1012
1.0
1022
0.0
1032
0.0
1013
1.0
1023
0.0
1033
0.0
1002
}
1001
ACAD
1000
DSTYLE
1002
{
1070
    41
1040
2.5
1070
    42
1040
0.0
1070
    43
1040
8.0
1070
    44
1040
0.0
1070
    45
1040
0.0
1070
    73
1070
     0
1070
    74
1070
     0
1070
    77
1070
     1
1070
    78
1070
     8
1070
    79
1070
     2
1070
   140
1040
3.2
1070
   141
1040
2.5
1070
   145
1040
0.0001
1070
   146
1040
0.667
1070
   147
1040
0.5333000000000001
1070
   172
1070
     1
1070
   173
1070
     1
1070
   179
1070
     3
1070
   271
1070
     1
1070
   272
1070
     3
1070
   279
1070
     2
1070
   284
1070
     8
1070
   289
1070
     2
1070
   340
1005
189
1070
   341
1005
21
1070
   343
1005
12D
1070
   344
1005
12D
1002
}
  0
DIMENSION
  5
600
330
1F
100
AcDbEntity
  8
KCAD_DIMS
 62
     7
100
AcDbDimension
  2
*D44
 10
189.1937265102
 20
219.6927528472199
 30
0.0
 11
174.0437265102
 21
221.8260858472199
 31
0.0
 70
    32
 71
     5
 42
-1.0
  3
Standard
100
AcDbAlignedDimension
 13
158.8937265101999
 23
170.7814045428399
 33
0.0
 14
189.1937265102
 24
181.3814045428399
 34
0.0
100
AcDbRotatedDimension
1001
Sigma
1000
DIM_TPHO
1001
KCAD_DIM_EXT
1002
{
1071
 20001212
1070
     0
1070
     2
1070
     2
1040
2.5
1040
0.0
1040
0.0
1040
0.0
1040
0.0
1040
0.0
1040
0.0
1040
0.0
1070
     0
1040
50.0
1040
-1.0
1013
1.0
1023
0.0
1033
0.0
1040
0.0
1013
1.0
1023
0.0
1033
0.0
1000
_None
1040
1.0
1040
30.3
1070
     0
1070
     0
1070
     0
1012
1.0
1022
0.0
1032
0.0
1013
1.0
1023
0.0
1033
0.0
1002
}
1001
ACAD
1000
DSTYLE
1002
{
1070
    41
1040
2.5
1070
    42
1040
0.0
1070
    43
1040
8.0
1070
    44
1040
0.0
1070
    45
1040
0.0
1070
    73
1070
     0
1070
    74
1070
     0
1070
    77
1070
     1
1070
    78
1070
     8
1070
    79
1070
     2
1070
   140
1040
3.2
1070
   141
1040
2.5
1070
   145
1040
0.0001
1070
   146
1040
0.667
1070
   147
1040
0.5333000000000001
1070
   172
1070
     1
1070
   173
1070
     1
1070
   179
1070
     3
1070
   271
1070
     1
1070
   272
1070
     3
1070
   279
1070
     2
1070
   284
1070
     8
1070
   289
1070
     2
1070
   340
1005
189
1070
   341
1005
21
1070
   343
1005
12D
1070
   344
1005
12D
1002
}
  0
DIMENSION
  5
63C
330
1F
100
AcDbEntity
  8
KCAD_DIMS
 62
     7
100
AcDbDimension
  2
*D45
 10
83.893726510197
 20
219.6927528472199
 30
0.0
 11
121.3937265101999
 21
221.8260858472199
 31
0.0
 70
    32
 71
     5
 42
-1.0
  3
Standard
100
AcDbAlignedDimension
 13
158.8937265101999
 23
170.7814045428399
 33
0.0
 14
83.893726510197
 24
170.7814045428399
 34
0.0
100
AcDbRotatedDimension
1001
Sigma
1000
DIM_TPHO
1001
KCAD_DIM_EXT
1002
{
1071
 20001212
1070
     0
1070
     2
1070
     2
1040
2.5
1040
0.0
1040
0.0
1040
0.0
1040
0.0
1040
0.0
1040
0.0
1040
0.0
1070
     0
1040
50.0
1040
-1.0
1013
1.0
1023
0.0
1033
0.0
1040
0.0
1013
1.0
1023
0.0
1033
0.0
1000
_None
1040
1.0
1040
75.000000000002
1070
     0
1070
     0
1070
     0
1012
1.0
1022
0.0
1032
0.0
1013
1.0
1023
0.0
1033
0.0
1002
}
1001
ACAD
1000
DSTYLE
1002
{
1070
     3
1000
WD= <>
1070
    41
1040
2.5
1070
    42
1040
0.0
1070
    43
1040
8.0
1070
    44
1040
0.0
1070
    45
1040
0.0
1070
    73
1070
     0
1070
    74
1070
     0
1070
    77
1070
     1
1070
    78
1070
     8
1070
    79
1070
     2
1070
   140
1040
3.2
1070
   141
1040
2.5
1070
   145
1040
0.0001
1070
   146
1040
0.667
1070
   147
1040
0.5333000000000001
1070
   172
1070
     1
1070
   173
1070
     1
1070
   179
1070
     3
1070
   271
1070
     1
1070
   272
1070
     3
1070
   279
1070
     2
1070
   284
1070
     8
1070
   289
1070
     2
1070
   340
1005
189
1070
   341
1005
21
1070
   343
1005
12D
1070
   344
1005
12D
1002
}
  0
LINE
  5
679
102
{ACAD_REACTORS
330
678
102
}
330
1F
100
AcDbEntity
  8
0
  6
Continuous
 62
     7
370
    15
100
AcDbLine
 10
187.9437265102
 20
197.4565736747599
 30
0.0
 11
141.2305092006999
 21
203.76454639349
 31
0.0
1001
Sigma
1000

  0
INSERT
  5
67B
102
{ACAD_REACTORS
330
678
102
}
330
1F
100
AcDbEntity
  8
0
  6
Continuous
 62
     7
370
    15
100
AcDbBlockReference
  2
_OPEN30
 10
187.9437265102
 20
197.4565736747599
 30
0.0
 41
2.0
 42
2.0
 43
2.0
 50
352.3095184325678
1001
Sigma
1000
_BRRS
  0
LINE
  5
67E
102
{ACAD_REACTORS
330
67D
102
}
330
1F
100
AcDbEntity
  8
0
  6
Continuous
 62
     7
370
    15
100
AcDbLine
 10
290.8937265102
 20
170.7814045428399
 30
0.0
 11
301.30094073377
 21
195.35792793379
 31
0.0
1001
Sigma
1000

  0
INSERT
  5
680
102
{ACAD_REACTORS
330
67D
102
}
330
1F
100
AcDbEntity
  8
0
  6
Continuous
 62
     7
370
    15
100
AcDbBlockReference
  2
_OPEN30
 10
290.8937265102
 20
170.7814045428399
 30
0.0
 41
2.0
 42
2.0
 43
2.0
 50
247.0492073273323
1001
Sigma
1000
_BRRS
  0
TEXT
  5
682
330
1F
100
AcDbEntity
  8
4
  6
Continuous
 62
     7
370
    30
100
AcDbText
 10
263.37931159315
 20
109.9004226773599
 30
0.0
 40
3.149999999999999
  1
×８.０　ＴＶマクロレンズ
 41
0.9750549454282929
  7
KCADTEXTSTANDARD
100
AcDbText
1001
Sigma
1000

  0
LINE
  5
684
330
1F
100
AcDbEntity
  8
4
  6
Continuous
 62
     7
370
    15
100
AcDbLine
 10
262.37163397103
 20
109.13427229747
 30
0.0
 11
309.51787394167
 21
109.13427229747
 31
0.0
1001
Sigma
1000

  0
LINE
  5
686
330
1F
100
AcDbEntity
  8
0
  6
HIDDEN
 62
     7
370
    30
100
AcDbLine
 10
283.4197265102
 20
170.7814045428399
 30
0.0
 11
283.4197265102
 21
178.3230626138399
 31
0.0
1001
Sigma
1000

  0
LINE
  5
688
330
1F
100
AcDbEntity
  8
0
  6
HIDDEN
 62
     7
370
    30
100
AcDbLine
 10
283.4197265102
 20
178.3230626138399
 30
0.0
 11
290.8937265102
 21
178.3230626138399
 31
0.0
1001
Sigma
1000

  0
LINE
  5
68A
330
1F
100
AcDbEntity
  8
0
  6
HIDDEN
 62
     7
370
    30
100
AcDbLine
 10
283.4197265102
 20
170.7814045428399
 30
0.0
 11
283.4197265102
 21
162.84391944568
 31
0.0
1001
Sigma
1000

  0
LINE
  5
68C
330
1F
100
AcDbEntity
  8
0
  6
HIDDEN
 62
     7
370
    30
100
AcDbLine
 10
283.4197265102
 20
162.84391944568
 30
0.0
 11
290.8937265102
 21
162.84391944568
 31
0.0
1001
Sigma
1000

  0
LINE
  5
68F
102
{ACAD_REACTORS
330
68E
102
}
330
1F
100
AcDbEntity
  8
0
  6
Continuous
 62
     7
370
    15
100
AcDbLine
 10
261.8937265102
 20
181.28140454284
 30
0.0
 11
252.32919081133
 21
221.06407241497
 31
0.0
1001
Sigma
1000

  0
INSERT
  5
691
102
{ACAD_REACTORS
330
68E
102
}
330
1F
100
AcDbEntity
  8
0
  6
Continuous
 62
     7
370
    15
100
AcDbBlockReference
  2
_OPEN30
 10
261.8937265102
 20
181.28140454284
 30
0.0
 41
2.0
 42
2.0
 43
2.0
 50
283.5184666069606
1001
Sigma
1000
_BRRS
  0
DIMENSION
  5
693
330
1F
100
AcDbEntity
  8
KCAD_DIMS
 62
     7
100
AcDbDimension
  2
*D46
 10
290.8937265102
 20
124.69198850103
 30
0.0
 11
224.8937265102
 21
126.8253215010299
 31
0.0
 70
    32
 71
     5
 42
-1.0
  3
Standard
100
AcDbAlignedDimension
 13
158.8937265101999
 23
170.7814045428399
 33
0.0
 14
290.8937265102
 24
160.8814045428399
 34
0.0
100
AcDbRotatedDimension
1001
Sigma
1000
DIM_TPHO
1001
KCAD_DIM_EXT
1002
{
1071
 20001212
1070
     0
1070
     2
1070
     2
1040
2.5
1040
0.0
1040
0.0
1040
0.0
1040
0.0
1040
0.0
1040
0.0
1040
0.0
1070
     0
1040
50.0
1040
-1.0
1013
1.0
1023
0.0
1033
0.0
1040
0.0
1013
1.0
1023
0.0
1033
0.0
1000
_None
1040
1.0
1040
132.0
1070
     0
1070
     0
1070
     0
1012
1.0
1022
0.0
1032
0.0
1013
1.0
1023
0.0
1033
0.0
1002
}
1001
ACAD
1000
DSTYLE
1002
{
1070
    41
1040
2.5
1070
    42
1040
0.0
1070
    43
1040
8.0
1070
    44
1040
0.0
1070
    45
1040
0.0
1070
    73
1070
     0
1070
    74
1070
     0
1070
    77
1070
     1
1070
    78
1070
     8
1070
    79
1070
     2
1070
   140
1040
3.2
1070
   141
1040
2.5
1070
   145
1040
0.0001
1070
   146
1040
0.667
1070
   147
1040
0.5333000000000001
1070
   172
1070
     1
1070
   173
1070
     1
1070
   179
1070
     3
1070
   271
1070
     1
1070
   272
1070
     3
1070
   279
1070
     2
1070
   284
1070
     8
1070
   289
1070
     2
1070
   340
1005
189
1070
   341
1005
21
1070
   343
1005
12D
1070
   344
1005
12D
1002
}
  0
DIMENSION
  5
703
330
1F
100
AcDbEntity
  8
KCAD_DIMS
 62
     7
100
AcDbDimension
  2
*D48
 10
195.1937265102
 20
207.09262599828
 30
0.0
 11
170.3803049800199
 21
213.34990067279
 31
0.0
 70
    32
 71
     5
 42
-1.0
  3
Standard
100
AcDbAlignedDimension
 13
183.1937265102
 23
200.3814045428399
 33
0.0
 14
195.1937265102
 24
200.3814045428399
 34
0.0
100
AcDbRotatedDimension
1001
Sigma
1000
DIM_TPHO
1001
KCAD_DIM_EXT
1002
{
1071
 20001212
1070
     0
1070
     2
1070
     2
1040
2.5
1040
0.0
1040
0.0
1040
0.0
1040
0.0
1040
0.0
1040
0.0
1040
0.0
1070
     1
1040
50.0
1040
13.274257681482
1013
-0.9505171427040296
1023
0.3106721124043275
1033
0.0
1040
12.392024094519
1013
-1.0
1023
0.0
1033
0.0
1000
_NONE
1040
0.0
1040
12.0
1070
     0
1070
     0
1070
     0
1012
1.0
1022
0.0
1032
0.0
1013
1.0
1023
0.0
1033
0.0
1002
}
1001
ACAD
1000
DSTYLE
1002
{
1070
     3
1000
%%c<>　穴
1070
    41
1040
2.5
1070
    42
1040
0.0
1070
    43
1040
8.0
1070
    44
1040
0.0
1070
    45
1040
0.0
1070
    73
1070
     0
1070
    74
1070
     0
1070
    77
1070
     1
1070
    78
1070
     8
1070
    79
1070
     2
1070
   140
1040
3.2
1070
   141
1040
2.5
1070
   145
1040
0.0001
1070
   146
1040
0.667
1070
   147
1040
0.5333000000000001
1070
   172
1070
     1
1070
   173
1070
     1
1070
   179
1070
     3
1070
   271
1070
     3
1070
   272
1070
     3
1070
   279
1070
     2
1070
   284
1070
     8
1070
   289
1070
     2
1070
   340
1005
189
1070
   341
1005
21
1070
   343
1005
12D
1070
   344
1005
12D
1002
}
  0
LINE
  5
741
330
1F
100
AcDbEntity
  8
99
  6
Continuous
 62
     7
370
    15
100
AcDbLine
 10
171.1039266947099
 20
204.9520870246699
 30
0.0
 11
166.3039266947099
 21
204.9520870246699
 31
0.0
1001
Sigma
1000

  0
LINE
  5
743
330
1F
100
AcDbEntity
  8
99
  6
Continuous
 62
     7
370
    15
100
AcDbLine
 10
168.7039266947099
 20
210.1482394474699
 30
0.0
 11
171.1039266947099
 21
204.9520870246699
 31
0.0
1001
Sigma
1000

  0
LINE
  5
745
330
1F
100
AcDbEntity
  8
99
  6
Continuous
 62
     7
370
    15
100
AcDbLine
 10
166.3039266947099
 20
204.9520870246699
 30
0.0
 11
168.7039266947099
 21
210.1482394474699
 31
0.0
1001
Sigma
1000

  0
TEXT
  5
747
330
1F
100
AcDbEntity
  8
99
  6
Continuous
 62
     7
370
    15
100
AcDbText
 10
168.1067907718011
 20
205.8315444050107
 30
0.0
 40
3.124223930168152
  1
1
 41
0.577433628318584
  7
KCADTEXTSTANDARD
100
AcDbText
1001
Sigma
1000

  0
TEXT
  5
749
330
1F
100
AcDbEntity
  8
99
  6
Continuous
 62
     7
370
    30
100
AcDbText
 10
154.8789511748381
 20
64.253970031871
 30
0.0
 40
3.6
  1
Ｈ１６／０２／２３
 41
0.4143055670377282
  7
KCADTEXTSTANDARD
100
AcDbText
1001
Sigma
1000

  0
TEXT
  5
74B
330
1F
100
AcDbEntity
  8
99
  6
Continuous
 62
     7
370
    30
100
AcDbText
 10
169.84183925136
 20
64.143433813621
 30
0.0
 40
3.6
  1
 滝沢
 41
0.8510416666666667
  7
KCADTEXTSTANDARD
100
AcDbText
1001
Sigma
1000

  0
TEXT
  5
74D
330
1F
100
AcDbEntity
  8
99
  6
Continuous
 62
     7
370
    30
100
AcDbText
 10
184.30201093527
 20
64.030933813621
 30
0.0
 40
3.825
  1
 訂  正　
 41
0.59328431382264
  7
KCADTEXTSTANDARD
100
AcDbText
1001
Sigma
1000

  0
TEXT
  5
74F
330
1F
100
AcDbEntity
  8
99
  6
Continuous
 62
     7
370
    30
100
AcDbText
 10
249.4469140834418
 20
87.04022179349147
 30
0.0
 40
2.7
  1
取
 41
1.203333318233489
  7
KCADTEXTSTANDARD
100
AcDbText
1001
Sigma
1000

  0
TEXT
  5
75C
330
1F
100
AcDbEntity
  8
1
  6
Continuous
 62
     7
100
AcDbText
 10
257.4956850968515
 20
52.82911927500473
 30
0.0
 40
4.0
  1
株式会社 トキナー
100
AcDbText
  0
TEXT
  5
75D
330
1F
100
AcDbEntity
  8
1
  6
Continuous
 62
     7
100
AcDbText
 10
304.0752969385784
 20
53.2444579247346
 30
0.0
 40
4.0
  1
Tokina Co. ,Ltd.
 41
0.7000000000000001
100
AcDbText
  0
OLE2FRAME
  5
75E
330
1F
100
AcDbEntity
  8
0
  6
Continuous
 62
   134
370
    15
100
AcDbOle2Frame
 70
     2
 10
190.4366530512463
 20
57.47894963493262
 30
0.0
 11
227.3746068730572
 21
51.93032996212841
 31
0.0
 72
     0
 73
   205
 90
    28288
310
0055A6D9D10FF9CD6740BE3BBD384EBD4C40000000000000000066948DC7FC6B
310
6C40BE3BBD384EBD4C40000000000000000066948DC7FC6B6C404CEA5C0D15F7
310
49400000000000000000A6D9D10FF9CD67404CEA5C0D15F74940000000000000
310
00000000000001000000000100000100000001000000000001000000006E0000
310
D0CF11E0A1B11AE1000000000000000000000000000000003E000300FEFF0900
310
0600000000000000000000000100000001000000000000000010000002000000
310
01000000FEFFFFFF0000000000000000FFFFFFFFFFFFFFFFFFFFFFFFFFFFFFFF
310
FFFFFFFFFFFFFFFFFFFFFFFFFFFFFFFFFFFFFFFFFFFFFFFFFFFFFFFFFFFFFFFF
310
FFFFFFFFFFFFFFFFFFFFFFFFFFFFFFFFFFFFFFFFFFFFFFFFFFFFFFFFFFFFFFFF
310
FFFFFFFFFFFFFFFFFFFFFFFFFFFFFFFFFFFFFFFFFFFFFFFFFFFFFFFFFFFFFFFF
310
FFFFFFFFFFFFFFFFFFFFFFFFFFFFFFFFFFFFFFFFFFFFFFFFFFFFFFFFFFFFFFFF
310
FFFFFFFFFFFFFFFFFFFFFFFFFFFFFFFFFFFFFFFFFFFFFFFFFFFFFFFFFFFFFFFF
310
FFFFFFFFFFFFFFFFFFFFFFFFFFFFFFFFFFFFFFFFFFFFFFFFFFFFFFFFFFFFFFFF
310
FFFFFFFFFFFFFFFFFFFFFFFFFFFFFFFFFFFFFFFFFFFFFFFFFFFFFFFFFFFFFFFF
310
FFFFFFFFFFFFFFFFFFFFFFFFFFFFFFFFFFFFFFFFFFFFFFFFFFFFFFFFFFFFFFFF
310
FFFFFFFFFFFFFFFFFFFFFFFFFFFFFFFFFFFFFFFFFFFFFFFFFFFFFFFFFFFFFFFF
310
FFFFFFFFFFFFFFFFFFFFFFFFFFFFFFFFFFFFFFFFFFFFFFFFFFFFFFFFFFFFFFFF
310
FFFFFFFFFFFFFFFFFFFFFFFFFFFFFFFFFFFFFFFFFFFFFFFFFFFFFFFFFFFFFFFF
310
FFFFFFFFFFFFFFFFFFFFFFFFFFFFFFFFFFFFFFFFFFFFFFFFFFFFFFFFFFFFFFFF
310
FFFFFFFFFFFFFFFFFFFFFFFFFFFFFFFFFFFFFFFFFFFFFFFFFFFFFFFFFFFFFFFF
310
FDFFFFFF35000000FEFFFFFFFEFFFFFF05000000060000000700000008000000
310
090000000A0000000B0000000C0000000D0000000E0000000F00000010000000
310
1100000012000000130000001400000015000000160000001700000018000000
310
190000001A0000001B0000001C0000001D0000001E0000001F00000020000000
310
2100000022000000230000002400000025000000260000002700000028000000
310
290000002A0000002B0000002C0000002D0000002E0000002F00000030000000
310
31000000320000003300000034000000FEFFFFFFFEFFFFFFFFFFFFFFFFFFFFFF
310
FFFFFFFFFFFFFFFFFFFFFFFFFFFFFFFFFFFFFFFFFFFFFFFFFFFFFFFFFFFFFFFF
310
FFFFFFFFFFFFFFFFFFFFFFFFFFFFFFFFFFFFFFFFFFFFFFFFFFFFFFFFFFFFFFFF
310
FFFFFFFFFFFFFFFFFFFFFFFFFFFFFFFFFFFFFFFFFFFFFFFFFFFFFFFFFFFFFFFF
310
FFFFFFFFFFFFFFFFFFFFFFFFFFFFFFFFFFFFFFFFFFFFFFFFFFFFFFFFFFFFFFFF
310
FFFFFFFFFFFFFFFFFFFFFFFFFFFFFFFFFFFFFFFFFFFFFFFFFFFFFFFFFFFFFFFF
310
FFFFFFFFFFFFFFFFFFFFFFFFFFFFFFFFFFFFFFFFFFFFFFFFFFFFFFFFFFFFFFFF
310
FFFFFFFFFFFFFFFFFFFFFFFFFFFFFFFFFFFFFFFFFFFFFFFFFFFFFFFFFFFFFFFF
310
FFFFFFFFFFFFFFFFFFFFFFFFFFFFFFFFFFFFFFFFFFFFFFFFFFFFFFFFFFFFFFFF
310
FFFFFFFFFFFFFFFFFFFFFFFFFFFFFFFFFFFFFFFFFFFFFFFFFFFFFFFFFFFFFFFF
310
52006F006F007400200045006E00740072007900000000000000000000000000
310
0000000000000000000000000000000000000000000000000000000000000000
310
16000500FFFFFFFFFFFFFFFF020000000A00030000000000C000000000000046
310
0000000000000000000000006038106E619FC801030000000001000000000000
310
01004F006C006500000000000000000000000000000000000000000000000000
310
0000000000000000000000000000000000000000000000000000000000000000
310
0A000201FFFFFFFFFFFFFFFFFFFFFFFF00000000000000000000000000000000
310
0000000000000000000000000000000000000000000000001400000000000000
310
010043006F006D0070004F0062006A0000000000000000000000000000000000
310
0000000000000000000000000000000000000000000000000000000000000000
310
120002010100000003000000FFFFFFFF00000000000000000000000000000000
310
0000000000000000000000000000000000000000010000004D00000000000000
310
01004F006C006500310030004E00610074006900760065000000000000000000
310
0000000000000000000000000000000000000000000000000000000000000000
310
1A000201FFFFFFFF04000000FFFFFFFF00000000000000000000000000000000
310
0000000000000000000000000000000000000000040000000460000000000000
310
FEFFFFFF02000000FEFFFFFFFEFFFFFFFFFFFFFFFFFFFFFFFFFFFFFFFFFFFFFF
310
FFFFFFFFFFFFFFFFFFFFFFFFFFFFFFFFFFFFFFFFFFFFFFFFFFFFFFFFFFFFFFFF
310
FFFFFFFFFFFFFFFFFFFFFFFFFFFFFFFFFFFFFFFFFFFFFFFFFFFFFFFFFFFFFFFF
310
FFFFFFFFFFFFFFFFFFFFFFFFFFFFFFFFFFFFFFFFFFFFFFFFFFFFFFFFFFFFFFFF
310
FFFFFFFFFFFFFFFFFFFFFFFFFFFFFFFFFFFFFFFFFFFFFFFFFFFFFFFFFFFFFFFF
310
FFFFFFFFFFFFFFFFFFFFFFFFFFFFFFFFFFFFFFFFFFFFFFFFFFFFFFFFFFFFFFFF
310
FFFFFFFFFFFFFFFFFFFFFFFFFFFFFFFFFFFFFFFFFFFFFFFFFFFFFFFFFFFFFFFF
310
FFFFFFFFFFFFFFFFFFFFFFFFFFFFFFFFFFFFFFFFFFFFFFFFFFFFFFFFFFFFFFFF
310
FFFFFFFFFFFFFFFFFFFFFFFFFFFFFFFFFFFFFFFFFFFFFFFFFFFFFFFFFFFFFFFF
310
FFFFFFFFFFFFFFFFFFFFFFFFFFFFFFFFFFFFFFFFFFFFFFFFFFFFFFFFFFFFFFFF
310
FFFFFFFFFFFFFFFFFFFFFFFFFFFFFFFFFFFFFFFFFFFFFFFFFFFFFFFFFFFFFFFF
310
FFFFFFFFFFFFFFFFFFFFFFFFFFFFFFFFFFFFFFFFFFFFFFFFFFFFFFFFFFFFFFFF
310
FFFFFFFFFFFFFFFFFFFFFFFFFFFFFFFFFFFFFFFFFFFFFFFFFFFFFFFFFFFFFFFF
310
FFFFFFFFFFFFFFFFFFFFFFFFFFFFFFFFFFFFFFFFFFFFFFFFFFFFFFFFFFFFFFFF
310
FFFFFFFFFFFFFFFFFFFFFFFFFFFFFFFFFFFFFFFFFFFFFFFFFFFFFFFFFFFFFFFF
310
FFFFFFFFFFFFFFFFFFFFFFFFFFFFFFFFFFFFFFFFFFFFFFFFFFFFFFFFFFFFFFFF
310
0100000200000000000000000000000000000000000000000C00000000000000
310
F35662975C00FD88C154F356629744005800460020005000440046002000FD88
310
0100FEFF030A0000FFFFFFFF0A00030000000000C00000000000004607000000
310
5042727573680007000000504272757368000700000050427275736800F439B2
310
71000000000000000000000000003800370029005C004B0056004B0031003100
310
00000000000000000C0000000000000000000000000000000000000000000000
310
0100000064000000000000000000000000000000000000000C00000000000000
310
0000000000000000000000000000000000000000000000000000000000000000
310
00000000000000000C0000000000000000000000000000000000000000000000
310
0000000000000000000000000000000000000000000000000C00000000000000
310
0000000000000000000000000000000000000000000000000000000000000000
310
0E00C40000000001E8011500E801150000000000000000000000000000000000
310
0A0045004B004D01C801150040B42200313837290000380003000400EFBE0000
310
000000000000140000004B0043004D002D0036004D0028004B0056004B002D00
310
310031003800370029000000200000001A003B01F801080138EF2400B8EF2300
310
0000000000000000000000000000000000000000000000000000000000000000
310
00600000424DEA5F0000000000003600000028000000E9000000230000000100
310
180000000000B45F000000000000000000000000000000000000FFFFFFFFFFFF
310
FFFFFFFFFFFFFFFFFFFFFFFFFFFFFFFFFFFFFFFFFFFFFFFFFFFFFFFFFFFFFFFF
310
FFFFFFFFFFFFFFF5F5F5AEAEAE2B2B2B1D1D1D1D1D1D1D1D1D1D1D1D1D1D1D1E
310
1E1E2B2B2B7C7C7CF4F4F4FFFFFFFFFFFFFFFFFFFFFFFFFFFFFFFFFFFFFFFFFF
310
FFFFFFFFFFFFFFFFFFFFFFFFFFFFFFFFFFFFFFFFFFFFFFFFFFFFFFFDFDFDF2F2
310
F2CFCFCF8888884949492C2C2C23232320202020202020202020202020202020
310
2020212121212121222222222222232323242424252525252525262626272727
310
2828282828282828282929292A2A2A2B2B2B2C2C2C2D2D2D3333334444446969
310
69ABABABE4E4E4F4F4F4FFFFFFFFFFFFFFFFFFFFFFFFFFFFFFFFFFFFE7E7E78A
310
8A8A3939393C3C3C3E3E3E4040404040403F3F3F3F3F3F8A8A8AF9F9F9FFFFFF
310
FFFFFFFFFFFFFFFFFFFFFFFFFFFFFFFFFFFFFFFFFFFFFFFFFFFFFFFFFFFFFFFF
310
FFFFFFFFFFFFFFFFFFFFF4F4F4C3C3C37676765353535757575959595858585A
310
5A5A5B5B5B5D5D5D5E5E5E6060606262626060606767679C9C9CE4E4E4FFFFFF
310
FFFFFFFFFFFFF9F9F9A3A3A36969696C6C6C6C6C6C6E6E6E6E6E6E6F6F6F6E6E
310
6EC2C2C2FEFEFEFFFFFFFFFFFFFEFEFEAAAAAA7878787A7A7A7C7C7C7E7E7E7E
310
7E7E808080808080C4C4C4F8F8F8FFFFFFFFFFFFFFFFFFFFFFFFFFFFFFFFFFFF
310
FFFFFFFFFFFFFFFFFFFFFFFFFFFFFFFFFFFFFFFFFFFFFFFFFFFFFFFFFFFFFFFF
310
FFFFFFFFFFFFFFFFFFFFFFFFFFFDFDFDC5C5C5ABABABABABABADADADAEAEAEAE
310
AEAEAFAFAFB1B1B1D5D5D5F7F7F7FFFFFFFFFFFFFFFFFFFFFFFFFFFFFFFEFEFE
310
F1F1F1E4E4E4DDDDDDCECECEC6C6C6C5C5C5C6C6C6C7C7C7C9C9C9C9C9C9CACA
310
CACACACACCCCCCCCCCCCCDCDCDCFCFCFD0D0D0D0D0D0D2D2D2D2D2D2D3D3D3D5
310
D5D5D5D5D5D6D6D6D7D7D7D8D8D8D9D9D9D9D9D9DBDBDBDBDBDBDCDCDCDCDCDC
310
DEDEDEDEDEDEDFDFDFDFDFDFDFDFDFDFDFDFE3E3E300FFFFFFFFFFFFFFFFFFFF
310
FFFFFFFFFFFFFFFFFFFFFFFFFFFFFFFFFFFFFFFFFFFFFFFFFFFFFFFFFFFFFFFF
310
FFFFFFF5F5F5A6A6A61212120404040404040404040404040404040303031010
310
106E6E6EF3F3F3FFFFFFFFFFFFFFFFFFFFFFFFFFFFFFFFFFFFFFFFFFFFFFFFFF
310
FFFFFFFFFFFFFFFFFFFFFFFFFFFFFFFFFFFFFFFFFCFCFCE3E3E38F8F8F282828
310
1212120808080303030303030202020202020202020202020202020202020202
310
0202020202020203030303030303030302020202020202020203030303030303
310
03030303030303030303030303030303030303030404040707070D0D0D181818
310
3F3F3F9E9E9EEDEDEDFFFFFFFFFFFFFFFFFFFFFFFFFFFFFFE1E1E16D6D6D0505
310
05050505060606060606060606060606050505686868F7F7F7FFFFFFFFFFFFFF
310
FFFFFFFFFFFFFFFFFFFFFFFFFFFFFFFFFFFFFFFFFFFFFFFFFFFFFFFFFFFFFFFF
310
FCFCFCEDEDEDA0A0A03939390F0F0F0909090A0A0A0A0A0A0A0A0A0A0A0A0B0B
310
0B0B0B0B0B0B0B0B0B0B131313232323787878D9D9D9FBFBFBFFFFFFFFFFFFFF
310
FFFFF7F7F76F6F6F0C0C0C0D0D0D0D0D0D0E0E0E0E0E0E0E0E0E0E0E0E9A9A9A
310
FCFCFCFFFFFFFFFFFFFDFDFD6969690F0F0F1010101010101010101010101111
310
111313138E8E8EEFEFEFFFFFFFFFFFFFFFFFFFFFFFFFFFFFFFFFFFFFFFFFFFFF
310
FFFFFFFFFFFFFFFFFFFFFFFFFFFFFFFFFFFFFFFFFFFFFFFFFFFFFFFFFFFFFFFF
310
FFFFFFFFFFFFFFFFFFF8F8F86262621C1C1C1818181818181818181818181818
310
181E1E1E7E7E7EE6E6E6FFFFFFFFFFFFFFFFFFFFFFFFFBFBFBE0E0E08A8A8A3E
310
3E3E2323231E1E1E1C1C1C1C1C1C1C1C1C1C1C1C1D1D1D1D1D1D1D1D1D1D1D1D
310
1D1D1D1D1D1D1D1D1D1E1E1E1E1E1E1E1E1E1E1E1E1E1E1E1E1E1E1F1F1F1F1F
310
1F1F1F1F1F1F1F1F1F1F1F1F1F1F1F1F20202020202020202020202020202020
310
202020202020202020202020202039393900FFFFFFFFFFFFFFFFFFFFFFFFFFFF
310
FFFFFFFFFFFFFFFFFFFFFFFFFFFFFFFFFFFFFFFFFFFFFFFFFFFFFFFFFFFFFFF5
310
F5F5A8A8A81212120404040404040505050404040404040303031010106E6E6E
310
F2F2F2FFFFFFFFFFFFFFFFFFFFFFFFFFFFFFFFFFFFFFFFFFFFFFFFFFFFFFFFFF
310
FFFFFFFFFFFFFFFFFFFFFFFFFFFEFEFEE5E5E57E7E7E18181803030304040404
310
0404050505050505050505050505050505050505050505050505050505050505
310
0505050505050505050505050505050505050505050505050505050505050505
310
0505050505050505050504040404040404040404040404040403030307070721
310
21217F7F7FF0F0F0FFFFFFFFFFFFFFFFFFFFFFFFE0E0E06B6B6B030303040404
310
040404040404040404040404020202666666F7F7F7FFFFFFFFFFFFFFFFFFFFFF
310
FFFFFFFFFFFFFFFFFFFFFFFFFFFFFFFFFFFFFFFFFFFFFFFFFFF8F8F8D8D8D875
310
7575191919070707040404040404040404040404040404040404040404030303
310
0303031010104D4D4DAFAFAFECECECFBFBFBFFFFFFFFFFFFFFFFFFFFFFFFF7F7
310
F7696969020202040404040404040404040404040404030303959595FCFCFCFF
310
FFFFFFFFFFFDFDFD606060020202040404040404040404040404040404040404
310
888888EFEFEFFFFFFFFFFFFFFFFFFFFFFFFFFFFFFFFFFFFFFFFFFFFFFFFFFFFF
310
FFFFFFFFFFFFFFFFFFFFFFFFFFFFFFFFFFFFFFFFFFFFFFFFFFFFFFFFFFFFFFFF
310
FFFFFFFFFFF7F7F7575757070707030303040404040404040404040404070707
310
737373E5E5E5FFFFFFFFFFFFFFFFFFFDFDFDCFCFCF4646461212120606060303
310
0304040404040404040404040404040404040404040404040404040404040404
310
0404040404040404040404040404040404040404040404040404040404040404
310
0404040404040404040404040303030303030303030303030303030303030303
310
030303030303030202021D1D1D00FFFFFFFFFFFFFFFFFFFFFFFFFFFFFFFFFFFF
310
FFFFFFFFFFFFFFFFFFFFFFFFFFFFFFFFFFFFFFFFFFFFFFFFFFFFFFF5F5F5A7A7
310
A71212120404040404040404040505050505050404041010106D6D6DF2F2F2FF
310
FFFFFFFFFFFFFFFFFFFFFFFFFFFFFFFFFFFFFFFFFFFFFFFFFFFFFFFFFFFFFFFF
310
FFFFFFFFFFFFFFFFFFF6F6F6AAAAAA1919190303030404040505050505050505
310
0505050505050505050505050505050505050505050505050505050505050505
310
0505050505050505050505050505050505050505050505050505050505050505
310
0505050505050505050505050404040505050404040505050404040505052828
310
28999999FBFBFBFFFFFFFFFFFFFFFFFFE1E1E16C6C6C03030305050504040404
310
0404050505050505020202666666F7F7F7FFFFFFFFFFFFFFFFFFFFFFFFFFFFFF
310
FFFFFFFFFFFFFFFFFFFFFFFFFFFFFFFFFFFFF3F3F3B6B6B65050500F0F0F0303
310
030404040505050505050505050505050505050505050404040A0A0A22222280
310
8080DBDBDBF7F7F7FFFFFFFFFFFFFFFFFFFFFFFFFFFFFFFFFFFFF7F7F7696969
310
020202050505050505040404050505040404030303949494FBFBFBFFFFFFFFFF
310
FFFDFDFD606060020202040404050505050505050505040404040404898989EF
310
EFEFFFFFFFFFFFFFFFFFFFFFFFFFFFFFFFFFFFFFFFFFFFFFFFFFFFFFFFFFFFFF
310
FFFFFFFFFFFFFFFFFFFFFFFFFFFFFFFFFFFFFFFFFFFFFFFFFFFFFFFFFFFFFFFF
310
FFF7F7F7595959080808040404050505050505050505050505070707707070E3
310
E3E3FFFFFFFFFFFFFEFEFEE9E9E94D4D4D080808030303040404050505050505
310
0505050505050505050505050505050505050505050505050505050505050505
310
0505050505050505050505050505050505050505050505050505050505050505
310
0505050505050505050505050505050505040404050505040404050505050505
310
0505050404041D1D1D00FFFFFFFFFFFFFFFFFFFFFFFFFFFFFFFFFFFFFFFFFFFF
310
FFFFFFFFFFFFFFFFFFFFFFFFFFFFFFFFFFFFFFFFFFFFFFF5F5F5A7A7A7121212
310
0404040404040505050505050505050404040F0F0F6A6A6AF2F2F2FFFFFFFFFF
310
FFFFFFFFFFFFFFFFFFFFFFFFFFFFFFFFFFFFFFFFFFFFFFFFFFFFFFFFFFFFFFFF
310
FFFFFFFFFFD5D5D5454545050505040404050505050505050505050505050505
310
0505050404040404040404040404040404040404040404040404040404040404
310
0404040404040404040404040404040404040404040404040404040404040404
310
0404040404050505050505040404050505050505050505040404060606535353
310
E0E0E0FFFFFFFFFFFFFFFFFFE0E0E06B6B6B0303030404040505050505050505
310
05050505020202666666F7F7F7FFFFFFFFFFFFFFFFFFFFFFFFFFFFFFFFFFFFFF
310
FFFFFFFFFFFFFFFFFAFAFAE9E9E99494942C2C2C0A0A0A030303040404050505
310
050505050505050505050505040404050505131313545454B6B6B6EFEFEFFDFD
310
FDFFFFFFFFFFFFFFFFFFFFFFFFFFFFFFFFFFFFFFFFFFF7F7F769696902020204
310
0404050505040404050505040404030303939393FBFBFBFFFFFFFFFFFFFDFDFD
310
606060020202040404050505050505050505040404040404898989EFEFEFFFFF
310
FFFFFFFFFFFFFFFFFFFFFFFFFFFFFFFFFFFFFFFFFFFFFFFFFFFFFFFFFFFFFFFF
310
FFFFFFFFFFFFFFFFFFFFFFFFFFFFFFFFFFFFFFFFFFFFFFFFFFFFFFFFFFF7F7F7
310
575757070707040404050505050505050505040404070707707070E4E4E4FFFF
310
FFFFFFFFF9F9F99F9F9F21212103030305050505050505050505050505050505
310
0505050505050505050505050505050505050505050505050505050505050505
310
0505050505050505050505050505050505050505050505050505050505050505
310
0505050505050505050505050504040405050504040405050505050505050504
310
04041D1D1D00FFFFFFFFFFFFFFFFFFFFFFFFFFFFFFFFFFFFFFFFFFFFFFFFFFFF
310
FFFFFFFFFFFFFFFFFFFFFFFFFFFFFFFFFFFFFFF5F5F5A9A9A912121204040405
310
05050505050505050505050404040E0E0E686868F2F2F2FFFFFFFFFFFFFFFFFF
310
FFFFFFFFFFFFFFFFFFFFFFFFFFFFFFFFFFFFFFFFFFFFFFFFFFFFFFFFFFFFFCFC
310
FCBBBBBB1313130303030505050505050505050505050505050404040505050C
310
0C0C0D0D0D0D0D0D0C0C0C0C0C0C0C0C0C0C0C0C0C0C0C0B0B0B0B0B0B0B0B0B
310
0B0B0B0B0B0B0A0A0A0A0A0A0A0A0A0A0A0A0909090909090909090909090808
310
080404040404040505050505050505050505050404040303032424249B9B9BFD
310
FDFDFFFFFFFFFFFFE0E0E06B6B6B030303040404050505050505050505050505
310
020202656565F6F6F6FFFFFFFFFFFFFFFFFFFFFFFFFFFFFFFFFFFFFFFFFFFFFF
310
FFF6F6F6CACACA66666614141405050504040405050505050504040405050505
310
05050404040303030B0B0B2B2B2B8C8C8CE2E2E2F8F8F8FFFFFFFFFFFFFFFFFF
310
FFFFFFFFFFFFFFFFFFFFFFFFFFFFFFFFFFFFF7F7F76969690202020505050505
310
05050505040404040404030303949494FBFBFBFFFFFFFFFFFFFDFDFD60606002
310
0202040404050505050505050505040404040404868686EDEDEDFFFFFFFFFFFF
310
FFFFFFFFFFFFFFFFFFFFFFFFFFFFFFFFFFFFFFFFFFFFFFFFFFFFFFFFFFFFFFFF
310
FFFFFFFFFFFFFFFFFFFFFFFFFFFFFFFFFFFFFFFFFFFFFFFFFFF7F7F757575707
310
07070404040505050505050505050505050707076E6E6EE3E3E3FFFFFFFFFFFF
310
F4F4F45C5C5C0B0B0B0404040505050505050505050505050505050303030303
310
0302020203030303030303030303030303030303030303030303030303030303
310
0303030303030303030303030303040404040404040404040404040404040404
310
0404040404040404040505050404040505050505050505050505050404041D1D
310
1D00FFFFFFFFFFFFFFFFFFFFFFFFFFFFFFFFFFFFFFFFFFFFFFFFFFFFFFFFFFFF
310
FFFFFFFFFFFFFFFFFFFFFFFFFFFFFFF6F6F6A9A9A91212120404040404040505
310
050505050505050404040E0E0E686868F2F2F2FFFFFFFFFFFFFFFFFFFFFFFFFF
310
FFFFFFFFFFFFFFFFFFFFFFFFFFFFFFFFFFFFFFFFFFFFFFFFFFFFF1F1F1979797
310
0A0A0A0404040505050505050505050505050404040808082B2B2B6161616969
310
696767676666666666666565656565656464646161616060605F5F5F5E5E5E5D
310
5D5D5B5B5B5A5A5A5757575757575454545353535252525151514949492A2A2A
310
0A0A0A0404040505050505050505050404040303030909096D6D6DFDFDFDFFFF
310
FFFFFFFFE0E0E06B6B6B03030304040405050505050505050505050502020265
310
6565F7F7F7FFFFFFFFFFFFFFFFFFFFFFFFFFFFFFFFFFFFFDFDFDEFEFEFA8A8A8
310
4040400D0D0D0202020404040505050505050505050505050404040404040707
310
071515155B5B5BBEBEBEF1F1F1FEFEFEFFFFFFFFFFFFFFFFFFFFFFFFFFFFFFFF
310
FFFFFFFFFFFFFFFFFFFFFFFFFFFFF7F7F7696969020202050505050505050505
310
050505040404030303949494FBFBFBFFFFFFFFFFFFFDFDFD6060600202020404
310
04050505050505050505040404040404878787EEEEEEFFFFFFFFFFFFFFFFFFFF
310
FFFFFFFFFFFFFFFFFFFFFFFFFFFFFFFFFFFFFFFFFFFFFFFFFFFFFFFFFFFFFFFF
310
FFFFFFFFFFFFFFFFFFFFFFFFFFFFFFFFFFFFFFFFFFF7F7F75757570707070404
310
040505050505050505050505050707076D6D6DE3E3E3FFFFFFFFFFFFF2F2F245
310
45450505050404040505050505050505050505050505051616161F1F1F202020
310
2020202020202020202020202020202020202020202020202020202020202020
310
202020202020202020202020202020201F1F1F1F1F1F1F1F1F1F1F1F1F1F1F1F
310
1F1F1A1A1A0808080505050505050505050505050505050404041D1D1D00FFFF
310
FFFFFFFFFFFFFFFFFFFFFFFFFFFFFFFFFFFFFFFFFFFFFFFFFFFFFFFFFFFFFFFF
310
FFFFFFFFFFFFFFFFFFFFFFF6F6F6AAAAAA121212040404050505050505050505
310
0404040303030E0E0E666666F2F2F2FFFFFFFFFFFFFFFFFFFFFFFFFFFFFFFFFF
310
FFFFFFFFFFFFFFFFFFFFFFFFFFFFFFFFFFFFFFFFFFFFEDEDED89898909090904
310
04040505050505050505050505050303032F2F2FBBBBBBE9E9E9EBEBEBEBEBEB
310
EBEBEBEBEBEBEBEBEBEBEBEBEBEBEBEAEAEAEAEAEAEAEAEAEAEAEAE9E9E9E9E9
310
E9E9E9E9E8E8E8E8E8E8E8E8E8E8E8E8E8E8E8E7E7E7E6E6E6B7B7B742424203
310
0303040404050505040404050505030303020202606060FCFCFCFFFFFFFFFFFF
310
E0E0E06A6A6A030303040404050505050505050505050505020202646464F5F5
310
F5FFFFFFFFFFFFFFFFFFFFFFFFFFFFFFF8F8F8DDDDDD8080801E1E1E08080804
310
04040505050505050505050505050505050404040202020C0C0C3737379A9A9A
310
E8E8E8F9F9F9FFFFFFFFFFFFFFFFFFFFFFFFFFFFFFFFFFFFFFFFFFFFFFFFFFFF
310
FFFFFFFFFFFFFFFFFFFFF8F8F869696902020205050505050505050505050504
310
0404030303949494FBFBFBFFFFFFFFFFFFFDFDFD606060020202040404050505
310
050505050505040404040404868686EEEEEEFFFFFFFFFFFFFFFFFFFFFFFFFFFF
310
FFFFFFFFFFFFFFFFFFFFFFFFFFFFFFFFFFFFFFFFFFFFFFFFFFFFFFFFFFFFFFFF
310
FFFFFFFFFFFFFFFFFFFFFFFFFFFFFFFFFFF7F7F7585858070707040404050505
310
0505050505050505050707076D6D6DE2E2E2FFFFFFFFFFFFF2F2F24242420303
310
030404040505050505050505050404040C0C0C8F8F8FD6D6D6DFDFDFDFDFDFDF
310
DFDFDFDFDFDFDFDFDFDFDFDFDFDFDFDFDFDFDFDFDFDFDFDFDFDFDEDEDEDDDDDD
310
DCDCDCDBDBDBDBDBDBDADADAD9D9D9D8D8D8D8D8D8D7D7D7D6D6D6D6D6D6B3B3
310
B31E1E1E0404040505050505050505050505050404041C1C1C00FFFFFFFFFFFF
310
FFFFFFFFFFFFFFFFFFFFFFFFFFFFFFFFFFFFFFFFFFFFFFFFFFFFFFFFFFFFFFFF
310
FFFFFFFFFFFFFFF6F6F6AAAAAA12121204040405050505050504040405050503
310
03030E0E0E676767F2F2F2FFFFFFFFFFFFFFFFFFFFFFFFFFFFFFFFFFFFFFFFFF
310
FFFFFFFFFFFFFFFFFFFFFFFFFFFFFFFFFFFFECECEC8888880909090404040505
310
05050505050505040404020202424242F0F0F0FFFFFFFFFFFFFFFFFFFFFFFFFF
310
FFFFFFFFFFFFFFFFFFFFFFFFFFFFFFFFFFFFFFFFFFFFFFFFFFFFFFFFFFFFFFFF
310
FFFFFFFFFFFFFFFFFFFFFFFFFFFFFFFFFFFFFFFFFFEAEAEA8181810505050404
310
040404040505050404040404040202025F5F5FFCFCFCFFFFFFFFFFFFE0E0E06A
310
6A6A030303040404050505050505050505050505020202656565F6F6F6FFFFFF
310
FFFFFFFFFFFFFFFFFFF4F4F4BBBBBB5656561010100303030404040505050404
310
04050505050505050505040404080808171717666666C9C9C9F4F4F4FFFFFFFF
310
FFFFFFFFFFFFFFFFFFFFFFFFFFFFFFFFFFFFFFFFFFFFFFFFFFFFFFFFFFFFFFFF
310
FFFFFFFFFFFFF7F7F76969690202020505050505050505050505050404040303
310
03939393FAFAFAFFFFFFFFFFFFFDFDFD60606002020204040405050505050505
310
0505040404040404858585EDEDEDFFFFFFFFFFFFFFFFFFFFFFFFFFFFFFFFFFFF
310
FFFFFFFFFFFFFFFFFFFFFFFFFFFFFFFFFFFFFFFFFFFFFFFFFFFFFFFFFFFFFFFF
310
FFFFFFFFFFFFFFFFFFFFFFFFFFF7F7F758585807070704040405050505050505
310
05050505050707076D6D6DE3E3E3FFFFFFFFFFFFF2F2F2434343040404040404
310
0505050505050505050404040D0D0DA3A3A3F4F4F4FFFFFFFFFFFFFFFFFFFFFF
310
FFFFFFFFFFFFFFFFFFFFFFFFFFFFFFFFFFFFFFFFFFFFFFFFFFFFFFFFFFFFFFFE
310
FEFEFEFEFEFEFEFEFEFEFEFEFEFEFEFEFEFEFEFEFEFEFEFDFDFDDBDBDB242424
310
0404040505050505050505050505050404041C1C1C00FFFFFFFFFFFFFFFFFFFF
310
FFFFFFFFFFFFFFFFFFFFFFFFFFFFFFFFFFFFFFFFFFFFFFFFFFFFFFFFFFFFFFFF
310
FFFFFFF6F6F6ABABAB1212120404040505050404040505050404040404040E0E
310
0E666666F2F2F2FFFFFFFFFFFFFFFFFFFFFFFFFFFFFFFFFFFFFFFFFFFFFFFFFF
310
FFFFFFFFFFFFFFFFFFFFFFFFFFFFECECEC888888090909040404050505050505
310
050505040404020202464646F5F5F5FFFFFFFFFFFFFFFFFFFFFFFFFFFFFFFFFF
310
FFFFFFFFFFFFFFFFFFFFFFFFFFFFFFFFFFFFFFFFFFFFFFFFFFFFFFFFFFFFFFFF
310
FFFFFFFFFFFFFFFFFFFFFFFFFFFFFFFFFFEFEFEF898989050505040404050505
310
0404040505050303030101015E5E5EFCFCFCFFFFFFFFFFFFE0E0E06B6B6B0303
310
03040404050505050505050505050505020202636363F4F4F4FFFFFFFFFFFFFB
310
FBFBECECEC9B9B9B2F2F2F0B0B0B030303040404050505050505040404050505
310
0505050404040F0F0F414141A3A3A3EBEBEBFBFBFBFFFFFFFFFFFFFFFFFFFFFF
310
FFFFFFFFFFFFFFFFFFFFFFFFFFFFFFFFFFFFFFFFFFFFFFFFFFFFFFFFFFFFFFFF
310
FFFFF7F7F7696969020202050505050505050505050505040404030303939393
310
FAFAFAFFFFFFFFFFFFFDFDFD6060600202020404040505050505050505050404
310
04040404858585EDEDEDFFFFFFFFFFFFFFFFFFFFFFFFFFFFFFFFFFFFFFFFFFFF
310
FFFFFFFFFFFFFFFFFFFFFFFFFFFFFFFFFFFFFFFFFFFFFFFFFFFFFFFFFFFFFFFF
310
FFFFFFFFFFFFFFFFFFF7F7F75858580808080404040505050505050505050505
310
050707076D6D6DE3E3E3FFFFFFFFFFFFF2F2F242424203030304040405050505
310
05050505050404040D0D0DA2A2A2F4F4F4FFFFFFFFFFFFFFFFFFFFFFFFFFFFFF
310
FFFFFFFFFFFFFFFFFFFFFFFFFFFFFFFFFFFFFFFFFFFFFFFFFFFFFFFFFFFFFFFF
310
FFFFFFFFFFFFFFFFFFFFFFFFFFFFFFFFFFFFFFFEFEFEDDDDDD24242404040405
310
05050505050505050505050404041D1D1D00FFFFFFFFFFFFFFFFFFFFFFFFFFFF
310
FFFFFFFFFFFFFFFFFFFFFFFFFFFFFFFFFFFFFFFFFFFFFFFFFFFFFFFFFFFFFFF6
310
F6F6ABABAB1212120404040505050505050404040505050404040E0E0E656565
310
F2F2F2FFFFFFFFFFFFFFFFFFFFFFFFFFFFFFFFFFFFFFFFFFFFFFFFFFFFFFFFFF
310
FFFFFFFFFFFFFFFFFFFFECECEC88888809090904040405050505050505050504
310
0404020202454545F5F5F5FFFFFFFFFFFFFFFFFFFFFFFFFFFFFFFFFFFFFFFFFF
310
FFFFFFFFFFFFFFFFFFFFFFFFFFFFFFFFFFFFFFFFFFFFFFFFFFFFFFFFFFFFFFFF
310
FFFFFFFFFFFFFFFFFFFFFFFFFFEFEFEF8A8A8A05050504040405050504040404
310
04040404040101015E5E5EFCFCFCFFFFFFFFFFFFE0E0E06A6A6A030303040404
310
050505050505050505050505020202646464F5F5F5FFFFFFF6F6F6CCCCCC6A6A
310
6A1515150606060404040505050505050404040404040505050404040A0A0A20
310
2020757575D5D5D5F5F5F5FFFFFFFFFFFFFFFFFFFFFFFFFFFFFFFFFFFFFFFFFF
310
FFFFFFFFFFFFFFFFFFFFFFFFFFFFFFFFFFFFFFFFFFFFFFFFFFFFFFFFFFFFF8F8
310
F8696969020202050505050505050505050505040404030303939393FBFBFBFF
310
FFFFFFFFFFFDFDFD606060020202040404050505050505050505040404040404
310
858585EDEDEDFFFFFFFFFFFFFFFFFFFFFFFFFFFFFFFFFFFFFFFFFFFFFFFFFFFF
310
FFFFFFFFFFFFFFFFFFFFFFFFFFFFFFFFFFFFFFFFFFFFFFFFFFFFFFFFFFFFFFFF
310
FFFFFFFFFFF7F7F7585858070707040404050505050505050505050505070707
310
6C6C6CE2E2E2FFFFFFFFFFFFF3F3F34343430404040404040505050505050505
310
050505050D0D0D979797DDDDDDE5E5E5E6E6E6E6E6E6E6E6E6E6E6E6E7E7E7E7
310
E7E7E7E7E7E7E7E7E7E7E7E8E8E8E7E7E7E8E8E8E8E8E8E8E8E8E8E8E8E8E8E8
310
E8E8E8E9E9E9E9E9E9E9E9E9E9E9E9E9E9E9CFCFCF2222220404040505050505
310
050505050505050404041C1C1C00FFFFFFFFFFFFFFFFFFFFFFFFFFFFFFFFFFFF
310
FFFFFFFFFFFFFFFFFFFFFFFFFFFFFFFFFFFFFFFFFFFFFFFFFFFFFFF6F6F6ADAD
310
AD1313130404040404040505050505050404040404040E0E0E656565F2F2F2FF
310
FFFFFFFFFFFFFFFFFFFFFFFFFFFFFFFFFFFFFFFFFFFFFFFFFFFFFFFFFFFFFFFF
310
FFFFFFFFFFFFEDEDED8A8A8A0909090404040404040505050505050404040303
310
03454545F5F5F5FFFFFFFFFFFFFFFFFFFFFFFFFFFFFFFFFFFFFFFFFFFFFFFFFF
310
FFFFFFFFFFFFFFFFFFFFFFFFFFFFFFFFFFFFFFFFFFFFFFFFFFFFFFFFFFFFFFFF
310
FFFFFFFFFFFFFFFFFFEFEFEF8A8A8A0505050404040404040505050404040404
310
040202025E5E5EFCFCFCFFFFFFFFFFFFDFDFDF6A6A6A03030304040405050505
310
0505050505050505020202646464F3F3F3F0F0F0A9A9A93F3F3F0E0E0E020202
310
0404040505050505050505050505050505050505051111114D4D4DB1B1B1EDED
310
EDFCFCFCFFFFFFFFFFFFFFFFFFFFFFFFFFFFFFFFFFFFFFFFFFFFFFFFFFFFFFFF
310
FFFFFFFFFFFFFFFFFFFFFFFFFFFFFFFFFFFFFFFFFFFFFFFFFFFFF8F8F8696969
310
020202050505050505050505050505040404030303939393FAFAFAFFFFFFFFFF
310
FFFDFDFD606060020202040404050505050505050505040404040404858585ED
310
EDEDFFFFFFFFFFFFFFFFFFFFFFFFFFFFFFFFFFFFFFFFFFFFFFFFFFFFFFFFFFFF
310
FFFFFFFFFFFFFFFFFFFFFFFFFFFFFFFFFFFFFFFFFFFFFFFFFFFFFFFFFFFFFFFF
310
FFF7F7F75858580707070404040505050505050505050505050707076C6C6CE2
310
E2E2FFFFFFFFFFFFF2F2F2454545040404040404050505050505050505050505
310
0505052A2A2A4242424545454646464646464A4A4A4B4B4B4D4D4D4D4D4D4E4E
310
4E4F4F4F51515152525251515153535354545454545457575757575757575759
310
59595A5A5A5A5A5A5B5B5B5C5C5C5050500D0D0D040404050505050505050505
310
0505050404041C1C1C00FFFFFFFFFFFFFFFFFFFFFFFFFFFFFFFFFFFFFFFFFFFF
310
FFFFFFFFFFFFFFFFFFFFFFFFFFFFFFFFFFFFFFFFFFFFFFF6F6F6ADADAD131313
310
0404040505050404040404040505050303030D0D0D646464F1F1F1FFFFFFFFFF
310
FFFFFFFFFFFFFFFFFFFFFFFFFFFFFFFFFFFFFFFFFFFFFFFFFFFFFFFFFFFFFFFF
310
FFFFEDEDED8A8A8A0A0A0A040404050505040404050505040404030303454545
310
F5F5F5FFFFFFFFFFFFFFFFFFFFFFFFFFFFFFFFFFFFFFFFFFFFFFFFFFFFFFFFFF
310
FFFFFFFFFFFFFFFFFFFFFFFFFFFFFFFFFFFFFFFFFFFFFFFFFFFFFFFFFFFFFFFF
310
FFFFFFFFFFEFEFEF8A8A8A050505040404040404050505040404040404020202
310
5E5E5EFCFCFCFFFFFFFFFFFFDFDFDF6969690303030404040505050505050505
310
050505050202025F5F5FD5D5D58282821D1D1D08080804040405050505050505
310
05050505050505050404040C0C0C2A2A2A848484DFDFDFF7F7F7FFFFFFFFFFFF
310
FFFFFFFFFFFFFFFFFFFFFFFFFFFFFFFFFFFFFFFFFFFFFFFFFFFFFFFFFFFFFFFF
310
FFFFFFFFFFFFFFFFFFFFFFFFFFFFFFFFFFFFFFFFFFFFF8F8F869696902020205
310
0505050505050505050505040404030303939393FAFAFAFFFFFFFFFFFFFDFDFD
310
606060020202040404050505050505050505040404040404848484ECECECFFFF
310
FFFFFFFFFFFFFFFFFFFFFFFFFFFFFFFFFFFFFFFFFFFFFFFFFFFFFFFFFFFFFFFF
310
FFFFFFFFFFFFFFFFFFFFFFFFFFFFFFFFFFFFFFFFFFFFFFFFFFFFFFFFFFF7F7F7
310
5858580707070404040505050505050505050505050707076A6A6AE2E2E2FFFF
310
FFFFFFFFF5F5F56060600C0C0C04040405050505050505050505050505050505
310
0505070707070707070707070707080808080808080808080808080808090909
310
0909090909090909090909090909090909090A0A0A0A0A0A0A0A0A0A0A0A0A0A
310
0A0A0A0A0B0B0B0B0B0B09090905050505050505050505050505050505050504
310
04041C1C1C00FFFFFFFFFFFFFFFFFFFFFFFFFFFFFFFFFFFFFFFFFFFFFFFFFFFF
310
FFFFFFFFFFFFFFFFFFFFFFFFFFFFFFFFFFFFFFF6F6F6ADADAD13131304040404
310
04040505050505050404040404040D0D0D626262F1F1F1FFFFFFFFFFFFFFFFFF
310
FFFFFFFFFFFFFFFFFFFFFFFFFFFFFFFFFFFFFFFFFFFFFFFFFFFFFFFFFFFFEDED
310
ED8B8B8B0A0A0A040404040404050505050505040404030303454545F5F5F5FF
310
FFFFFFFFFFFFFFFFFFFFFFFFFFFFFFFFFFFFFFFFFFFFFFFFFFFFFFFFFFFFFFFF
310
FFFFFFFFFFFFFFFFFFFFFFFFFFFFFFFFFFFFFFFFFFFFFFFFFFFFFFFFFFFFFFFF
310
FFEFEFEF8A8A8A0505050404040404040505050505050303030101015E5E5EFC
310
FCFCFFFFFFFFFFFFDEDEDE686868030303040404050505050505050505050505
310
0202021D1D1D3333331010100303030404040505050505050505050505050505
310
05040404030303434343B7B7B7F0F0F0FEFEFEFFFFFFFFFFFFFFFFFFFFFFFFFF
310
FFFFFFFFFFFFFFFFFFFFFFFFFFFFFFFFFFFFFFFFFFFFFFFFFFFFFFFFFFFFFFFF
310
FFFFFFFFFFFFFFFFFFFFFFFFFFFFFFFFFFFFF8F8F86969690202020505050505
310
05050505050505040404030303939393FAFAFAFFFFFFFFFFFFFDFDFD60606002
310
0202040404050505050505050505040404040404848484ECECECFFFFFFFFFFFF
310
FFFFFFFFFFFFFFFFFFFFFFFFFFFFFFFFFFFFFFFFFFFFFFFFFFFFFFFFFFFFFFFF
310
FFFFFFFFFFFFFFFFFFFFFFFFFFFFFFFFFFFFFFFFFFFFFFFFFFF7F7F758585808
310
08080404040505050505050505050505050707076A6A6AE1E1E1FFFFFFFFFFFF
310
FAFAFAA5A5A52323230303030505050505050505050505050505050505050404
310
0404040404040404040404040404040404040404040404040404040404040404
310
0404040404040404040404040404040404040404040404040404040404040404
310
0404040404040404040505050505050505050505050505050505050404041C1C
310
1C00FFFFFFFFFFFFFFFFFFFFFFFFFFFFFFFFFFFFFFFFFFFFFFFFFFFFFFFFFFFF
310
FFFFFFFFFFFFFFFFFFFFFFFFFFFFFFF7F7F7AFAFAF1313130404040404040505
310
050505050505050404040D0D0D626262F1F1F1FFFFFFFFFFFFFFFFFFFFFFFFFF
310
FFFFFFFFFFFFFFFFFFFFFFFFFFFFFFFFFFFFFFFFFFFFFFFFFFFFEDEDED8A8A8A
310
0A0A0A040404050505050505050505040404020202434343F5F5F5FFFFFFFFFF
310
FFFFFFFFFFFFFFFFFFFFFFFFFFFFFFFFFFFFFFFFFFFFFFFFFFFFFFFFFFFFFFFF
310
FFFFFFFFFFFFFFFFFFFFFFFFFFFFFFFFFFFFFFFFFFFFFFFFFFFFFFFFFFEFEFEF
310
8A8A8A0505050505050505050404040404040404040101015E5E5EFCFCFCFFFF
310
FFFFFFFFDFDFDF6A6A6A0303030404040505050505050505050404040303031E
310
1E1E373737141414050505040404050505050505050505050505050505040404
310
0303033E3E3EB1B1B1EFEFEFFEFEFEFFFFFFFFFFFFFFFFFFFFFFFFFFFFFFFFFF
310
FFFFFFFFFFFFFFFFFFFFFFFFFFFFFFFFFFFFFFFFFFFFFFFFFFFFFFFFFFFFFFFF
310
FFFFFFFFFFFFFFFFFFFFFFFFFFFFF8F8F8696969020202050505050505050505
310
050505040404030303929292FAFAFAFFFFFFFFFFFFFDFDFD6060600202020404
310
04050505050505050505040404040404838383ECECECFFFFFFFFFFFFFFFFFFFF
310
FFFFFFFFFFFFFFFFFFFFFFFFFFFFFFFFFFFFFFFFFFFFFFFFFFFFFFFFFFFFFFFF
310
FFFFFFFFFFFFFFFFFFFFFFFFFFFFFFFFFFFFFFFFFFF7F7F75757570707070404
310
040505050505050505050404040707076C6C6CE2E2E2FFFFFFFFFFFFFEFEFEEB
310
EBEB5555550A0A0A030303040404050505050505050505050505050505050505
310
0505050505050505050505050505050505050505050505050505050505050505
310
0505050505050505050505050505050505050505050505050505050505050505
310
05050505050505050505050505050505050505050505050404041C1C1C00FFFF
310
FFFFFFFFFFFFFFFFFFFFFFFFFFFFFFFFFFFFFFFFFFFFFFFFFFFFFFFFFFFFFFFF
310
FFFFFFFFFFFFFFFFFFFFFFF7F7F7AEAEAE131313040404040404050505050505
310
0505050303030D0D0D626262F1F1F1FFFFFFFFFFFFFFFFFFFFFFFFFFFFFFFFFF
310
FFFFFFFFFFFFFFFFFFFFFEFEFEFCFCFCFFFFFFFFFFFFEDEDED8A8A8A0A0A0A04
310
0404050505040404050505040404020202444444F5F5F5FFFFFFFFFFFFFFFFFF
310
FFFFFFFFFFFFFFFFFFFFFFFFFFFFFFFFFFFFFFFFFFFFFFFFFFFFFFFFFFFFFFFF
310
FFFFFFFFFFFFFFFFFFFFFFFFFFFFFFFFFFFFFFFFFFFFFFFFFFEFEFEF8A8A8A05
310
05050404040505050505050505050303030101015E5E5EFCFCFCFFFFFFFFFFFF
310
E0E0E06A6A6A0303030404040505050505050505050505050202025E5E5EDDDD
310
DD9898982D2D2D0B0B0B0404040505050505050505050505050505050404040B
310
0B0B2424247E7E7EDEDEDEF7F7F7FFFFFFFFFFFFFFFFFFFFFFFFFFFFFFFFFFFF
310
FFFFFFFFFFFFFFFFFFFFFFFFFFFFFFFFFFFFFFFFFFFFFFFFFFFFFFFFFFFFFFFF
310
FFFFFFFFFFFFFFFFFFFFF8F8F869696902020205050505050505050505050504
310
0404030303929292FAFAFAFFFFFFFFFFFFFDFDFD606060020202040404050505
310
050505050505040404040404858585EDEDEDFFFFFFFFFFFFFFFFFFFFFFFFFFFF
310
FFFFFFFFFFFFFFFFFFFFFFFFFFFFFFFFFFFFFFFFFFFFFFFFFFFFFFFFFFFFFFFF
310
FFFFFFFFFFFFFFFFFFFFFFFFFFFFFFFFFFF7F7F7585858080808040404050505
310
0505050505050505050707076B6B6BE2E2E2FFFFFFFFFFFFFFFFFFFEFEFED9D9
310
D94D4D4D15151505050503030304040404040404040404040404040404040404
310
0404040404040404040404040404040404040404040404040404040404040404
310
0404040404040404040404040404040404040404040404040404040404040404
310
040505050505050505050505050505050505050404041C1C1C00FFFFFFFFFFFF
310
FFFFFFFFFFFFFFFFFFFFFFFFFFFFFFFFFFFFFFFFFFFFFFFFFFFFFFFFFFFFFFFF
310
FFFFFFFFFFFFFFF7F7F7AEAEAE13131304040405050505050505050505050504
310
04040E0E0E646464F2F2F2FFFFFFFFFFFFFFFFFFFFFFFFFFFFFFFFFFFFFFFFFF
310
FFFFFFFFFFFFFFFFFFFFFFFFFFFFFFFFFFFFEDEDED8A8A8A0909090404040404
310
04050505040404040404020202454545F5F5F5FFFFFFFFFFFFFFFFFFFFFFFFFF
310
FFFFFFFFFFFFFFFFFFFFFFFFFFFFFFFFFFFFFFFFFFFFFFFFFFFFFFFFFFFFFFFF
310
FFFFFFFFFFFFFFFFFFFFFFFFFFFFFFFFFFFFFFFFFFEFEFEF8A8A8A0606060606
310
060505050606060505050303030101015E5E5EFCFCFCFFFFFFFFFFFFDEDEDE68
310
6868030303040404050505050505050505050505020202636363F3F3F3F3F3F3
310
BCBCBC5858581212120404040404040505050505050505050505050505050404
310
041010104F4F4FB4B4B4EFEFEFFEFEFEFFFFFFFFFFFFFFFFFFFFFFFFFFFFFFFF
310
FFFFFFFFFFFFFFFFFFFFFFFFFFFFFFFFFFFFFFFFFFFFFFFFFFFFFFFFFFFFFFFF
310
FFFFFFFFFFFFF8F8F86969690202020505050505050505050505050404040303
310
03929292FAFAFAFFFFFFFFFFFFFDFDFD60606002020204040405050505050505
310
0505040404040404848484ECECECFFFFFFFFFFFFFFFFFFFFFFFFFFFFFFFFFFFF
310
FFFFFFFFFFFFFFFFFFFFFFFFFFFFFFFFFFFFFFFFFFFFFFFFFFFFFFFFFFFFFFFF
310
FFFFFFFFFFFFFFFFFFFFFFFFFFF7F7F758585808080804040405050505050505
310
05050505050707076B6B6BE2E2E2FFFFFFFFFFFFFFFFFFFFFFFFFDFDFDE2E2E2
310
9494943C3C3C2121211C1C1C1919191919191919191919191818181818181818
310
1818181818181818181817171717171717171717171717171717171717171716
310
1616161616161616161616161616161616161616161616151515121212060606
310
0505050505050505050505050505050404041C1C1C00FFFFFFFFFFFFFFFFFFFF
310
FFFFFFFFFFFFFFFFFFFFFFFFFFFFFFFFFFFFFFFFFFFFFFFFFFFFFFFFFFFFFFFF
310
FFFFFFF6F6F6ACACAC1212120404040404040505050505050505050303030D0D
310
0D646464F1F1F1FFFFFFFFFFFFFFFFFFFFFFFFFFFFFFFFFFFFFFFFFFFFFFFFFF
310
FFFFFFFFFFFFFFFFFFFFFFFFFFFFECECEC898989090909040404050505040404
310
050505040404030303454545F5F5F5FFFFFFFFFFFFFFFFFFFFFFFFFFFFFFFFFF
310
FFFFFFFFFFFFFFFFFFFFFFFFFFFFFFFFFFFFFFFFFFFFFFFFFFFFFFFFFFFFFFFF
310
FFFFFFFFFFFFFFFFFFFFFFFFFFFFFFFFFFEFEFEF8A8A8A050505040404040404
310
0404040404040404040101015E5E5EFCFCFCFFFFFFFFFFFFDEDEDE6868680303
310
03040404050505050505050505050505020202616161F1F1F1FFFFFFF9F9F9E0
310
E0E0878787232323090909040404050505050505050505050505050505040404
310
0A0A0A252525818181DEDEDEF7F7F7FFFFFFFFFFFFFFFFFFFFFFFFFFFFFFFFFF
310
FFFFFFFFFFFFFFFFFFFFFFFFFFFFFFFFFFFFFFFFFFFFFFFFFFFFFFFFFFFFFFFF
310
FFFFF7F7F7696969020202050505050505050505050505040404030303929292
310
FAFAFAFFFFFFFFFFFFFDFDFD6060600202020404040505050505050505050404
310
04040404848484ECECECFFFFFFFFFFFFFFFFFFFFFFFFFFFFFFFFFFFFFFFFFFFF
310
FFFFFFFFFFFFFFFFFFFFFFFFFFFFFFFFFFFFFFFFFFFFFFFFFFFFFFFFFFFFFFFF
310
FFFFFFFFFFFFFFFFFFF7F7F75757570707070404040505050505050505050505
310
050707076A6A6AE2E2E2FFFFFFFFFFFFFFFFFFFFFFFFFFFFFFFEFEFEF2F2F2E3
310
E3E3D6D6D6C3C3C3B5B5B5B3B3B3B1B1B1B0B0B0AEAEAEAEAEAEACACACABABAB
310
ABABABABABABA9A9A9A8A8A8A8A8A8A6A6A6A5A5A5A5A5A5A4A4A4A3A3A3A2A2
310
A2A2A2A2A0A0A09F9F9F9E9E9E9E9E9E9D9D9D9C9C9C83838316161603030305
310
05050505050505050505050404041C1C1C00FFFFFFFFFFFFFFFFFFFFFFFFFFFF
310
FFFFFFFFFFFFFFFFFFFFFFFFFFFFFFFFFFFFFFFFFFFFFFFFFFFFFFFFFFFFFFF6
310
F6F6ACACAC1313130404040404040505050505050505050303030D0D0D636363
310
F1F1F1FFFFFFFFFFFFFFFFFFFFFFFFFFFFFFFFFFFFFFFFFFFFFFFFFFFFFFFFFF
310
FFFFFFFFFFFFFFFFFFFFEDEDED8989890A0A0A04040405050505050505050504
310
0404020202424242F1F1F1FFFFFFFFFFFFFFFFFFFFFFFFFFFFFFFFFFFFFFFFFF
310
FFFFFFFFFFFFFFFFFFFFFFFFFFFFFFFFFFFFFFFFFFFFFFFFFFFFFFFFFFFFFFFF
310
FFFFFFFFFFFFFFFFFFFFFFFFFFEDEDED86868605050504040405050505050505
310
05050303030202025F5F5FFCFCFCFFFFFFFFFFFFDEDEDE686868030303040404
310
050505050505050505050505020202636363F3F3F3FFFFFFFFFFFFFEFEFEF0F0
310
F0B3B3B34D4D4D10101003030304040405050505050505050505050505050504
310
04041111114F4F4FB2B2B2EFEFEFFDFDFDFFFFFFFFFFFFFFFFFFFFFFFFFFFFFF
310
FFFFFFFFFFFFFFFFFFFFFFFFFFFFFFFFFFFFFFFFFFFFFFFFFFFFFFFFFFFFF8F8
310
F8696969020202050505050505050505050505040404030303939393FAFAFAFF
310
FFFFFFFFFFFDFDFD606060020202040404050505050505050505040404040404
310
838383ECECECFFFFFFFFFFFFFFFFFFFFFFFFFFFFFFFFFFFFFFFFFFFFFFFFFFFF
310
FFFFFFFFFFFFFFFFFFFFFFFFFFFFFFFFFFFFFFFFFFFFFFFFFFFFFFFFFFFFFFFF
310
FFFFFFFFFFF7F7F7585858080808040404050505050505050505050505070707
310
6A6A6AE2E2E2FFFFFFFFFFFFFFFFFFFFFFFFFFFFFFFFFFFFFFFFFFFFFFFFFDFD
310
FDFAFAFAF8F8F8F8F8F8F7F7F7F7F7F7F7F7F7F7F7F7F7F7F7F6F6F6F6F6F6F6
310
F6F6F6F6F6F6F6F6F6F6F6F6F6F6F5F5F5F5F5F5F5F5F5F5F5F5F5F5F5F5F5F5
310
F5F5F5F4F4F4F4F4F4F4F4F4F4F4F4F4F4F4D8D8D82323230404040909090505
310
050505050505050404041C1C1C00FFFFFFFFFFFFFFFFFFFFFFFFFFFFFFFFFFFF
310
FFFFFFFFFFFFFFFFFFFFFFFFFFFFFFFFFFFFFFFFFFFFFFFFFFFFFFF6F6F6AAAA
310
AA1212120404040404040505050505050505050303030D0D0D646464F1F1F1FF
310
FFFFFFFFFFFFFFFFFFFFFFFFFFFFFFFFFFFFFFFFFFFFFFFFFFFFFFFFFFFFFFFF
310
FFFFFFFFFFFFECECEC8888880909090404040505050505050505050505050303
310
03303030BFBFBFEAEAEAEDEDEDEDEDEDEDEDEDEEEEEEEEEEEEEEEEEEEEEEEEEE
310
EEEEEFEFEFEFEFEFEFEFEFEFEFEFF0F0F0F0F0F0F0F0F0F0F0F0F1F1F1F0F0F0
310
F1F1F1F1F1F1F0F0F0CBCBCB5B5B5B0404040404040505050505050404040404
310
040101015E5E5EFCFCFCFFFFFFFFFFFFDEDEDE67676703030304040405050505
310
0505050505050505020202646464F4F4F4FFFFFFFFFFFFFFFFFFFFFFFFF7F7F7
310
D7D7D77A7A7A1C1C1C0808080404040505050505050505050505050505050404
310
040A0A0A242424818181DDDDDDF7F7F7FFFFFFFFFFFFFFFFFFFFFFFFFFFFFFFF
310
FFFFFFFFFFFFFFFFFFFFFFFFFFFFFFFFFFFFFFFFFFFFFFFFFFFFF8F8F8696969
310
020202050505050505050505050505040404030303939393FAFAFAFFFFFFFFFF
310
FFFDFDFD606060020202040404050505050505050505040404040404848484EC
310
ECECFFFFFFFFFFFFFFFFFFFFFFFFFFFFFFFFFFFFFFFFFFFFFFFFFFFFFFFFFFFF
310
FFFFFFFFFFFFFFFFFFFFFFFFFFFFFFFFFFFFFFFFFFFFFFFFFFFFFFFFFFFFFFFF
310
FFEFEFEF4C4C4C0505050404040505050505050505050505050707076A6A6AE2
310
E2E2FFFFFFFFFFFFFFFFFFFFFFFFFFFFFFFFFFFFFFFFFFFFFFFFFFFFFFFFFFFF
310
FFFFFFFFFFFFFFFFFFFFFFFFFFFFFFFFFFFFFFFFFFFFFFFFFFFFFFFFFFFFFFFF
310
FFFFFFFFFFFFFFFFFFFFFFFFFFFFFFFFFFFFFFFFFFFFFFFFFFFFFFFFFFFFFFFF
310
FFFFFFFFFFFFFFFFFFFFFFFFFFFFE2E2E2252525030303050505050505050505
310
0505050404041C1C1C00FFFFFFFFFFFFFFFFFFFFFFFFFFFFFFFFFFFFFFFFFFFF
310
FFFFFFFFFFFFFFFFFFFFFFFFFFFFFFFFFFFFFFFFFFFFFFF6F6F6A9A9A9121212
310
0404040505050505050505050505050303030E0E0E656565F2F2F2FFFFFFFFFF
310
FFFFFFFFFFFFFFFFFFFFFFFFFFFFFFFFFFFFFFFFFFFFFFFFFFFFFFFFFFFFFFFF
310
FFFFF0F0F09494940A0A0A040404050505050505050505050505040404090909
310
2D2D2D6767677272727373737575757676767878787979797979797B7B7B7C7C
310
7C7E7E7E7E7E7E7F7F7F8282828585858484848686868989898787878A8A8A8A
310
8A8A8484845252520F0F0F040404050505050505040404050505040404030303
310
626262FCFCFCFFFFFFFFFFFFDFDFDF6969690303030404040505050505050505
310
05050505020202636363F3F3F3FFFFFFFFFFFFFFFFFFFFFFFFFFFFFFFCFCFCEE
310
EEEEA9A9A94343430E0E0E030303040404050505050505050505050505050505
310
0404041111114E4E4EB2B2B2EFEFEFFDFDFDFFFFFFFFFFFFFFFFFFFFFFFFFFFF
310
FFFFFFFFFFFFFFFFFFFFFFFFFFFFFFFFFFFFFFFFFFFFF6F6F668686802020205
310
0505050505050505050505040404030303939393FAFAFAFFFFFFFFFFFFFDFDFD
310
606060020202040404050505050505050505040404040404777777D1D1D1DFDF
310
DFDFDFDFDFDFDFDFDFDFDFDFDFE0E0E0E0E0E0E0E0E0E0E0E0E0E0E0E0E0E0E0
310
E0E0E1E1E1E1E1E1E1E1E1E1E1E1E1E1E1E1E1E1E1E1E1E2E2E2DFDFDFADADAD
310
2E2E2E0404040505050505050505050505050505050707076C6C6CE2E2E2FFFF
310
FFFFFFFFFFFFFFFFFFFFFFFFFFFFFFFFFFFFFFFFFFFFFFFFFFFFFFFFFFFFFFFF
310
FFFFFFFFFFFFFFFFFFFFFFFFFFFFFFFFFFFFFFFFFFFFFFFFFFFFFFFFFFFFFFFF
310
FFFFFFFFFFFFFFFFFFFFFFFFFFFFFFFFFFFFFFFFFFFFFFFFFFFFFFFFFFFFFFFF
310
FFFFFFFFFFFFFFFCFCFCCDCDCD21212104040405050505050505050505050504
310
04041C1C1C00FFFFFFFFFFFFFFFFFFFFFFFFFFFFFFFFFFFFFFFFFFFFFFFFFFFF
310
FFFFFFFFFFFFFFFFFFFFFFFFFFFFFFFFFFFFFFF6F6F6AAAAAA12121204040405
310
05050505050505050505050404040D0D0D636363F1F1F1FFFFFFFFFFFFFFFFFF
310
FFFFFFFFFFFFFFFFFFFFFFFFFFFFFFFFFFFFFFFFFFFFFFFFFFFFFFFFFFFFFBFB
310
FBB9B9B91212120303030505050505050505050505050505050404040505050D
310
0D0D0E0E0E0E0E0E0F0F0F0F0F0F0F0F0F101010101010101010101010101010
310
1010101010101111111111111111111212121212121212121212121212121111
310
110B0B0B040404050505050505050505050505040404030303151515818181FD
310
FDFDFFFFFFFFFFFFDEDEDE676767030303040404050505050505050505050505
310
020202656565F5F5F5FFFFFFFFFFFFFFFFFFFFFFFFFFFFFFFFFFFFFFFFFFF6F6
310
F6D2D2D272727218181807070704040405050505050505050505050505050504
310
04040A0A0A2323237D7D7DDADADAF7F7F7FFFFFFFFFFFFFFFFFFFFFFFFFFFFFF
310
FFFFFFFFFFFFFFFFFFFFFFFFFFFFFFFFFFFFF6F6F66868680202020505050505
310
05050505050505040404030303939393FAFAFAFFFFFFFFFFFFFCFCFC60606002
310
02020404040505050505050505050505050404041212121E1E1E202020202020
310
2121212121212222222222222323232424242424242525252727272727272828
310
282A2A2A2A2A2A2B2B2B2B2B2B2C2C2C2D2D2D2F2F2F2B2B2B1B1B1B09090905
310
0505050505050505050505050505040404080808868686EBEBEBFFFFFFFFFFFF
310
FEFEFEF2F2F2E2E2E2DEDEDEDEDEDEDFDFDFDFDFDFDFDFDFDFDFDFDFDFDFDFDF
310
DFDFDFDFDFDFDFDFDFDFDFDFDFDFDFDFDFDFDFDFDFDFDFDFDFDFDFDFDFDFDFDF
310
DFDFDFDFDFDFDFDFDFDFDFDFDFDFDFDFDFE0E0E0E0E0E0E0E0E0E0E0E0E0E0E0
310
E0E0E0D1D1D16363630E0E0E0404040505050505050505050505050404041E1E
310
1E00FFFFFFFFFFFFFFFFFFFFFFFFFFFFFFFFFFFFFFFFFFFFFFFFFFFFFFFFFFFF
310
FFFFFFFFFFFFFFFFFFFFFFFFFFFFFFF5F5F5A9A9A91212120404040505050505
310
050505050505050404040D0D0D646464F1F1F1FFFFFFFFFFFFFFFFFFFFFFFFFF
310
FFFFFFFFFFFFFFFFFFFFFFFFFFFFFFFFFFFFFFFFFFFFFFFFFFFFFFFFFFD2D2D2
310
3F3F3F0505050505050505050505050505050505050505050505050404040505
310
0504040404040404040404040404040404040404040404040404040404040404
310
0404040404040404040404040404040404040404040404040404040404050505
310
050505050505050505050505050505050505030303383838BDBDBDFEFEFEFFFF
310
FFFFFFFFDDDDDD67676703030304040405050505050505050505050502020264
310
6464F5F5F5FFFFFFFFFFFFFFFFFFFFFFFFFFFFFFFFFFFFFFFFFFFFFFFFFCFCFC
310
EDEDEDA3A3A33C3C3C0E0E0E0303030505050505050505050505050505050404
310
040404041010104A4A4AAEAEAEEEEEEEFCFCFCFFFFFFFFFFFFFFFFFFFFFFFFFF
310
FFFFFFFFFFFFFFFFFFFFFFFFFFFFF6F6F6686868020202050505050505050505
310
050505040404030303939393FAFAFAFFFFFFFFFFFFFDFDFD6060600202020404
310
0405050505050505050505050505050504040402020202020202020202020202
310
0202020202030303020202020202020202020202030303030303030303030303
310
0303030303030303030303030303030303030303030303030505050505050505
310
05050505050505050505040404111111B3B3B3FAFAFAFFFFFFFFFFFFFAFAFAA6
310
A6A63A3A3A202020202020202020202020202020202020202020202020202020
310
2020202020202020202020202020202020202020202020202020202020202020
310
202020202121212222222222222323232323232424242525252525252727271F
310
1F1F0C0C0C0505050505050505050505050505050505050303032A2A2A00FFFF
310
FFFFFFFFFFFFFFFFFFFFFFFFFFFFFFFFFFFFFFFFFFFFFFFFFFFFFFFFFFFFFFFF
310
FFFFFFFFFFFFFFFFFFFFFFF6F6F6AAAAAA121212040404050505050505050505
310
0505050404040D0D0D616161F1F1F1FFFFFFFFFFFFFFFFFFFFFFFFFFFFFFFFFF
310
FFFFFFFFFFFFFFFFFFFFFFFFFFFFFFFFFFFFFFFFFFFFFFFFFFF3F3F3A3A3A317
310
1717040404050505050505050505050505050505050505050505060606040404
310
0505050505050505050505050505050505050505050505050505050505050505
310
0505050504040405050504040405050505050505050505050505050505050505
310
05050505050505050505050303030C0C0C6C6C6CF4F4F4FFFFFFFFFFFFFFFFFF
310
DEDEDE676767030303040404050505050505050505050505020202626262F2F2
310
F2FFFFFFFFFFFFFFFFFFFFFFFFFFFFFFFFFFFFFFFFFFFFFFFFFFFFFFFFFFFFF5
310
F5F5CCCCCC6A6A6A151515070707040404050505050505050505050505050505
310
040404090909202020797979D5D5D5F6F6F6FFFFFFFFFFFFFFFFFFFFFFFFFFFF
310
FFFFFFFFFFFFFFFFFFFFF7F7F769696902020205050505050505050505050504
310
0404030303929292FAFAFAFFFFFFFFFFFFFCFCFC606060020202040404050505
310
0505050505050505050505050505050505050505050505050505050505050505
310
0505050505050505050505050505050505050505050505050505050505050504
310
0404040404040404040404040404050505050505050505050505050505050505
310
050505050505050505414141D2D2D2FFFFFFFFFFFFFFFFFFF9F9F99E9E9E2020
310
2002020204040403030303030303030303030303030303030303030303030303
310
0303030303030303030303020202020202020202020202020202020202020202
310
0202020202020202020202020303030202020202020202020303030303030404
310
040505050505050505050505050505050404040F0F0F76767600FFFFFFFFFFFF
310
FFFFFFFFFFFFFFFFFFFFFFFFFFFFFFFFFFFFFFFFFFFFFFFFFFFFFFFFFFFFFFFF
310
FFFFFFFFFFFFFFF6F6F6AAAAAA12121204040404040405050505050505050504
310
04040C0C0C606060F1F1F1FFFFFFFFFFFFFFFFFFFFFFFFFFFFFFFFFFFFFFFFFF
310
FFFFFFFFFFFFFFFFFFFFFFFFFFFFFFFFFFFFFFFFFFFEFEFEE1E1E17777771616
310
1603030304040405050505050505050505050505050504040405050505050505
310
0505050505050505050505050505050505050505050505050505050505040404
310
0505050404040505050505050505050505050505050505050505050505050505
310
050404040303030A0A0A555555D3D3D3FEFEFEFFFFFFFFFFFFFFFFFFDEDEDE67
310
6767030303040404050505050505050505050505020202626262F2F2F2FFFFFF
310
FFFFFFFFFFFFFFFFFFFFFFFFFFFFFFFFFFFFFFFFFFFFFFFFFFFFFFFFFFFFFBFB
310
FBEBEBEB9C9C9C3636360C0C0C03030305050505050505050505050505050504
310
04040404040F0F0F464646AAAAAAEDEDEDFCFCFCFFFFFFFFFFFFFFFFFFFFFFFF
310
FFFFFFFFFFFFF7F7F76969690202020505050505050505050505050404040303
310
03929292FAFAFAFFFFFFFFFFFFFDFDFD60606002020204040405050505050505
310
0505050505050505050505050505050505050505050505050505050505050505
310
0505050505050505050505050505050505050505050505050505050505050505
310
0505050505050505050505050505050505050505050505050505050505050503
310
03031B1B1BABABABF6F6F6FFFFFFFFFFFFFFFFFFF9F9F99F9F9F202020040404
310
0505050505050505050505050505050505050505050505050505050505050505
310
0505050505050505050505050505050505050505050505050505050505050505
310
0505050505050505050505050505050505050505050505050505050505050505
310
050505050505050505050505040404303030D4D4D400FFFFFFFFFFFFFFFFFFFF
310
FFFFFFFFFFFFFFFFFFFFFFFFFFFFFFFFFFFFFFFFFFFFFFFFFFFFFFFFFFFFFFFF
310
FFFFFFF6F6F6ACACAC1212120404040505050505050505050505050404040C0C
310
0C5F5F5FF1F1F1FFFFFFFFFFFFFFFFFFFFFFFFFFFFFFFFFFFFFFFFFFFFFFFFFF
310
FFFFFFFFFFFFFFFFFFFFFFFFFFFFFFFFFFFFFFFFFCFCFCDFDFDF858585222222
310
1010100606060202020303030404040404040404040404040404040404040404
310
0404040404040404040404040404040404040404040404040404040404040404
310
0404040404040404040404040404040404040404040404040404030303090909
310
181818595959D0D0D0FAFAFAFFFFFFFFFFFFFFFFFFFFFFFFE0E0E06A6A6A0303
310
03040404050505050505050505050505020202636363F4F4F4FFFFFFFFFFFFFF
310
FFFFFFFFFFFFFFFFFFFFFFFFFFFFFFFFFFFFFFFFFFFFFFFFFFFFFFFFFFFFFFFF
310
F4F4F4C5C5C56262621414140606060404040404040404040404040404040404
310
040303030808081C1C1C757575D2D2D2F5F5F5FFFFFFFFFFFFFFFFFFFFFFFFFF
310
FFFFF7F7F7696969020202040404040404040404040404040404030303929292
310
FAFAFAFFFFFFFFFFFFFDFDFD6060600202020404040404040404040404040404
310
0404040404040404040404040404040404040404040404040404040404040404
310
0404040404040404040404040404040404040404040404040404040404040404
310
0404040404040404040404040404040404040404040404040606061C1C1C8B8B
310
8BE9E9E9FFFFFFFFFFFFFFFFFFFFFFFFF9F9F9A0A0A021212104040405050505
310
0505050505050505050505050505050505050505050505050505050505050505
310
0505050505050505050505050505050505050505050505050505050505050505
310
0505050505050505050505050505050505050505050505050505050505050504
310
04040404040505052A2A2AABABABF6F6F600E7E7E7E7E7E7E7E7E7E7E7E7E7E7
310
E7E7E7E7E7E7E7E7E7E7E8E8E8E8E8E8E8E8E8E8E8E8E8E8E8E8E8E8E8E8E8E2
310
E2E2A3A3A31111110404040505050505050505050505050404040B0B0B595959
310
E2E2E2EFEFEFEFEFEFF0F0F0F0F0F0F0F0F0F0F0F0F0F0F0F1F1F1F1F1F1F1F1
310
F1F1F1F1F2F2F2F2F2F2F2F2F2F2F2F2F4F4F4F9F9F9EFEFEFCACACA7B7B7B3D
310
3D3D2121211E1E1E1D1D1D1D1D1D1D1D1D1D1D1D1D1D1D1C1C1C1C1C1C1C1C1C
310
1C1C1C1C1C1C1C1C1C1B1B1B1B1B1B1B1B1B1B1B1B1B1B1B1B1B1B1B1B1B1A1A
310
1A1A1A1A1A1A1A1A1A1A1A1A1A1919191A1A1A1C1C1C272727525252A6A6A6E8
310
E8E8FBFBFBFFFFFFFFFFFFFFFFFFFFFFFFFFFFFFDFDFDF696969030303040404
310
050505050505050505050505020202636363F4F4F4FFFFFFFFFFFFFFFFFFFFFF
310
FFFFFFFFFFFFFFFFFFFFFFFFFFFFFFFFFFFFFFFFFFFFFFFFFFFFFFFFFFFFFFFA
310
FAFAE8E8E8959595323232131313121212121212111111111111111111111111
310
1010101010101E1E1E4B4B4BB2B2B2F8F8F8FFFFFFFFFFFFFFFFFFFFFFFFF7F7
310
F77070700D0D0D0E0E0E0E0E0E0D0D0D0D0D0D0D0D0D0D0D0D979797FAFAFAFF
310
FFFFFFFFFFFDFDFD6767670B0B0B0B0B0B0B0B0B0B0B0B0B0B0B0B0B0B0A0A0A
310
0A0A0A0A0A0A0A0A0A0A0A0A0909090909090909090808080808080808080808
310
0807070707070707070707070707070706060606060606060606060606060605
310
05050505050505050606060909090F0F0F191919393939A4A4A4EAEAEAFDFDFD
310
FFFFFFFFFFFFFFFFFFFFFFFFF9F9F99F9F9F2121210202020303030303030202
310
0202020203030303030303030302020202020202020202020202020202020203
310
0303020202030303030303030303030303030303030303030303030303030303
310
0303030303030303030303030404040404040404040303030303030A0A0A1515
310
15373737B1B1B1F1F1F1FEFEFE004E4E4E4C4C4C4E4E4E4E4E4E4E4E4E4F4F4F
310
4F4F4F5151515353535454545454545555555656565656565757575656563B3B
310
3B0707070404040505050505050505050505050404040707072D2D2D7B7B7B81
310
81818181818282828484848484848585858787878A8A8A8B8B8B8B8B8B8D8D8D
310
8E8E8E909090939393929292A5A5A5E3E3E3FEFEFEFBFBFBEEEEEEE4E4E4DCDC
310
DCD1D1D1CCCCCCCBCBCBC9C9C9C9C9C9C8C8C8C6C6C6C6C6C6C4C4C4C3C3C3C3
310
C3C3C2C2C2C0C0C0C0C0C0C0C0C0BEBEBEBDBDBDBDBDBDBCBCBCBABABAB9B9B9
310
B8B8B8B7B7B7B6B6B6B5B5B5B8B8B8C6C6C6DADADAE8E8E8F6F6F6FFFFFFFFFF
310
FFFFFFFFFFFFFFFFFFFFFFFFFFFFFFFFE0E0E06B6B6B03030304040405050504
310
0404050505050505020202636363F4F4F4FFFFFFFFFFFFFFFFFFFFFFFFFFFFFF
310
FFFFFFFFFFFFFFFFFFFFFFFFFFFFFFFFFFFFFFFFFFFFFFFFFFFFFFFFFFFFFFFF
310
FFF3F3F3C2C2C29191918686868787878484848484848282828181817F7F7F7C
310
7C7C7B7B7B7C7C7C939393D7D7D7FFFFFFFFFFFFFFFFFFFFFFFFFBFBFBA9A9A9
310
6F6F6F6F6F6F6D6D6D6C6C6C6C6C6C6B6B6B676767BDBDBDFCFCFCFFFFFFFFFF
310
FFFDFDFD9B9B9B6060606060605F5F5F5D5D5D5D5D5D5C5C5C5A5A5A5A5A5A57
310
57575656565656565353535151515050504E4E4E4D4D4D4B4B4B4B4B4B484848
310
4747474646464545454444444242424141414040403F3F3F3D3D3D3C3C3C3B3B
310
3B3A3A3A3F3F3F525252757575ACACACDADADAF5F5F5FEFEFEFFFFFFFFFFFFFF
310
FFFFFFFFFFFFFFFFFBFBFBB0B0B03F3F3F272727282828272727252525252525
310
2222222323232222222121212020202020202020202020202020202020202020
310
2020202020202020202020202020202020202020202020202020202020202020
310
20202020202020202020202020202020202121212A2A2A575757999999DADADA
310
F7F7F7FEFEFEFFFFFF000D0D0D08080808080808080808080808080808080809
310
09090909090909090909090909090A0A0A0A0A0A0A0A0A0A0A0A080808040404
310
0505050505050505050505050505050505050404040707071010101111111111
310
1111111111111111111112121212121212121212121212121213131313131313
310
1313141414131313393939BFBFBFFBFBFBFFFFFFFFFFFFFFFFFFFFFFFFFDFDFD
310
FCFCFCFCFCFCFBFBFBFBFBFBFBFBFBFBFBFBFBFBFBFBFBFBFAFAFAFAFAFAFAFA
310
FAFAFAFAFAFAFAFAFAFAFAFAFAF9F9F9F9F9F9F9F9F9F9F9F9F9F9F9F9F9F9F8
310
F8F8F8F8F8F8F8F8F9F9F9FBFBFBFEFEFEFFFFFFFFFFFFFFFFFFFFFFFFFFFFFF
310
FFFFFFFFFFFFFFFFFFFFFFFFE0E0E06B6B6B0303030606060606060505050404
310
04050505020202636363F4F4F4FFFFFFFFFFFFFFFFFFFFFFFFFFFFFFFFFFFFFF
310
FFFFFFFFFFFFFFFFFFFFFFFFFFFFFFFFFFFFFFFFFFFFFFFFFFFFFFFFFFFFFFFF
310
FAFAFAF2F2F2F0F0F0F0F0F0F0F0F0F0F0F0F0F0F0EFEFEFEFEFEFEFEFEFEEEE
310
EEEEEEEEEFEFEFF8F8F8FFFFFFFFFFFFFFFFFFFFFFFFFFFFFFF4F4F4ECECECEC
310
ECECECECECECECECECECECECECECEBEBEBF6F6F6FFFFFFFFFFFFFFFFFFFFFFFF
310
F2F2F2EAEAEAEAEAEAEAEAEAE9E9E9E9E9E9E9E9E9E9E9E9E9E9E9E8E8E8E8E8
310
E8E8E8E8E8E8E8E7E7E7E7E7E7E7E7E7E7E7E7E6E6E6E6E6E6E6E6E6E6E6E6E6
310
E6E6E5E5E5E5E5E5E5E5E5E5E5E5E5E5E5E4E4E4E4E4E4E4E4E4E4E4E4E4E4E4
310
E4E4E4E8E8E8EDEDEDF6F6F6FDFDFDFFFFFFFFFFFFFFFFFFFFFFFFFFFFFFFFFF
310
FFFFFFFFFEFEFEF4F4F4E4E4E4E0E0E0E1E1E1E0E0E0E0E0E0E0E0E0E0E0E0E0
310
E0E0E0E0E0DFDFDFDFDFDFDFDFDFDFDFDFDFDFDFDFDFDFDFDFDFDFDFDFDFDFDF
310
DFDFDFDFDFDFDFDFDFDFDFDFDFDFDFDFDFDFDFDFDFDFDFDFDFDFDFDEDEDEDDDD
310
DDDCDCDCDCDCDCDCDCDCDCDCDCDFDFDFE1E1E1E8E8E8F3F3F3FEFEFEFFFFFFFF
310
FFFFFFFFFF000707070404040404040404040404040404040404040404040404
310
0404040404040404040404040404040404040404040405050505050505050505
310
0505050505050505050505040404050505040404040404040404040404040404
310
0404040404040404040404040404040404040404040404040404040404040404
310
040303032A2A2ABBBBBBFBFBFBFFFFFFFFFFFFFFFFFFFFFFFFFFFFFFFFFFFFFF
310
FFFFFFFFFFFFFFFFFFFFFFFFFFFFFFFFFFFFFFFFFFFFFFFFFFFFFFFFFFFFFFFF
310
FFFFFFFFFFFFFFFFFFFFFFFFFFFFFFFFFFFFFFFFFFFFFFFFFFFFFFFFFFFFFFFF
310
FFFFFFFFFFFFFFFFFFFFFFFFFFFFFFFFFFFFFFFFFFFFFFFFFFFFFFFFFFFFFFFF
310
FFFFFFFFFFFFFFFFE0E0E06B6B6B030303040404040404040404040404050505
310
020202636363F4F4F4FFFFFFFFFFFFFFFFFFFFFFFFFFFFFFFFFFFFFFFFFFFFFF
310
FFFFFFFFFFFFFFFFFFFFFFFFFFFFFFFFFFFFFFFFFFFFFFFFFFFFFFFFFFFFFFFF
310
FFFFFFFFFFFFFFFFFFFFFFFFFFFFFFFFFFFFFFFFFFFFFFFFFFFFFFFFFFFFFFFF
310
FFFFFFFFFFFFFFFFFFFFFFFFFFFFFFFFFFFFFEFEFEECECECDFDFDFDFDFDFDFDF
310
DFDFDFDFDFDFDFDFDFDFDFDFDFF1F1F1FEFEFEFFFFFFFFFFFFFFFFFFFFFFFFFF
310
FFFFFFFFFFFFFFFFFFFFFFFFFFFFFFFFFFFFFFFFFFFFFFFFFFFFFFFFFFFFFFFF
310
FFFFFFFFFFFFFFFFFFFFFFFFFFFFFFFFFFFFFFFFFFFFFFFFFFFFFFFFFFFFFFFF
310
FFFFFFFFFFFFFFFFFFFFFFFFFFFFFFFFFFFFFFFFFFFFFFFFFFFFFFFFFFFFFFFF
310
FFFFFFFFFFFFFFFFFFFFFFFFFFFFFFFFFFFFFFFFFFFFFFFFFFFFFFFFFFFFFFFF
310
FFFFFFFFFFFFFFFFFFFFFFFFFFFFFFFFFFFFFFFFFFFFFFFFFFFFFFFFFFFFFFFF
310
FFFFFFFFFFFFFFFFFFFFFFFFFFFFFFFFFFFFFFFFFFFFFFFFFFFFFFFFFFFFFFFF
310
FFFFFFFFFFFFFFFFFFFFFFFFFFFFFFFFFFFFFFFFFFFFFFFFFFFFFFFFFFFFFFFF
310
FFFFFFFFFFFFFFFFFFFFFFFFFFFFFFFFFFFFFFFFFFFFFFFFFFFFFFFFFFFFFFFF
310
FF00060606040404040404040404050505050505050505050505050505050505
310
0505050505050505050505050505050505050505050505050505050505050505
310
0505050505050505050507070704040404040405050505050505050505050505
310
0505050505050505050505050505050505050505050505050505050505030303
310
2A2A2ABBBBBBFBFBFBFFFFFFFFFFFFFFFFFFFFFFFFFFFFFFFFFFFFFFFFFFFFFF
310
FFFFFFFFFFFFFFFFFFFFFFFFFFFFFFFFFFFFFFFFFFFFFFFFFFFFFFFFFFFFFFFF
310
FFFFFFFFFFFFFFFFFFFFFFFFFFFFFFFFFFFFFFFFFFFFFFFFFFFFFFFFFFFFFFFF
310
FFFFFFFFFFFFFFFFFFFFFFFFFFFFFFFFFFFFFFFFFFFFFFFFFFFFFFFFFFFFFFFF
310
FFFFFFFFE0E0E06B6B6B03030304040404040404040405050505050502020263
310
6363F4F4F4FFFFFFFFFFFFFFFFFFFFFFFFFFFFFFFFFFFFFFFFFFFFFFFFFFFFFF
310
FFFFFFFFFFFFFFFFFFFFFFFFFFFFFFFFFFFFFFFFFFFFFFFFFFFFFFFFFFFFFFFF
310
FFFFFFFFFFFFFFFFFFFFFFFFFFFFFFFFFFFFFFFFFFFFFFFFFFFFFFFFFFFFFFFF
310
FFFFFFFFFFFFFFFFFFFFFFFFFFFFF8F8F87C7C7C202020202020202020202020
310
212121222222222222A0A0A0FBFBFBFFFFFFFFFFFFFFFFFFFFFFFFFFFFFFFFFF
310
FFFFFFFFFFFFFFFFFFFFFFFFFFFFFFFFFFFFFFFFFFFFFFFFFFFFFFFFFFFFFFFF
310
FFFFFFFFFFFFFFFFFFFFFFFFFFFFFFFFFFFFFFFFFFFFFFFFFFFFFFFFFFFFFFFF
310
FFFFFFFFFFFFFFFFFFFFFFFFFFFFFFFFFFFFFFFFFFFFFFFFFFFFFFFFFFFFFFFF
310
FFFFFFFFFFFFFFFFFFFFFFFFFFFFFFFFFFFFFFFFFFFFFFFFFFFFFFFFFFFFFFFF
310
FFFFFFFFFFFFFFFFFFFFFFFFFFFFFFFFFFFFFFFFFFFFFFFFFFFFFFFFFFFFFFFF
310
FFFFFFFFFFFFFFFFFFFFFFFFFFFFFFFFFFFFFFFFFFFFFFFFFFFFFFFFFFFFFFFF
310
FFFFFFFFFFFFFFFFFFFFFFFFFFFFFFFFFFFFFFFFFFFFFFFFFFFFFFFFFFFFFFFF
310
FFFFFFFFFFFFFFFFFFFFFFFFFFFFFFFFFFFFFFFFFFFFFFFFFFFFFFFFFF000606
310
0606060605050504040405050505050505050505050505050505050505050505
310
0505050505050505050505050505050505050505050505050505050505050505
310
0505050505050505050404040505050505050505050505050505050505050505
310
050505050505050505050505050505050505050505050404040303032A2A2ABD
310
BDBDFBFBFBFFFFFFFFFFFFFFFFFFFFFFFFFFFFFFFFFFFFFFFFFFFFFFFFFFFFFF
310
FFFFFFFFFFFFFFFFFFFFFFFFFFFFFFFFFFFFFFFFFFFFFFFFFFFFFFFFFFFFFFFF
310
FFFFFFFFFFFFFFFFFFFFFFFFFFFFFFFFFFFFFFFFFFFFFFFFFFFFFFFFFFFFFFFF
310
FFFFFFFFFFFFFFFFFFFFFFFFFFFFFFFFFFFFFFFFFFFFFFFFFFFFFFFFFFFFFFFF
310
E1E1E16C6C6C030303040404050505050505050505050505020202646464F5F5
310
F5FFFFFFFFFFFFFFFFFFFFFFFFFFFFFFFFFFFFFFFFFFFFFFFFFFFFFFFFFFFFFF
310
FFFFFFFFFFFFFFFFFFFFFFFFFFFFFFFFFFFFFFFFFFFFFFFFFFFFFFFFFFFFFFFF
310
FFFFFFFFFFFFFFFFFFFFFFFFFFFFFFFFFFFFFFFFFFFFFFFFFFFFFFFFFFFFFFFF
310
FFFFFFFFFFFFFFFFFFFFF9F9F96A6A6A01010102020202020202020202020202
310
0202020202939393FAFAFAFFFFFFFFFFFFFFFFFFFFFFFFFFFFFFFFFFFFFFFFFF
310
FFFFFFFFFFFFFFFFFFFFFFFFFFFFFFFFFFFFFFFFFFFFFFFFFFFFFFFFFFFFFFFF
310
FFFFFFFFFFFFFFFFFFFFFFFFFFFFFFFFFFFFFFFFFFFFFFFFFFFFFFFFFFFFFFFF
310
FFFFFFFFFFFFFFFFFFFFFFFFFFFFFFFFFFFFFFFFFFFFFFFFFFFFFFFFFFFFFFFF
310
FFFFFFFFFFFFFFFFFFFFFFFFFFFFFFFFFFFFFFFFFFFFFFFFFFFFFFFFFFFFFFFF
310
FFFFFFFFFFFFFFFFFFFFFFFFFFFFFFFFFFFFFFFFFFFFFFFFFFFFFFFFFFFFFFFF
310
FFFFFFFFFFFFFFFFFFFFFFFFFFFFFFFFFFFFFFFFFFFFFFFFFFFFFFFFFFFFFFFF
310
FFFFFFFFFFFFFFFFFFFFFFFFFFFFFFFFFFFFFFFFFFFFFFFFFFFFFFFFFFFFFFFF
310
FFFFFFFFFFFFFFFFFFFFFFFFFFFFFFFFFFFFFFFFFFFFFFFFFF00060606040404
310
0404040505050505050505050404040505050505050505050505050505050505
310
0505050505050505050505050505050505050505050505050505050505050505
310
0505050505050505050505050505050505050505050505050505050505050505
310
0505050505050505050505050505050404040505050303032A2A2ABDBDBDFBFB
310
FBFFFFFFFFFFFFFFFFFFFFFFFFFFFFFFFFFFFFFFFFFFFFFFFFFFFFFFFFFFFFFF
310
FFFFFFFFFFFFFFFFFFFFFFFFFFFFFFFFFFFFFFFFFFFFFFFFFFFFFFFFFFFFFFFF
310
FFFFFFFFFFFFFFFFFFFFFFFFFFFFFFFFFFFFFFFFFFFFFFFFFFFFFFFFFFFFFFFF
310
FFFFFFFFFFFFFFFFFFFFFFFFFFFFFFFFFFFFFFFFFFFFFFFFFFFFFFFFE0E0E06B
310
6B6B030303040404050505050505050505040404020202636363F4F4F4FFFFFF
310
FFFFFFFFFFFFFFFFFFFFFFFFFFFFFFFFFFFFFFFFFFFFFFFFFFFFFFFFFFFFFFFF
310
FFFFFFFFFFFFFFFFFFFFFFFFFFFFFFFFFFFFFFFFFFFFFFFFFFFFFFFFFFFFFFFF
310
FFFFFFFFFFFFFFFFFFFFFFFFFFFFFFFFFFFFFFFFFFFFFFFFFFFFFFFFFFFFFFFF
310
FFFFFFFFFFFFF9F9F96A6A6A0202020505050505050505050505050404040303
310
03939393FBFBFBFFFFFFFFFFFFFFFFFFFFFFFFFFFFFFFFFFFFFFFFFFFFFFFFFF
310
FFFFFFFFFFFFFFFFFFFFFFFFFFFFFFFFFFFFFFFFFFFFFFFFFFFFFFFFFFFFFFFF
310
FFFFFFFFFFFFFFFFFFFFFFFFFFFFFFFFFFFFFFFFFFFFFFFFFFFFFFFFFFFFFFFF
310
FFFFFFFFFFFFFFFFFFFFFFFFFFFFFFFFFFFFFFFFFFFFFFFFFFFFFFFFFFFFFFFF
310
FFFFFFFFFFFFFFFFFFFFFFFFFFFFFFFFFFFFFFFFFFFFFFFFFFFFFFFFFFFFFFFF
310
FFFFFFFFFFFFFFFFFFFFFFFFFFFFFFFFFFFFFFFFFFFFFFFFFFFFFFFFFFFFFFFF
310
FFFFFFFFFFFFFFFFFFFFFFFFFFFFFFFFFFFFFFFFFFFFFFFFFFFFFFFFFFFFFFFF
310
FFFFFFFFFFFFFFFFFFFFFFFFFFFFFFFFFFFFFFFFFFFFFFFFFFFFFFFFFFFFFFFF
310
FFFFFFFFFFFFFFFFFFFFFFFFFFFFFFFFFFFFFFFFFF0006060602020203030303
310
0303030303030303030303030303030303030303040404040404040404040404
310
0404040404040404040404040404040404040404040404040404040404040404
310
0404040404040404040404040404040404040404040404040404040404040404
310
04040404040404040404040404040404040303032B2B2BBEBEBEFCFCFCFFFFFF
310
FFFFFFFFFFFFFFFFFFFFFFFFFFFFFFFFFFFFFFFFFFFFFFFFFFFFFFFFFFFFFFFF
310
FFFFFFFFFFFFFFFFFFFFFFFFFFFFFFFFFFFFFFFFFFFFFFFFFFFFFFFFFFFFFFFF
310
FFFFFFFFFFFFFFFFFFFFFFFFFFFFFFFFFFFFFFFFFFFFFFFFFFFFFFFFFFFFFFFF
310
FFFFFFFFFFFFFFFFFFFFFFFFFFFFFFFFFFFFFFFFFFFFFFFFE1E1E16C6C6C0303
310
03040404040404040404040404040404020202636363F4F4F4FFFFFFFFFFFFFF
310
FFFFFFFFFFFFFFFFFFFFFFFFFFFFFFFFFFFFFFFFFFFFFFFFFFFFFFFFFFFFFFFF
310
FFFFFFFFFFFFFFFFFFFFFFFFFFFFFFFFFFFFFFFFFFFFFFFFFFFFFFFFFFFFFFFF
310
FFFFFFFFFFFFFFFFFFFFFFFFFFFFFFFFFFFFFFFFFFFFFFFFFFFFFFFFFFFFFFFF
310
FFFFFAFAFA6B6B6B020202040404040404040404040404040404030303939393
310
FAFAFAFFFFFFFFFFFFFFFFFFFFFFFFFFFFFFFFFFFFFFFFFFFFFFFFFFFFFFFFFF
310
FFFFFFFFFFFFFFFFFFFFFFFFFFFFFFFFFFFFFFFFFFFFFFFFFFFFFFFFFFFFFFFF
310
FFFFFFFFFFFFFFFFFFFFFFFFFFFFFFFFFFFFFFFFFFFFFFFFFFFFFFFFFFFFFFFF
310
FFFFFFFFFFFFFFFFFFFFFFFFFFFFFFFFFFFFFFFFFFFFFFFFFFFFFFFFFFFFFFFF
310
FFFFFFFFFFFFFFFFFFFFFFFFFFFFFFFFFFFFFFFFFFFFFFFFFFFFFFFFFFFFFFFF
310
FFFFFFFFFFFFFFFFFFFFFFFFFFFFFFFFFFFFFFFFFFFFFFFFFFFFFFFFFFFFFFFF
310
FFFFFFFFFFFFFFFFFFFFFFFFFFFFFFFFFFFFFFFFFFFFFFFFFFFFFFFFFFFFFFFF
310
FFFFFFFFFFFFFFFFFFFFFFFFFFFFFFFFFFFFFFFFFFFFFFFFFFFFFFFFFFFFFFFF
310
FFFFFFFFFFFFFFFFFFFFFFFFFFFFFFFFFF002222221E1E1E1E1E1E1E1E1E1E1E
310
1E1E1E1E1E1E1E1D1D1D1D1D1D1D1D1D1D1D1D1C1C1C1C1C1C1C1C1C1C1C1C1C
310
1C1C1C1C1C1B1B1B1B1B1B1B1B1B1B1B1B1B1B1B1A1A1A1A1A1A1A1A1A1A1A1A
310
1A1A1A1A1A1A1919191919191919191919191919191818181818181818181818
310
181818181818181717171717171717173D3D3DC2C2C2FCFCFCFFFFFFFFFFFFFF
310
FFFFFFFFFFFFFFFFFFFFFFFFFFFFFFFFFFFFFFFFFFFFFFFFFFFFFFFFFFFFFFFF
310
FFFFFFFFFFFFFFFFFFFFFFFFFFFFFFFFFFFFFFFFFFFFFFFFFFFFFFFFFFFFFFFF
310
FFFFFFFFFFFFFFFFFFFFFFFFFFFFFFFFFFFFFFFFFFFFFFFFFFFFFFFFFFFFFFFF
310
FFFFFFFFFFFFFFFFFFFFFFFFFFFFFFFFFFFFFFFFE1E1E17373731010100F0F0F
310
0F0F0F0F0F0F0E0E0E0E0E0E0D0D0D6A6A6AF4F4F4FFFFFFFFFFFFFFFFFFFFFF
310
FFFFFFFFFFFFFFFFFFFFFFFFFFFFFFFFFFFFFFFFFFFFFFFFFFFFFFFFFFFFFFFF
310
FFFFFFFFFFFFFFFFFFFFFFFFFFFFFFFFFFFFFFFFFFFFFFFFFFFFFFFFFFFFFFFF
310
FFFFFFFFFFFFFFFFFFFFFFFFFFFFFFFFFFFFFFFFFFFFFFFFFFFFFFFFFFFFF9F9
310
F96D6D6D050505060606050505050505050505050505040404949494FAFAFAFF
310
FFFFFFFFFFFFFFFFFFFFFFFFFFFFFFFFFFFFFFFFFFFFFFFFFFFFFFFFFFFFFFFF
310
FFFFFFFFFFFFFFFFFFFFFFFFFFFFFFFFFFFFFFFFFFFFFFFFFFFFFFFFFFFFFFFF
310
FFFFFFFFFFFFFFFFFFFFFFFFFFFFFFFFFFFFFFFFFFFFFFFFFFFFFFFFFFFFFFFF
310
FFFFFFFFFFFFFFFFFFFFFFFFFFFFFFFFFFFFFFFFFFFFFFFFFFFFFFFFFFFFFFFF
310
FFFFFFFFFFFFFFFFFFFFFFFFFFFFFFFFFFFFFFFFFFFFFFFFFFFFFFFFFFFFFFFF
310
FFFFFFFFFFFFFFFFFFFFFFFFFFFFFFFFFFFFFFFFFFFFFFFFFFFFFFFFFFFFFFFF
310
FFFFFFFFFFFFFFFFFFFFFFFFFFFFFFFFFFFFFFFFFFFFFFFFFFFFFFFFFFFFFFFF
310
FFFFFFFFFFFFFFFFFFFFFFFFFFFFFFFFFFFFFFFFFFFFFFFFFFFFFFFFFFFFFFFF
310
FFFFFFFFFFFFFFFFFFFFFFFFFF00000000000000000000000000000000000000
310
000000000404050505050505020202636363F4F4F4FFFFFFFFFFFFFFFFFFFFFF
310
FFFFFFFFFFFFFFFFFFFFFFFFFFFFFFFFFFFFFFFFFFFFFFFFFFFFFFFFFFFFFFFF
310
FFFFFFFFFFFFFFFFFFFFFFFFFFFFFFFFFFFFFFFFFFFFFFFFFFFFFFFFFFFFFFFF
310
FFFFFFFFFFFFFFFFFFFFFFFFFFFFFFFFFFFFFFFFFFFFFFFFFFFFFFFFFFFFF8F8
310
F87C7C7C202020202020202020202020212121222222222222A0A0A0FBFBFBFF
310
FFFFFFFFFFFFFFFFFFFFFFFFFFFFFFFFFFFFFFFFFFFFFFFFFFFFFFFFFFFFFFFF
310
FFFFFFFFFFFFFFFFFFFFFFFFFFFFFFFFFFFFFFFFFFFFFFFFFFFFFFFFFFFFFFFF
310
FFFFFFFFFFFFFFFFFFFFFFFFFFFFFFFFFFFFFFFFFFFFFFFFFFFFFFFFFFFFFFFF
310
FFFFFFFFFFFFFFFFFFFFFFFFFFFFFFFFFFFFFFFFFFFFFFFFFFFFFFFFFFFFFFFF
310
FFFFFFFFFFFFFFFFFFFFFFFFFFFFFFFFFFFFFFFFFFFFFFFFFFFFFFFFFFFFFFFF
310
FFFFFFFFFFFFFFFFFFFFFFFFFFFFFFFFFFFFFFFFFFFFFFFFFFFFFFFFFFFFFFFF
310
FFFFFFFFFFFFFFFFFFFFFFFFFFFFFFFFFFFFFFFFFFFFFFFFFFFFFFFFFFFFFFFF
310
FFFFFFFFFFFFFFFFFFFFFFFFFFFFFFFFFFFFFFFFFFFFFFFFFFFFFFFFFFFFFFFF
310
FFFFFFFFFFFFFFFFFFFFFFFFFF00060606060606050505040404050505050505
310
0505050505050505050505050505050505050505050505050505050505050505
310
0505050505050505050505050505050505050505050505050504040405050505
310
01004F006C006500310030004900740065006D004E0061006D00650000000000
310
0000000000000000000000000000000000000000000000000000000000000000
310
1E000200FFFFFFFFFFFFFFFFFFFFFFFF00000000000000000000000000000000
310
0000000000000000000000000000000000000000030000000500000000000000
310
0000000000000000000000000000000000000000000000000000000000000000
310
0000000000000000000000000000000000000000000000000000000000000000
310
00000000FFFFFFFFFFFFFFFFFFFFFFFF00000000000000000000000000000000
310
0000000000000000000000000000000000000000000000000000000000000000
310
0000000000000000000000000000000000000000000000000000000000000000
310
0000000000000000000000000000000000000000000000000000000000000000
310
00000000FFFFFFFFFFFFFFFFFFFFFFFF00000000000000000000000000000000
310
0000000000000000000000000000000000000000000000000000000000000000
310
0000000000000000000000000000000000000000000000000000000000000000
310
0000000000000000000000000000000000000000000000000000000000000000
310
00000000FFFFFFFFFFFFFFFFFFFFFFFF00000000000000000000000000000000
310
0000000000000000000000000000000000000000000000000000000000000000
  1
OLE
  0
LINE
  5
854
330
1F
100
AcDbEntity
  8
0
  6
Continuous
 62
     7
370
    15
100
AcDbLine
 10
139.8970190784
 20
162.78140454284
 30
0.0
 11
139.897
 21
138.7358977673515
 31
0.0
  0
LINE
  5
855
330
1F
100
AcDbEntity
  8
0
  6
Continuous
 62
     7
370
    15
100
AcDbLine
 10
312.0366886171199
 20
163.0314045428399
 30
0.0
 11
312.0366886171199
 21
132.0230774822156
 31
0.0
  0
POINT
  5
856
330
1F
100
AcDbEntity
  8
KCAD_DIMS
 62
     7
370
    15
100
AcDbPoint
 10
257.9937265102
 20
160.78140454284
 30
0.0
  0
POINT
  5
857
330
1F
100
AcDbEntity
  8
KCAD_DIMS
 62
     7
370
    15
100
AcDbPoint
 10
301.26389934149
 20
170.7814045428399
 30
0.0
  0
LINE
  5
85C
330
1F
100
AcDbEntity
  8
KCAD_DIMS
 62
     7
370
    -2
100
AcDbLine
 10
257.9937265102
 20
160.78140454284
 30
0.0
 11
257.9937265102
 21
160.78140454284
 31
0.0
  0
MTEXT
  5
85D
330
1F
100
AcDbEntity
  8
KCAD_DIMS
 62
     7
100
AcDbMText
 10
267.9764464181332
 20
153.0278068450228
 30
0.0
 40
3.2
 41
0.0
 71
     5
 72
     1
  1
\A1;Φ20
  7
KCADDIMSTANDARD
 11
6.123031769111886E-17
 21
1.0
 31
0.0
 73
     1
 44
1.0
  0
POINT
  5
85E
330
1F
100
AcDbEntity
  8
KCAD_DIMS
 62
     7
370
    15
100
AcDbPoint
 10
201.6937265102
 20
178.7814045428399
 30
0.0
  0
POINT
  5
85F
330
1F
100
AcDbEntity
  8
KCAD_DIMS
 62
     7
370
    15
100
AcDbPoint
 10
211.90303977455
 20
186.7814045428399
 30
0.0
  0
LINE
  5
864
330
1F
100
AcDbEntity
  8
KCAD_DIMS
 62
     7
370
    -2
100
AcDbLine
 10
201.6937265102
 20
178.7814045428399
 30
0.0
 11
201.6937265102
 21
178.7814045428399
 31
0.0
  0
MTEXT
  5
865
330
1F
100
AcDbEntity
  8
KCAD_DIMS
 62
     7
100
AcDbMText
 10
211.6198773602367
 20
190.6337702126526
 30
0.0
 40
3.2
 41
0.0
 71
     5
 72
     1
  1
\A1;φ16{\H2.134400;\S-0.006^ -0.024;}
  7
KCADDIMSTANDARD
 11
6.123031769111886E-17
 21
1.0
 31
0.0
 73
     1
 44
1.0
  0
POINT
  5
87E
330
1F
100
AcDbEntity
  8
0
  6
Continuous
 62
   134
370
    15
100
AcDbPoint
 10
207.0937265102
 20
178.7814045428399
 30
0.0
  0
POINT
  5
87F
330
1F
100
AcDbEntity
  8
0
  6
Continuous
 62
   134
370
    15
100
AcDbPoint
 10
207.0937265102
 20
162.78140454284
 30
0.0
  0
LINE
  5
882
330
1F
100
AcDbEntity
  8
0
  6
Continuous
 62
     7
370
    15
100
AcDbLine
 10
214.3434290247447
 20
175.7814045428399
 30
0.0
 11
214.3434290247447
 21
165.78140454284
 31
0.0
  0
INSERT
  5
883
330
1F
100
AcDbEntity
  8
0
  6
Continuous
 62
     7
370
    15
100
AcDbBlockReference
  2
KCAD_OPEN30
 10
214.3434290247447
 20
178.7814045428399
 30
0.0
 41
3.0
 42
3.0
 43
3.0
 50
90.0
  0
INSERT
  5
884
330
1F
100
AcDbEntity
  8
0
  6
Continuous
 62
     7
370
    15
100
AcDbBlockReference
  2
KCAD_OPEN30
 10
214.3434290247447
 20
162.78140454284
 30
0.0
 41
3.0
 42
3.0
 43
3.0
 50
270.0
  0
POINT
  5
886
330
1F
100
AcDbEntity
  8
0
  6
Continuous
 62
   134
370
    15
100
AcDbPoint
 10
257.9937265102
 20
180.78140454284
 30
0.0
  0
POINT
  5
887
330
1F
100
AcDbEntity
  8
0
  6
Continuous
 62
   134
370
    15
100
AcDbPoint
 10
257.9937265102
 20
160.78140454284
 30
0.0
  0
LINE
  5
88A
330
1F
100
AcDbEntity
  8
0
  6
Continuous
 62
     7
370
    15
100
AcDbLine
 10
269.966734172966
 20
177.78140454284
 30
0.0
 11
269.966734172966
 21
163.78140454284
 31
0.0
  0
INSERT
  5
88B
330
1F
100
AcDbEntity
  8
0
  6
Continuous
 62
     7
370
    15
100
AcDbBlockReference
  2
KCAD_OPEN30
 10
269.966734172966
 20
180.78140454284
 30
0.0
 41
3.0
 42
3.0
 43
3.0
 50
90.0
  0
INSERT
  5
88C
330
1F
100
AcDbEntity
  8
0
  6
Continuous
 62
     7
370
    15
100
AcDbBlockReference
  2
KCAD_OPEN30
 10
269.966734172966
 20
160.78140454284
 30
0.0
 41
3.0
 42
3.0
 43
3.0
 50
270.0
  0
LINE
  5
88E
330
1F
100
AcDbEntity
  8
0
  6
Continuous
 62
     7
370
    15
100
AcDbLine
 10
214.3434290247447
 20
178.7814045428399
 30
0.0
 11
214.3434290247447
 21
199.9566970642377
 31
0.0
  0
LINE
  5
88F
330
1F
100
AcDbEntity
  8
0
  6
Continuous
 62
     7
370
    15
100
AcDbLine
 10
269.966734172966
 20
160.78140454284
 30
0.0
 11
269.966734172966
 21
148.5234713998749
 31
0.0
  0
TEXT
  5
905
330
1F
100
AcDbEntity
  8
99
  6
Continuous
 62
     7
370
    30
100
AcDbText
 10
235.6962736456952
 20
65.65572569790032
 30
0.0
 40
2.5
  1
図番登録
 41
0.9
  7
KCADTEXTSTANDARD
100
AcDbText
1001
Sigma
1000

  0
TEXT
  5
906
330
1F
100
AcDbEntity
  8
99
  6
Continuous
 62
     7
370
    30
100
AcDbText
 10
236.1269352549778
 20
60.41183730756622
 30
0.0
 40
2.0
  1
2008.5.15
 41
0.7000000000000001
  7
KCADTEXTSTANDARD
100
AcDbText
1001
Sigma
1000

  0
ENDSEC
  0
SECTION
  2
OBJECTS
  0
DICTIONARY
  5
C
330
0
100
AcDbDictionary
281
     1
  3
ACAD_COLOR
350
6C
  3
ACAD_GROUP
350
D
  3
ACAD_LAYOUT
350
1A
  3
ACAD_MATERIAL
350
6B
  3
ACAD_MLINESTYLE
350
17
  3
ACAD_PLOTSETTINGS
350
19
  3
ACAD_PLOTSTYLENAME
350
E
  3
ACAD_TABLESTYLE
350
92
  3
ACDBHEADERROUNDTRIPXREC
350
A5E
  3
AcDbVariableDictionary
350
59
  3
DWGPROPS
350
A61
  3
KCADFRAMEINFO
350
2A7
  0
DICTIONARY
  5
6C
102
{ACAD_REACTORS
330
C
102
}
330
C
100
AcDbDictionary
281
     1
  0
DICTIONARY
  5
D
102
{ACAD_REACTORS
330
C
102
}
330
C
100
AcDbDictionary
281
     1
  3
*A1
350
39C
  3
*A2
350
3B0
  3
*A3
350
4A0
  3
*A4
350
678
  3
*A5
350
67D
  3
*A6
350
68E
  0
DICTIONARY
  5
1A
102
{ACAD_REACTORS
330
C
102
}
330
C
100
AcDbDictionary
281
     1
  3
Model
350
22
  3
ﾚｲｱｳﾄ1
350
22F
  0
DICTIONARY
  5
6B
102
{ACAD_REACTORS
330
C
102
}
330
C
100
AcDbDictionary
281
     1
  0
DICTIONARY
  5
17
102
{ACAD_REACTORS
330
C
102
}
330
C
100
AcDbDictionary
281
     1
  3
Standard
350
18
  0
DICTIONARY
  5
19
102
{ACAD_REACTORS
330
C
102
}
330
C
100
AcDbDictionary
281
     1
  0
ACDBDICTIONARYWDFLT
  5
E
102
{ACAD_REACTORS
330
C
102
}
330
C
100
AcDbDictionary
281
     1
  3
Normal
350
F
100
AcDbDictionaryWithDefault
340
F
  0
DICTIONARY
  5
92
102
{ACAD_REACTORS
330
C
102
}
330
C
100
AcDbDictionary
281
     1
  3
Standard
350
93
  0
DICTIONARY
  5
A5E
102
{ACAD_REACTORS
330
C
102
}
330
C
100
AcDbDictionary
281
     1
  3
COLORDICT
350
A5F
  3
MATERIALDICT
350
A60
  0
DICTIONARY
  5
59
102
{ACAD_REACTORS
330
C
102
}
330
C
100
AcDbDictionary
281
     1
  3
CTABLESTYLE
350
98
  3
DIMASSOC
350
A5D
  3
HIDETEXT
350
9EA
  0
XRECORD
  5
A61
102
{ACAD_REACTORS
330
C
102
}
330
C
100
AcDbXrecord
280
     1
  1
DWGPROPS COOKIE
  2

  3

  4

  6

  7

  8
fottrem
  9

300
=
301
=
302
=
303
=
304
=
305
=
306
=
307
=
308
=
309
=
 40
0.0
 41
2453353.717125822
 42
2453295.105389352
  1

 90
        0
  0
XRECORD
  5
2A7
102
{ACAD_REACTORS
330
C
102
}
330
C
100
AcDbXrecord
280
     1
  1
A3
 40
420.0
 40
297.0
 90
        1
 90
        1
  0
GROUP
  5
39C
102
{ACAD_REACTORS
330
D
102
}
330
D
100
AcDbGroup
300
group from kcad family
 70
     1
 71
     1
340
39E
340
3A0
340
3A2
340
3A4
340
3A6
340
3A8
340
3AA
340
3AC
340
3AE
  0
GROUP
  5
3B0
102
{ACAD_REACTORS
330
D
102
}
330
D
100
AcDbGroup
300
group from kcad family
 70
     1
 71
     1
340
3B1
340
3B3
340
3B5
340
3B7
340
3B9
340
3BB
340
3BD
340
3BF
340
3C1
340
3C3
340
3C5
340
3C7
340
3C9
340
3CB
340
3CD
340
3CF
340
3D1
340
3D3
340
3D5
  0
GROUP
  5
4A0
102
{ACAD_REACTORS
330
D
102
}
330
D
100
AcDbGroup
300
group from kcad family
 70
     1
 71
     1
340
4A1
340
4A3
340
4A5
340
4A7
  0
GROUP
  5
678
102
{ACAD_REACTORS
330
D
102
}
330
D
100
AcDbGroup
300
line with arrowBlockRef from kcad family
 70
     1
 71
     1
340
679
340
67B
  0
GROUP
  5
67D
102
{ACAD_REACTORS
330
D
102
}
330
D
100
AcDbGroup
300
line with arrowBlockRef from kcad family
 70
     1
 71
     1
340
67E
340
680
  0
GROUP
  5
68E
102
{ACAD_REACTORS
330
D
102
}
330
D
100
AcDbGroup
300
line with arrowBlockRef from kcad family
 70
     1
 71
     1
340
68F
340
691
  0
LAYOUT
  5
22
102
{ACAD_REACTORS
330
1A
102
}
330
1A
100
AcDbPlotSettings
  1

  2
DWF ePlot.pc3
  4
ISO_A3_(297.00_x_420.00_MM)
  6

 40
5.793749809265136
 41
17.79375076293945
 42
5.79376220703125
 43
17.79376220703125
 44
297.0
 45
420.0
 46
0.0
 47
0.0
 48
58.6925
 49
252.1102
140
351.1949
141
44.1417
142
0.0
143
0.0
 70
 11952
 72
     1
 73
     0
 74
     4
  7

 75
     0
147
1.0
148
0.0
149
0.0
100
AcDbLayout
  1
Model
 70
     1
 71
     0
 10
0.0
 20
0.0
 11
420.0
 21
297.0
 12
0.0
 22
0.0
 32
0.0
 14
57.629
 24
43.500003561653
 34
0.0
 15
362.7315963697391
 25
253.4999964389
 35
0.0
146
0.0
 13
0.0
 23
0.0
 33
0.0
 16
1.0
 26
0.0
 36
0.0
 17
0.0
 27
1.0
 37
0.0
 76
     0
330
1F
  0
LAYOUT
  5
22F
102
{ACAD_REACTORS
330
1A
102
}
330
1A
100
AcDbPlotSettings
  1

  2
D:\ACAD2000\plotters\HP DesignJet 700(System).pc3
  4

  6

 40
0.0
 41
0.0
 42
0.0
 43
0.0
 44
0.0
 45
0.0
 46
0.0
 47
0.0
 48
0.0
 49
0.0
140
0.0
141
0.0
142
1.0
143
1.0
 70
   688
 72
     0
 73
     0
 74
     5
  7
monochrome.ctb
 75
    16
147
1.0
148
0.0
149
0.0
100
AcDbLayout
  1
ﾚｲｱｳﾄ1
 70
     1
 71
     1
 10
0.0
 20
0.0
 11
12.0
 21
9.0
 12
0.0
 22
0.0
 32
0.0
 14
0.0
 24
0.0
 34
0.0
 15
0.0
 25
0.0
 35
0.0
146
0.0
 13
0.0
 23
0.0
 33
0.0
 16
1.0
 26
0.0
 36
0.0
 17
0.0
 27
1.0
 37
0.0
 76
     0
330
73
  0
MLINESTYLE
  5
18
102
{ACAD_REACTORS
330
17
102
}
330
17
100
AcDbMlineStyle
  2
Standard
 70
     0
  3

 62
   256
 51
90.0
 52
90.0
 71
     2
 49
0.5
 62
   256
  6
BYLAYER
 49
-0.5
 62
   256
  6
BYLAYER
  0
ACDBPLACEHOLDER
  5
F
102
{ACAD_REACTORS
330
E
102
}
330
E
  0
TABLESTYLE
  5
93
102
{ACAD_REACTORS
330
92
102
}
330
92
100
AcDbTableStyle
  3
Standard
 70
     0
 71
     0
 40
0.06
 41
0.06
280
     0
281
     0
  7
Standard
140
0.18
170
     2
 62
     0
 63
     7
283
     0
274
    -2
284
     1
 64
     0
275
    -2
285
     1
 65
     0
276
    -2
286
     1
 66
     0
277
    -2
287
     1
 67
     0
278
    -2
288
     1
 68
     0
279
    -2
289
     1
 69
     0
  7
Standard
140
0.25
170
     5
 62
     0
 63
     7
283
     0
274
    -2
284
     1
 64
     0
275
    -2
285
     1
 65
     0
276
    -2
286
     1
 66
     0
277
    -2
287
     1
 67
     0
278
    -2
288
     1
 68
     0
279
    -2
289
     1
 69
     0
  7
Standard
140
0.18
170
     5
 62
     0
 63
     7
283
     0
274
    -2
284
     1
 64
     0
275
    -2
285
     1
 65
     0
276
    -2
286
     1
 66
     0
277
    -2
287
     1
 67
     0
278
    -2
288
     1
 68
     0
279
    -2
289
     1
 69
     0
  0
XRECORD
  5
A5F
102
{ACAD_REACTORS
330
A5E
102
}
330
A5E
100
AcDbXrecord
280
     1
340
6C
  0
XRECORD
  5
A60
102
{ACAD_REACTORS
330
A5E
102
}
330
A5E
100
AcDbXrecord
280
     1
340
6B
  0
DICTIONARYVAR
  5
98
102
{ACAD_REACTORS
330
59
102
}
330
59
100
DictionaryVariables
280
     0
  1
STANDARD
  0
DICTIONARYVAR
  5
A5D
102
{ACAD_REACTORS
330
59
102
}
330
59
100
DictionaryVariables
280
     0
  1
1
  0
DICTIONARYVAR
  5
9EA
102
{ACAD_REACTORS
330
59
102
}
330
59
100
DictionaryVariables
280
     0
  1
1
  0
ENDSEC
  0
EOF
