  0
SECTION
  2
HEADER
  9
$ACADVER
  1
AC1015
  9
$ACADMAINTVER
 70
     6
  9
$DWGCODEPAGE
  3
DOS932
  9
$INSBASE
 10
0.0
 20
0.0
 30
0.0
  9
$EXTMIN
 10
0.0
 20
0.0
 30
0.0
  9
$EXTMAX
 10
297.0
 20
210.0
 30
0.0
  9
$LIMMIN
 10
0.0
 20
0.0
  9
$LIMMAX
 10
0.0
 20
0.0
  9
$ORTHOMODE
 70
     0
  9
$REGENMODE
 70
     1
  9
$FILLMODE
 70
     1
  9
$QTEXTMODE
 70
     0
  9
$MIRRTEXT
 70
     1
  9
$LTSCALE
 40
1.0
  9
$ATTMODE
 70
     1
  9
$TEXTSIZE
 40
3.5
  9
$TRACEWID
 40
1.0
  9
$TEXTSTYLE
  7
Standard
  9
$CLAYER
  8
0
  9
$CELTYPE
  6
ByLayer
  9
$CECOLOR
 62
   256
  9
$CELTSCALE
 40
1.0
  9
$DISPSILH
 70
     0
  9
$DIMSCALE
 40
1.0
  9
$DIMASZ
 40
6.0
  9
$DIMEXO
 40
1.0
  9
$DIMDLI
 40
3.75
  9
$DIMRND
 40
0.0
  9
$DIMDLE
 40
0.0
  9
$DIMEXE
 40
1.0
  9
$DIMTP
 40
0.0
  9
$DIMTM
 40
0.0
  9
$DIMTXT
 40
3.5
  9
$DIMCEN
 40
2.5
  9
$DIMTSZ
 40
0.0
  9
$DIMTOL
 70
     0
  9
$DIMLIM
 70
     0
  9
$DIMTIH
 70
     1
  9
$DIMTOH
 70
     1
  9
$DIMSE1
 70
     0
  9
$DIMSE2
 70
     0
  9
$DIMTAD
 70
     1
  9
$DIMZIN
 70
     1
  9
$DIMBLK
  1

  9
$DIMASO
 70
     1
  9
$DIMSHO
 70
     1
  9
$DIMPOST
  1

  9
$DIMAPOST
  1

  9
$DIMALT
 70
     0
  9
$DIMALTD
 70
     3
  9
$DIMALTF
 40
0.0393700787
  9
$DIMLFAC
 40
1.0
  9
$DIMTOFL
 70
     1
  9
$DIMTVP
 40
0.0
  9
$DIMTIX
 70
     0
  9
$DIMSOXD
 70
     0
  9
$DIMSAH
 70
     0
  9
$DIMBLK1
  1

  9
$DIMBLK2
  1

  9
$DIMSTYLE
  2
ISO-25
  9
$DIMCLRD
 70
     0
  9
$DIMCLRE
 70
     0
  9
$DIMCLRT
 70
     0
  9
$DIMTFAC
 40
1.0
  9
$DIMGAP
 40
1.524
  9
$DIMJUST
 70
     0
  9
$DIMSD1
 70
     0
  9
$DIMSD2
 70
     0
  9
$DIMTOLJ
 70
     0
  9
$DIMTZIN
 70
     1
  9
$DIMALTZ
 70
     0
  9
$DIMALTTZ
 70
     0
  9
$DIMUPT
 70
     0
  9
$DIMDEC
 70
     2
  9
$DIMTDEC
 70
     2
  9
$DIMALTU
 70
     2
  9
$DIMALTTD
 70
     3
  9
$DIMTXSTY
  7
Standard
  9
$DIMAUNIT
 70
     0
  9
$DIMADEC
 70
     0
  9
$DIMALTRND
 40
0.0
  9
$DIMAZIN
 70
     0
  9
$DIMDSEP
 70
    44
  9
$DIMATFIT
 70
     3
  9
$DIMFRAC
 70
     0
  9
$DIMLDRBLK
  1

  9
$DIMLUNIT
 70
     2
  9
$DIMLWD
 70
    -2
  9
$DIMLWE
 70
    -2
  9
$DIMTMOVE
 70
     0
  9
$LUNITS
 70
     2
  9
$LUPREC
 70
     2
  9
$SKETCHINC
 40
1.0
  9
$FILLETRAD
 40
10.0
  9
$AUNITS
 70
     0
  9
$AUPREC
 70
     1
  9
$MENU
  1
.
  9
$ELEVATION
 40
0.0
  9
$PELEVATION
 40
0.0
  9
$THICKNESS
 40
0.0
  9
$LIMCHECK
 70
     0
  9
$CHAMFERA
 40
10.0
  9
$CHAMFERB
 40
10.0
  9
$CHAMFERC
 40
20.0
  9
$CHAMFERD
 40
0.0
  9
$SKPOLY
 70
     0
  9
$TDCREATE
 40
2456211.706904294
  9
$TDUCREATE
 40
2456211.331904294
  9
$TDUPDATE
 40
2456211.706904306
  9
$TDUUPDATE
 40
2456211.331904306
  9
$TDINDWG
 40
0.0000000116
  9
$TDUSRTIMER
 40
0.0000000116
  9
$USRTIMER
 70
     1
  9
$ANGBASE
 50
0.0
  9
$ANGDIR
 70
     0
  9
$PDMODE
 70
     0
  9
$PDSIZE
 40
-1.0
  9
$PLINEWID
 40
0.0
  9
$SPLFRAME
 70
     0
  9
$SPLINETYPE
 70
     6
  9
$SPLINESEGS
 70
     8
  9
$HANDSEED
  5
54C
  9
$SURFTAB1
 70
     6
  9
$SURFTAB2
 70
     6
  9
$SURFTYPE
 70
     6
  9
$SURFU
 70
     6
  9
$SURFV
 70
     6
  9
$UCSBASE
  2

  9
$UCSNAME
  2

  9
$UCSORG
 10
0.0
 20
0.0
 30
0.0
  9
$UCSXDIR
 10
1.0
 20
0.0
 30
0.0
  9
$UCSYDIR
 10
0.0
 20
1.0
 30
0.0
  9
$UCSORTHOREF
  2

  9
$UCSORTHOVIEW
 70
     0
  9
$UCSORGTOP
 10
0.0
 20
0.0
 30
0.0
  9
$UCSORGBOTTOM
 10
0.0
 20
0.0
 30
0.0
  9
$UCSORGLEFT
 10
0.0
 20
0.0
 30
0.0
  9
$UCSORGRIGHT
 10
0.0
 20
0.0
 30
0.0
  9
$UCSORGFRONT
 10
0.0
 20
0.0
 30
0.0
  9
$UCSORGBACK
 10
0.0
 20
0.0
 30
0.0
  9
$PUCSBASE
  2

  9
$PUCSNAME
  2

  9
$PUCSORG
 10
0.0
 20
0.0
 30
0.0
  9
$PUCSXDIR
 10
1.0
 20
0.0
 30
0.0
  9
$PUCSYDIR
 10
0.0
 20
1.0
 30
0.0
  9
$PUCSORTHOREF
  2

  9
$PUCSORTHOVIEW
 70
     0
  9
$PUCSORGTOP
 10
0.0
 20
0.0
 30
0.0
  9
$PUCSORGBOTTOM
 10
0.0
 20
0.0
 30
0.0
  9
$PUCSORGLEFT
 10
0.0
 20
0.0
 30
0.0
  9
$PUCSORGRIGHT
 10
0.0
 20
0.0
 30
0.0
  9
$PUCSORGFRONT
 10
0.0
 20
0.0
 30
0.0
  9
$PUCSORGBACK
 10
0.0
 20
0.0
 30
0.0
  9
$USERI1
 70
     0
  9
$USERI2
 70
     0
  9
$USERI3
 70
     0
  9
$USERI4
 70
     0
  9
$USERI5
 70
     0
  9
$USERR1
 40
0.0
  9
$USERR2
 40
0.0
  9
$USERR3
 40
0.0
  9
$USERR4
 40
0.0
  9
$USERR5
 40
0.0
  9
$WORLDVIEW
 70
     1
  9
$SHADEDGE
 70
     3
  9
$SHADEDIF
 70
    70
  9
$TILEMODE
 70
     1
  9
$MAXACTVP
 70
    64
  9
$PINSBASE
 10
0.0
 20
0.0
 30
0.0
  9
$PLIMCHECK
 70
     0
  9
$PEXTMIN
 10
1.0000000000E+20
 20
1.0000000000E+20
 30
1.0000000000E+20
  9
$PEXTMAX
 10
-1.0000000000E+20
 20
-1.0000000000E+20
 30
-1.0000000000E+20
  9
$PLIMMIN
 10
0.0
 20
0.0
  9
$PLIMMAX
 10
420.0
 20
297.0
  9
$UNITMODE
 70
     0
  9
$VISRETAIN
 70
     1
  9
$PLINEGEN
 70
     0
  9
$PSLTSCALE
 70
     1
  9
$TREEDEPTH
 70
  3020
  9
$CMLSTYLE
  2
Standard
  9
$CMLJUST
 70
     0
  9
$CMLSCALE
 40
20.0
  9
$PROXYGRAPHICS
 70
     1
  9
$MEASUREMENT
 70
     1
  9
$CELWEIGHT
370
    -1
  9
$ENDCAPS
280
     0
  9
$JOINSTYLE
280
     0
  9
$LWDISPLAY
290
     1
  9
$INSUNITS
 70
     4
  9
$HYPERLINKBASE
  1

  9
$STYLESHEET
  1

  9
$XEDIT
290
     1
  9
$CEPSNTYPE
380
     0
  9
$PSTYLEMODE
290
     1
  9
$FINGERPRINTGUID
  2
{A4C0C1F9-A753-4A80-AD1D-7A0AD76E7952}
  9
$VERSIONGUID
  2
{FAEB1C32-E019-11D5-929B-00C0DF256EC4}
  9
$EXTNAMES
290
     1
  9
$PSVPSCALE
 40
0.0
  9
$OLESTARTUP
290
     0
  0
ENDSEC
  0
SECTION
  2
CLASSES
  0
CLASS
  1
ACDBDICTIONARYWDFLT
  2
AcDbDictionaryWithDefault
  3
ObjectDBX Classes
 90
        0
280
     0
281
     0
  0
CLASS
  1
ACDBPLACEHOLDER
  2
AcDbPlaceHolder
  3
ObjectDBX Classes
 90
        0
280
     0
281
     0
  0
CLASS
  1
LAYOUT
  2
AcDbLayout
  3
ObjectDBX Classes
 90
        0
280
     0
281
     0
  0
ENDSEC
  0
SECTION
  2
TABLES
  0
TABLE
  2
VPORT
  5
8
330
0
100
AcDbSymbolTable
 70
     1
  0
VPORT
  5
29
330
8
100
AcDbSymbolTableRecord
100
AcDbViewportTableRecord
  2
*Active
 70
     0
 10
0.0
 20
0.0
 11
1.0
 21
1.0
 12
148.5
 22
105.0
 13
0.0
 23
0.0
 14
10.0
 24
10.0
 15
10.0
 25
10.0
 16
0.0
 26
0.0
 36
1.0
 17
0.0
 27
0.0
 37
0.0
 40
210.0
 41
1.4142857143
 42
50.0
 43
0.0
 44
0.0
 50
0.0
 51
0.0
 71
     0
 72
  2000
 73
     1
 74
     3
 75
     0
 76
     0
 77
     0
 78
     0
281
     0
 65
     1
110
0.0
120
0.0
130
0.0
111
1.0
121
0.0
131
0.0
112
0.0
122
1.0
132
0.0
 79
     0
146
0.0
  0
ENDTAB
  0
TABLE
  2
LTYPE
  5
5
330
0
100
AcDbSymbolTable
 70
     6
  0
LTYPE
  5
14
330
5
100
AcDbSymbolTableRecord
100
AcDbLinetypeTableRecord
  2
ByBlock
 70
     0
  3

 72
    65
 73
     0
 40
0.0
  0
LTYPE
  5
15
330
5
100
AcDbSymbolTableRecord
100
AcDbLinetypeTableRecord
  2
ByLayer
 70
     0
  3

 72
    65
 73
     0
 40
0.0
  0
LTYPE
  5
16
330
5
100
AcDbSymbolTableRecord
100
AcDbLinetypeTableRecord
  2
Continuous
 70
     0
  3
Solid line
 72
    65
 73
     0
 40
0.0
  0
LTYPE
  5
2A
330
5
100
AcDbSymbolTableRecord
100
AcDbLinetypeTableRecord
  2
HIDDEN
 70
     0
  3
Hidden __ __ __ __ __ __ __ __ __ __ __ __ __ __
 72
    65
 73
     2
 40
1.905
 49
1.27
 74
     0
 49
-0.635
 74
     0
  0
LTYPE
  5
2B
330
5
100
AcDbSymbolTableRecord
100
AcDbLinetypeTableRecord
  2
PHANTOM
 70
     0
  3
Phantom ______  __  __  ______  __  __  ______
 72
    65
 73
     6
 40
12.7
 49
6.35
 74
     0
 49
-1.27
 74
     0
 49
1.27
 74
     0
 49
-1.27
 74
     0
 49
1.27
 74
     0
 49
-1.27
 74
     0
  0
LTYPE
  5
2C
330
5
100
AcDbSymbolTableRecord
100
AcDbLinetypeTableRecord
  2
CENTER
 70
     0
  3
Center ____ _ ____ _ ____ _ ____ _ ____ _ ____
 72
    65
 73
     4
 40
10.16
 49
6.35
 74
     0
 49
-1.27
 74
     0
 49
1.27
 74
     0
 49
-1.27
 74
     0
  0
LTYPE
  5
2D
330
5
100
AcDbSymbolTableRecord
100
AcDbLinetypeTableRecord
  2
CENTERX2
 70
     0
  3
Center (2x) ________  __  ________  __  _____
 72
    65
 73
     4
 40
20.32
 49
12.7
 74
     0
 49
-2.54
 74
     0
 49
2.54
 74
     0
 49
-2.54
 74
     0
  0
LTYPE
  5
2E
330
5
100
AcDbSymbolTableRecord
100
AcDbLinetypeTableRecord
  2
DOT2
 70
     0
  3
Dot (.5x) ........................................
 72
    65
 73
     2
 40
0.635
 49
0.0
 74
     0
 49
-0.635
 74
     0
  0
ENDTAB
  0
TABLE
  2
LAYER
  5
2
330
0
100
AcDbSymbolTable
 70
    16
  0
LAYER
  5
10
330
2
100
AcDbSymbolTableRecord
100
AcDbLayerTableRecord
  2
0
 70
     0
 62
     7
  6
Continuous
370
    -3
390
F
  0
LAYER
  5
2F
330
2
100
AcDbSymbolTableRecord
100
AcDbLayerTableRecord
  2
SLD-0
 70
     0
 62
   179
  6
Continuous
370
    -3
390
F
  0
LAYER
  5
30
330
2
100
AcDbSymbolTableRecord
100
AcDbLayerTableRecord
  2
6-図面枠
 70
     0
 62
     5
  6
Continuous
370
    15
390
F
  0
LAYER
  5
31
330
2
100
AcDbSymbolTableRecord
100
AcDbLayerTableRecord
  2
4-寸法線
 70
     0
 62
     5
  6
Continuous
370
    15
390
F
  0
LAYER
  5
32
330
2
100
AcDbSymbolTableRecord
100
AcDbLayerTableRecord
  2
補助線
 70
     0
 62
   254
  6
Continuous
370
    -3
390
F
  0
LAYER
  5
33
330
2
100
AcDbSymbolTableRecord
100
AcDbLayerTableRecord
  2
2-中心線
 70
     0
 62
     5
  6
CENTER
370
    15
390
F
  0
LAYER
  5
34
330
2
100
AcDbSymbolTableRecord
100
AcDbLayerTableRecord
  2
$DDT_AUDIT_GENERATED_(179)
 70
     0
 62
   179
  6
Continuous
370
    40
390
F
  0
LAYER
  5
35
330
2
100
AcDbSymbolTableRecord
100
AcDbLayerTableRecord
  2
12-中線
 70
     0
 62
   179
  6
Continuous
370
    15
390
F
  0
LAYER
  5
36
330
2
100
AcDbSymbolTableRecord
100
AcDbLayerTableRecord
  2
13-細線
 70
     0
 62
   179
  6
Continuous
370
    -3
390
F
  0
LAYER
  5
37
330
2
100
AcDbSymbolTableRecord
100
AcDbLayerTableRecord
  2
5-文字
 70
     0
 62
     5
  6
Continuous
370
    15
390
F
  0
LAYER
  5
38
330
2
100
AcDbSymbolTableRecord
100
AcDbLayerTableRecord
  2
3-かくれ線
 70
     0
 62
     5
  6
HIDDEN
370
    15
390
F
  0
LAYER
  5
39
330
2
100
AcDbSymbolTableRecord
100
AcDbLayerTableRecord
  2
AAA
 70
     0
 62
   179
  6
Continuous
370
    -3
390
F
  0
LAYER
  5
3A
330
2
100
AcDbSymbolTableRecord
100
AcDbLayerTableRecord
  2
基準線層
 70
     0
 62
   179
  6
Continuous
370
    -3
390
F
  0
LAYER
  5
3B
330
2
100
AcDbSymbolTableRecord
100
AcDbLayerTableRecord
  2
注記層
 70
     0
 62
   179
  6
Continuous
370
    -3
390
F
  0
LAYER
  5
3C
330
2
100
AcDbSymbolTableRecord
100
AcDbLayerTableRecord
  2
寸法線層
 70
     0
 62
   179
  6
Continuous
370
    -3
390
F
  0
LAYER
  5
3D
330
2
100
AcDbSymbolTableRecord
100
AcDbLayerTableRecord
  2
SLD-DEFPOINTS
 70
     0
 62
   179
  6
Continuous
370
    -3
390
F
  0
ENDTAB
  0
TABLE
  2
STYLE
  5
3
330
0
100
AcDbSymbolTable
 70
    10
  0
STYLE
  5
11
330
3
100
AcDbSymbolTableRecord
100
AcDbTextStyleTableRecord
  2
Standard
 70
     0
 40
0.0
 41
1.0
 50
0.0
 71
     0
 42
2.5
  3
txt
  4
bigfont
  0
STYLE
  5
485
330
3
100
AcDbSymbolTableRecord
100
AcDbTextStyleTableRecord
  2
SLDTEXTSTYLE0
 70
     0
 40
0.0
 41
0.5104166667
 50
0.0
 71
     0
 42
0.2
  3
TXT
  4
bigfont
  0
STYLE
  5
495
330
3
100
AcDbSymbolTableRecord
100
AcDbTextStyleTableRecord
  2
SLDTEXTSTYLE1
 70
     0
 40
0.0
 41
0.7
 50
0.0
 71
     0
 42
0.2
  3
TXT
  4
bigfont
  0
STYLE
  5
4E9
330
3
100
AcDbSymbolTableRecord
100
AcDbTextStyleTableRecord
  2
SLDTEXTSTYLE2
 70
     0
 40
0.0
 41
0.63
 50
0.0
 71
     0
 42
0.2
  3
TXT
  4
bigfont
  0
STYLE
  5
4EC
330
3
100
AcDbSymbolTableRecord
100
AcDbTextStyleTableRecord
  2
SLDTEXTSTYLE3
 70
     0
 40
0.0
 41
0.3722727273
 50
0.0
 71
     0
 42
0.2
  3
TXT
  4
bigfont
  0
STYLE
  5
4EF
330
3
100
AcDbSymbolTableRecord
100
AcDbTextStyleTableRecord
  2
SLDTEXTSTYLE4
 70
     0
 40
0.0
 41
0.39375
 50
0.0
 71
     0
 42
0.2
  3
TXT
  4
bigfont
  0
STYLE
  5
529
330
3
100
AcDbSymbolTableRecord
100
AcDbTextStyleTableRecord
  2
SLDTEXTSTYLE5
 70
     0
 40
0.0
 41
0.4725
 50
0.0
 71
     0
 42
0.2
  3
TXT
  4
bigfont
  0
STYLE
  5
534
330
3
100
AcDbSymbolTableRecord
100
AcDbTextStyleTableRecord
  2
SLDTEXTSTYLE6
 70
     0
 40
0.0
 41
0.315
 50
0.0
 71
     0
 42
0.2
  3
TXT
  4
bigfont
  0
STYLE
  5
537
330
3
100
AcDbSymbolTableRecord
100
AcDbTextStyleTableRecord
  2
SLDTEXTSTYLE7
 70
     0
 40
0.0
 41
0.441
 50
0.0
 71
     0
 42
0.2
  3
TXT
  4
bigfont
  0
STYLE
  5
53B
330
3
100
AcDbSymbolTableRecord
100
AcDbTextStyleTableRecord
  2
SLDTEXTSTYLE8
 70
     0
 40
0.0
 41
0.441
 50
0.0
 71
     0
 42
0.2
  3
TXT
  4
bigfont
  0
ENDTAB
  0
TABLE
  2
VIEW
  5
6
330
0
100
AcDbSymbolTable
 70
     0
  0
ENDTAB
  0
TABLE
  2
UCS
  5
7
330
0
100
AcDbSymbolTable
 70
     0
  0
ENDTAB
  0
TABLE
  2
APPID
  5
9
330
0
100
AcDbSymbolTable
 70
     1
  0
APPID
  5
12
330
9
100
AcDbSymbolTableRecord
100
AcDbRegAppTableRecord
  2
ACAD
 70
     0
  0
ENDTAB
  0
TABLE
  2
DIMSTYLE
  5
A
330
0
100
AcDbSymbolTable
 70
     6
100
AcDbDimStyleTable
  0
DIMSTYLE
105
27
330
A
100
AcDbSymbolTableRecord
100
AcDbDimStyleTableRecord
  2
ISO-25
 70
     0
 41
2.5
 42
0.625
 43
3.75
 44
1.25
 73
     0
 74
     0
 77
     1
 78
     8
140
2.5
141
2.5
143
0.0393700787
147
0.625
171
     3
172
     1
271
     2
272
     2
274
     3
278
    44
283
     0
284
     8
340
11
  0
DIMSTYLE
105
486
102
{ACAD_REACTORS
330
484
330
4C9
102
}
330
A
100
AcDbSymbolTableRecord
100
AcDbDimStyleTableRecord
  2
SLDDIMSTYLE0
 70
     0
 41
6.0
 44
0.0
 73
     0
 74
     0
 77
     3
 78
    12
140
4.2443576389
147
1.0610894097
173
     1
271
     0
272
     2
284
    12
340
485
341
487
343
487
344
487
  0
DIMSTYLE
105
499
102
{ACAD_REACTORS
330
498
102
}
330
A
100
AcDbSymbolTableRecord
100
AcDbDimStyleTableRecord
  2
SLDDIMSTYLE1
 70
     0
 41
6.0
 44
0.0
 73
     0
 74
     0
 77
     3
 78
    12
140
4.2443576389
147
1.0610894097
173
     1
271
     2
272
     2
284
    12
340
485
341
487
343
487
344
487
  0
DIMSTYLE
105
4A7
102
{ACAD_REACTORS
330
4A6
330
4BF
102
}
330
A
100
AcDbSymbolTableRecord
100
AcDbDimStyleTableRecord
  2
SLDDIMSTYLE2
 70
     0
 41
6.0
 44
0.0
 73
     0
 74
     0
 77
     3
 78
    12
140
4.2443576389
147
1.0610894097
173
     1
271
     1
272
     2
284
    12
340
485
341
487
343
487
344
487
  0
DIMSTYLE
105
4B3
102
{ACAD_REACTORS
330
4B2
102
}
330
A
100
AcDbSymbolTableRecord
100
AcDbDimStyleTableRecord
  2
SLDDIMSTYLE3
 70
     0
 41
6.0
 44
0.0
 73
     0
 74
     0
 77
     3
 78
     4
140
4.2443576389
147
1.0610894097
173
     1
271
     2
272
     2
284
    12
340
485
341
487
343
487
344
487
  0
DIMSTYLE
105
4D6
102
{ACAD_REACTORS
330
4D5
102
}
330
A
100
AcDbSymbolTableRecord
100
AcDbDimStyleTableRecord
  2
SLDDIMSTYLE4
 70
     0
 41
6.0
 44
0.0
 48
0.1
 71
     1
 73
     0
 74
     0
 77
     3
 78
    12
140
4.2443576389
147
1.0610894097
173
     1
271
     1
272
     1
340
495
341
487
343
487
344
487
  0
ENDTAB
  0
TABLE
  2
BLOCK_RECORD
  5
1
330
0
100
AcDbSymbolTable
 70
    12
  0
BLOCK_RECORD
  5
1F
330
1
100
AcDbSymbolTableRecord
100
AcDbBlockTableRecord
  2
*Model_Space
340
22
  0
BLOCK_RECORD
  5
1B
330
1
100
AcDbSymbolTableRecord
100
AcDbBlockTableRecord
  2
*Paper_Space
340
1E
  0
BLOCK_RECORD
  5
23
330
1
100
AcDbSymbolTableRecord
100
AcDbBlockTableRecord
  2
*Paper_Space0
340
26
  0
BLOCK_RECORD
  5
487
330
1
100
AcDbSymbolTableRecord
100
AcDbBlockTableRecord
  2
_Open30
340
0
102
{BLKREFS
331
490
331
491
331
49D
331
49E
331
4AB
331
4AC
331
4B7
331
4B8
331
4C3
331
4C4
331
4CD
331
4CE
331
4DA
331
4DB
331
546
331
549
102
}
1001
ACAD
1000
DesignCenter Data
1002
{
1070
     1
1070
     0
1002
}
  0
BLOCK_RECORD
  5
48D
330
1
100
AcDbSymbolTableRecord
100
AcDbBlockTableRecord
  2
*D2
340
0
  0
BLOCK_RECORD
  5
49A
330
1
100
AcDbSymbolTableRecord
100
AcDbBlockTableRecord
  2
*D3
340
0
  0
BLOCK_RECORD
  5
4A8
330
1
100
AcDbSymbolTableRecord
100
AcDbBlockTableRecord
  2
*D4
340
0
  0
BLOCK_RECORD
  5
4B4
330
1
100
AcDbSymbolTableRecord
100
AcDbBlockTableRecord
  2
*D5
340
0
  0
BLOCK_RECORD
  5
4C0
330
1
100
AcDbSymbolTableRecord
100
AcDbBlockTableRecord
  2
*D6
340
0
  0
BLOCK_RECORD
  5
4CA
330
1
100
AcDbSymbolTableRecord
100
AcDbBlockTableRecord
  2
*D7
340
0
  0
BLOCK_RECORD
  5
4D7
330
1
100
AcDbSymbolTableRecord
100
AcDbBlockTableRecord
  2
*D8
340
0
  0
BLOCK_RECORD
  5
4FF
330
1
100
AcDbSymbolTableRecord
100
AcDbBlockTableRecord
  2
SW_NOTE_0
340
0
102
{BLKREFS
331
504
102
}
1001
ACAD
1000
DesignCenter Data
1002
{
1070
     1
1070
     0
1002
}
  0
BLOCK_RECORD
  5
508
330
1
100
AcDbSymbolTableRecord
100
AcDbBlockTableRecord
  2
SW_NOTE_1
340
0
102
{BLKREFS
331
511
102
}
1001
ACAD
1000
DesignCenter Data
1002
{
1070
     1
1070
     0
1002
}
  0
BLOCK_RECORD
  5
523
330
1
100
AcDbSymbolTableRecord
100
AcDbBlockTableRecord
  2
SW_NOTE_2
340
0
102
{BLKREFS
331
528
102
}
1001
ACAD
1000
DesignCenter Data
1002
{
1070
     1
1070
     0
1002
}
  0
ENDTAB
  0
ENDSEC
  0
SECTION
  2
BLOCKS
  0
BLOCK
  5
20
330
1F
100
AcDbEntity
  8
0
100
AcDbBlockBegin
  2
*Model_Space
 70
     0
 71
     0
 10
0.0
 20
0.0
 30
0.0
  3
*Model_Space
  1

  0
ENDBLK
  5
21
330
1F
100
AcDbEntity
  8
0
100
AcDbBlockEnd
  0
BLOCK
  5
1C
330
1B
100
AcDbEntity
 67
     1
  8
0
100
AcDbBlockBegin
  2
*Paper_Space
 70
     0
 71
     0
 10
0.0
 20
0.0
 30
0.0
  3
*Paper_Space
  1

  0
ENDBLK
  5
1D
330
1B
100
AcDbEntity
 67
     1
  8
0
100
AcDbBlockEnd
  0
BLOCK
  5
24
330
23
100
AcDbEntity
  8
0
100
AcDbBlockBegin
  2
*Paper_Space0
 70
     0
 71
     0
 10
0.0
 20
0.0
 30
0.0
  3
*Paper_Space0
  1

  0
ENDBLK
  5
25
330
23
100
AcDbEntity
  8
0
100
AcDbBlockEnd
  0
BLOCK
  5
488
330
487
100
AcDbEntity
  8
0
100
AcDbBlockBegin
  2
_Open30
 70
     0
 71
     0
 10
0.0
 20
0.0
 30
0.0
  3
_Open30
  1

  0
LINE
  5
48A
330
487
100
AcDbEntity
  8
0
  6
ByBlock
 62
     0
370
    -2
100
AcDbLine
 10
-1.0
 20
0.267949
 30
0.0
 11
0.0
 21
0.0
 31
0.0
  0
LINE
  5
48B
330
487
100
AcDbEntity
  8
0
  6
ByBlock
 62
     0
370
    -2
100
AcDbLine
 10
0.0
 20
0.0
 30
0.0
 11
-1.0
 21
-0.267949
 31
0.0
  0
LINE
  5
48C
330
487
100
AcDbEntity
  8
0
  6
ByBlock
 62
     0
370
    -2
100
AcDbLine
 10
0.0
 20
0.0
 30
0.0
 11
-1.0
 21
0.0
 31
0.0
  0
ENDBLK
  5
489
330
487
100
AcDbEntity
  8
0
100
AcDbBlockEnd
  0
BLOCK
  5
48E
330
48D
100
AcDbEntity
  8
0
100
AcDbBlockBegin
  2
*D2
 70
     1
 71
     0
 10
0.0
 20
0.0
 30
0.0
  3
*D2
  1

  0
INSERT
  5
490
330
48D
100
AcDbEntity
  8
SLD-0
 62
   179
100
AcDbBlockReference
  2
_Open30
 10
81.9397464168
 20
156.6949384197
 30
0.1
 41
6.0
 42
6.0
 50
360.0
  0
INSERT
  5
491
330
48D
100
AcDbEntity
  8
SLD-0
 62
   179
100
AcDbBlockReference
  2
_Open30
 10
21.9397464168
 20
156.6949384197
 30
0.1
 41
6.0
 42
6.0
 50
180.0
  0
LINE
  5
492
330
48D
100
AcDbEntity
  8
SLD-0
 62
   179
100
AcDbLine
 10
81.9397464168
 20
124.9724868576
 30
0.0
 11
81.9397464168
 21
157.6949384197
 31
0.0
  0
LINE
  5
493
330
48D
100
AcDbEntity
  8
SLD-0
 62
   179
100
AcDbLine
 10
21.9397464168
 20
124.9724868576
 30
0.0
 11
21.9397464168
 21
157.6949384197
 31
0.0
  0
LINE
  5
494
330
48D
100
AcDbEntity
  8
SLD-0
 62
   179
100
AcDbLine
 10
81.9397464168
 20
156.6949384197
 30
0.0
 11
21.9397464168
 21
156.6949384197
 31
0.0
  0
MTEXT
  5
496
330
48D
100
AcDbEntity
  8
SLD-0
 62
   179
100
AcDbMText
 10
48.5490153192
 20
161.0052415664
 30
0.0
 40
3.7041666667
 41
0.0
 71
     1
 72
     1
  1
W,D=
  7
SLDTEXTSTYLE1
 73
     1
 44
1.0
  0
MTEXT
  5
497
330
48D
100
AcDbEntity
  8
SLD-0
 62
   179
100
AcDbMText
 10
55.7376830022
 20
161.0052415664
 30
0.0
 40
3.7041666667
 41
0.0
 71
     1
 72
     1
  1
60
  7
SLDTEXTSTYLE1
 73
     1
 44
1.0
  0
ENDBLK
  5
48F
330
48D
100
AcDbEntity
  8
0
100
AcDbBlockEnd
  0
BLOCK
  5
49B
330
49A
100
AcDbEntity
  8
0
100
AcDbBlockBegin
  2
*D3
 70
     1
 71
     0
 10
0.0
 20
0.0
 30
0.0
  3
*D3
  1

  0
INSERT
  5
49D
330
49A
100
AcDbEntity
  8
SLD-0
 62
   179
100
AcDbBlockReference
  2
_Open30
 10
244.6397464168
 20
156.6949384197
 30
0.1
 41
6.0
 42
6.0
 50
360.0
  0
INSERT
  5
49E
330
49A
100
AcDbEntity
  8
SLD-0
 62
   179
100
AcDbBlockReference
  2
_Open30
 10
262.1657464168
 20
156.6949384197
 30
0.1
 41
6.0
 42
6.0
 50
180.0
  0
LINE
  5
49F
330
49A
100
AcDbEntity
  8
SLD-0
 62
   179
100
AcDbLine
 10
244.6397464168
 20
124.9724868576
 30
0.0
 11
244.6397464168
 21
157.6949384197
 31
0.0
  0
LINE
  5
4A0
330
49A
100
AcDbEntity
  8
SLD-0
 62
   179
100
AcDbLine
 10
262.1657464168
 20
124.9724868576
 30
0.0
 11
262.1657464168
 21
157.6949384197
 31
0.0
  0
LINE
  5
4A1
330
49A
100
AcDbEntity
  8
SLD-0
 62
   179
100
AcDbLine
 10
244.6397464168
 20
156.6949384197
 30
0.0
 11
232.6397464168
 21
156.6949384197
 31
0.0
  0
LINE
  5
4A2
330
49A
100
AcDbEntity
  8
SLD-0
 62
   179
100
AcDbLine
 10
244.6397464168
 20
156.6949384197
 30
0.0
 11
262.1657464168
 21
156.6949384197
 31
0.0
  0
LINE
  5
4A3
330
49A
100
AcDbEntity
  8
SLD-0
 62
   179
100
AcDbLine
 10
262.1657464168
 20
156.6949384197
 30
0.0
 11
274.1657464168
 21
156.6949384197
 31
0.0
  0
MTEXT
  5
4A4
330
49A
100
AcDbEntity
  8
SLD-0
 62
   179
100
AcDbMText
 10
246.2881621991
 20
161.0052415664
 30
0.0
 40
3.7041666667
 41
0.0
 71
     1
 72
     1
  1
FB=
  7
SLDTEXTSTYLE1
 73
     1
 44
1.0
  0
MTEXT
  5
4A5
330
49A
100
AcDbEntity
  8
SLD-0
 62
   179
100
AcDbMText
 10
251.6788932967
 20
161.0052415664
 30
0.0
 40
3.7041666667
 41
0.0
 71
     1
 72
     1
  1
17.53
  7
SLDTEXTSTYLE1
 73
     1
 44
1.0
  0
ENDBLK
  5
49C
330
49A
100
AcDbEntity
  8
0
100
AcDbBlockEnd
  0
BLOCK
  5
4A9
330
4A8
100
AcDbEntity
  8
0
100
AcDbBlockBegin
  2
*D4
 70
     1
 71
     0
 10
0.0
 20
0.0
 30
0.0
  3
*D4
  1

  0
INSERT
  5
4AB
330
4A8
100
AcDbEntity
  8
SLD-0
 62
   179
100
AcDbBlockReference
  2
_Open30
 10
72.0575860718
 20
108.5724868576
 30
0.1
 41
6.0
 42
6.0
 50
270.0
  0
INSERT
  5
4AC
330
4A8
100
AcDbEntity
  8
SLD-0
 62
   179
100
AcDbBlockReference
  2
_Open30
 10
72.0575860718
 20
139.3724868576
 30
0.1
 41
6.0
 42
6.0
 50
90.0
  0
LINE
  5
4AD
330
4A8
100
AcDbEntity
  8
SLD-0
 62
   179
100
AcDbLine
 10
82.9397464168
 20
108.5724868576
 30
0.0
 11
71.0575860718
 21
108.5724868576
 31
0.0
  0
LINE
  5
4AE
330
4A8
100
AcDbEntity
  8
SLD-0
 62
   179
100
AcDbLine
 10
82.9397464168
 20
139.3724868576
 30
0.0
 11
71.0575860718
 21
139.3724868576
 31
0.0
  0
LINE
  5
4AF
330
4A8
100
AcDbEntity
  8
SLD-0
 62
   179
100
AcDbLine
 10
72.0575860718
 20
108.5724868576
 30
0.0
 11
72.0575860718
 21
139.3724868576
 31
0.0
  0
MTEXT
  5
4B0
330
4A8
100
AcDbEntity
  8
SLD-0
 62
   179
100
AcDbMText
 10
67.7472829251
 20
115.8328782509
 30
0.0
 40
3.7041666667
 41
0.0
 71
     1
 72
     1
  1
%%c
  7
SLDTEXTSTYLE1
 11
6.123031769111886E-17
 21
1.0
 31
0.0
 73
     1
 44
1.0
  0
MTEXT
  5
4B1
330
4A8
100
AcDbEntity
  8
SLD-0
 62
   179
100
AcDbMText
 10
67.7472829251
 20
120.5247538606
 30
0.0
 40
3.7041666667
 41
0.0
 71
     1
 72
     1
  1
30.8
  7
SLDTEXTSTYLE1
 11
6.123031769111886E-17
 21
1.0
 31
0.0
 73
     1
 44
1.0
  0
ENDBLK
  5
4AA
330
4A8
100
AcDbEntity
  8
0
100
AcDbBlockEnd
  0
BLOCK
  5
4B5
330
4B4
100
AcDbEntity
  8
0
100
AcDbBlockBegin
  2
*D5
 70
     1
 71
     0
 10
0.0
 20
0.0
 30
0.0
  3
*D5
  1

  0
INSERT
  5
4B7
330
4B4
100
AcDbEntity
  8
SLD-0
 62
   179
100
AcDbBlockReference
  2
_Open30
 10
244.6397464168
 20
156.6949384197
 30
0.1
 41
6.0
 42
6.0
 50
360.0
  0
INSERT
  5
4B8
330
4B4
100
AcDbEntity
  8
SLD-0
 62
   179
100
AcDbBlockReference
  2
_Open30
 10
81.9397464168
 20
156.6949384197
 30
0.1
 41
6.0
 42
6.0
 50
180.0
  0
LINE
  5
4B9
330
4B4
100
AcDbEntity
  8
SLD-0
 62
   179
100
AcDbLine
 10
244.6397464168
 20
138.9724868576
 30
0.0
 11
244.6397464168
 21
157.6949384197
 31
0.0
  0
LINE
  5
4BA
330
4B4
100
AcDbEntity
  8
SLD-0
 62
   179
100
AcDbLine
 10
81.9397464168
 20
138.3724868576
 30
0.0
 11
81.9397464168
 21
157.6949384197
 31
0.0
  0
LINE
  5
4BB
330
4B4
100
AcDbEntity
  8
SLD-0
 62
   179
100
AcDbLine
 10
244.6397464168
 20
156.6949384197
 30
0.0
 11
81.9397464168
 21
156.6949384197
 31
0.0
  0
MTEXT
  5
4BC
330
4B4
100
AcDbEntity
  8
SLD-0
 62
   179
100
AcDbMText
 10
158.1041573924
 20
161.0052415664
 30
0.0
 40
3.7041666667
 41
0.0
 71
     1
 72
     1
  1
(
  7
SLDTEXTSTYLE1
 73
     1
 44
1.0
  0
MTEXT
  5
4BD
330
4B4
100
AcDbEntity
  8
SLD-0
 62
   179
100
AcDbMText
 10
159.8990153192
 20
161.0052415664
 30
0.0
 40
3.7041666667
 41
0.0
 71
     1
 72
     1
  1
162.70
  7
SLDTEXTSTYLE1
 73
     1
 44
1.0
  0
MTEXT
  5
4BE
330
4B4
100
AcDbEntity
  8
SLD-0
 62
   179
100
AcDbMText
 10
170.6804775144
 20
161.0052415664
 30
0.0
 40
3.7041666667
 41
0.0
 71
     1
 72
     1
  1
)
  7
SLDTEXTSTYLE1
 73
     1
 44
1.0
  0
ENDBLK
  5
4B6
330
4B4
100
AcDbEntity
  8
0
100
AcDbBlockEnd
  0
BLOCK
  5
4C1
330
4C0
100
AcDbEntity
  8
0
100
AcDbBlockBegin
  2
*D6
 70
     1
 71
     0
 10
0.0
 20
0.0
 30
0.0
  3
*D6
  1

  0
INSERT
  5
4C3
330
4C0
100
AcDbEntity
  8
SLD-0
 62
   179
100
AcDbBlockReference
  2
_Open30
 10
244.6397464168
 20
149.2805953693
 30
0.1
 41
6.0
 42
6.0
 50
360.0
  0
INSERT
  5
4C4
330
4C0
100
AcDbEntity
  8
SLD-0
 62
   179
100
AcDbBlockReference
  2
_Open30
 10
164.9397464168
 20
149.2805953693
 30
0.1
 41
6.0
 42
6.0
 50
180.0
  0
LINE
  5
4C5
330
4C0
100
AcDbEntity
  8
SLD-0
 62
   179
100
AcDbLine
 10
244.6397464168
 20
138.9724868576
 30
0.0
 11
244.6397464168
 21
150.2805953693
 31
0.0
  0
LINE
  5
4C6
330
4C0
100
AcDbEntity
  8
SLD-0
 62
   179
100
AcDbLine
 10
164.9397464168
 20
141.2724868576
 30
0.0
 11
164.9397464168
 21
150.2805953693
 31
0.0
  0
LINE
  5
4C7
330
4C0
100
AcDbEntity
  8
SLD-0
 62
   179
100
AcDbLine
 10
244.6397464168
 20
149.2805953693
 30
0.0
 11
164.9397464168
 21
149.2805953693
 31
0.0
  0
MTEXT
  5
4C8
330
4C0
100
AcDbEntity
  8
SLD-0
 62
   179
100
AcDbMText
 10
206.0940895323
 20
153.590898516
 30
0.0
 40
3.7041666667
 41
0.0
 71
     1
 72
     1
  1
79.7
  7
SLDTEXTSTYLE1
 73
     1
 44
1.0
  0
ENDBLK
  5
4C2
330
4C0
100
AcDbEntity
  8
0
100
AcDbBlockEnd
  0
BLOCK
  5
4CB
330
4CA
100
AcDbEntity
  8
0
100
AcDbBlockBegin
  2
*D7
 70
     1
 71
     0
 10
0.0
 20
0.0
 30
0.0
  3
*D7
  1

  0
INSERT
  5
4CD
330
4CA
100
AcDbEntity
  8
SLD-0
 62
   179
100
AcDbBlockReference
  2
_Open30
 10
248.6397464168
 20
149.2805953693
 30
0.1
 41
6.0
 42
6.0
 50
180.0
  0
INSERT
  5
4CE
330
4CA
100
AcDbEntity
  8
SLD-0
 62
   179
100
AcDbBlockReference
  2
_Open30
 10
244.6397464168
 20
149.2805953693
 30
0.1
 41
6.0
 42
6.0
 50
360.0
  0
LINE
  5
4CF
330
4CA
100
AcDbEntity
  8
SLD-0
 62
   179
100
AcDbLine
 10
248.6397464168
 20
137.1724868576
 30
0.0
 11
248.6397464168
 21
150.2805953693
 31
0.0
  0
LINE
  5
4D0
330
4CA
100
AcDbEntity
  8
SLD-0
 62
   179
100
AcDbLine
 10
244.6397464168
 20
138.9724868576
 30
0.0
 11
244.6397464168
 21
150.2805953693
 31
0.0
  0
LINE
  5
4D1
330
4CA
100
AcDbEntity
  8
SLD-0
 62
   179
100
AcDbLine
 10
248.6397464168
 20
149.2805953693
 30
0.0
 11
260.6397464168
 21
149.2805953693
 31
0.0
  0
LINE
  5
4D2
330
4CA
100
AcDbEntity
  8
SLD-0
 62
   179
100
AcDbLine
 10
248.6397464168
 20
149.2805953693
 30
0.0
 11
244.6397464168
 21
149.2805953693
 31
0.0
  0
LINE
  5
4D3
330
4CA
100
AcDbEntity
  8
SLD-0
 62
   179
100
AcDbLine
 10
244.6397464168
 20
149.2805953693
 30
0.0
 11
232.6397464168
 21
149.2805953693
 31
0.0
  0
MTEXT
  5
4D4
330
4CA
100
AcDbEntity
  8
SLD-0
 62
   179
100
AcDbMText
 10
245.7412989589
 20
153.590898516
 30
0.0
 40
3.7041666667
 41
0.0
 71
     1
 72
     1
  1
4
  7
SLDTEXTSTYLE1
 73
     1
 44
1.0
  0
ENDBLK
  5
4CC
330
4CA
100
AcDbEntity
  8
0
100
AcDbBlockEnd
  0
BLOCK
  5
4D8
330
4D7
100
AcDbEntity
  8
0
100
AcDbBlockBegin
  2
*D8
 70
     1
 71
     0
 10
0.0
 20
0.0
 30
0.0
  3
*D8
  1

  0
INSERT
  5
4DA
330
4D7
100
AcDbEntity
  8
SLD-0
 62
   179
100
AcDbBlockReference
  2
_Open30
 10
212.5286195126
 20
110.1224868576
 30
0.1
 41
6.0
 42
6.0
 50
270.0
  0
INSERT
  5
4DB
330
4D7
100
AcDbEntity
  8
SLD-0
 62
   179
100
AcDbBlockReference
  2
_Open30
 10
212.5286195126
 20
137.8224868576
 30
0.1
 41
6.0
 42
6.0
 50
90.0
  0
LINE
  5
4DC
330
4D7
100
AcDbEntity
  8
SLD-0
 62
   179
100
AcDbLine
 10
197.1897464168
 20
110.1224868576
 30
0.0
 11
213.5286195126
 21
110.1224868576
 31
0.0
  0
LINE
  5
4DD
330
4D7
100
AcDbEntity
  8
SLD-0
 62
   179
100
AcDbLine
 10
197.1897464168
 20
137.8224868576
 30
0.0
 11
213.5286195126
 21
137.8224868576
 31
0.0
  0
LINE
  5
4DE
330
4D7
100
AcDbEntity
  8
SLD-0
 62
   179
100
AcDbLine
 10
212.5286195126
 20
110.1224868576
 30
0.0
 11
212.5286195126
 21
79.3199592767
 31
0.0
  0
LINE
  5
4DF
330
4D7
100
AcDbEntity
  8
SLD-0
 62
   179
100
AcDbLine
 10
212.5286195126
 20
110.1224868576
 30
0.0
 11
212.5286195126
 21
137.8224868576
 31
0.0
  0
MTEXT
  5
4E0
330
4D7
100
AcDbEntity
  8
SLD-0
 62
   179
100
AcDbMText
 10
208.2183163659
 20
80.9074592767
 30
0.0
 40
3.7041666667
 41
0.0
 71
     1
 72
     1
  1
%%c
  7
SLDTEXTSTYLE1
 11
6.123031769111886E-17
 21
1.0
 31
0.0
 73
     1
 44
1.0
  0
MTEXT
  5
4E1
330
4D7
100
AcDbEntity
  8
SLD-0
 62
   179
100
AcDbMText
 10
208.2183163659
 20
85.5993348865
 30
0.0
 40
3.7041666667
 41
0.0
 71
     1
 72
     1
  1
27.7
  7
SLDTEXTSTYLE1
 11
6.123031769111886E-17
 21
1.0
 31
0.0
 73
     1
 44
1.0
  0
MTEXT
  5
4E2
330
4D7
100
AcDbEntity
  8
SLD-0
 62
   179
100
AcDbMText
 10
208.9910985777
 20
97.4152263499
 30
0.0
 40
2.9104166667
 41
0.0
 71
     1
 72
     1
  1
-
  7
SLDTEXTSTYLE1
 11
6.123031769111886E-17
 21
1.0
 31
0.0
 73
     1
 44
1.0
  0
MTEXT
  5
4E3
330
4D7
100
AcDbEntity
  8
SLD-0
 62
   179
100
AcDbMText
 10
208.9910985777
 20
99.3547812279
 30
0.0
 40
2.9104166667
 41
0.0
 71
     1
 72
     1
  1
0.1
  7
SLDTEXTSTYLE1
 11
6.123031769111886E-17
 21
1.0
 31
0.0
 73
     1
 44
1.0
  0
MTEXT
  5
4E4
330
4D7
100
AcDbEntity
  8
SLD-0
 62
   179
100
AcDbMText
 10
205.1119888216
 20
99.3547812279
 30
0.0
 40
2.9104166667
 41
0.0
 71
     1
 72
     1
  1
0.0
  7
SLDTEXTSTYLE1
 11
6.123031769111886E-17
 21
1.0
 31
0.0
 73
     1
 44
1.0
  0
ENDBLK
  5
4D9
330
4D7
100
AcDbEntity
  8
0
100
AcDbBlockEnd
  0
BLOCK
  5
500
330
4FF
100
AcDbEntity
  8
0
100
AcDbBlockBegin
  2
SW_NOTE_0
 70
     0
 71
     0
 10
0.0
 20
0.0
 30
0.0
  3
SW_NOTE_0
  1

  0
MTEXT
  5
502
330
4FF
100
AcDbEntity
  8
0
  6
Continuous
 62
     0
370
     0
100
AcDbMText
 10
0.0
 20
2.463030303
 30
0.0
 40
2.1166666667
 41
0.0
 71
     1
 72
     1
  1
1
  7
SLDTEXTSTYLE1
 73
     1
 44
1.0
  0
MTEXT
  5
503
330
4FF
100
AcDbEntity
  8
0
  6
Continuous
 62
     0
370
     0
100
AcDbMText
 10
1.4111110941
 20
2.463030303
 30
0.0
 40
2.1166666667
 41
0.0
 71
     1
 72
     1
  1
.6
  7
SLDTEXTSTYLE1
 73
     1
 44
1.0
  0
ENDBLK
  5
501
330
4FF
100
AcDbEntity
  8
0
100
AcDbBlockEnd
  0
BLOCK
  5
509
330
508
100
AcDbEntity
  8
0
100
AcDbBlockBegin
  2
SW_NOTE_1
 70
     0
 71
     0
 10
0.0
 20
0.0
 30
0.0
  3
SW_NOTE_1
  1

  0
LINE
  5
50B
330
508
100
AcDbEntity
  8
0
  6
Continuous
 62
     0
370
     0
100
AcDbLine
 10
0.0
 20
0.0
 30
0.0
 11
0.0
 21
-4.497920122
 31
0.0
  0
LINE
  5
50C
330
508
100
AcDbEntity
  8
0
  6
Continuous
 62
     0
370
     0
100
AcDbLine
 10
0.0
 20
-4.497920122
 30
0.0
 11
4.0730652439
 21
-4.497920122
 31
0.0
  0
LINE
  5
50D
330
508
100
AcDbEntity
  8
0
  6
Continuous
 62
     0
370
     0
100
AcDbLine
 10
4.0730652439
 20
-4.497920122
 30
0.0
 11
4.0730652439
 21
0.0
 31
0.0
  0
LINE
  5
50E
330
508
100
AcDbEntity
  8
0
  6
Continuous
 62
     0
370
     0
100
AcDbLine
 10
4.0730652439
 20
0.0
 30
0.0
 11
0.0
 21
0.0
 31
0.0
  0
LINE
  5
50F
330
508
100
AcDbEntity
  8
0
  6
Continuous
 62
     0
370
     0
100
AcDbLine
 10
0.0
 20
0.0
 30
0.0
 11
4.0730652439
 21
-4.497920122
 31
0.0
  0
LINE
  5
510
330
508
100
AcDbEntity
  8
0
  6
Continuous
 62
     0
370
     0
100
AcDbLine
 10
0.0
 20
-4.497920122
 30
0.0
 11
4.0730652439
 21
0.0
 31
0.0
  0
ENDBLK
  5
50A
330
508
100
AcDbEntity
  8
0
100
AcDbBlockEnd
  0
BLOCK
  5
524
330
523
100
AcDbEntity
  8
0
100
AcDbBlockBegin
  2
SW_NOTE_2
 70
     0
 71
     0
 10
0.0
 20
0.0
 30
0.0
  3
SW_NOTE_2
  1

  0
MTEXT
  5
526
330
523
100
AcDbEntity
  8
0
  6
Continuous
 62
     0
370
     0
100
AcDbMText
 10
0.0
 20
3.4909090909
 30
0.0
 40
3.0
 41
0.0
 71
     1
 72
     1
  1
一般
  7
SLDTEXTSTYLE2
 73
     1
 44
1.0
  0
MTEXT
  5
527
330
523
100
AcDbEntity
  8
0
  6
Continuous
 62
     0
370
     0
100
AcDbMText
 10
0.0
 20
-0.2090909102
 30
0.0
 40
3.0
 41
0.0
 71
     1
 72
     1
  1
公差
  7
SLDTEXTSTYLE2
 73
     1
 44
1.0
  0
ENDBLK
  5
525
330
523
100
AcDbEntity
  8
0
100
AcDbBlockEnd
  0
ENDSEC
  0
SECTION
  2
ENTITIES
  0
LINE
  5
3E
330
1F
100
AcDbEntity
  8
SLD-0
  6
Continuous
 62
   179
370
    15
100
AcDbLine
 10
234.5897444856
 20
146.244937707
 30
0.0
 11
234.1397443187
 21
146.6949378738
 31
0.0
  0
LINE
  5
3F
330
1F
100
AcDbEntity
  8
SLD-0
  6
Continuous
 62
   179
370
    15
100
AcDbLine
 10
229.1397490871
 20
146.6949378738
 30
0.0
 11
228.6897489202
 21
146.244937707
 31
0.0
  0
LINE
  5
40
330
1F
100
AcDbEntity
  8
SLD-0
  6
Continuous
 62
   179
370
    15
100
AcDbLine
 10
228.6897489202
 20
142.1449390838
 30
0.0
 11
229.1397490871
 21
141.694938917
 31
0.0
  0
LINE
  5
41
330
1F
100
AcDbEntity
  8
SLD-0
  6
Continuous
 62
   179
370
    15
100
AcDbLine
 10
234.1397443187
 20
141.694938917
 30
0.0
 11
234.5897444856
 21
142.1449390839
 31
0.0
  0
LINE
  5
42
330
1F
100
AcDbEntity
  8
SLD-0
  6
Continuous
 62
   179
370
    15
100
AcDbLine
 10
233.1397497427
 20
137.8204675058
 30
0.0
 11
233.1397497427
 21
141.6949389169
 31
0.0
  0
LINE
  5
43
330
1F
100
AcDbEntity
  8
SLD-0
  6
Continuous
 62
   179
370
    15
100
AcDbLine
 10
230.139743663
 20
141.6949389169
 30
0.0
 11
230.139743663
 21
137.8224866132
 31
0.0
  0
LINE
  5
44
330
1F
100
AcDbEntity
  8
SLD-0
  6
Continuous
 62
   179
370
    15
100
AcDbLine
 10
243.739742912
 20
109.072487023
 30
0.0
 11
244.6397432458
 21
109.9724864254
 31
0.0
  0
LINE
  5
45
330
1F
100
AcDbEntity
  8
SLD-0
  6
Continuous
 62
   179
370
    15
100
AcDbLine
 10
244.6397432458
 20
137.9724872897
 30
0.0
 11
243.739742912
 21
138.8724866922
 31
0.0
  0
LINE
  5
46
330
1F
100
AcDbEntity
  8
SLD-0
  6
Continuous
 62
   179
370
    15
100
AcDbLine
 10
235.5397456657
 20
138.8724866922
 30
0.0
 11
234.639745332
 21
137.9724872897
 31
0.0
  0
LINE
  5
47
330
1F
100
AcDbEntity
  8
SLD-0
  6
Continuous
 62
   179
370
    15
100
AcDbLine
 10
234.639745332
 20
109.9724864254
 30
0.0
 11
235.5397456657
 21
109.072487023
 31
0.0
  0
LINE
  5
48
330
1F
100
AcDbEntity
  8
SLD-0
  6
Continuous
 62
   179
370
    15
100
AcDbLine
 10
246.4284190309
 20
111.272487011
 30
0.0
 11
248.1397428882
 21
111.272487011
 31
0.0
  0
LINE
  5
49
330
1F
100
AcDbEntity
  8
SLD-0
  6
Continuous
 62
   179
370
    15
100
AcDbLine
 10
248.1397428882
 20
136.6724867041
 30
0.0
 11
246.4284190309
 21
136.6724867041
 31
0.0
  0
LINE
  5
4A
330
1F
100
AcDbEntity
  8
SLD-0
  6
Continuous
 62
   179
370
    15
100
AcDbLine
 10
248.1397428882
 20
111.272487011
 30
0.0
 11
248.6397439014
 21
111.772487093
 31
0.0
  0
LINE
  5
4B
330
1F
100
AcDbEntity
  8
SLD-0
  6
Continuous
 62
   179
370
    15
100
AcDbLine
 10
248.6397439014
 20
136.1724866221
 30
0.0
 11
248.1397428882
 21
136.6724867041
 31
0.0
  0
LINE
  5
4C
330
1F
100
AcDbEntity
  8
SLD-0
  6
Continuous
 62
   179
370
    15
100
AcDbLine
 10
246.4284190309
 20
136.6724867041
 30
0.0
 11
246.1397462856
 21
136.1724866221
 31
0.0
  0
LINE
  5
4D
330
1F
100
AcDbEntity
  8
SLD-0
  6
Continuous
 62
   179
370
    15
100
AcDbLine
 10
246.1397462856
 20
111.772487093
 30
0.0
 11
246.4284190309
 21
111.272487011
 31
0.0
  0
LINE
  5
4E
330
1F
100
AcDbEntity
  8
SLD-0
  6
Continuous
 62
   179
370
    15
100
AcDbLine
 10
244.6397432458
 20
111.772487093
 30
0.0
 11
246.1397462856
 21
111.772487093
 31
0.0
  0
LINE
  5
4F
330
1F
100
AcDbEntity
  8
SLD-0
  6
Continuous
 62
   179
370
    15
100
AcDbLine
 10
246.1397462856
 20
136.1724866221
 30
0.0
 11
244.6397432458
 21
136.1724866221
 31
0.0
  0
LINE
  5
50
330
1F
100
AcDbEntity
  8
SLD-0
  6
Continuous
 62
   179
370
    15
100
AcDbLine
 10
230.1221304905
 20
137.8224871019
 30
0.0
 11
196.189746387
 21
137.8224871019
 31
0.0
  0
LINE
  5
51
330
1F
100
AcDbEntity
  8
SLD-0
  6
Continuous
 62
   179
370
    15
100
AcDbLine
 10
234.3397477042
 20
137.8224866132
 30
0.0
 11
233.1572660577
 21
137.8224866132
 31
0.0
  0
LINE
  5
52
330
1F
100
AcDbEntity
  8
SLD-0
  6
Continuous
 62
   179
370
    15
100
AcDbLine
 10
196.189746387
 20
110.1224871019
 30
0.0
 11
234.3397477042
 21
110.1224871019
 31
0.0
  0
LINE
  5
53
330
1F
100
AcDbEntity
  8
SLD-0
  6
Continuous
 62
   179
370
    15
100
AcDbLine
 10
234.3397477042
 20
110.1224871019
 30
0.0
 11
234.639745332
 21
110.4224865923
 31
0.0
  0
LINE
  5
54
330
1F
100
AcDbEntity
  8
SLD-0
  6
Continuous
 62
   179
370
    15
100
AcDbLine
 10
234.639745332
 20
137.5224871228
 30
0.0
 11
234.3397477042
 21
137.8224866132
 31
0.0
  0
LINE
  5
55
330
1F
100
AcDbEntity
  8
SLD-0
  6
Continuous
 62
   179
370
    15
100
AcDbLine
 10
196.189746387
 20
137.8224871019
 30
0.0
 11
194.939747579
 21
136.5724868739
 31
0.0
  0
LINE
  5
56
330
1F
100
AcDbEntity
  8
SLD-0
  6
Continuous
 62
   179
370
    15
100
AcDbLine
 10
194.939747579
 20
111.3724868412
 30
0.0
 11
196.189746387
 21
110.1224871019
 31
0.0
  0
LINE
  5
57
330
1F
100
AcDbEntity
  8
SLD-0
  6
Continuous
 62
   179
370
    15
100
AcDbLine
 10
193.6897450459
 20
137.8224866132
 30
0.0
 11
190.1897472661
 21
137.8224866132
 31
0.0
  0
LINE
  5
58
330
1F
100
AcDbEntity
  8
SLD-0
  6
Continuous
 62
   179
370
    15
100
AcDbLine
 10
190.1897472661
 20
110.1224871019
 30
0.0
 11
193.6897450459
 21
110.1224871019
 31
0.0
  0
LINE
  5
59
330
1F
100
AcDbEntity
  8
SLD-0
  6
Continuous
 62
   179
370
    15
100
AcDbLine
 10
189.6897462528
 20
110.1224871019
 30
0.0
 11
189.9397467595
 21
110.3724866773
 31
0.0
  0
LINE
  5
5A
330
1F
100
AcDbEntity
  8
SLD-0
  6
Continuous
 62
   179
370
    15
100
AcDbLine
 10
189.9397467595
 20
137.5724870379
 30
0.0
 11
189.6897462528
 21
137.8224866132
 31
0.0
  0
LINE
  5
5B
330
1F
100
AcDbEntity
  8
SLD-0
  6
Continuous
 62
   179
370
    15
100
AcDbLine
 10
189.6897462528
 20
137.8224866132
 30
0.0
 11
173.1397464272
 21
137.8224866132
 31
0.0
  0
LINE
  5
5C
330
1F
100
AcDbEntity
  8
SLD-0
  6
Continuous
 62
   179
370
    15
100
AcDbLine
 10
173.1397464272
 20
110.1224871019
 30
0.0
 11
189.6897462528
 21
110.1224871019
 31
0.0
  0
LINE
  5
5D
330
1F
100
AcDbEntity
  8
SLD-0
  6
Continuous
 62
   179
370
    15
100
AcDbLine
 10
190.1897472661
 20
137.8224866132
 30
0.0
 11
189.9397467595
 21
137.5724870379
 31
0.0
  0
LINE
  5
5E
330
1F
100
AcDbEntity
  8
SLD-0
  6
Continuous
 62
   179
370
    15
100
AcDbLine
 10
189.9397467595
 20
110.3724866773
 30
0.0
 11
190.1897472661
 21
110.1224871019
 31
0.0
  0
LINE
  5
5F
330
1F
100
AcDbEntity
  8
SLD-0
  6
Continuous
 62
   179
370
    15
100
AcDbLine
 10
193.6897450459
 20
110.1224871019
 30
0.0
 11
194.939747579
 21
111.3724868412
 31
0.0
  0
LINE
  5
60
330
1F
100
AcDbEntity
  8
SLD-0
  6
Continuous
 62
   179
370
    15
100
AcDbLine
 10
194.939747579
 20
136.5724868739
 30
0.0
 11
193.6897450459
 21
137.8224866132
 31
0.0
  0
LINE
  5
61
330
1F
100
AcDbEntity
  8
SLD-0
  6
Continuous
 62
   179
370
    15
100
AcDbLine
 10
173.1397464272
 20
137.8224866132
 30
0.0
 11
172.9397467669
 21
137.6224869529
 31
0.0
  0
LINE
  5
62
330
1F
100
AcDbEntity
  8
SLD-0
  6
Continuous
 62
   179
370
    15
100
AcDbLine
 10
172.9397467669
 20
110.3224867622
 30
0.0
 11
173.1397464272
 21
110.1224871019
 31
0.0
  0
LINE
  5
63
330
1F
100
AcDbEntity
  8
SLD-0
  6
Continuous
 62
   179
370
    15
100
AcDbLine
 10
165.1397465129
 20
139.2224870289
 30
0.0
 11
164.939746387
 21
139.0224864373
 31
0.0
  0
LINE
  5
64
330
1F
100
AcDbEntity
  8
SLD-0
  6
Continuous
 62
   179
370
    15
100
AcDbLine
 10
164.939746387
 20
108.9224872778
 30
0.0
 11
165.1397465129
 21
108.7224866862
 31
0.0
  0
LINE
  5
65
330
1F
100
AcDbEntity
  8
SLD-0
  6
Continuous
 62
   179
370
    15
100
AcDbLine
 10
171.939746603
 20
108.7224866862
 30
0.0
 11
172.9397467669
 21
109.7224868501
 31
0.0
  0
LINE
  5
66
330
1F
100
AcDbEntity
  8
SLD-0
  6
Continuous
 62
   179
370
    15
100
AcDbLine
 10
172.9397467669
 20
138.222486865
 30
0.0
 11
171.939746603
 21
139.2224870289
 31
0.0
  0
LINE
  5
67
330
1F
100
AcDbEntity
  8
SLD-0
  6
Continuous
 62
   179
370
    15
100
AcDbLine
 10
165.1397465129
 20
108.7224866862
 30
0.0
 11
171.939746603
 21
108.7224866862
 31
0.0
  0
LINE
  5
68
330
1F
100
AcDbEntity
  8
SLD-0
  6
Continuous
 62
   179
370
    15
100
AcDbLine
 10
171.939746603
 20
139.2224870289
 30
0.0
 11
165.1397465129
 21
139.2224870289
 31
0.0
  0
LINE
  5
69
330
1F
100
AcDbEntity
  8
SLD-0
  6
Continuous
 62
   179
370
    15
100
AcDbLine
 10
159.9397464405
 20
140.7724874566
 30
0.0
 11
159.4397464168
 21
140.2724871079
 31
0.0
  0
LINE
  5
6A
330
1F
100
AcDbEntity
  8
SLD-0
  6
Continuous
 62
   179
370
    15
100
AcDbLine
 10
159.4397464168
 20
107.6724866072
 30
0.0
 11
159.9397464405
 21
107.1724874566
 31
0.0
  0
LINE
  5
6B
330
1F
100
AcDbEntity
  8
SLD-0
  6
Continuous
 62
   179
370
    15
100
AcDbLine
 10
164.4397464405
 20
107.1724874566
 30
0.0
 11
164.9397465225
 21
107.6724866072
 31
0.0
  0
LINE
  5
6C
330
1F
100
AcDbEntity
  8
SLD-0
  6
Continuous
 62
   179
370
    15
100
AcDbLine
 10
164.9397465225
 20
140.2724871079
 30
0.0
 11
164.4397464405
 21
140.7724874566
 31
0.0
  0
LINE
  5
6D
330
1F
100
AcDbEntity
  8
SLD-0
  6
Continuous
 62
   179
370
    15
100
AcDbLine
 10
155.7150016405
 20
109.7263686026
 30
0.0
 11
155.9599504207
 21
109.5531640241
 31
0.0
  0
LINE
  5
6E
330
1F
100
AcDbEntity
  8
SLD-0
  6
Continuous
 62
   179
370
    15
100
AcDbLine
 10
157.9195422918
 20
109.5531640241
 30
0.0
 11
158.1644913048
 21
109.7263686026
 31
0.0
  0
LINE
  5
6F
330
1F
100
AcDbEntity
  8
SLD-0
  6
Continuous
 62
   179
370
    15
100
AcDbLine
 10
158.1644913048
 20
138.2186051125
 30
0.0
 11
157.9195422918
 21
138.391809691
 31
0.0
  0
LINE
  5
70
330
1F
100
AcDbEntity
  8
SLD-0
  6
Continuous
 62
   179
370
    15
100
AcDbLine
 10
155.9599504207
 20
138.391809691
 30
0.0
 11
155.7150016405
 21
138.2186051125
 31
0.0
  0
LINE
  5
71
330
1F
100
AcDbEntity
  8
SLD-0
  6
Continuous
 62
   179
370
    15
100
AcDbLine
 10
154.6397461888
 20
107.7224874536
 30
0.0
 11
159.2397464218
 21
107.7224874536
 31
0.0
  0
LINE
  5
72
330
1F
100
AcDbEntity
  8
SLD-0
  6
Continuous
 62
   179
370
    15
100
AcDbLine
 10
159.2397464218
 20
140.2224862615
 30
0.0
 11
154.6397461888
 21
140.2224862615
 31
0.0
  0
LINE
  5
73
330
1F
100
AcDbEntity
  8
SLD-0
  6
Continuous
 62
   179
370
    15
100
AcDbLine
 10
159.2397464218
 20
107.7224874536
 30
0.0
 11
159.4397464168
 21
107.9224871139
 31
0.0
  0
LINE
  5
74
330
1F
100
AcDbEntity
  8
SLD-0
  6
Continuous
 62
   179
370
    15
100
AcDbLine
 10
159.4397464168
 20
140.0224866013
 30
0.0
 11
159.2397464218
 21
140.2224862615
 31
0.0
  0
LINE
  5
75
330
1F
100
AcDbEntity
  8
SLD-0
  6
Continuous
 62
   179
370
    15
100
AcDbLine
 10
154.6397461888
 20
140.2224862615
 30
0.0
 11
154.4397465285
 21
140.0224866013
 31
0.0
  0
LINE
  5
76
330
1F
100
AcDbEntity
  8
SLD-0
  6
Continuous
 62
   179
370
    15
100
AcDbLine
 10
154.4397465285
 20
107.9224871139
 30
0.0
 11
154.6397461888
 21
107.7224874536
 31
0.0
  0
LINE
  5
77
330
1F
100
AcDbEntity
  8
SLD-0
  6
Continuous
 62
   179
370
    15
100
AcDbLine
 10
83.9397498738
 20
139.3724867741
 30
0.0
 11
81.9397458207
 21
137.3724864463
 31
0.0
  0
LINE
  5
78
330
1F
100
AcDbEntity
  8
SLD-0
  6
Continuous
 62
   179
370
    15
100
AcDbLine
 10
81.9397458207
 20
110.5724872688
 30
0.0
 11
83.9397498738
 21
108.572486941
 31
0.0
  0
LINE
  5
79
330
1F
100
AcDbEntity
  8
SLD-0
  6
Continuous
 62
   179
370
    15
100
AcDbLine
 10
87.7529793751
 20
139.3724867741
 30
0.0
 11
83.9397498738
 21
139.3724867741
 31
0.0
  0
LINE
  5
7A
330
1F
100
AcDbEntity
  8
SLD-0
  6
Continuous
 62
   179
370
    15
100
AcDbLine
 10
95.5397450697
 20
139.3724811862
 30
0.0
 11
89.7264221084
 21
139.3724811862
 31
0.0
  0
LINE
  5
7B
330
1F
100
AcDbEntity
  8
SLD-0
  6
Continuous
 62
   179
370
    15
100
AcDbLine
 10
83.9397498738
 20
108.572486941
 30
0.0
 11
95.5397450697
 21
108.572486941
 31
0.0
  0
LINE
  5
7C
330
1F
100
AcDbEntity
  8
SLD-0
  6
Continuous
 62
   179
370
    15
100
AcDbLine
 10
95.5397450697
 20
108.572486941
 30
0.0
 11
95.7397484552
 21
108.7724866013
 31
0.0
  0
LINE
  5
7D
330
1F
100
AcDbEntity
  8
SLD-0
  6
Continuous
 62
   179
370
    15
100
AcDbLine
 10
95.7397484552
 20
139.1724871139
 30
0.0
 11
95.5397450697
 21
139.3724811862
 31
0.0
  0
LINE
  5
7E
330
1F
100
AcDbEntity
  8
SLD-0
  6
Continuous
 62
   179
370
    15
100
AcDbLine
 10
146.8387936574
 20
107.1215329359
 30
0.0
 11
147.4397463125
 21
107.7224874536
 31
0.0
  0
LINE
  5
7F
330
1F
100
AcDbEntity
  8
SLD-0
  6
Continuous
 62
   179
370
    15
100
AcDbLine
 10
147.4397463125
 20
140.2224862615
 30
0.0
 11
146.8387936574
 21
140.8234407792
 31
0.0
  0
LINE
  5
80
330
1F
100
AcDbEntity
  8
SLD-0
  6
Continuous
 62
   179
370
    15
100
AcDbLine
 10
135.5406997126
 20
140.8234407792
 30
0.0
 11
134.9397470575
 21
140.2224862615
 31
0.0
  0
LINE
  5
81
330
1F
100
AcDbEntity
  8
SLD-0
  6
Continuous
 62
   179
370
    15
100
AcDbLine
 10
134.9397470575
 20
107.7224874536
 30
0.0
 11
135.5406997126
 21
107.1215329359
 31
0.0
  0
LINE
  5
82
330
1F
100
AcDbEntity
  8
SLD-0
  6
Continuous
 62
   179
370
    15
100
AcDbLine
 10
153.7397463206
 20
140.2224862615
 30
0.0
 11
147.4397463125
 21
140.2224862615
 31
0.0
  0
LINE
  5
83
330
1F
100
AcDbEntity
  8
SLD-0
  6
Continuous
 62
   179
370
    15
100
AcDbLine
 10
147.4397463125
 20
107.7224874536
 30
0.0
 11
153.7397463206
 21
107.7224874536
 31
0.0
  0
LINE
  5
84
330
1F
100
AcDbEntity
  8
SLD-0
  6
Continuous
 62
   179
370
    15
100
AcDbLine
 10
153.7397463206
 20
107.7224874536
 30
0.0
 11
153.9397464466
 21
107.9224871139
 31
0.0
  0
LINE
  5
85
330
1F
100
AcDbEntity
  8
SLD-0
  6
Continuous
 62
   179
370
    15
100
AcDbLine
 10
153.9397464466
 20
140.0224866013
 30
0.0
 11
153.7397463206
 21
140.2224862615
 31
0.0
  0
LINE
  5
86
330
1F
100
AcDbEntity
  8
SLD-0
  6
Continuous
 62
   179
370
    15
100
AcDbLine
 10
96.1397477757
 20
139.4724866042
 30
0.0
 11
95.9397443902
 21
139.272486944
 31
0.0
  0
LINE
  5
87
330
1F
100
AcDbEntity
  8
SLD-0
  6
Continuous
 62
   179
370
    15
100
AcDbLine
 10
95.9397443902
 20
108.6724867711
 30
0.0
 11
96.1397477757
 21
108.4724871109
 31
0.0
  0
LINE
  5
88
330
1F
100
AcDbEntity
  8
SLD-0
  6
Continuous
 62
   179
370
    15
100
AcDbLine
 10
134.9397470575
 20
139.4724866042
 30
0.0
 11
96.1397477757
 21
139.4724866042
 31
0.0
  0
LINE
  5
89
330
1F
100
AcDbEntity
  8
SLD-0
  6
Continuous
 62
   179
370
    15
100
AcDbLine
 10
96.1397477757
 20
108.4724871109
 30
0.0
 11
134.9397470575
 21
108.4724871109
 31
0.0
  0
LINE
  5
8A
330
1F
100
AcDbEntity
  8
SLD-0
  6
Continuous
 62
   179
370
    15
100
AcDbLine
 10
95.7397484552
 20
110.172487017
 30
0.0
 11
95.9397443902
 21
110.3724866773
 31
0.0
  0
LINE
  5
8B
330
1F
100
AcDbEntity
  8
SLD-0
  6
Continuous
 62
   179
370
    15
100
AcDbLine
 10
95.9397443902
 20
137.5724870379
 30
0.0
 11
95.7397484552
 21
137.7724866981
 31
0.0
  0
LINE
  5
8C
330
1F
100
AcDbEntity
  8
SLD-0
  6
Continuous
 62
   179
370
    15
100
AcDbLine
 10
154.2397464026
 20
138.9724865223
 30
0.0
 11
153.9397464466
 21
138.9724865223
 31
0.0
  0
LINE
  5
8D
330
1F
100
AcDbEntity
  8
SLD-0
  6
Continuous
 62
   179
370
    15
100
AcDbLine
 10
153.9397464466
 20
108.9724871928
 30
0.0
 11
154.2397464026
 21
108.9724871928
 31
0.0
  0
LINE
  5
8E
330
1F
100
AcDbEntity
  8
SLD-0
  6
Continuous
 62
   179
370
    15
100
AcDbLine
 10
154.2397464026
 20
108.9724871928
 30
0.0
 11
154.4397465285
 21
109.1724868531
 31
0.0
  0
LINE
  5
8F
330
1F
100
AcDbEntity
  8
SLD-0
  6
Continuous
 62
   179
370
    15
100
AcDbLine
 10
154.4397465285
 20
138.772486862
 30
0.0
 11
154.2397464026
 21
138.9724865223
 31
0.0
  0
LINE
  5
90
330
1F
100
AcDbEntity
  8
SLD-0
  6
Continuous
 62
   179
370
    15
100
AcDbLine
 10
231.6397467029
 20
114.7763246337
 30
0.0
 11
230.965253092
 21
114.6960381086
 31
0.0
  0
LINE
  5
91
330
1F
100
AcDbEntity
  8
SLD-0
  6
Continuous
 62
   179
370
    15
100
AcDbLine
 10
230.965253092
 20
114.6960381086
 30
0.0
 11
230.3407901299
 21
114.4611334095
 31
0.0
  0
LINE
  5
92
330
1F
100
AcDbEntity
  8
SLD-0
  6
Continuous
 62
   179
370
    15
100
AcDbLine
 10
230.3407901299
 20
114.4611334095
 30
0.0
 11
229.8126557242
 21
114.0890318567
 31
0.0
  0
LINE
  5
93
330
1F
100
AcDbEntity
  8
SLD-0
  6
Continuous
 62
   179
370
    15
100
AcDbLine
 10
229.8126557242
 20
114.0890318567
 30
0.0
 11
229.4200324785
 21
113.6073313321
 31
0.0
  0
LINE
  5
94
330
1F
100
AcDbEntity
  8
SLD-0
  6
Continuous
 62
   179
370
    15
100
AcDbLine
 10
229.4200324785
 20
113.6073313321
 30
0.0
 11
229.1920372617
 21
113.0517564381
 31
0.0
  0
LINE
  5
95
330
1F
100
AcDbEntity
  8
SLD-0
  6
Continuous
 62
   179
370
    15
100
AcDbLine
 10
229.1920372617
 20
113.0517564381
 30
0.0
 11
229.1455754411
 21
112.4635116796
 31
0.0
  0
LINE
  5
96
330
1F
100
AcDbEntity
  8
SLD-0
  6
Continuous
 62
   179
370
    15
100
AcDbLine
 10
229.1455754411
 20
112.4635116796
 30
0.0
 11
229.2840966355
 21
111.8862257937
 31
0.0
  0
LINE
  5
97
330
1F
100
AcDbEntity
  8
SLD-0
  6
Continuous
 62
   179
370
    15
100
AcDbLine
 10
229.2840966355
 20
111.8862257937
 30
0.0
 11
229.5973190438
 21
111.3627116794
 31
0.0
  0
LINE
  5
98
330
1F
100
AcDbEntity
  8
SLD-0
  6
Continuous
 62
   179
370
    15
100
AcDbLine
 10
229.5973190438
 20
111.3627116794
 30
0.0
 11
230.0620266568
 21
110.9317971061
 31
0.0
  0
LINE
  5
99
330
1F
100
AcDbEntity
  8
SLD-0
  6
Continuous
 62
   179
370
    15
100
AcDbLine
 10
230.0620266568
 20
110.9317971061
 30
0.0
 11
230.6437456381
 21
110.6254404078
 31
0.0
  0
LINE
  5
9A
330
1F
100
AcDbEntity
  8
SLD-0
  6
Continuous
 62
   179
370
    15
100
AcDbLine
 10
230.6437456381
 20
110.6254404078
 30
0.0
 11
231.2993296754
 21
110.4663630615
 31
0.0
  0
LINE
  5
9B
330
1F
100
AcDbEntity
  8
SLD-0
  6
Continuous
 62
   179
370
    15
100
AcDbLine
 10
231.2993296754
 20
110.4663630615
 30
0.0
 11
231.9801637303
 21
110.4663630615
 31
0.0
  0
LINE
  5
9C
330
1F
100
AcDbEntity
  8
SLD-0
  6
Continuous
 62
   179
370
    15
100
AcDbLine
 10
231.9801637303
 20
110.4663630615
 30
0.0
 11
232.6357477676
 21
110.6254404078
 31
0.0
  0
LINE
  5
9D
330
1F
100
AcDbEntity
  8
SLD-0
  6
Continuous
 62
   179
370
    15
100
AcDbLine
 10
232.6357477676
 20
110.6254404078
 30
0.0
 11
233.2174667489
 21
110.9317971061
 31
0.0
  0
LINE
  5
9E
330
1F
100
AcDbEntity
  8
SLD-0
  6
Continuous
 62
   179
370
    15
100
AcDbLine
 10
233.2174667489
 20
110.9317971061
 30
0.0
 11
233.6821743619
 21
111.3627116794
 31
0.0
  0
LINE
  5
9F
330
1F
100
AcDbEntity
  8
SLD-0
  6
Continuous
 62
   179
370
    15
100
AcDbLine
 10
233.6821743619
 20
111.3627116794
 30
0.0
 11
233.9953967702
 21
111.8862257937
 31
0.0
  0
LINE
  5
A0
330
1F
100
AcDbEntity
  8
SLD-0
  6
Continuous
 62
   179
370
    15
100
AcDbLine
 10
233.9953967702
 20
111.8862257937
 30
0.0
 11
234.1339179646
 21
112.4635116796
 31
0.0
  0
LINE
  5
A1
330
1F
100
AcDbEntity
  8
SLD-0
  6
Continuous
 62
   179
370
    15
100
AcDbLine
 10
234.1339179646
 20
112.4635116796
 30
0.0
 11
234.087456144
 21
113.0517564381
 31
0.0
  0
LINE
  5
A2
330
1F
100
AcDbEntity
  8
SLD-0
  6
Continuous
 62
   179
370
    15
100
AcDbLine
 10
234.087456144
 20
113.0517564381
 30
0.0
 11
233.8594609272
 21
113.6073313321
 31
0.0
  0
LINE
  5
A3
330
1F
100
AcDbEntity
  8
SLD-0
  6
Continuous
 62
   179
370
    15
100
AcDbLine
 10
233.8594609272
 20
113.6073313321
 30
0.0
 11
233.4668376815
 21
114.0890318567
 31
0.0
  0
LINE
  5
A4
330
1F
100
AcDbEntity
  8
SLD-0
  6
Continuous
 62
   179
370
    15
100
AcDbLine
 10
233.4668376815
 20
114.0890318567
 30
0.0
 11
232.9387032759
 21
114.4611334095
 31
0.0
  0
LINE
  5
A5
330
1F
100
AcDbEntity
  8
SLD-0
  6
Continuous
 62
   179
370
    15
100
AcDbLine
 10
232.9387032759
 20
114.4611334095
 30
0.0
 11
232.3142403137
 21
114.6960381086
 31
0.0
  0
LINE
  5
A6
330
1F
100
AcDbEntity
  8
SLD-0
  6
Continuous
 62
   179
370
    15
100
AcDbLine
 10
232.3142403137
 20
114.6960381086
 30
0.0
 11
231.6397467029
 21
114.7763246337
 31
0.0
  0
LINE
  5
A7
330
1F
100
AcDbEntity
  8
SLD-0
  6
Continuous
 62
   179
370
    15
100
AcDbLine
 10
230.8632918965
 20
110.3517125959
 30
0.0
 11
231.1274820339
 21
110.3202990855
 31
0.0
  0
LINE
  5
A8
330
1F
100
AcDbEntity
  8
SLD-0
  6
Continuous
 62
   179
370
    15
100
AcDbLine
 10
230.6307890784
 20
110.4355577047
 30
0.0
 11
230.8632918965
 21
110.3517125959
 31
0.0
  0
LINE
  5
A9
330
1F
100
AcDbEntity
  8
SLD-0
  6
Continuous
 62
   179
370
    15
100
AcDbLine
 10
230.3718888533
 20
110.5066045786
 30
0.0
 11
230.6307890784
 21
110.4355577047
 31
0.0
  0
LINE
  5
AA
330
1F
100
AcDbEntity
  8
SLD-0
  6
Continuous
 62
   179
370
    15
100
AcDbLine
 10
230.1647478115
 20
110.6237612332
 30
0.0
 11
230.3718888533
 21
110.5066045786
 31
0.0
  0
LINE
  5
AB
330
1F
100
AcDbEntity
  8
SLD-0
  6
Continuous
 62
   179
370
    15
100
AcDbLine
 10
229.9190202128
 20
110.7330416928
 30
0.0
 11
230.1647478115
 21
110.6237612332
 31
0.0
  0
LINE
  5
AC
330
1F
100
AcDbEntity
  8
SLD-0
  6
Continuous
 62
   179
370
    15
100
AcDbLine
 10
229.7435217869
 20
110.8791894878
 30
0.0
 11
229.9190202128
 21
110.7330416928
 31
0.0
  0
LINE
  5
AD
330
1F
100
AcDbEntity
  8
SLD-0
  6
Continuous
 62
   179
370
    15
100
AcDbLine
 10
229.5184248459
 20
111.0241433273
 30
0.0
 11
229.7435217869
 21
110.8791894878
 31
0.0
  0
LINE
  5
AE
330
1F
100
AcDbEntity
  8
SLD-0
  6
Continuous
 62
   179
370
    15
100
AcDbLine
 10
229.3799185526
 20
111.1940836201
 30
0.0
 11
229.5184248459
 21
111.0241433273
 31
0.0
  0
LINE
  5
AF
330
1F
100
AcDbEntity
  8
SLD-0
  6
Continuous
 62
   179
370
    15
100
AcDbLine
 10
229.1822919023
 20
111.3710656429
 30
0.0
 11
229.3799185526
 21
111.1940836201
 31
0.0
  0
LINE
  5
B0
330
1F
100
AcDbEntity
  8
SLD-0
  6
Continuous
 62
   179
370
    15
100
AcDbLine
 10
229.0849724185
 20
111.5588733593
 30
0.0
 11
229.1822919023
 21
111.3710656429
 31
0.0
  0
LINE
  5
B1
330
1F
100
AcDbEntity
  8
SLD-0
  6
Continuous
 62
   179
370
    15
100
AcDbLine
 10
228.9208212268
 20
111.7632669995
 30
0.0
 11
229.0849724185
 21
111.5588733593
 31
0.0
  0
LINE
  5
B2
330
1F
100
AcDbEntity
  8
SLD-0
  6
Continuous
 62
   179
370
    15
100
AcDbLine
 10
228.8676538836
 20
111.9624768982
 30
0.0
 11
228.9208212268
 21
111.7632669995
 31
0.0
  0
LINE
  5
B3
330
1F
100
AcDbEntity
  8
SLD-0
  6
Continuous
 62
   179
370
    15
100
AcDbLine
 10
228.7419700396
 20
112.188829262
 30
0.0
 11
228.8676538836
 21
111.9624768982
 31
0.0
  0
LINE
  5
B4
330
1F
100
AcDbEntity
  8
SLD-0
  6
Continuous
 62
   179
370
    15
100
AcDbLine
 10
228.7345641624
 20
112.3926287184
 30
0.0
 11
228.7419700396
 21
112.188829262
 31
0.0
  0
LINE
  5
B5
330
1F
100
AcDbEntity
  8
SLD-0
  6
Continuous
 62
   179
370
    15
100
AcDbLine
 10
228.6511623632
 20
112.6348238105
 30
0.0
 11
228.7345641624
 21
112.3926287184
 31
0.0
  0
LINE
  5
B6
330
1F
100
AcDbEntity
  8
SLD-0
  6
Continuous
 62
   179
370
    15
100
AcDbLine
 10
228.6897489202
 20
112.8362614329
 30
0.0
 11
228.6511623632
 21
112.6348238105
 31
0.0
  0
LINE
  5
B7
330
1F
100
AcDbEntity
  8
SLD-0
  6
Continuous
 62
   179
370
    15
100
AcDbLine
 10
228.6511623632
 20
113.0876980389
 30
0.0
 11
228.6897489202
 21
112.8362614329
 31
0.0
  0
LINE
  5
B8
330
1F
100
AcDbEntity
  8
SLD-0
  6
Continuous
 62
   179
370
    15
100
AcDbLine
 10
228.7345641624
 20
113.279893216
 30
0.0
 11
228.6511623632
 21
113.0876980389
 31
0.0
  0
LINE
  5
B9
330
1F
100
AcDbEntity
  8
SLD-0
  6
Continuous
 62
   179
370
    15
100
AcDbLine
 10
228.7419700396
 20
113.5336925874
 30
0.0
 11
228.7345641624
 21
113.279893216
 31
0.0
  0
LINE
  5
BA
330
1F
100
AcDbEntity
  8
SLD-0
  6
Continuous
 62
   179
370
    15
100
AcDbLine
 10
228.8676538836
 20
113.7100459675
 30
0.0
 11
228.7419700396
 21
113.5336925874
 31
0.0
  0
LINE
  5
BB
330
1F
100
AcDbEntity
  8
SLD-0
  6
Continuous
 62
   179
370
    15
100
AcDbLine
 10
228.9208212268
 20
113.9592557813
 30
0.0
 11
228.8676538836
 21
113.7100459675
 31
0.0
  0
LINE
  5
BC
330
1F
100
AcDbEntity
  8
SLD-0
  6
Continuous
 62
   179
370
    15
100
AcDbLine
 10
229.0849724185
 20
114.113648575
 30
0.0
 11
228.9208212268
 21
113.9592557813
 31
0.0
  0
LINE
  5
BD
330
1F
100
AcDbEntity
  8
SLD-0
  6
Continuous
 62
   179
370
    15
100
AcDbLine
 10
229.1822919023
 20
114.3514562065
 30
0.0
 11
229.0849724185
 21
114.113648575
 31
0.0
  0
LINE
  5
BE
330
1F
100
AcDbEntity
  8
SLD-0
  6
Continuous
 62
   179
370
    15
100
AcDbLine
 10
229.3799185526
 20
114.4784383143
 30
0.0
 11
229.1822919023
 21
114.3514562065
 31
0.0
  0
LINE
  5
BF
330
1F
100
AcDbEntity
  8
SLD-0
  6
Continuous
 62
   179
370
    15
100
AcDbLine
 10
229.5184248459
 20
114.6983785222
 30
0.0
 11
229.3799185526
 21
114.4784383143
 31
0.0
  0
LINE
  5
C0
330
1F
100
AcDbEntity
  8
SLD-0
  6
Continuous
 62
   179
370
    15
100
AcDbLine
 10
229.7435217869
 20
114.7933324466
 30
0.0
 11
229.5184248459
 21
114.6983785222
 31
0.0
  0
LINE
  5
C1
330
1F
100
AcDbEntity
  8
SLD-0
  6
Continuous
 62
   179
370
    15
100
AcDbLine
 10
229.9190202128
 20
114.9894801567
 30
0.0
 11
229.7435217869
 21
114.7933324466
 31
0.0
  0
LINE
  5
C2
330
1F
100
AcDbEntity
  8
SLD-0
  6
Continuous
 62
   179
370
    15
100
AcDbLine
 10
230.1647478115
 20
115.0487607012
 30
0.0
 11
229.9190202128
 21
114.9894801567
 31
0.0
  0
LINE
  5
C3
330
1F
100
AcDbEntity
  8
SLD-0
  6
Continuous
 62
   179
370
    15
100
AcDbLine
 10
230.3718888533
 20
115.2159182022
 30
0.0
 11
230.1647478115
 21
115.0487607012
 31
0.0
  0
LINE
  5
C4
330
1F
100
AcDbEntity
  8
SLD-0
  6
Continuous
 62
   179
370
    15
100
AcDbLine
 10
230.6307890784
 20
115.2369642297
 30
0.0
 11
230.3718888533
 21
115.2159182022
 31
0.0
  0
LINE
  5
C5
330
1F
100
AcDbEntity
  8
SLD-0
  6
Continuous
 62
   179
370
    15
100
AcDbLine
 10
230.8632918965
 20
115.3708101849
 30
0.0
 11
230.6307890784
 21
115.2369642297
 31
0.0
  0
LINE
  5
C6
330
1F
100
AcDbEntity
  8
SLD-0
  6
Continuous
 62
   179
370
    15
100
AcDbLine
 10
231.1274820339
 20
115.3522228489
 30
0.0
 11
230.8632918965
 21
115.3708101849
 31
0.0
  0
LINE
  5
C7
330
1F
100
AcDbEntity
  8
SLD-0
  6
Continuous
 62
   179
370
    15
100
AcDbLine
 10
231.3782760274
 20
115.4494510631
 30
0.0
 11
231.1274820339
 21
115.3522228489
 31
0.0
  0
LINE
  5
C8
330
1F
100
AcDbEntity
  8
SLD-0
  6
Continuous
 62
   179
370
    15
100
AcDbLine
 10
231.6397467029
 20
115.3910357172
 30
0.0
 11
231.3782760274
 21
115.4494510631
 31
0.0
  0
LINE
  5
C9
330
1F
100
AcDbEntity
  8
SLD-0
  6
Continuous
 62
   179
370
    15
100
AcDbLine
 10
231.9012099277
 20
115.4494510631
 30
0.0
 11
231.6397467029
 21
115.3910357172
 31
0.0
  0
LINE
  5
CA
330
1F
100
AcDbEntity
  8
SLD-0
  6
Continuous
 62
   179
370
    15
100
AcDbLine
 10
232.1520113718
 20
115.3522228489
 30
0.0
 11
231.9012099277
 21
115.4494510631
 31
0.0
  0
LINE
  5
CB
330
1F
100
AcDbEntity
  8
SLD-0
  6
Continuous
 62
   179
370
    15
100
AcDbLine
 10
232.4162015092
 20
115.3708101849
 30
0.0
 11
232.1520113718
 21
115.3522228489
 31
0.0
  0
LINE
  5
CC
330
1F
100
AcDbEntity
  8
SLD-0
  6
Continuous
 62
   179
370
    15
100
AcDbLine
 10
232.6487043273
 20
115.2369642297
 30
0.0
 11
232.4162015092
 21
115.3708101849
 31
0.0
  0
LINE
  5
CD
330
1F
100
AcDbEntity
  8
SLD-0
  6
Continuous
 62
   179
370
    15
100
AcDbLine
 10
232.9076045525
 20
115.2159182022
 30
0.0
 11
232.6487043273
 21
115.2369642297
 31
0.0
  0
LINE
  5
CE
330
1F
100
AcDbEntity
  8
SLD-0
  6
Continuous
 62
   179
370
    15
100
AcDbLine
 10
233.1147455942
 20
115.0487607012
 30
0.0
 11
232.9076045525
 21
115.2159182022
 31
0.0
  0
LINE
  5
CF
330
1F
100
AcDbEntity
  8
SLD-0
  6
Continuous
 62
   179
370
    15
100
AcDbLine
 10
233.3604731929
 20
114.9894801567
 30
0.0
 11
233.1147455942
 21
115.0487607012
 31
0.0
  0
LINE
  5
D0
330
1F
100
AcDbEntity
  8
SLD-0
  6
Continuous
 62
   179
370
    15
100
AcDbLine
 10
233.5359716188
 20
114.7933324466
 30
0.0
 11
233.3604731929
 21
114.9894801567
 31
0.0
  0
LINE
  5
D1
330
1F
100
AcDbEntity
  8
SLD-0
  6
Continuous
 62
   179
370
    15
100
AcDbLine
 10
233.7610685598
 20
114.6983785222
 30
0.0
 11
233.5359716188
 21
114.7933324466
 31
0.0
  0
LINE
  5
D2
330
1F
100
AcDbEntity
  8
SLD-0
  6
Continuous
 62
   179
370
    15
100
AcDbLine
 10
233.8995748531
 20
114.4784383143
 30
0.0
 11
233.7610685598
 21
114.6983785222
 31
0.0
  0
LINE
  5
D3
330
1F
100
AcDbEntity
  8
SLD-0
  6
Continuous
 62
   179
370
    15
100
AcDbLine
 10
234.0972015035
 20
114.3514562065
 30
0.0
 11
233.8995748531
 21
114.4784383143
 31
0.0
  0
LINE
  5
D4
330
1F
100
AcDbEntity
  8
SLD-0
  6
Continuous
 62
   179
370
    15
100
AcDbLine
 10
234.1945209872
 20
114.113648575
 30
0.0
 11
234.0972015035
 21
114.3514562065
 31
0.0
  0
LINE
  5
D5
330
1F
100
AcDbEntity
  8
SLD-0
  6
Continuous
 62
   179
370
    15
100
AcDbLine
 10
234.3586721789
 20
113.9592557813
 30
0.0
 11
234.1945209872
 21
114.113648575
 31
0.0
  0
LINE
  5
D6
330
1F
100
AcDbEntity
  8
SLD-0
  6
Continuous
 62
   179
370
    15
100
AcDbLine
 10
234.4118395221
 20
113.7100459675
 30
0.0
 11
234.3586721789
 21
113.9592557813
 31
0.0
  0
LINE
  5
D7
330
1F
100
AcDbEntity
  8
SLD-0
  6
Continuous
 62
   179
370
    15
100
AcDbLine
 10
234.5375233662
 20
113.5336925874
 30
0.0
 11
234.4118395221
 21
113.7100459675
 31
0.0
  0
LINE
  5
D8
330
1F
100
AcDbEntity
  8
SLD-0
  6
Continuous
 62
   179
370
    15
100
AcDbLine
 10
234.5449292433
 20
113.279893216
 30
0.0
 11
234.5375233662
 21
113.5336925874
 31
0.0
  0
LINE
  5
D9
330
1F
100
AcDbEntity
  8
SLD-0
  6
Continuous
 62
   179
370
    15
100
AcDbLine
 10
234.6283310425
 20
113.0876980389
 30
0.0
 11
234.5449292433
 21
113.279893216
 31
0.0
  0
LINE
  5
DA
330
1F
100
AcDbEntity
  8
SLD-0
  6
Continuous
 62
   179
370
    15
100
AcDbLine
 10
234.5897444856
 20
112.8362614329
 30
0.0
 11
234.6283310425
 21
113.0876980389
 31
0.0
  0
LINE
  5
DB
330
1F
100
AcDbEntity
  8
SLD-0
  6
Continuous
 62
   179
370
    15
100
AcDbLine
 10
234.6283310425
 20
112.6348238105
 30
0.0
 11
234.5897444856
 21
112.8362614329
 31
0.0
  0
LINE
  5
DC
330
1F
100
AcDbEntity
  8
SLD-0
  6
Continuous
 62
   179
370
    15
100
AcDbLine
 10
234.5449292433
 20
112.3926287184
 30
0.0
 11
234.6283310425
 21
112.6348238105
 31
0.0
  0
LINE
  5
DD
330
1F
100
AcDbEntity
  8
SLD-0
  6
Continuous
 62
   179
370
    15
100
AcDbLine
 10
234.5375233662
 20
112.188829262
 30
0.0
 11
234.5449292433
 21
112.3926287184
 31
0.0
  0
LINE
  5
DE
330
1F
100
AcDbEntity
  8
SLD-0
  6
Continuous
 62
   179
370
    15
100
AcDbLine
 10
234.4118395221
 20
111.9624768982
 30
0.0
 11
234.5375233662
 21
112.188829262
 31
0.0
  0
LINE
  5
DF
330
1F
100
AcDbEntity
  8
SLD-0
  6
Continuous
 62
   179
370
    15
100
AcDbLine
 10
234.3586721789
 20
111.7632669995
 30
0.0
 11
234.4118395221
 21
111.9624768982
 31
0.0
  0
LINE
  5
E0
330
1F
100
AcDbEntity
  8
SLD-0
  6
Continuous
 62
   179
370
    15
100
AcDbLine
 10
234.1945209872
 20
111.5588733593
 30
0.0
 11
234.3586721789
 21
111.7632669995
 31
0.0
  0
LINE
  5
E1
330
1F
100
AcDbEntity
  8
SLD-0
  6
Continuous
 62
   179
370
    15
100
AcDbLine
 10
234.0972015035
 20
111.3710656429
 30
0.0
 11
234.1945209872
 21
111.5588733593
 31
0.0
  0
LINE
  5
E2
330
1F
100
AcDbEntity
  8
SLD-0
  6
Continuous
 62
   179
370
    15
100
AcDbLine
 10
233.8995748531
 20
111.1940836201
 30
0.0
 11
234.0972015035
 21
111.3710656429
 31
0.0
  0
LINE
  5
E3
330
1F
100
AcDbEntity
  8
SLD-0
  6
Continuous
 62
   179
370
    15
100
AcDbLine
 10
233.7610685598
 20
111.0241433273
 30
0.0
 11
233.8995748531
 21
111.1940836201
 31
0.0
  0
LINE
  5
E4
330
1F
100
AcDbEntity
  8
SLD-0
  6
Continuous
 62
   179
370
    15
100
AcDbLine
 10
233.5359716188
 20
110.8791894878
 30
0.0
 11
233.7610685598
 21
111.0241433273
 31
0.0
  0
LINE
  5
E5
330
1F
100
AcDbEntity
  8
SLD-0
  6
Continuous
 62
   179
370
    15
100
AcDbLine
 10
233.3604731929
 20
110.7330416928
 30
0.0
 11
233.5359716188
 21
110.8791894878
 31
0.0
  0
LINE
  5
E6
330
1F
100
AcDbEntity
  8
SLD-0
  6
Continuous
 62
   179
370
    15
100
AcDbLine
 10
233.1147455942
 20
110.6237612332
 30
0.0
 11
233.3604731929
 21
110.7330416928
 31
0.0
  0
LINE
  5
E7
330
1F
100
AcDbEntity
  8
SLD-0
  6
Continuous
 62
   179
370
    15
100
AcDbLine
 10
232.9076045525
 20
110.5066045786
 30
0.0
 11
233.1147455942
 21
110.6237612332
 31
0.0
  0
LINE
  5
E8
330
1F
100
AcDbEntity
  8
SLD-0
  6
Continuous
 62
   179
370
    15
100
AcDbLine
 10
232.6487043273
 20
110.4355577047
 30
0.0
 11
232.9076045525
 21
110.5066045786
 31
0.0
  0
LINE
  5
E9
330
1F
100
AcDbEntity
  8
SLD-0
  6
Continuous
 62
   179
370
    15
100
AcDbLine
 10
232.4162015092
 20
110.3517125959
 30
0.0
 11
232.6487043273
 21
110.4355577047
 31
0.0
  0
LINE
  5
EA
330
1F
100
AcDbEntity
  8
SLD-0
  6
Continuous
 62
   179
370
    15
100
AcDbLine
 10
232.1520113718
 20
110.3202990855
 30
0.0
 11
232.4162015092
 21
110.3517125959
 31
0.0
  0
LINE
  5
EB
330
1F
100
AcDbEntity
  8
SLD-0
  6
Continuous
 62
   179
370
    15
100
AcDbLine
 10
231.9012099277
 20
110.2730717177
 30
0.0
 11
232.1520113718
 21
110.3202990855
 31
0.0
  0
LINE
  5
EC
330
1F
100
AcDbEntity
  8
SLD-0
  6
Continuous
 62
   179
370
    15
100
AcDbLine
 10
231.6397467029
 20
110.2814862172
 30
0.0
 11
231.9012099277
 21
110.2730717177
 31
0.0
  0
LINE
  5
ED
330
1F
100
AcDbEntity
  8
SLD-0
  6
Continuous
 62
   179
370
    15
100
AcDbLine
 10
231.3782760274
 20
110.2730717177
 30
0.0
 11
231.6397467029
 21
110.2814862172
 31
0.0
  0
LINE
  5
EE
330
1F
100
AcDbEntity
  8
SLD-0
  6
Continuous
 62
   179
370
    15
100
AcDbLine
 10
231.1274820339
 20
110.3202990855
 30
0.0
 11
231.3782760274
 21
110.2730717177
 31
0.0
  0
LINE
  5
EF
330
1F
100
AcDbEntity
  8
SLD-0
  6
Continuous
 62
   179
370
    15
100
AcDbLine
 10
231.6397467029
 20
115.3910357172
 30
0.0
 11
231.6397467029
 21
117.4410359601
 31
0.0
  0
LINE
  5
F0
330
1F
100
AcDbEntity
  8
SLD-0
  6
Continuous
 62
   179
370
    15
100
AcDbLine
 10
231.6397467029
 20
117.4410359601
 30
0.0
 11
231.9012099277
 21
117.4494509252
 31
0.0
  0
LINE
  5
F1
330
1F
100
AcDbEntity
  8
SLD-0
  6
Continuous
 62
   179
370
    15
100
AcDbLine
 10
231.9012099277
 20
115.4494510631
 30
0.0
 11
231.9012099277
 21
117.4494509252
 31
0.0
  0
LINE
  5
F2
330
1F
100
AcDbEntity
  8
SLD-0
  6
Continuous
 62
   179
370
    15
100
AcDbLine
 10
231.9012099277
 20
117.4494509252
 30
0.0
 11
232.1520113718
 21
117.4022230918
 31
0.0
  0
LINE
  5
F3
330
1F
100
AcDbEntity
  8
SLD-0
  6
Continuous
 62
   179
370
    15
100
AcDbLine
 10
232.1520113718
 20
115.3522228489
 30
0.0
 11
232.1520113718
 21
117.4022230918
 31
0.0
  0
LINE
  5
F4
330
1F
100
AcDbEntity
  8
SLD-0
  6
Continuous
 62
   179
370
    15
100
AcDbLine
 10
231.3782760274
 20
115.4494510631
 30
0.0
 11
231.3782760274
 21
117.4494509252
 31
0.0
  0
LINE
  5
F5
330
1F
100
AcDbEntity
  8
SLD-0
  6
Continuous
 62
   179
370
    15
100
AcDbLine
 10
231.3782760274
 20
117.4494509252
 30
0.0
 11
231.6397467029
 21
117.4410359601
 31
0.0
  0
LINE
  5
F6
330
1F
100
AcDbEntity
  8
SLD-0
  6
Continuous
 62
   179
370
    15
100
AcDbLine
 10
231.1274820339
 20
115.3522228489
 30
0.0
 11
231.1274820339
 21
117.4022230918
 31
0.0
  0
LINE
  5
F7
330
1F
100
AcDbEntity
  8
SLD-0
  6
Continuous
 62
   179
370
    15
100
AcDbLine
 10
231.1274820339
 20
117.4022230918
 30
0.0
 11
231.3782760274
 21
117.4494509252
 31
0.0
  0
LINE
  5
F8
330
1F
100
AcDbEntity
  8
SLD-0
  6
Continuous
 62
   179
370
    15
100
AcDbLine
 10
232.1520113718
 20
117.4022230918
 30
0.0
 11
232.4162015092
 21
117.370810047
 31
0.0
  0
LINE
  5
F9
330
1F
100
AcDbEntity
  8
SLD-0
  6
Continuous
 62
   179
370
    15
100
AcDbLine
 10
232.4162015092
 20
115.3708101849
 30
0.0
 11
232.4162015092
 21
117.370810047
 31
0.0
  0
LINE
  5
FA
330
1F
100
AcDbEntity
  8
SLD-0
  6
Continuous
 62
   179
370
    15
100
AcDbLine
 10
230.8632918965
 20
115.3708101849
 30
0.0
 11
230.8632918965
 21
117.370810047
 31
0.0
  0
LINE
  5
FB
330
1F
100
AcDbEntity
  8
SLD-0
  6
Continuous
 62
   179
370
    15
100
AcDbLine
 10
230.8632918965
 20
117.370810047
 30
0.0
 11
231.1274820339
 21
117.4022230918
 31
0.0
  0
LINE
  5
FC
330
1F
100
AcDbEntity
  8
SLD-0
  6
Continuous
 62
   179
370
    15
100
AcDbLine
 10
232.4162015092
 20
117.370810047
 30
0.0
 11
232.6487043273
 21
117.286964007
 31
0.0
  0
LINE
  5
FD
330
1F
100
AcDbEntity
  8
SLD-0
  6
Continuous
 62
   179
370
    15
100
AcDbLine
 10
232.6487043273
 20
115.2369642297
 30
0.0
 11
232.6487043273
 21
117.286964007
 31
0.0
  0
LINE
  5
FE
330
1F
100
AcDbEntity
  8
SLD-0
  6
Continuous
 62
   179
370
    15
100
AcDbLine
 10
230.6307890784
 20
115.2369642297
 30
0.0
 11
230.6307890784
 21
117.286964007
 31
0.0
  0
LINE
  5
FF
330
1F
100
AcDbEntity
  8
SLD-0
  6
Continuous
 62
   179
370
    15
100
AcDbLine
 10
230.6307890784
 20
117.286964007
 30
0.0
 11
230.8632918965
 21
117.370810047
 31
0.0
  0
LINE
  5
100
330
1F
100
AcDbEntity
  8
SLD-0
  6
Continuous
 62
   179
370
    15
100
AcDbLine
 10
232.6487043273
 20
117.286964007
 30
0.0
 11
232.9076045525
 21
117.2159175987
 31
0.0
  0
LINE
  5
101
330
1F
100
AcDbEntity
  8
SLD-0
  6
Continuous
 62
   179
370
    15
100
AcDbLine
 10
232.9076045525
 20
115.2159182022
 30
0.0
 11
232.9076045525
 21
117.2159175987
 31
0.0
  0
LINE
  5
102
330
1F
100
AcDbEntity
  8
SLD-0
  6
Continuous
 62
   179
370
    15
100
AcDbLine
 10
230.3718888533
 20
115.2159182022
 30
0.0
 11
230.3718888533
 21
117.2159175987
 31
0.0
  0
LINE
  5
103
330
1F
100
AcDbEntity
  8
SLD-0
  6
Continuous
 62
   179
370
    15
100
AcDbLine
 10
230.3718888533
 20
117.2159175987
 30
0.0
 11
230.6307890784
 21
117.286964007
 31
0.0
  0
LINE
  5
104
330
1F
100
AcDbEntity
  8
SLD-0
  6
Continuous
 62
   179
370
    15
100
AcDbLine
 10
232.9076045525
 20
117.2159175987
 30
0.0
 11
233.1147455942
 21
117.0987609441
 31
0.0
  0
LINE
  5
105
330
1F
100
AcDbEntity
  8
SLD-0
  6
Continuous
 62
   179
370
    15
100
AcDbLine
 10
233.1147455942
 20
115.0487607012
 30
0.0
 11
233.1147455942
 21
117.0987609441
 31
0.0
  0
LINE
  5
106
330
1F
100
AcDbEntity
  8
SLD-0
  6
Continuous
 62
   179
370
    15
100
AcDbLine
 10
230.1647478115
 20
115.0487607012
 30
0.0
 11
230.1647478115
 21
117.0987609441
 31
0.0
  0
LINE
  5
107
330
1F
100
AcDbEntity
  8
SLD-0
  6
Continuous
 62
   179
370
    15
100
AcDbLine
 10
230.1647478115
 20
117.0987609441
 30
0.0
 11
230.3718888533
 21
117.2159175987
 31
0.0
  0
LINE
  5
108
330
1F
100
AcDbEntity
  8
SLD-0
  6
Continuous
 62
   179
370
    15
100
AcDbLine
 10
233.1147455942
 20
117.0987609441
 30
0.0
 11
233.3604731929
 21
116.9894804845
 31
0.0
  0
LINE
  5
109
330
1F
100
AcDbEntity
  8
SLD-0
  6
Continuous
 62
   179
370
    15
100
AcDbLine
 10
233.3604731929
 20
114.9894801567
 30
0.0
 11
233.3604731929
 21
116.9894804845
 31
0.0
  0
LINE
  5
10A
330
1F
100
AcDbEntity
  8
SLD-0
  6
Continuous
 62
   179
370
    15
100
AcDbLine
 10
229.9190202128
 20
114.9894801567
 30
0.0
 11
229.9190202128
 21
116.9894804845
 31
0.0
  0
LINE
  5
10B
330
1F
100
AcDbEntity
  8
SLD-0
  6
Continuous
 62
   179
370
    15
100
AcDbLine
 10
229.9190202128
 20
116.9894804845
 30
0.0
 11
230.1647478115
 21
117.0987609441
 31
0.0
  0
LINE
  5
10C
330
1F
100
AcDbEntity
  8
SLD-0
  6
Continuous
 62
   179
370
    15
100
AcDbLine
 10
233.3604731929
 20
116.9894804845
 30
0.0
 11
233.5359716188
 21
116.8433322238
 31
0.0
  0
LINE
  5
10D
330
1F
100
AcDbEntity
  8
SLD-0
  6
Continuous
 62
   179
370
    15
100
AcDbLine
 10
233.5359716188
 20
114.7933324466
 30
0.0
 11
233.5359716188
 21
116.8433322238
 31
0.0
  0
LINE
  5
10E
330
1F
100
AcDbEntity
  8
SLD-0
  6
Continuous
 62
   179
370
    15
100
AcDbLine
 10
229.7435217869
 20
114.7933324466
 30
0.0
 11
229.7435217869
 21
116.8433322238
 31
0.0
  0
LINE
  5
10F
330
1F
100
AcDbEntity
  8
SLD-0
  6
Continuous
 62
   179
370
    15
100
AcDbLine
 10
229.7435217869
 20
116.8433322238
 30
0.0
 11
229.9190202128
 21
116.9894804845
 31
0.0
  0
LINE
  5
110
330
1F
100
AcDbEntity
  8
SLD-0
  6
Continuous
 62
   179
370
    15
100
AcDbLine
 10
229.5184248459
 20
114.6983785222
 30
0.0
 11
229.5184248459
 21
116.6983783843
 31
0.0
  0
LINE
  5
111
330
1F
100
AcDbEntity
  8
SLD-0
  6
Continuous
 62
   179
370
    15
100
AcDbLine
 10
229.5184248459
 20
116.6983783843
 30
0.0
 11
229.7435217869
 21
116.8433322238
 31
0.0
  0
LINE
  5
112
330
1F
100
AcDbEntity
  8
SLD-0
  6
Continuous
 62
   179
370
    15
100
AcDbLine
 10
233.5359716188
 20
116.8433322238
 30
0.0
 11
233.7610685598
 21
116.6983783843
 31
0.0
  0
LINE
  5
113
330
1F
100
AcDbEntity
  8
SLD-0
  6
Continuous
 62
   179
370
    15
100
AcDbLine
 10
233.7610685598
 20
114.6983785222
 30
0.0
 11
233.7610685598
 21
116.6983783843
 31
0.0
  0
LINE
  5
114
330
1F
100
AcDbEntity
  8
SLD-0
  6
Continuous
 62
   179
370
    15
100
AcDbLine
 10
233.7610685598
 20
116.6983783843
 30
0.0
 11
233.8995748531
 21
116.5284385572
 31
0.0
  0
LINE
  5
115
330
1F
100
AcDbEntity
  8
SLD-0
  6
Continuous
 62
   179
370
    15
100
AcDbLine
 10
233.8995748531
 20
114.4784383143
 30
0.0
 11
233.8995748531
 21
116.5284385572
 31
0.0
  0
LINE
  5
116
330
1F
100
AcDbEntity
  8
SLD-0
  6
Continuous
 62
   179
370
    15
100
AcDbLine
 10
229.3799185526
 20
114.4784383143
 30
0.0
 11
229.3799185526
 21
116.5284385572
 31
0.0
  0
LINE
  5
117
330
1F
100
AcDbEntity
  8
SLD-0
  6
Continuous
 62
   179
370
    15
100
AcDbLine
 10
229.3799185526
 20
116.5284385572
 30
0.0
 11
229.5184248459
 21
116.6983783843
 31
0.0
  0
LINE
  5
118
330
1F
100
AcDbEntity
  8
SLD-0
  6
Continuous
 62
   179
370
    15
100
AcDbLine
 10
233.8995748531
 20
116.5284385572
 30
0.0
 11
234.0972015035
 21
116.3514565344
 31
0.0
  0
LINE
  5
119
330
1F
100
AcDbEntity
  8
SLD-0
  6
Continuous
 62
   179
370
    15
100
AcDbLine
 10
234.0972015035
 20
114.3514562065
 30
0.0
 11
234.0972015035
 21
116.3514565344
 31
0.0
  0
LINE
  5
11A
330
1F
100
AcDbEntity
  8
SLD-0
  6
Continuous
 62
   179
370
    15
100
AcDbLine
 10
229.1822919023
 20
114.3514562065
 30
0.0
 11
229.1822919023
 21
116.3514565344
 31
0.0
  0
LINE
  5
11B
330
1F
100
AcDbEntity
  8
SLD-0
  6
Continuous
 62
   179
370
    15
100
AcDbLine
 10
229.1822919023
 20
116.3514565344
 30
0.0
 11
229.3799185526
 21
116.5284385572
 31
0.0
  0
LINE
  5
11C
330
1F
100
AcDbEntity
  8
SLD-0
  6
Continuous
 62
   179
370
    15
100
AcDbLine
 10
234.0972015035
 20
116.3514565344
 30
0.0
 11
234.1945209872
 21
116.1636483523
 31
0.0
  0
LINE
  5
11D
330
1F
100
AcDbEntity
  8
SLD-0
  6
Continuous
 62
   179
370
    15
100
AcDbLine
 10
234.1945209872
 20
114.113648575
 30
0.0
 11
234.1945209872
 21
116.1636483523
 31
0.0
  0
LINE
  5
11E
330
1F
100
AcDbEntity
  8
SLD-0
  6
Continuous
 62
   179
370
    15
100
AcDbLine
 10
229.0849724185
 20
114.113648575
 30
0.0
 11
229.0849724185
 21
116.1636483523
 31
0.0
  0
LINE
  5
11F
330
1F
100
AcDbEntity
  8
SLD-0
  6
Continuous
 62
   179
370
    15
100
AcDbLine
 10
229.0849724185
 20
116.1636483523
 30
0.0
 11
229.1822919023
 21
116.3514565344
 31
0.0
  0
LINE
  5
120
330
1F
100
AcDbEntity
  8
SLD-0
  6
Continuous
 62
   179
370
    15
100
AcDbLine
 10
234.1945209872
 20
116.1636483523
 30
0.0
 11
234.3586721789
 21
115.9592551778
 31
0.0
  0
LINE
  5
121
330
1F
100
AcDbEntity
  8
SLD-0
  6
Continuous
 62
   179
370
    15
100
AcDbLine
 10
234.3586721789
 20
113.9592557813
 30
0.0
 11
234.3586721789
 21
115.9592551778
 31
0.0
  0
LINE
  5
122
330
1F
100
AcDbEntity
  8
SLD-0
  6
Continuous
 62
   179
370
    15
100
AcDbLine
 10
228.9208212268
 20
113.9592557813
 30
0.0
 11
228.9208212268
 21
115.9592551778
 31
0.0
  0
LINE
  5
123
330
1F
100
AcDbEntity
  8
SLD-0
  6
Continuous
 62
   179
370
    15
100
AcDbLine
 10
228.9208212268
 20
115.9592551778
 30
0.0
 11
229.0849724185
 21
116.1636483523
 31
0.0
  0
LINE
  5
124
330
1F
100
AcDbEntity
  8
SLD-0
  6
Continuous
 62
   179
370
    15
100
AcDbLine
 10
234.3586721789
 20
115.9592551778
 30
0.0
 11
234.4118395221
 21
115.7600452791
 31
0.0
  0
LINE
  5
125
330
1F
100
AcDbEntity
  8
SLD-0
  6
Continuous
 62
   179
370
    15
100
AcDbLine
 10
234.4118395221
 20
113.7100459675
 30
0.0
 11
234.4118395221
 21
115.7600452791
 31
0.0
  0
LINE
  5
126
330
1F
100
AcDbEntity
  8
SLD-0
  6
Continuous
 62
   179
370
    15
100
AcDbLine
 10
228.8676538836
 20
113.7100459675
 30
0.0
 11
228.8676538836
 21
115.7600452791
 31
0.0
  0
LINE
  5
127
330
1F
100
AcDbEntity
  8
SLD-0
  6
Continuous
 62
   179
370
    15
100
AcDbLine
 10
228.8676538836
 20
115.7600452791
 30
0.0
 11
228.9208212268
 21
115.9592551778
 31
0.0
  0
LINE
  5
128
330
1F
100
AcDbEntity
  8
SLD-0
  6
Continuous
 62
   179
370
    15
100
AcDbLine
 10
234.4118395221
 20
115.7600452791
 30
0.0
 11
234.5375233662
 21
115.5336929152
 31
0.0
  0
LINE
  5
129
330
1F
100
AcDbEntity
  8
SLD-0
  6
Continuous
 62
   179
370
    15
100
AcDbLine
 10
234.5375233662
 20
113.5336925874
 30
0.0
 11
234.5375233662
 21
115.5336929152
 31
0.0
  0
LINE
  5
12A
330
1F
100
AcDbEntity
  8
SLD-0
  6
Continuous
 62
   179
370
    15
100
AcDbLine
 10
228.7419700396
 20
113.5336925874
 30
0.0
 11
228.7419700396
 21
115.5336929152
 31
0.0
  0
LINE
  5
12B
330
1F
100
AcDbEntity
  8
SLD-0
  6
Continuous
 62
   179
370
    15
100
AcDbLine
 10
228.7419700396
 20
115.5336929152
 30
0.0
 11
228.8676538836
 21
115.7600452791
 31
0.0
  0
LINE
  5
12C
330
1F
100
AcDbEntity
  8
SLD-0
  6
Continuous
 62
   179
370
    15
100
AcDbLine
 10
234.5375233662
 20
115.5336929152
 30
0.0
 11
234.5449292433
 21
115.3298934589
 31
0.0
  0
LINE
  5
12D
330
1F
100
AcDbEntity
  8
SLD-0
  6
Continuous
 62
   179
370
    15
100
AcDbLine
 10
234.5449292433
 20
113.279893216
 30
0.0
 11
234.5449292433
 21
115.3298934589
 31
0.0
  0
LINE
  5
12E
330
1F
100
AcDbEntity
  8
SLD-0
  6
Continuous
 62
   179
370
    15
100
AcDbLine
 10
228.7345641624
 20
113.279893216
 30
0.0
 11
228.7345641624
 21
115.3298934589
 31
0.0
  0
LINE
  5
12F
330
1F
100
AcDbEntity
  8
SLD-0
  6
Continuous
 62
   179
370
    15
100
AcDbLine
 10
228.7345641624
 20
115.3298934589
 30
0.0
 11
228.7419700396
 21
115.5336929152
 31
0.0
  0
LINE
  5
130
330
1F
100
AcDbEntity
  8
SLD-0
  6
Continuous
 62
   179
370
    15
100
AcDbLine
 10
234.5449292433
 20
115.3298934589
 30
0.0
 11
234.6283310425
 21
115.0876983667
 31
0.0
  0
LINE
  5
131
330
1F
100
AcDbEntity
  8
SLD-0
  6
Continuous
 62
   179
370
    15
100
AcDbLine
 10
234.6283310425
 20
113.0876980389
 30
0.0
 11
234.6283310425
 21
115.0876983667
 31
0.0
  0
LINE
  5
132
330
1F
100
AcDbEntity
  8
SLD-0
  6
Continuous
 62
   179
370
    15
100
AcDbLine
 10
228.6511623632
 20
113.0876980389
 30
0.0
 11
228.6511623632
 21
115.0876983667
 31
0.0
  0
LINE
  5
133
330
1F
100
AcDbEntity
  8
SLD-0
  6
Continuous
 62
   179
370
    15
100
AcDbLine
 10
228.6511623632
 20
115.0876983667
 30
0.0
 11
228.7345641624
 21
115.3298934589
 31
0.0
  0
LINE
  5
134
330
1F
100
AcDbEntity
  8
SLD-0
  6
Continuous
 62
   179
370
    15
100
AcDbLine
 10
234.6283310425
 20
112.6348238105
 30
0.0
 11
234.6283310425
 21
113.0876980389
 31
0.0
  0
LINE
  5
135
330
1F
100
AcDbEntity
  8
SLD-0
  6
Continuous
 62
   179
370
    15
100
AcDbLine
 10
228.6511623632
 20
112.6348238105
 30
0.0
 11
228.6511623632
 21
113.0876980389
 31
0.0
  0
LINE
  5
136
330
1F
100
AcDbEntity
  8
SLD-0
  6
Continuous
 62
   179
370
    15
100
AcDbLine
 10
231.3782760274
 20
146.1949387232
 30
0.0
 11
231.6397467029
 21
146.244937707
 31
0.0
  0
LINE
  5
137
330
1F
100
AcDbEntity
  8
SLD-0
  6
Continuous
 62
   179
370
    15
100
AcDbLine
 10
231.6397467029
 20
146.244937707
 30
0.0
 11
231.6397467029
 21
142.1449390838
 31
0.0
  0
LINE
  5
138
330
1F
100
AcDbEntity
  8
SLD-0
  6
Continuous
 62
   179
370
    15
100
AcDbLine
 10
231.6397467029
 20
142.1449390838
 30
0.0
 11
231.3782760274
 21
142.1949380676
 31
0.0
  0
LINE
  5
139
330
1F
100
AcDbEntity
  8
SLD-0
  6
Continuous
 62
   179
370
    15
100
AcDbLine
 10
231.3782760274
 20
146.1949387232
 30
0.0
 11
231.3782760274
 21
142.1949380676
 31
0.0
  0
LINE
  5
13A
330
1F
100
AcDbEntity
  8
SLD-0
  6
Continuous
 62
   179
370
    15
100
AcDbLine
 10
231.9012099277
 20
146.1949387232
 30
0.0
 11
232.1520113718
 21
146.244937707
 31
0.0
  0
LINE
  5
13B
330
1F
100
AcDbEntity
  8
SLD-0
  6
Continuous
 62
   179
370
    15
100
AcDbLine
 10
232.1520113718
 20
146.244937707
 30
0.0
 11
232.1520113718
 21
142.1449390838
 31
0.0
  0
LINE
  5
13C
330
1F
100
AcDbEntity
  8
SLD-0
  6
Continuous
 62
   179
370
    15
100
AcDbLine
 10
232.1520113718
 20
142.1449390838
 30
0.0
 11
231.9012099277
 21
142.1949380676
 31
0.0
  0
LINE
  5
13D
330
1F
100
AcDbEntity
  8
SLD-0
  6
Continuous
 62
   179
370
    15
100
AcDbLine
 10
231.9012099277
 20
146.1949387232
 30
0.0
 11
231.9012099277
 21
142.1949380676
 31
0.0
  0
LINE
  5
13E
330
1F
100
AcDbEntity
  8
SLD-0
  6
Continuous
 62
   179
370
    15
100
AcDbLine
 10
229.1397490871
 20
146.6949378738
 30
0.0
 11
234.1397443187
 21
146.6949378738
 31
0.0
  0
LINE
  5
13F
330
1F
100
AcDbEntity
  8
SLD-0
  6
Continuous
 62
   179
370
    15
100
AcDbLine
 10
230.8632918965
 20
146.1949387232
 30
0.0
 11
231.1274820339
 21
146.244937707
 31
0.0
  0
LINE
  5
140
330
1F
100
AcDbEntity
  8
SLD-0
  6
Continuous
 62
   179
370
    15
100
AcDbLine
 10
230.6307890784
 20
146.244937707
 30
0.0
 11
230.8632918965
 21
146.1949387232
 31
0.0
  0
LINE
  5
141
330
1F
100
AcDbEntity
  8
SLD-0
  6
Continuous
 62
   179
370
    15
100
AcDbLine
 10
230.3718888533
 20
146.1949387232
 30
0.0
 11
230.6307890784
 21
146.244937707
 31
0.0
  0
LINE
  5
142
330
1F
100
AcDbEntity
  8
SLD-0
  6
Continuous
 62
   179
370
    15
100
AcDbLine
 10
230.1647478115
 20
146.244937707
 30
0.0
 11
230.3718888533
 21
146.1949387232
 31
0.0
  0
LINE
  5
143
330
1F
100
AcDbEntity
  8
SLD-0
  6
Continuous
 62
   179
370
    15
100
AcDbLine
 10
229.9190202128
 20
146.1949387232
 30
0.0
 11
230.1647478115
 21
146.244937707
 31
0.0
  0
LINE
  5
144
330
1F
100
AcDbEntity
  8
SLD-0
  6
Continuous
 62
   179
370
    15
100
AcDbLine
 10
229.7435217869
 20
146.244937707
 30
0.0
 11
229.9190202128
 21
146.1949387232
 31
0.0
  0
LINE
  5
145
330
1F
100
AcDbEntity
  8
SLD-0
  6
Continuous
 62
   179
370
    15
100
AcDbLine
 10
229.5184248459
 20
146.1949387232
 30
0.0
 11
229.7435217869
 21
146.244937707
 31
0.0
  0
LINE
  5
146
330
1F
100
AcDbEntity
  8
SLD-0
  6
Continuous
 62
   179
370
    15
100
AcDbLine
 10
229.3799185526
 20
146.244937707
 30
0.0
 11
229.5184248459
 21
146.1949387232
 31
0.0
  0
LINE
  5
147
330
1F
100
AcDbEntity
  8
SLD-0
  6
Continuous
 62
   179
370
    15
100
AcDbLine
 10
229.1822919023
 20
146.1949387232
 30
0.0
 11
229.3799185526
 21
146.244937707
 31
0.0
  0
LINE
  5
148
330
1F
100
AcDbEntity
  8
SLD-0
  6
Continuous
 62
   179
370
    15
100
AcDbLine
 10
229.0849724185
 20
146.244937707
 30
0.0
 11
229.1822919023
 21
146.1949387232
 31
0.0
  0
LINE
  5
149
330
1F
100
AcDbEntity
  8
SLD-0
  6
Continuous
 62
   179
370
    15
100
AcDbLine
 10
228.9208212268
 20
146.1949387232
 30
0.0
 11
229.0849724185
 21
146.244937707
 31
0.0
  0
LINE
  5
14A
330
1F
100
AcDbEntity
  8
SLD-0
  6
Continuous
 62
   179
370
    15
100
AcDbLine
 10
228.8676538836
 20
146.244937707
 30
0.0
 11
228.9208212268
 21
146.1949387232
 31
0.0
  0
LINE
  5
14B
330
1F
100
AcDbEntity
  8
SLD-0
  6
Continuous
 62
   179
370
    15
100
AcDbLine
 10
228.7419700396
 20
146.1949387232
 30
0.0
 11
228.8676538836
 21
146.244937707
 31
0.0
  0
LINE
  5
14C
330
1F
100
AcDbEntity
  8
SLD-0
  6
Continuous
 62
   179
370
    15
100
AcDbLine
 10
228.7345641624
 20
146.244937707
 30
0.0
 11
228.7419700396
 21
146.1949387232
 31
0.0
  0
LINE
  5
14D
330
1F
100
AcDbEntity
  8
SLD-0
  6
Continuous
 62
   179
370
    15
100
AcDbLine
 10
228.6511623632
 20
146.1949387232
 30
0.0
 11
228.7345641624
 21
146.244937707
 31
0.0
  0
LINE
  5
14E
330
1F
100
AcDbEntity
  8
SLD-0
  6
Continuous
 62
   179
370
    15
100
AcDbLine
 10
228.6897489202
 20
146.244937707
 30
0.0
 11
228.6511623632
 21
146.1949387232
 31
0.0
  0
LINE
  5
14F
330
1F
100
AcDbEntity
  8
SLD-0
  6
Continuous
 62
   179
370
    15
100
AcDbLine
 10
234.6283310425
 20
146.1949387232
 30
0.0
 11
234.5897444856
 21
146.244937707
 31
0.0
  0
LINE
  5
150
330
1F
100
AcDbEntity
  8
SLD-0
  6
Continuous
 62
   179
370
    15
100
AcDbLine
 10
234.5449292433
 20
146.244937707
 30
0.0
 11
234.6283310425
 21
146.1949387232
 31
0.0
  0
LINE
  5
151
330
1F
100
AcDbEntity
  8
SLD-0
  6
Continuous
 62
   179
370
    15
100
AcDbLine
 10
234.5375233662
 20
146.1949387232
 30
0.0
 11
234.5449292433
 21
146.244937707
 31
0.0
  0
LINE
  5
152
330
1F
100
AcDbEntity
  8
SLD-0
  6
Continuous
 62
   179
370
    15
100
AcDbLine
 10
234.4118395221
 20
146.244937707
 30
0.0
 11
234.5375233662
 21
146.1949387232
 31
0.0
  0
LINE
  5
153
330
1F
100
AcDbEntity
  8
SLD-0
  6
Continuous
 62
   179
370
    15
100
AcDbLine
 10
234.3586721789
 20
146.1949387232
 30
0.0
 11
234.4118395221
 21
146.244937707
 31
0.0
  0
LINE
  5
154
330
1F
100
AcDbEntity
  8
SLD-0
  6
Continuous
 62
   179
370
    15
100
AcDbLine
 10
234.1945209872
 20
146.244937707
 30
0.0
 11
234.3586721789
 21
146.1949387232
 31
0.0
  0
LINE
  5
155
330
1F
100
AcDbEntity
  8
SLD-0
  6
Continuous
 62
   179
370
    15
100
AcDbLine
 10
234.0972015035
 20
146.1949387232
 30
0.0
 11
234.1945209872
 21
146.244937707
 31
0.0
  0
LINE
  5
156
330
1F
100
AcDbEntity
  8
SLD-0
  6
Continuous
 62
   179
370
    15
100
AcDbLine
 10
233.8995748531
 20
146.244937707
 30
0.0
 11
234.0972015035
 21
146.1949387232
 31
0.0
  0
LINE
  5
157
330
1F
100
AcDbEntity
  8
SLD-0
  6
Continuous
 62
   179
370
    15
100
AcDbLine
 10
233.7610685598
 20
146.1949387232
 30
0.0
 11
233.8995748531
 21
146.244937707
 31
0.0
  0
LINE
  5
158
330
1F
100
AcDbEntity
  8
SLD-0
  6
Continuous
 62
   179
370
    15
100
AcDbLine
 10
233.5359716188
 20
146.244937707
 30
0.0
 11
233.7610685598
 21
146.1949387232
 31
0.0
  0
LINE
  5
159
330
1F
100
AcDbEntity
  8
SLD-0
  6
Continuous
 62
   179
370
    15
100
AcDbLine
 10
233.3604731929
 20
146.1949387232
 30
0.0
 11
233.5359716188
 21
146.244937707
 31
0.0
  0
LINE
  5
15A
330
1F
100
AcDbEntity
  8
SLD-0
  6
Continuous
 62
   179
370
    15
100
AcDbLine
 10
233.1147455942
 20
146.244937707
 30
0.0
 11
233.3604731929
 21
146.1949387232
 31
0.0
  0
LINE
  5
15B
330
1F
100
AcDbEntity
  8
SLD-0
  6
Continuous
 62
   179
370
    15
100
AcDbLine
 10
232.9076045525
 20
146.1949387232
 30
0.0
 11
233.1147455942
 21
146.244937707
 31
0.0
  0
LINE
  5
15C
330
1F
100
AcDbEntity
  8
SLD-0
  6
Continuous
 62
   179
370
    15
100
AcDbLine
 10
232.6487043273
 20
146.244937707
 30
0.0
 11
232.9076045525
 21
146.1949387232
 31
0.0
  0
LINE
  5
15D
330
1F
100
AcDbEntity
  8
SLD-0
  6
Continuous
 62
   179
370
    15
100
AcDbLine
 10
232.4162015092
 20
146.1949387232
 30
0.0
 11
232.6487043273
 21
146.244937707
 31
0.0
  0
LINE
  5
15E
330
1F
100
AcDbEntity
  8
SLD-0
  6
Continuous
 62
   179
370
    15
100
AcDbLine
 10
232.1520113718
 20
146.244937707
 30
0.0
 11
232.4162015092
 21
146.1949387232
 31
0.0
  0
LINE
  5
15F
330
1F
100
AcDbEntity
  8
SLD-0
  6
Continuous
 62
   179
370
    15
100
AcDbLine
 10
231.6397467029
 20
146.244937707
 30
0.0
 11
231.9012099277
 21
146.1949387232
 31
0.0
  0
LINE
  5
160
330
1F
100
AcDbEntity
  8
SLD-0
  6
Continuous
 62
   179
370
    15
100
AcDbLine
 10
231.1274820339
 20
146.244937707
 30
0.0
 11
231.3782760274
 21
146.1949387232
 31
0.0
  0
LINE
  5
161
330
1F
100
AcDbEntity
  8
SLD-0
  6
Continuous
 62
   179
370
    15
100
AcDbLine
 10
231.3782760274
 20
142.1949380676
 30
0.0
 11
231.1274820339
 21
142.1449390838
 31
0.0
  0
LINE
  5
162
330
1F
100
AcDbEntity
  8
SLD-0
  6
Continuous
 62
   179
370
    15
100
AcDbLine
 10
231.1274820339
 20
146.244937707
 30
0.0
 11
231.1274820339
 21
142.1449390838
 31
0.0
  0
LINE
  5
163
330
1F
100
AcDbEntity
  8
SLD-0
  6
Continuous
 62
   179
370
    15
100
AcDbLine
 10
231.9012099277
 20
142.1949380676
 30
0.0
 11
231.6397467029
 21
142.1449390838
 31
0.0
  0
LINE
  5
164
330
1F
100
AcDbEntity
  8
SLD-0
  6
Continuous
 62
   179
370
    15
100
AcDbLine
 10
231.6397467029
 20
141.694938917
 30
0.0
 11
229.1397490871
 21
141.694938917
 31
0.0
  0
LINE
  5
165
330
1F
100
AcDbEntity
  8
SLD-0
  6
Continuous
 62
   179
370
    15
100
AcDbLine
 10
234.1397443187
 20
141.694938917
 30
0.0
 11
231.6397467029
 21
141.694938917
 31
0.0
  0
LINE
  5
166
330
1F
100
AcDbEntity
  8
SLD-0
  6
Continuous
 62
   179
370
    15
100
AcDbLine
 10
232.4162015092
 20
142.1949380676
 30
0.0
 11
232.1520113718
 21
142.1449390838
 31
0.0
  0
LINE
  5
167
330
1F
100
AcDbEntity
  8
SLD-0
  6
Continuous
 62
   179
370
    15
100
AcDbLine
 10
232.6487043273
 20
142.1449390838
 30
0.0
 11
232.4162015092
 21
142.1949380676
 31
0.0
  0
LINE
  5
168
330
1F
100
AcDbEntity
  8
SLD-0
  6
Continuous
 62
   179
370
    15
100
AcDbLine
 10
232.9076045525
 20
142.1949380676
 30
0.0
 11
232.6487043273
 21
142.1449390838
 31
0.0
  0
LINE
  5
169
330
1F
100
AcDbEntity
  8
SLD-0
  6
Continuous
 62
   179
370
    15
100
AcDbLine
 10
233.1147455942
 20
142.1449390838
 30
0.0
 11
232.9076045525
 21
142.1949380676
 31
0.0
  0
LINE
  5
16A
330
1F
100
AcDbEntity
  8
SLD-0
  6
Continuous
 62
   179
370
    15
100
AcDbLine
 10
233.3604731929
 20
142.1949380676
 30
0.0
 11
233.1147455942
 21
142.1449390838
 31
0.0
  0
LINE
  5
16B
330
1F
100
AcDbEntity
  8
SLD-0
  6
Continuous
 62
   179
370
    15
100
AcDbLine
 10
233.5359716188
 20
142.1449390838
 30
0.0
 11
233.3604731929
 21
142.1949380676
 31
0.0
  0
LINE
  5
16C
330
1F
100
AcDbEntity
  8
SLD-0
  6
Continuous
 62
   179
370
    15
100
AcDbLine
 10
233.7610685598
 20
142.1949380676
 30
0.0
 11
233.5359716188
 21
142.1449390838
 31
0.0
  0
LINE
  5
16D
330
1F
100
AcDbEntity
  8
SLD-0
  6
Continuous
 62
   179
370
    15
100
AcDbLine
 10
233.8995748531
 20
142.1449390838
 30
0.0
 11
233.7610685598
 21
142.1949380676
 31
0.0
  0
LINE
  5
16E
330
1F
100
AcDbEntity
  8
SLD-0
  6
Continuous
 62
   179
370
    15
100
AcDbLine
 10
234.0972015035
 20
142.1949380676
 30
0.0
 11
233.8995748531
 21
142.1449390838
 31
0.0
  0
LINE
  5
16F
330
1F
100
AcDbEntity
  8
SLD-0
  6
Continuous
 62
   179
370
    15
100
AcDbLine
 10
234.1945209872
 20
142.1449390838
 30
0.0
 11
234.0972015035
 21
142.1949380676
 31
0.0
  0
LINE
  5
170
330
1F
100
AcDbEntity
  8
SLD-0
  6
Continuous
 62
   179
370
    15
100
AcDbLine
 10
234.3586721789
 20
142.1949380676
 30
0.0
 11
234.1945209872
 21
142.1449390838
 31
0.0
  0
LINE
  5
171
330
1F
100
AcDbEntity
  8
SLD-0
  6
Continuous
 62
   179
370
    15
100
AcDbLine
 10
234.4118395221
 20
142.1449390838
 30
0.0
 11
234.3586721789
 21
142.1949380676
 31
0.0
  0
LINE
  5
172
330
1F
100
AcDbEntity
  8
SLD-0
  6
Continuous
 62
   179
370
    15
100
AcDbLine
 10
234.5375233662
 20
142.1949380676
 30
0.0
 11
234.4118395221
 21
142.1449390838
 31
0.0
  0
LINE
  5
173
330
1F
100
AcDbEntity
  8
SLD-0
  6
Continuous
 62
   179
370
    15
100
AcDbLine
 10
234.5449292433
 20
142.1449390838
 30
0.0
 11
234.5375233662
 21
142.1949380676
 31
0.0
  0
LINE
  5
174
330
1F
100
AcDbEntity
  8
SLD-0
  6
Continuous
 62
   179
370
    15
100
AcDbLine
 10
234.6283310426
 20
142.1949380676
 30
0.0
 11
234.5449292433
 21
142.1449390838
 31
0.0
  0
LINE
  5
175
330
1F
100
AcDbEntity
  8
SLD-0
  6
Continuous
 62
   179
370
    15
100
AcDbLine
 10
234.5897444856
 20
142.1449390839
 30
0.0
 11
234.6283310426
 21
142.1949380676
 31
0.0
  0
LINE
  5
176
330
1F
100
AcDbEntity
  8
SLD-0
  6
Continuous
 62
   179
370
    15
100
AcDbLine
 10
228.6511623632
 20
142.1949380676
 30
0.0
 11
228.6897489202
 21
142.1449390838
 31
0.0
  0
LINE
  5
177
330
1F
100
AcDbEntity
  8
SLD-0
  6
Continuous
 62
   179
370
    15
100
AcDbLine
 10
228.7345641624
 20
142.1449390838
 30
0.0
 11
228.6511623632
 21
142.1949380676
 31
0.0
  0
LINE
  5
178
330
1F
100
AcDbEntity
  8
SLD-0
  6
Continuous
 62
   179
370
    15
100
AcDbLine
 10
228.7419700396
 20
142.1949380676
 30
0.0
 11
228.7345641624
 21
142.1449390838
 31
0.0
  0
LINE
  5
179
330
1F
100
AcDbEntity
  8
SLD-0
  6
Continuous
 62
   179
370
    15
100
AcDbLine
 10
228.8676538836
 20
142.1449390838
 30
0.0
 11
228.7419700396
 21
142.1949380676
 31
0.0
  0
LINE
  5
17A
330
1F
100
AcDbEntity
  8
SLD-0
  6
Continuous
 62
   179
370
    15
100
AcDbLine
 10
228.9208212268
 20
142.1949380676
 30
0.0
 11
228.8676538836
 21
142.1449390838
 31
0.0
  0
LINE
  5
17B
330
1F
100
AcDbEntity
  8
SLD-0
  6
Continuous
 62
   179
370
    15
100
AcDbLine
 10
229.0849724185
 20
142.1449390838
 30
0.0
 11
228.9208212268
 21
142.1949380676
 31
0.0
  0
LINE
  5
17C
330
1F
100
AcDbEntity
  8
SLD-0
  6
Continuous
 62
   179
370
    15
100
AcDbLine
 10
229.1822919023
 20
142.1949380676
 30
0.0
 11
229.0849724185
 21
142.1449390838
 31
0.0
  0
LINE
  5
17D
330
1F
100
AcDbEntity
  8
SLD-0
  6
Continuous
 62
   179
370
    15
100
AcDbLine
 10
229.3799185526
 20
142.1449390838
 30
0.0
 11
229.1822919023
 21
142.1949380676
 31
0.0
  0
LINE
  5
17E
330
1F
100
AcDbEntity
  8
SLD-0
  6
Continuous
 62
   179
370
    15
100
AcDbLine
 10
229.5184248459
 20
142.1949380676
 30
0.0
 11
229.3799185526
 21
142.1449390838
 31
0.0
  0
LINE
  5
17F
330
1F
100
AcDbEntity
  8
SLD-0
  6
Continuous
 62
   179
370
    15
100
AcDbLine
 10
229.7435217869
 20
142.1449390838
 30
0.0
 11
229.5184248459
 21
142.1949380676
 31
0.0
  0
LINE
  5
180
330
1F
100
AcDbEntity
  8
SLD-0
  6
Continuous
 62
   179
370
    15
100
AcDbLine
 10
229.9190202128
 20
142.1949380676
 30
0.0
 11
229.7435217869
 21
142.1449390838
 31
0.0
  0
LINE
  5
181
330
1F
100
AcDbEntity
  8
SLD-0
  6
Continuous
 62
   179
370
    15
100
AcDbLine
 10
230.1647478115
 20
142.1449390838
 30
0.0
 11
229.9190202128
 21
142.1949380676
 31
0.0
  0
LINE
  5
182
330
1F
100
AcDbEntity
  8
SLD-0
  6
Continuous
 62
   179
370
    15
100
AcDbLine
 10
230.3718888533
 20
142.1949380676
 30
0.0
 11
230.1647478115
 21
142.1449390838
 31
0.0
  0
LINE
  5
183
330
1F
100
AcDbEntity
  8
SLD-0
  6
Continuous
 62
   179
370
    15
100
AcDbLine
 10
230.6307890784
 20
142.1449390838
 30
0.0
 11
230.3718888533
 21
142.1949380676
 31
0.0
  0
LINE
  5
184
330
1F
100
AcDbEntity
  8
SLD-0
  6
Continuous
 62
   179
370
    15
100
AcDbLine
 10
230.8632918965
 20
142.1949380676
 30
0.0
 11
230.6307890784
 21
142.1449390838
 31
0.0
  0
LINE
  5
185
330
1F
100
AcDbEntity
  8
SLD-0
  6
Continuous
 62
   179
370
    15
100
AcDbLine
 10
231.1274820339
 20
142.1449390838
 30
0.0
 11
230.8632918965
 21
142.1949380676
 31
0.0
  0
LINE
  5
186
330
1F
100
AcDbEntity
  8
SLD-0
  6
Continuous
 62
   179
370
    15
100
AcDbLine
 10
230.8632918965
 20
146.1949387232
 30
0.0
 11
230.8632918965
 21
142.1949380676
 31
0.0
  0
LINE
  5
187
330
1F
100
AcDbEntity
  8
SLD-0
  6
Continuous
 62
   179
370
    15
100
AcDbLine
 10
232.4162015092
 20
146.1949387232
 30
0.0
 11
232.4162015092
 21
142.1949380676
 31
0.0
  0
LINE
  5
188
330
1F
100
AcDbEntity
  8
SLD-0
  6
Continuous
 62
   179
370
    15
100
AcDbLine
 10
230.6307890784
 20
146.244937707
 30
0.0
 11
230.6307890784
 21
142.1449390838
 31
0.0
  0
LINE
  5
189
330
1F
100
AcDbEntity
  8
SLD-0
  6
Continuous
 62
   179
370
    15
100
AcDbLine
 10
232.6487043273
 20
146.244937707
 30
0.0
 11
232.6487043273
 21
142.1449390838
 31
0.0
  0
LINE
  5
18A
330
1F
100
AcDbEntity
  8
SLD-0
  6
Continuous
 62
   179
370
    15
100
AcDbLine
 10
230.3718888533
 20
146.1949387232
 30
0.0
 11
230.3718888533
 21
142.1949380676
 31
0.0
  0
LINE
  5
18B
330
1F
100
AcDbEntity
  8
SLD-0
  6
Continuous
 62
   179
370
    15
100
AcDbLine
 10
232.9076045525
 20
146.1949387232
 30
0.0
 11
232.9076045525
 21
142.1949380676
 31
0.0
  0
LINE
  5
18C
330
1F
100
AcDbEntity
  8
SLD-0
  6
Continuous
 62
   179
370
    15
100
AcDbLine
 10
230.1647478115
 20
146.244937707
 30
0.0
 11
230.1647478115
 21
142.1449390838
 31
0.0
  0
LINE
  5
18D
330
1F
100
AcDbEntity
  8
SLD-0
  6
Continuous
 62
   179
370
    15
100
AcDbLine
 10
233.1147455942
 20
146.244937707
 30
0.0
 11
233.1147455942
 21
142.1449390838
 31
0.0
  0
LINE
  5
18E
330
1F
100
AcDbEntity
  8
SLD-0
  6
Continuous
 62
   179
370
    15
100
AcDbLine
 10
229.9190202128
 20
146.1949387232
 30
0.0
 11
229.9190202128
 21
142.1949380676
 31
0.0
  0
LINE
  5
18F
330
1F
100
AcDbEntity
  8
SLD-0
  6
Continuous
 62
   179
370
    15
100
AcDbLine
 10
233.3604731929
 20
146.1949387232
 30
0.0
 11
233.3604731929
 21
142.1949380676
 31
0.0
  0
LINE
  5
190
330
1F
100
AcDbEntity
  8
SLD-0
  6
Continuous
 62
   179
370
    15
100
AcDbLine
 10
229.7435217869
 20
146.244937707
 30
0.0
 11
229.7435217869
 21
142.1449390838
 31
0.0
  0
LINE
  5
191
330
1F
100
AcDbEntity
  8
SLD-0
  6
Continuous
 62
   179
370
    15
100
AcDbLine
 10
233.5359716188
 20
146.244937707
 30
0.0
 11
233.5359716188
 21
142.1449390838
 31
0.0
  0
LINE
  5
192
330
1F
100
AcDbEntity
  8
SLD-0
  6
Continuous
 62
   179
370
    15
100
AcDbLine
 10
233.7610685598
 20
146.1949387232
 30
0.0
 11
233.7610685598
 21
142.1949380676
 31
0.0
  0
LINE
  5
193
330
1F
100
AcDbEntity
  8
SLD-0
  6
Continuous
 62
   179
370
    15
100
AcDbLine
 10
229.5184248459
 20
146.1949387232
 30
0.0
 11
229.5184248459
 21
142.1949380676
 31
0.0
  0
LINE
  5
194
330
1F
100
AcDbEntity
  8
SLD-0
  6
Continuous
 62
   179
370
    15
100
AcDbLine
 10
229.3799185526
 20
146.244937707
 30
0.0
 11
229.3799185526
 21
142.1449390838
 31
0.0
  0
LINE
  5
195
330
1F
100
AcDbEntity
  8
SLD-0
  6
Continuous
 62
   179
370
    15
100
AcDbLine
 10
233.8995748531
 20
146.244937707
 30
0.0
 11
233.8995748531
 21
142.1449390838
 31
0.0
  0
LINE
  5
196
330
1F
100
AcDbEntity
  8
SLD-0
  6
Continuous
 62
   179
370
    15
100
AcDbLine
 10
229.1822919023
 20
146.1949387232
 30
0.0
 11
229.1822919023
 21
142.1949380676
 31
0.0
  0
LINE
  5
197
330
1F
100
AcDbEntity
  8
SLD-0
  6
Continuous
 62
   179
370
    15
100
AcDbLine
 10
234.0972015035
 20
146.1949387232
 30
0.0
 11
234.0972015035
 21
142.1949380676
 31
0.0
  0
LINE
  5
198
330
1F
100
AcDbEntity
  8
SLD-0
  6
Continuous
 62
   179
370
    15
100
AcDbLine
 10
229.0849724185
 20
146.244937707
 30
0.0
 11
229.0849724185
 21
142.1449390838
 31
0.0
  0
LINE
  5
199
330
1F
100
AcDbEntity
  8
SLD-0
  6
Continuous
 62
   179
370
    15
100
AcDbLine
 10
234.1945209872
 20
146.244937707
 30
0.0
 11
234.1945209872
 21
142.1449390838
 31
0.0
  0
LINE
  5
19A
330
1F
100
AcDbEntity
  8
SLD-0
  6
Continuous
 62
   179
370
    15
100
AcDbLine
 10
228.9208212268
 20
146.1949387232
 30
0.0
 11
228.9208212268
 21
142.1949380676
 31
0.0
  0
LINE
  5
19B
330
1F
100
AcDbEntity
  8
SLD-0
  6
Continuous
 62
   179
370
    15
100
AcDbLine
 10
234.3586721789
 20
146.1949387232
 30
0.0
 11
234.3586721789
 21
142.1949380676
 31
0.0
  0
LINE
  5
19C
330
1F
100
AcDbEntity
  8
SLD-0
  6
Continuous
 62
   179
370
    15
100
AcDbLine
 10
228.8676538836
 20
146.244937707
 30
0.0
 11
228.8676538836
 21
142.1449390838
 31
0.0
  0
LINE
  5
19D
330
1F
100
AcDbEntity
  8
SLD-0
  6
Continuous
 62
   179
370
    15
100
AcDbLine
 10
234.4118395221
 20
146.244937707
 30
0.0
 11
234.4118395221
 21
142.1449390838
 31
0.0
  0
LINE
  5
19E
330
1F
100
AcDbEntity
  8
SLD-0
  6
Continuous
 62
   179
370
    15
100
AcDbLine
 10
228.7419700396
 20
146.1949387232
 30
0.0
 11
228.7419700396
 21
142.1949380676
 31
0.0
  0
LINE
  5
19F
330
1F
100
AcDbEntity
  8
SLD-0
  6
Continuous
 62
   179
370
    15
100
AcDbLine
 10
234.5375233662
 20
146.1949387232
 30
0.0
 11
234.5375233662
 21
142.1949380676
 31
0.0
  0
LINE
  5
1A0
330
1F
100
AcDbEntity
  8
SLD-0
  6
Continuous
 62
   179
370
    15
100
AcDbLine
 10
228.7345641624
 20
146.244937707
 30
0.0
 11
228.7345641624
 21
142.1449390838
 31
0.0
  0
LINE
  5
1A1
330
1F
100
AcDbEntity
  8
SLD-0
  6
Continuous
 62
   179
370
    15
100
AcDbLine
 10
234.5449292433
 20
146.244937707
 30
0.0
 11
234.5449292433
 21
142.1449390838
 31
0.0
  0
LINE
  5
1A2
330
1F
100
AcDbEntity
  8
SLD-0
  6
Continuous
 62
   179
370
    15
100
AcDbLine
 10
228.6511623632
 20
146.1949387232
 30
0.0
 11
228.6511623632
 21
142.1949380676
 31
0.0
  0
LINE
  5
1A3
330
1F
100
AcDbEntity
  8
SLD-0
  6
Continuous
 62
   179
370
    15
100
AcDbLine
 10
234.6283310425
 20
146.1949387232
 30
0.0
 11
234.6283310426
 21
142.1949380676
 31
0.0
  0
LINE
  5
1A4
330
1F
100
AcDbEntity
  8
SLD-0
  6
Continuous
 62
   179
370
    15
100
AcDbLine
 10
235.5397456657
 20
123.9724868576
 30
0.0
 11
235.6397473585
 21
125.2798230054
 31
0.0
  0
LINE
  5
1A5
330
1F
100
AcDbEntity
  8
SLD-0
  6
Continuous
 62
   179
370
    15
100
AcDbLine
 10
235.6397473585
 20
125.2798230054
 30
0.0
 11
243.6397486698
 21
125.2798230054
 31
0.0
  0
LINE
  5
1A6
330
1F
100
AcDbEntity
  8
SLD-0
  6
Continuous
 62
   179
370
    15
100
AcDbLine
 10
243.6397486698
 20
125.2798230054
 30
0.0
 11
243.739742912
 21
123.9724868576
 31
0.0
  0
LINE
  5
1A7
330
1F
100
AcDbEntity
  8
SLD-0
  6
Continuous
 62
   179
370
    15
100
AcDbLine
 10
235.5397456657
 20
123.9724868576
 30
0.0
 11
243.739742912
 21
123.9724868576
 31
0.0
  0
LINE
  5
1A8
330
1F
100
AcDbEntity
  8
SLD-0
  6
Continuous
 62
   179
370
    15
100
AcDbLine
 10
244.6397432458
 20
123.9724868576
 30
0.0
 11
244.6397432458
 21
109.9724864254
 31
0.0
  0
LINE
  5
1A9
330
1F
100
AcDbEntity
  8
SLD-0
  6
Continuous
 62
   179
370
    15
100
AcDbLine
 10
244.6397432458
 20
137.9724872897
 30
0.0
 11
244.6397432458
 21
123.9724868576
 31
0.0
  0
LINE
  5
1AA
330
1F
100
AcDbEntity
  8
SLD-0
  6
Continuous
 62
   179
370
    15
100
AcDbLine
 10
243.6397486698
 20
109.0295660908
 30
0.0
 11
243.739742912
 21
109.072487023
 31
0.0
  0
LINE
  5
1AB
330
1F
100
AcDbEntity
  8
SLD-0
  6
Continuous
 62
   179
370
    15
100
AcDbLine
 10
243.739742912
 20
109.298851494
 30
0.0
 11
243.6397486698
 21
109.0295660908
 31
0.0
  0
LINE
  5
1AC
330
1F
100
AcDbEntity
  8
SLD-0
  6
Continuous
 62
   179
370
    15
100
AcDbLine
 10
243.6397486698
 20
109.4835998158
 30
0.0
 11
243.739742912
 21
109.298851494
 31
0.0
  0
LINE
  5
1AD
330
1F
100
AcDbEntity
  8
SLD-0
  6
Continuous
 62
   179
370
    15
100
AcDbLine
 10
243.739742912
 20
109.9710670898
 30
0.0
 11
243.6397486698
 21
109.4835998158
 31
0.0
  0
LINE
  5
1AE
330
1F
100
AcDbEntity
  8
SLD-0
  6
Continuous
 62
   179
370
    15
100
AcDbLine
 10
243.6397486698
 20
110.3778697217
 30
0.0
 11
243.739742912
 21
109.9710670898
 31
0.0
  0
LINE
  5
1AF
330
1F
100
AcDbEntity
  8
SLD-0
  6
Continuous
 62
   179
370
    15
100
AcDbLine
 10
243.739742912
 20
111.0687080438
 30
0.0
 11
243.6397486698
 21
110.3778697217
 31
0.0
  0
LINE
  5
1B0
330
1F
100
AcDbEntity
  8
SLD-0
  6
Continuous
 62
   179
370
    15
100
AcDbLine
 10
243.6397486698
 20
111.6852063353
 30
0.0
 11
243.739742912
 21
111.0687080438
 31
0.0
  0
LINE
  5
1B1
330
1F
100
AcDbEntity
  8
SLD-0
  6
Continuous
 62
   179
370
    15
100
AcDbLine
 10
243.739742912
 20
112.5584246258
 30
0.0
 11
243.6397486698
 21
111.6852063353
 31
0.0
  0
LINE
  5
1B2
330
1F
100
AcDbEntity
  8
SLD-0
  6
Continuous
 62
   179
370
    15
100
AcDbLine
 10
243.6397486698
 20
113.3658850233
 30
0.0
 11
243.739742912
 21
112.5584246258
 31
0.0
  0
LINE
  5
1B3
330
1F
100
AcDbEntity
  8
SLD-0
  6
Continuous
 62
   179
370
    15
100
AcDbLine
 10
243.739742912
 20
114.3949517647
 30
0.0
 11
243.6397486698
 21
113.3658850233
 31
0.0
  0
LINE
  5
1B4
330
1F
100
AcDbEntity
  8
SLD-0
  6
Continuous
 62
   179
370
    15
100
AcDbLine
 10
243.6397486698
 20
115.3688404376
 30
0.0
 11
243.739742912
 21
114.3949517647
 31
0.0
  0
LINE
  5
1B5
330
1F
100
AcDbEntity
  8
SLD-0
  6
Continuous
 62
   179
370
    15
100
AcDbLine
 10
243.739742912
 20
116.5224869403
 30
0.0
 11
243.6397486698
 21
115.3688404376
 31
0.0
  0
LINE
  5
1B6
330
1F
100
AcDbEntity
  8
SLD-0
  6
Continuous
 62
   179
370
    15
100
AcDbLine
 10
243.6397486698
 20
117.6332129764
 30
0.0
 11
243.739742912
 21
116.5224869403
 31
0.0
  0
LINE
  5
1B7
330
1F
100
AcDbEntity
  8
SLD-0
  6
Continuous
 62
   179
370
    15
100
AcDbLine
 10
243.739742912
 20
118.8763865868
 30
0.0
 11
243.6397486698
 21
117.6332129764
 31
0.0
  0
LINE
  5
1B8
330
1F
100
AcDbEntity
  8
SLD-0
  6
Continuous
 62
   179
370
    15
100
AcDbLine
 10
243.6397486698
 20
120.0902011844
 30
0.0
 11
243.739742912
 21
118.8763865868
 31
0.0
  0
LINE
  5
1B9
330
1F
100
AcDbEntity
  8
SLD-0
  6
Continuous
 62
   179
370
    15
100
AcDbLine
 10
243.739742912
 20
121.3851290888
 30
0.0
 11
243.6397486698
 21
120.0902011844
 31
0.0
  0
LINE
  5
1BA
330
1F
100
AcDbEntity
  8
SLD-0
  6
Continuous
 62
   179
370
    15
100
AcDbLine
 10
243.6397486698
 20
122.6651507097
 30
0.0
 11
243.739742912
 21
121.3851290888
 31
0.0
  0
LINE
  5
1BB
330
1F
100
AcDbEntity
  8
SLD-0
  6
Continuous
 62
   179
370
    15
100
AcDbLine
 10
243.739742912
 20
123.9724868576
 30
0.0
 11
243.6397486698
 21
122.6651507097
 31
0.0
  0
LINE
  5
1BC
330
1F
100
AcDbEntity
  8
SLD-0
  6
Continuous
 62
   179
370
    15
100
AcDbLine
 10
243.739742912
 20
126.5598446263
 30
0.0
 11
243.6397486698
 21
125.2798230054
 31
0.0
  0
LINE
  5
1BD
330
1F
100
AcDbEntity
  8
SLD-0
  6
Continuous
 62
   179
370
    15
100
AcDbLine
 10
243.6397486698
 20
127.8547725307
 30
0.0
 11
243.739742912
 21
126.5598446263
 31
0.0
  0
LINE
  5
1BE
330
1F
100
AcDbEntity
  8
SLD-0
  6
Continuous
 62
   179
370
    15
100
AcDbLine
 10
243.739742912
 20
129.0685871283
 30
0.0
 11
243.6397486698
 21
127.8547725307
 31
0.0
  0
LINE
  5
1BF
330
1F
100
AcDbEntity
  8
SLD-0
  6
Continuous
 62
   179
370
    15
100
AcDbLine
 10
243.6397486698
 20
130.3117607387
 30
0.0
 11
243.739742912
 21
129.0685871283
 31
0.0
  0
LINE
  5
1C0
330
1F
100
AcDbEntity
  8
SLD-0
  6
Continuous
 62
   179
370
    15
100
AcDbLine
 10
243.739742912
 20
131.4224867749
 30
0.0
 11
243.6397486698
 21
130.3117607387
 31
0.0
  0
LINE
  5
1C1
330
1F
100
AcDbEntity
  8
SLD-0
  6
Continuous
 62
   179
370
    15
100
AcDbLine
 10
243.6397486698
 20
132.5761332775
 30
0.0
 11
243.739742912
 21
131.4224867749
 31
0.0
  0
LINE
  5
1C2
330
1F
100
AcDbEntity
  8
SLD-0
  6
Continuous
 62
   179
370
    15
100
AcDbLine
 10
243.739742912
 20
133.5500219504
 30
0.0
 11
243.6397486698
 21
132.5761332775
 31
0.0
  0
LINE
  5
1C3
330
1F
100
AcDbEntity
  8
SLD-0
  6
Continuous
 62
   179
370
    15
100
AcDbLine
 10
243.6397486698
 20
134.5790886919
 30
0.0
 11
243.739742912
 21
133.5500219504
 31
0.0
  0
LINE
  5
1C4
330
1F
100
AcDbEntity
  8
SLD-0
  6
Continuous
 62
   179
370
    15
100
AcDbLine
 10
243.739742912
 20
135.3865490893
 30
0.0
 11
243.6397486698
 21
134.5790886919
 31
0.0
  0
LINE
  5
1C5
330
1F
100
AcDbEntity
  8
SLD-0
  6
Continuous
 62
   179
370
    15
100
AcDbLine
 10
243.6397486698
 20
136.2597673798
 30
0.0
 11
243.739742912
 21
135.3865490893
 31
0.0
  0
LINE
  5
1C6
330
1F
100
AcDbEntity
  8
SLD-0
  6
Continuous
 62
   179
370
    15
100
AcDbLine
 10
243.739742912
 20
136.8762656713
 30
0.0
 11
243.6397486698
 21
136.2597673798
 31
0.0
  0
LINE
  5
1C7
330
1F
100
AcDbEntity
  8
SLD-0
  6
Continuous
 62
   179
370
    15
100
AcDbLine
 10
243.6397486698
 20
137.5671039934
 30
0.0
 11
243.739742912
 21
136.8762656713
 31
0.0
  0
LINE
  5
1C8
330
1F
100
AcDbEntity
  8
SLD-0
  6
Continuous
 62
   179
370
    15
100
AcDbLine
 10
243.739742912
 20
137.9739066253
 30
0.0
 11
243.6397486698
 21
137.5671039934
 31
0.0
  0
LINE
  5
1C9
330
1F
100
AcDbEntity
  8
SLD-0
  6
Continuous
 62
   179
370
    15
100
AcDbLine
 10
243.6397486698
 20
138.4613738994
 30
0.0
 11
243.739742912
 21
137.9739066253
 31
0.0
  0
LINE
  5
1CA
330
1F
100
AcDbEntity
  8
SLD-0
  6
Continuous
 62
   179
370
    15
100
AcDbLine
 10
243.739742912
 20
138.6461222211
 30
0.0
 11
243.6397486698
 21
138.4613738994
 31
0.0
  0
LINE
  5
1CB
330
1F
100
AcDbEntity
  8
SLD-0
  6
Continuous
 62
   179
370
    15
100
AcDbLine
 10
243.6397486698
 20
138.9154076243
 30
0.0
 11
243.739742912
 21
138.6461222211
 31
0.0
  0
LINE
  5
1CC
330
1F
100
AcDbEntity
  8
SLD-0
  6
Continuous
 62
   179
370
    15
100
AcDbLine
 10
243.739742912
 20
138.8724866922
 30
0.0
 11
243.6397486698
 21
138.9154076243
 31
0.0
  0
LINE
  5
1CD
330
1F
100
AcDbEntity
  8
SLD-0
  6
Continuous
 62
   179
370
    15
100
AcDbLine
 10
235.6397473585
 20
122.6651507097
 30
0.0
 11
235.5397456657
 21
123.9724868576
 31
0.0
  0
LINE
  5
1CE
330
1F
100
AcDbEntity
  8
SLD-0
  6
Continuous
 62
   179
370
    15
100
AcDbLine
 10
235.6397473585
 20
122.6651507097
 30
0.0
 11
243.6397486698
 21
122.6651507097
 31
0.0
  0
LINE
  5
1CF
330
1F
100
AcDbEntity
  8
SLD-0
  6
Continuous
 62
   179
370
    15
100
AcDbLine
 10
234.639745332
 20
109.9724864254
 30
0.0
 11
234.639745332
 21
137.9724872897
 31
0.0
  0
LINE
  5
1D0
330
1F
100
AcDbEntity
  8
SLD-0
  6
Continuous
 62
   179
370
    15
100
AcDbLine
 10
235.6397473585
 20
138.9154076243
 30
0.0
 11
235.5397456657
 21
138.8724866922
 31
0.0
  0
LINE
  5
1D1
330
1F
100
AcDbEntity
  8
SLD-0
  6
Continuous
 62
   179
370
    15
100
AcDbLine
 10
235.5397456657
 20
138.6461222211
 30
0.0
 11
235.6397473585
 21
138.9154076243
 31
0.0
  0
LINE
  5
1D2
330
1F
100
AcDbEntity
  8
SLD-0
  6
Continuous
 62
   179
370
    15
100
AcDbLine
 10
235.6397473585
 20
138.4613738994
 30
0.0
 11
235.5397456657
 21
138.6461222211
 31
0.0
  0
LINE
  5
1D3
330
1F
100
AcDbEntity
  8
SLD-0
  6
Continuous
 62
   179
370
    15
100
AcDbLine
 10
235.5397456657
 20
137.9739066253
 30
0.0
 11
235.6397473585
 21
138.4613738994
 31
0.0
  0
LINE
  5
1D4
330
1F
100
AcDbEntity
  8
SLD-0
  6
Continuous
 62
   179
370
    15
100
AcDbLine
 10
235.6397473585
 20
137.5671039934
 30
0.0
 11
235.5397456657
 21
137.9739066253
 31
0.0
  0
LINE
  5
1D5
330
1F
100
AcDbEntity
  8
SLD-0
  6
Continuous
 62
   179
370
    15
100
AcDbLine
 10
235.5397456657
 20
136.8762656713
 30
0.0
 11
235.6397473585
 21
137.5671039934
 31
0.0
  0
LINE
  5
1D6
330
1F
100
AcDbEntity
  8
SLD-0
  6
Continuous
 62
   179
370
    15
100
AcDbLine
 10
235.6397473585
 20
136.2597673798
 30
0.0
 11
235.5397456657
 21
136.8762656713
 31
0.0
  0
LINE
  5
1D7
330
1F
100
AcDbEntity
  8
SLD-0
  6
Continuous
 62
   179
370
    15
100
AcDbLine
 10
235.5397456657
 20
135.3865490893
 30
0.0
 11
235.6397473585
 21
136.2597673798
 31
0.0
  0
LINE
  5
1D8
330
1F
100
AcDbEntity
  8
SLD-0
  6
Continuous
 62
   179
370
    15
100
AcDbLine
 10
235.6397473585
 20
134.5790886919
 30
0.0
 11
235.5397456657
 21
135.3865490893
 31
0.0
  0
LINE
  5
1D9
330
1F
100
AcDbEntity
  8
SLD-0
  6
Continuous
 62
   179
370
    15
100
AcDbLine
 10
235.5397456657
 20
133.5500219504
 30
0.0
 11
235.6397473585
 21
134.5790886919
 31
0.0
  0
LINE
  5
1DA
330
1F
100
AcDbEntity
  8
SLD-0
  6
Continuous
 62
   179
370
    15
100
AcDbLine
 10
235.6397473585
 20
132.5761332775
 30
0.0
 11
235.5397456657
 21
133.5500219504
 31
0.0
  0
LINE
  5
1DB
330
1F
100
AcDbEntity
  8
SLD-0
  6
Continuous
 62
   179
370
    15
100
AcDbLine
 10
235.5397456657
 20
131.4224867749
 30
0.0
 11
235.6397473585
 21
132.5761332775
 31
0.0
  0
LINE
  5
1DC
330
1F
100
AcDbEntity
  8
SLD-0
  6
Continuous
 62
   179
370
    15
100
AcDbLine
 10
235.6397473585
 20
130.3117607387
 30
0.0
 11
235.5397456657
 21
131.4224867749
 31
0.0
  0
LINE
  5
1DD
330
1F
100
AcDbEntity
  8
SLD-0
  6
Continuous
 62
   179
370
    15
100
AcDbLine
 10
235.5397456657
 20
129.0685871283
 30
0.0
 11
235.6397473585
 21
130.3117607387
 31
0.0
  0
LINE
  5
1DE
330
1F
100
AcDbEntity
  8
SLD-0
  6
Continuous
 62
   179
370
    15
100
AcDbLine
 10
235.6397473585
 20
127.8547725307
 30
0.0
 11
235.5397456657
 21
129.0685871283
 31
0.0
  0
LINE
  5
1DF
330
1F
100
AcDbEntity
  8
SLD-0
  6
Continuous
 62
   179
370
    15
100
AcDbLine
 10
235.5397456657
 20
126.5598446263
 30
0.0
 11
235.6397473585
 21
127.8547725307
 31
0.0
  0
LINE
  5
1E0
330
1F
100
AcDbEntity
  8
SLD-0
  6
Continuous
 62
   179
370
    15
100
AcDbLine
 10
235.6397473585
 20
125.2798230054
 30
0.0
 11
235.5397456657
 21
126.5598446263
 31
0.0
  0
LINE
  5
1E1
330
1F
100
AcDbEntity
  8
SLD-0
  6
Continuous
 62
   179
370
    15
100
AcDbLine
 10
235.5397456657
 20
121.3851290888
 30
0.0
 11
235.6397473585
 21
122.6651507097
 31
0.0
  0
LINE
  5
1E2
330
1F
100
AcDbEntity
  8
SLD-0
  6
Continuous
 62
   179
370
    15
100
AcDbLine
 10
235.6397473585
 20
120.0902011844
 30
0.0
 11
235.5397456657
 21
121.3851290888
 31
0.0
  0
LINE
  5
1E3
330
1F
100
AcDbEntity
  8
SLD-0
  6
Continuous
 62
   179
370
    15
100
AcDbLine
 10
235.5397456657
 20
118.8763865868
 30
0.0
 11
235.6397473585
 21
120.0902011844
 31
0.0
  0
LINE
  5
1E4
330
1F
100
AcDbEntity
  8
SLD-0
  6
Continuous
 62
   179
370
    15
100
AcDbLine
 10
235.6397473585
 20
117.6332129764
 30
0.0
 11
235.5397456657
 21
118.8763865868
 31
0.0
  0
LINE
  5
1E5
330
1F
100
AcDbEntity
  8
SLD-0
  6
Continuous
 62
   179
370
    15
100
AcDbLine
 10
235.5397456657
 20
116.5224869403
 30
0.0
 11
235.6397473585
 21
117.6332129764
 31
0.0
  0
LINE
  5
1E6
330
1F
100
AcDbEntity
  8
SLD-0
  6
Continuous
 62
   179
370
    15
100
AcDbLine
 10
235.6397473585
 20
115.3688404376
 30
0.0
 11
235.5397456657
 21
116.5224869403
 31
0.0
  0
LINE
  5
1E7
330
1F
100
AcDbEntity
  8
SLD-0
  6
Continuous
 62
   179
370
    15
100
AcDbLine
 10
235.5397456657
 20
114.3949517647
 30
0.0
 11
235.6397473585
 21
115.3688404376
 31
0.0
  0
LINE
  5
1E8
330
1F
100
AcDbEntity
  8
SLD-0
  6
Continuous
 62
   179
370
    15
100
AcDbLine
 10
235.6397473585
 20
113.3658850233
 30
0.0
 11
235.5397456657
 21
114.3949517647
 31
0.0
  0
LINE
  5
1E9
330
1F
100
AcDbEntity
  8
SLD-0
  6
Continuous
 62
   179
370
    15
100
AcDbLine
 10
235.5397456657
 20
112.5584246258
 30
0.0
 11
235.6397473585
 21
113.3658850233
 31
0.0
  0
LINE
  5
1EA
330
1F
100
AcDbEntity
  8
SLD-0
  6
Continuous
 62
   179
370
    15
100
AcDbLine
 10
235.6397473585
 20
111.6852063353
 30
0.0
 11
235.5397456657
 21
112.5584246258
 31
0.0
  0
LINE
  5
1EB
330
1F
100
AcDbEntity
  8
SLD-0
  6
Continuous
 62
   179
370
    15
100
AcDbLine
 10
235.5397456657
 20
111.0687080438
 30
0.0
 11
235.6397473585
 21
111.6852063353
 31
0.0
  0
LINE
  5
1EC
330
1F
100
AcDbEntity
  8
SLD-0
  6
Continuous
 62
   179
370
    15
100
AcDbLine
 10
235.6397473585
 20
110.3778697217
 30
0.0
 11
235.5397456657
 21
111.0687080438
 31
0.0
  0
LINE
  5
1ED
330
1F
100
AcDbEntity
  8
SLD-0
  6
Continuous
 62
   179
370
    15
100
AcDbLine
 10
235.5397456657
 20
109.9710670898
 30
0.0
 11
235.6397473585
 21
110.3778697217
 31
0.0
  0
LINE
  5
1EE
330
1F
100
AcDbEntity
  8
SLD-0
  6
Continuous
 62
   179
370
    15
100
AcDbLine
 10
235.6397473585
 20
109.4835998158
 30
0.0
 11
235.5397456657
 21
109.9710670898
 31
0.0
  0
LINE
  5
1EF
330
1F
100
AcDbEntity
  8
SLD-0
  6
Continuous
 62
   179
370
    15
100
AcDbLine
 10
235.5397456657
 20
109.298851494
 30
0.0
 11
235.6397473585
 21
109.4835998158
 31
0.0
  0
LINE
  5
1F0
330
1F
100
AcDbEntity
  8
SLD-0
  6
Continuous
 62
   179
370
    15
100
AcDbLine
 10
235.6397473585
 20
109.0295660908
 30
0.0
 11
235.5397456657
 21
109.298851494
 31
0.0
  0
LINE
  5
1F1
330
1F
100
AcDbEntity
  8
SLD-0
  6
Continuous
 62
   179
370
    15
100
AcDbLine
 10
235.5397456657
 20
109.072487023
 30
0.0
 11
235.6397473585
 21
109.0295660908
 31
0.0
  0
LINE
  5
1F2
330
1F
100
AcDbEntity
  8
SLD-0
  6
Continuous
 62
   179
370
    15
100
AcDbLine
 10
235.5397456657
 20
126.5598446263
 30
0.0
 11
243.739742912
 21
126.5598446263
 31
0.0
  0
LINE
  5
1F3
330
1F
100
AcDbEntity
  8
SLD-0
  6
Continuous
 62
   179
370
    15
100
AcDbLine
 10
235.5397456657
 20
121.3851290888
 30
0.0
 11
243.739742912
 21
121.3851290888
 31
0.0
  0
LINE
  5
1F4
330
1F
100
AcDbEntity
  8
SLD-0
  6
Continuous
 62
   179
370
    15
100
AcDbLine
 10
235.6397473585
 20
127.8547725307
 30
0.0
 11
243.6397486698
 21
127.8547725307
 31
0.0
  0
LINE
  5
1F5
330
1F
100
AcDbEntity
  8
SLD-0
  6
Continuous
 62
   179
370
    15
100
AcDbLine
 10
235.6397473585
 20
120.0902011844
 30
0.0
 11
243.6397486698
 21
120.0902011844
 31
0.0
  0
LINE
  5
1F6
330
1F
100
AcDbEntity
  8
SLD-0
  6
Continuous
 62
   179
370
    15
100
AcDbLine
 10
235.5397456657
 20
129.0685871283
 30
0.0
 11
243.739742912
 21
129.0685871283
 31
0.0
  0
LINE
  5
1F7
330
1F
100
AcDbEntity
  8
SLD-0
  6
Continuous
 62
   179
370
    15
100
AcDbLine
 10
235.5397456657
 20
118.8763865868
 30
0.0
 11
243.739742912
 21
118.8763865868
 31
0.0
  0
LINE
  5
1F8
330
1F
100
AcDbEntity
  8
SLD-0
  6
Continuous
 62
   179
370
    15
100
AcDbLine
 10
235.6397473585
 20
130.3117607387
 30
0.0
 11
243.6397486698
 21
130.3117607387
 31
0.0
  0
LINE
  5
1F9
330
1F
100
AcDbEntity
  8
SLD-0
  6
Continuous
 62
   179
370
    15
100
AcDbLine
 10
235.6397473585
 20
117.6332129764
 30
0.0
 11
243.6397486698
 21
117.6332129764
 31
0.0
  0
LINE
  5
1FA
330
1F
100
AcDbEntity
  8
SLD-0
  6
Continuous
 62
   179
370
    15
100
AcDbLine
 10
235.5397456657
 20
131.4224867749
 30
0.0
 11
243.739742912
 21
131.4224867749
 31
0.0
  0
LINE
  5
1FB
330
1F
100
AcDbEntity
  8
SLD-0
  6
Continuous
 62
   179
370
    15
100
AcDbLine
 10
235.5397456657
 20
116.5224869403
 30
0.0
 11
243.739742912
 21
116.5224869403
 31
0.0
  0
LINE
  5
1FC
330
1F
100
AcDbEntity
  8
SLD-0
  6
Continuous
 62
   179
370
    15
100
AcDbLine
 10
235.6397473585
 20
132.5761332775
 30
0.0
 11
243.6397486698
 21
132.5761332775
 31
0.0
  0
LINE
  5
1FD
330
1F
100
AcDbEntity
  8
SLD-0
  6
Continuous
 62
   179
370
    15
100
AcDbLine
 10
235.6397473585
 20
115.3688404376
 30
0.0
 11
243.6397486698
 21
115.3688404376
 31
0.0
  0
LINE
  5
1FE
330
1F
100
AcDbEntity
  8
SLD-0
  6
Continuous
 62
   179
370
    15
100
AcDbLine
 10
246.4284190309
 20
111.272487011
 30
0.0
 11
246.4284190309
 21
136.6724867041
 31
0.0
  0
LINE
  5
1FF
330
1F
100
AcDbEntity
  8
SLD-0
  6
Continuous
 62
   179
370
    15
100
AcDbLine
 10
248.1397428882
 20
123.9724868576
 30
0.0
 11
248.1397428882
 21
136.6724867041
 31
0.0
  0
LINE
  5
200
330
1F
100
AcDbEntity
  8
SLD-0
  6
Continuous
 62
   179
370
    15
100
AcDbLine
 10
248.1397428882
 20
111.272487011
 30
0.0
 11
248.1397428882
 21
123.9724868576
 31
0.0
  0
LINE
  5
201
330
1F
100
AcDbEntity
  8
SLD-0
  6
Continuous
 62
   179
370
    15
100
AcDbLine
 10
248.6397439014
 20
123.9724868576
 30
0.0
 11
248.6397439014
 21
111.772487093
 31
0.0
  0
LINE
  5
202
330
1F
100
AcDbEntity
  8
SLD-0
  6
Continuous
 62
   179
370
    15
100
AcDbLine
 10
248.6397439014
 20
136.1724866221
 30
0.0
 11
248.6397439014
 21
123.9724868576
 31
0.0
  0
LINE
  5
203
330
1F
100
AcDbEntity
  8
SLD-0
  6
Continuous
 62
   179
370
    15
100
AcDbLine
 10
246.1397462856
 20
111.772487093
 30
0.0
 11
246.1397462856
 21
136.1724866221
 31
0.0
  0
LINE
  5
204
330
1F
100
AcDbEntity
  8
SLD-0
  6
Continuous
 62
   179
370
    15
100
AcDbLine
 10
235.5397456657
 20
133.5500219504
 30
0.0
 11
243.739742912
 21
133.5500219504
 31
0.0
  0
LINE
  5
205
330
1F
100
AcDbEntity
  8
SLD-0
  6
Continuous
 62
   179
370
    15
100
AcDbLine
 10
235.5397456657
 20
114.3949517647
 30
0.0
 11
243.739742912
 21
114.3949517647
 31
0.0
  0
LINE
  5
206
330
1F
100
AcDbEntity
  8
SLD-0
  6
Continuous
 62
   179
370
    15
100
AcDbLine
 10
235.6397473585
 20
134.5790886919
 30
0.0
 11
243.6397486698
 21
134.5790886919
 31
0.0
  0
LINE
  5
207
330
1F
100
AcDbEntity
  8
SLD-0
  6
Continuous
 62
   179
370
    15
100
AcDbLine
 10
235.6397473585
 20
113.3658850233
 30
0.0
 11
243.6397486698
 21
113.3658850233
 31
0.0
  0
LINE
  5
208
330
1F
100
AcDbEntity
  8
SLD-0
  6
Continuous
 62
   179
370
    15
100
AcDbLine
 10
235.5397456657
 20
135.3865490893
 30
0.0
 11
243.739742912
 21
135.3865490893
 31
0.0
  0
LINE
  5
209
330
1F
100
AcDbEntity
  8
SLD-0
  6
Continuous
 62
   179
370
    15
100
AcDbLine
 10
235.5397456657
 20
112.5584246258
 30
0.0
 11
243.739742912
 21
112.5584246258
 31
0.0
  0
LINE
  5
20A
330
1F
100
AcDbEntity
  8
SLD-0
  6
Continuous
 62
   179
370
    15
100
AcDbLine
 10
235.6397473585
 20
136.2597673798
 30
0.0
 11
243.6397486698
 21
136.2597673798
 31
0.0
  0
LINE
  5
20B
330
1F
100
AcDbEntity
  8
SLD-0
  6
Continuous
 62
   179
370
    15
100
AcDbLine
 10
235.6397473585
 20
111.6852063353
 30
0.0
 11
243.6397486698
 21
111.6852063353
 31
0.0
  0
LINE
  5
20C
330
1F
100
AcDbEntity
  8
SLD-0
  6
Continuous
 62
   179
370
    15
100
AcDbLine
 10
235.5397456657
 20
136.8762656713
 30
0.0
 11
243.739742912
 21
136.8762656713
 31
0.0
  0
LINE
  5
20D
330
1F
100
AcDbEntity
  8
SLD-0
  6
Continuous
 62
   179
370
    15
100
AcDbLine
 10
235.5397456657
 20
111.0687080438
 30
0.0
 11
243.739742912
 21
111.0687080438
 31
0.0
  0
LINE
  5
20E
330
1F
100
AcDbEntity
  8
SLD-0
  6
Continuous
 62
   179
370
    15
100
AcDbLine
 10
235.6397473585
 20
137.5671039934
 30
0.0
 11
243.6397486698
 21
137.5671039934
 31
0.0
  0
LINE
  5
20F
330
1F
100
AcDbEntity
  8
SLD-0
  6
Continuous
 62
   179
370
    15
100
AcDbLine
 10
235.6397473585
 20
110.3778697217
 30
0.0
 11
243.6397486698
 21
110.3778697217
 31
0.0
  0
LINE
  5
210
330
1F
100
AcDbEntity
  8
SLD-0
  6
Continuous
 62
   179
370
    15
100
AcDbLine
 10
235.5397456657
 20
137.9739066253
 30
0.0
 11
243.739742912
 21
137.9739066253
 31
0.0
  0
LINE
  5
211
330
1F
100
AcDbEntity
  8
SLD-0
  6
Continuous
 62
   179
370
    15
100
AcDbLine
 10
235.5397456657
 20
109.9710670898
 30
0.0
 11
243.739742912
 21
109.9710670898
 31
0.0
  0
LINE
  5
212
330
1F
100
AcDbEntity
  8
SLD-0
  6
Continuous
 62
   179
370
    15
100
AcDbLine
 10
235.6397473585
 20
138.4613738994
 30
0.0
 11
243.6397486698
 21
138.4613738994
 31
0.0
  0
LINE
  5
213
330
1F
100
AcDbEntity
  8
SLD-0
  6
Continuous
 62
   179
370
    15
100
AcDbLine
 10
235.6397473585
 20
109.4835998158
 30
0.0
 11
243.6397486698
 21
109.4835998158
 31
0.0
  0
LINE
  5
214
330
1F
100
AcDbEntity
  8
SLD-0
  6
Continuous
 62
   179
370
    15
100
AcDbLine
 10
235.5397456657
 20
138.6461222211
 30
0.0
 11
243.739742912
 21
138.6461222211
 31
0.0
  0
LINE
  5
215
330
1F
100
AcDbEntity
  8
SLD-0
  6
Continuous
 62
   179
370
    15
100
AcDbLine
 10
235.5397456657
 20
109.298851494
 30
0.0
 11
243.739742912
 21
109.298851494
 31
0.0
  0
LINE
  5
216
330
1F
100
AcDbEntity
  8
SLD-0
  6
Continuous
 62
   179
370
    15
100
AcDbLine
 10
235.6397473585
 20
138.9154076243
 30
0.0
 11
243.6397486698
 21
138.9154076243
 31
0.0
  0
LINE
  5
217
330
1F
100
AcDbEntity
  8
SLD-0
  6
Continuous
 62
   179
370
    15
100
AcDbLine
 10
235.6397473585
 20
109.0295660908
 30
0.0
 11
243.6397486698
 21
109.0295660908
 31
0.0
  0
LINE
  5
218
330
1F
100
AcDbEntity
  8
SLD-0
  6
Continuous
 62
   179
370
    15
100
AcDbLine
 10
234.3397477042
 20
110.1224871019
 30
0.0
 11
234.3397477042
 21
111.7230683232
 31
0.0
  0
LINE
  5
219
330
1F
100
AcDbEntity
  8
SLD-0
  6
Continuous
 62
   179
370
    15
100
AcDbLine
 10
234.3397477042
 20
115.9624961803
 30
0.0
 11
234.3397477042
 21
137.8224866132
 31
0.0
  0
LINE
  5
21A
330
1F
100
AcDbEntity
  8
SLD-0
  6
Continuous
 62
   179
370
    15
100
AcDbLine
 10
196.189746387
 20
137.8224871019
 30
0.0
 11
196.189746387
 21
110.1224871019
 31
0.0
  0
LINE
  5
21B
330
1F
100
AcDbEntity
  8
SLD-0
  6
Continuous
 62
   179
370
    15
100
AcDbLine
 10
194.939747579
 20
136.5724868739
 30
0.0
 11
194.939747579
 21
111.3724868412
 31
0.0
  0
LINE
  5
21C
330
1F
100
AcDbEntity
  8
SLD-0
  6
Continuous
 62
   179
370
    15
100
AcDbLine
 10
193.6897450459
 20
137.8224866132
 30
0.0
 11
193.6897450459
 21
110.1224871019
 31
0.0
  0
LINE
  5
21D
330
1F
100
AcDbEntity
  8
SLD-0
  6
Continuous
 62
   179
370
    15
100
AcDbLine
 10
190.1897472661
 20
137.8224866132
 30
0.0
 11
190.1897472661
 21
110.1224871019
 31
0.0
  0
LINE
  5
21E
330
1F
100
AcDbEntity
  8
SLD-0
  6
Continuous
 62
   179
370
    15
100
AcDbLine
 10
189.9397467595
 20
137.5724870379
 30
0.0
 11
189.9397467595
 21
110.3724866773
 31
0.0
  0
LINE
  5
21F
330
1F
100
AcDbEntity
  8
SLD-0
  6
Continuous
 62
   179
370
    15
100
AcDbLine
 10
189.6897462528
 20
137.8224866132
 30
0.0
 11
189.6897462528
 21
110.1224871019
 31
0.0
  0
LINE
  5
220
330
1F
100
AcDbEntity
  8
SLD-0
  6
Continuous
 62
   179
370
    15
100
AcDbLine
 10
173.1397464272
 20
123.9724868576
 30
0.0
 11
173.1397464272
 21
110.1224871019
 31
0.0
  0
LINE
  5
221
330
1F
100
AcDbEntity
  8
SLD-0
  6
Continuous
 62
   179
370
    15
100
AcDbLine
 10
173.1397464272
 20
137.8224866132
 30
0.0
 11
173.1397464272
 21
123.9724868576
 31
0.0
  0
LINE
  5
222
330
1F
100
AcDbEntity
  8
SLD-0
  6
Continuous
 62
   179
370
    15
100
AcDbLine
 10
165.1397465129
 20
139.2224870289
 30
0.0
 11
165.1397465129
 21
108.7224866862
 31
0.0
  0
LINE
  5
223
330
1F
100
AcDbEntity
  8
SLD-0
  6
Continuous
 62
   179
370
    15
100
AcDbLine
 10
171.939746603
 20
123.9724868576
 30
0.0
 11
171.939746603
 21
139.2224870289
 31
0.0
  0
LINE
  5
224
330
1F
100
AcDbEntity
  8
SLD-0
  6
Continuous
 62
   179
370
    15
100
AcDbLine
 10
171.939746603
 20
108.7224866862
 30
0.0
 11
171.939746603
 21
123.9724868576
 31
0.0
  0
LINE
  5
225
330
1F
100
AcDbEntity
  8
SLD-0
  6
Continuous
 62
   179
370
    15
100
AcDbLine
 10
172.9397467669
 20
123.9724868576
 30
0.0
 11
172.9397467669
 21
109.7224868501
 31
0.0
  0
LINE
  5
226
330
1F
100
AcDbEntity
  8
SLD-0
  6
Continuous
 62
   179
370
    15
100
AcDbLine
 10
172.9397467669
 20
138.222486865
 30
0.0
 11
172.9397467669
 21
123.9724868576
 31
0.0
  0
LINE
  5
227
330
1F
100
AcDbEntity
  8
SLD-0
  6
Continuous
 62
   179
370
    15
100
AcDbLine
 10
159.4397464168
 20
123.9724868576
 30
0.0
 11
159.4397464168
 21
140.2724871079
 31
0.0
  0
LINE
  5
228
330
1F
100
AcDbEntity
  8
SLD-0
  6
Continuous
 62
   179
370
    15
100
AcDbLine
 10
159.4397464168
 20
107.6724866072
 30
0.0
 11
159.4397464168
 21
123.9724868576
 31
0.0
  0
LINE
  5
229
330
1F
100
AcDbEntity
  8
SLD-0
  6
Continuous
 62
   179
370
    15
100
AcDbLine
 10
164.4397464405
 20
125.7285656395
 30
0.0
 11
159.9397464405
 21
125.7285656395
 31
0.0
  0
LINE
  5
22A
330
1F
100
AcDbEntity
  8
SLD-0
  6
Continuous
 62
   179
370
    15
100
AcDbLine
 10
164.2397464405
 20
124.8621987127
 30
0.0
 11
160.1397464405
 21
124.8621987127
 31
0.0
  0
LINE
  5
22B
330
1F
100
AcDbEntity
  8
SLD-0
  6
Continuous
 62
   179
370
    15
100
AcDbLine
 10
164.4397464405
 20
123.9724874566
 30
0.0
 11
159.9397464405
 21
123.9724874566
 31
0.0
  0
LINE
  5
22C
330
1F
100
AcDbEntity
  8
SLD-0
  6
Continuous
 62
   179
370
    15
100
AcDbLine
 10
164.9397465225
 20
140.2724871079
 30
0.0
 11
164.9397465225
 21
107.6724866072
 31
0.0
  0
LINE
  5
22D
330
1F
100
AcDbEntity
  8
SLD-0
  6
Continuous
 62
   179
370
    15
100
AcDbLine
 10
164.2397464405
 20
123.0827762005
 30
0.0
 11
160.1397464405
 21
123.0827762005
 31
0.0
  0
LINE
  5
22E
330
1F
100
AcDbEntity
  8
SLD-0
  6
Continuous
 62
   179
370
    15
100
AcDbLine
 10
164.4397464405
 20
122.2164092737
 30
0.0
 11
159.9397464405
 21
122.2164092737
 31
0.0
  0
LINE
  5
22F
330
1F
100
AcDbEntity
  8
SLD-0
  6
Continuous
 62
   179
370
    15
100
AcDbLine
 10
164.4397464405
 20
127.4654038623
 30
0.0
 11
159.9397464405
 21
127.4654038623
 31
0.0
  0
LINE
  5
230
330
1F
100
AcDbEntity
  8
SLD-0
  6
Continuous
 62
   179
370
    15
100
AcDbLine
 10
164.2397464405
 20
126.6318733623
 30
0.0
 11
160.1397464405
 21
126.6318733623
 31
0.0
  0
LINE
  5
231
330
1F
100
AcDbEntity
  8
SLD-0
  6
Continuous
 62
   179
370
    15
100
AcDbLine
 10
164.2397464405
 20
121.3131015509
 30
0.0
 11
160.1397464405
 21
121.3131015509
 31
0.0
  0
LINE
  5
232
330
1F
100
AcDbEntity
  8
SLD-0
  6
Continuous
 62
   179
370
    15
100
AcDbLine
 10
164.4397464405
 20
120.4795710509
 30
0.0
 11
159.9397464405
 21
120.4795710509
 31
0.0
  0
LINE
  5
233
330
1F
100
AcDbEntity
  8
SLD-0
  6
Continuous
 62
   179
370
    15
100
AcDbLine
 10
164.2397464405
 20
128.3724112233
 30
0.0
 11
160.1397464405
 21
128.3724112233
 31
0.0
  0
LINE
  5
234
330
1F
100
AcDbEntity
  8
SLD-0
  6
Continuous
 62
   179
370
    15
100
AcDbLine
 10
164.2397464405
 20
119.5725636899
 30
0.0
 11
160.1397464405
 21
119.5725636899
 31
0.0
  0
LINE
  5
235
330
1F
100
AcDbEntity
  8
SLD-0
  6
Continuous
 62
   179
370
    15
100
AcDbLine
 10
164.4397464405
 20
129.1639729621
 30
0.0
 11
159.9397464405
 21
129.1639729621
 31
0.0
  0
LINE
  5
236
330
1F
100
AcDbEntity
  8
SLD-0
  6
Continuous
 62
   179
370
    15
100
AcDbLine
 10
164.4397464405
 20
118.7810019511
 30
0.0
 11
159.9397464405
 21
118.7810019511
 31
0.0
  0
LINE
  5
237
330
1F
100
AcDbEntity
  8
SLD-0
  6
Continuous
 62
   179
370
    15
100
AcDbLine
 10
164.2397464405
 20
130.0647425989
 30
0.0
 11
160.1397464405
 21
130.0647425989
 31
0.0
  0
LINE
  5
238
330
1F
100
AcDbEntity
  8
SLD-0
  6
Continuous
 62
   179
370
    15
100
AcDbLine
 10
164.2397464405
 20
117.8802323143
 30
0.0
 11
160.1397464405
 21
117.8802323143
 31
0.0
  0
LINE
  5
239
330
1F
100
AcDbEntity
  8
SLD-0
  6
Continuous
 62
   179
370
    15
100
AcDbLine
 10
164.4397464405
 20
130.8056630603
 30
0.0
 11
159.9397464405
 21
130.8056630603
 31
0.0
  0
LINE
  5
23A
330
1F
100
AcDbEntity
  8
SLD-0
  6
Continuous
 62
   179
370
    15
100
AcDbLine
 10
164.4397464405
 20
117.1393118529
 30
0.0
 11
159.9397464405
 21
117.1393118529
 31
0.0
  0
LINE
  5
23B
330
1F
100
AcDbEntity
  8
SLD-0
  6
Continuous
 62
   179
370
    15
100
AcDbLine
 10
164.2397464405
 20
131.6903259522
 30
0.0
 11
160.1397464405
 21
131.6903259522
 31
0.0
  0
LINE
  5
23C
330
1F
100
AcDbEntity
  8
SLD-0
  6
Continuous
 62
   179
370
    15
100
AcDbLine
 10
164.2397464405
 20
116.254648961
 30
0.0
 11
160.1397464405
 21
116.254648961
 31
0.0
  0
LINE
  5
23D
330
1F
100
AcDbEntity
  8
SLD-0
  6
Continuous
 62
   179
370
    15
100
AcDbLine
 10
164.4397464405
 20
132.3724874566
 30
0.0
 11
159.9397464405
 21
132.3724874566
 31
0.0
  0
LINE
  5
23E
330
1F
100
AcDbEntity
  8
SLD-0
  6
Continuous
 62
   179
370
    15
100
AcDbLine
 10
164.4397464405
 20
115.5724874566
 30
0.0
 11
159.9397464405
 21
115.5724874566
 31
0.0
  0
LINE
  5
23F
330
1F
100
AcDbEntity
  8
SLD-0
  6
Continuous
 62
   179
370
    15
100
AcDbLine
 10
164.2397464405
 20
133.2313510519
 30
0.0
 11
160.1397464405
 21
133.2313510519
 31
0.0
  0
LINE
  5
240
330
1F
100
AcDbEntity
  8
SLD-0
  6
Continuous
 62
   179
370
    15
100
AcDbLine
 10
164.2397464405
 20
114.7136238613
 30
0.0
 11
160.1397464405
 21
114.7136238613
 31
0.0
  0
LINE
  5
241
330
1F
100
AcDbEntity
  8
SLD-0
  6
Continuous
 62
   179
370
    15
100
AcDbLine
 10
164.4397464405
 20
133.8472796951
 30
0.0
 11
159.9397464405
 21
133.8472796951
 31
0.0
  0
LINE
  5
242
330
1F
100
AcDbEntity
  8
SLD-0
  6
Continuous
 62
   179
370
    15
100
AcDbLine
 10
164.4397464405
 20
114.0976952181
 30
0.0
 11
159.9397464405
 21
114.0976952181
 31
0.0
  0
LINE
  5
243
330
1F
100
AcDbEntity
  8
SLD-0
  6
Continuous
 62
   179
370
    15
100
AcDbLine
 10
164.2397464405
 20
134.6709341044
 30
0.0
 11
160.1397464405
 21
134.6709341044
 31
0.0
  0
LINE
  5
244
330
1F
100
AcDbEntity
  8
SLD-0
  6
Continuous
 62
   179
370
    15
100
AcDbLine
 10
164.2397464405
 20
113.2740408088
 30
0.0
 11
160.1397464405
 21
113.2740408088
 31
0.0
  0
LINE
  5
245
330
1F
100
AcDbEntity
  8
SLD-0
  6
Continuous
 62
   179
370
    15
100
AcDbLine
 10
164.4397464405
 20
135.2138816434
 30
0.0
 11
159.9397464405
 21
135.2138816434
 31
0.0
  0
LINE
  5
246
330
1F
100
AcDbEntity
  8
SLD-0
  6
Continuous
 62
   179
370
    15
100
AcDbLine
 10
164.4397464405
 20
112.7310932698
 30
0.0
 11
159.9397464405
 21
112.7310932698
 31
0.0
  0
LINE
  5
247
330
1F
100
AcDbEntity
  8
SLD-0
  6
Continuous
 62
   179
370
    15
100
AcDbLine
 10
164.2397464405
 20
135.9933027368
 30
0.0
 11
160.1397464405
 21
135.9933027368
 31
0.0
  0
LINE
  5
248
330
1F
100
AcDbEntity
  8
SLD-0
  6
Continuous
 62
   179
370
    15
100
AcDbLine
 10
164.2397464405
 20
111.9516721764
 30
0.0
 11
160.1397464405
 21
111.9516721764
 31
0.0
  0
LINE
  5
249
330
1F
100
AcDbEntity
  8
SLD-0
  6
Continuous
 62
   179
370
    15
100
AcDbLine
 10
164.4397464405
 20
136.4573205246
 30
0.0
 11
159.9397464405
 21
136.4573205246
 31
0.0
  0
LINE
  5
24A
330
1F
100
AcDbEntity
  8
SLD-0
  6
Continuous
 62
   179
370
    15
100
AcDbLine
 10
164.4397464405
 20
111.4876543886
 30
0.0
 11
159.9397464405
 21
111.4876543886
 31
0.0
  0
LINE
  5
24B
330
1F
100
AcDbEntity
  8
SLD-0
  6
Continuous
 62
   179
370
    15
100
AcDbLine
 10
164.2397464405
 20
137.1839688014
 30
0.0
 11
160.1397464405
 21
137.1839688014
 31
0.0
  0
LINE
  5
24C
330
1F
100
AcDbEntity
  8
SLD-0
  6
Continuous
 62
   179
370
    15
100
AcDbLine
 10
164.2397464405
 20
110.7610061118
 30
0.0
 11
160.1397464405
 21
110.7610061118
 31
0.0
  0
LINE
  5
24D
330
1F
100
AcDbEntity
  8
SLD-0
  6
Continuous
 62
   179
370
    15
100
AcDbLine
 10
164.4397464405
 20
137.5639729621
 30
0.0
 11
159.9397464405
 21
137.5639729621
 31
0.0
  0
LINE
  5
24E
330
1F
100
AcDbEntity
  8
SLD-0
  6
Continuous
 62
   179
370
    15
100
AcDbLine
 10
164.4397464405
 20
110.3810019511
 30
0.0
 11
159.9397464405
 21
110.3810019511
 31
0.0
  0
LINE
  5
24F
330
1F
100
AcDbEntity
  8
SLD-0
  6
Continuous
 62
   179
370
    15
100
AcDbLine
 10
164.2397464405
 20
138.2298871117
 30
0.0
 11
160.1397464405
 21
138.2298871117
 31
0.0
  0
LINE
  5
250
330
1F
100
AcDbEntity
  8
SLD-0
  6
Continuous
 62
   179
370
    15
100
AcDbLine
 10
164.2397464405
 20
109.7150878015
 30
0.0
 11
160.1397464405
 21
109.7150878015
 31
0.0
  0
LINE
  5
251
330
1F
100
AcDbEntity
  8
SLD-0
  6
Continuous
 62
   179
370
    15
100
AcDbLine
 10
164.4397464405
 20
138.5217142402
 30
0.0
 11
159.9397464405
 21
138.5217142402
 31
0.0
  0
LINE
  5
252
330
1F
100
AcDbEntity
  8
SLD-0
  6
Continuous
 62
   179
370
    15
100
AcDbLine
 10
164.4397464405
 20
109.423260673
 30
0.0
 11
159.9397464405
 21
109.423260673
 31
0.0
  0
LINE
  5
253
330
1F
100
AcDbEntity
  8
SLD-0
  6
Continuous
 62
   179
370
    15
100
AcDbLine
 10
164.2397464405
 20
139.1195983678
 30
0.0
 11
160.1397464405
 21
139.1195983678
 31
0.0
  0
LINE
  5
254
330
1F
100
AcDbEntity
  8
SLD-0
  6
Continuous
 62
   179
370
    15
100
AcDbLine
 10
164.2397464405
 20
108.8253765454
 30
0.0
 11
160.1397464405
 21
108.8253765454
 31
0.0
  0
LINE
  5
255
330
1F
100
AcDbEntity
  8
SLD-0
  6
Continuous
 62
   179
370
    15
100
AcDbLine
 10
164.4397464405
 20
139.320051145
 30
0.0
 11
159.9397464405
 21
139.320051145
 31
0.0
  0
LINE
  5
256
330
1F
100
AcDbEntity
  8
SLD-0
  6
Continuous
 62
   179
370
    15
100
AcDbLine
 10
164.4397464405
 20
108.6249237682
 30
0.0
 11
159.9397464405
 21
108.6249237682
 31
0.0
  0
LINE
  5
257
330
1F
100
AcDbEntity
  8
SLD-0
  6
Continuous
 62
   179
370
    15
100
AcDbLine
 10
164.2397464405
 20
139.8433547071
 30
0.0
 11
160.1397464405
 21
139.8433547071
 31
0.0
  0
LINE
  5
258
330
1F
100
AcDbEntity
  8
SLD-0
  6
Continuous
 62
   179
370
    15
100
AcDbLine
 10
164.2397464405
 20
108.1016202061
 30
0.0
 11
160.1397464405
 21
108.1016202061
 31
0.0
  0
LINE
  5
259
330
1F
100
AcDbEntity
  8
SLD-0
  6
Continuous
 62
   179
370
    15
100
AcDbLine
 10
164.4397464405
 20
139.9502369304
 30
0.0
 11
159.9397464405
 21
139.9502369304
 31
0.0
  0
LINE
  5
25A
330
1F
100
AcDbEntity
  8
SLD-0
  6
Continuous
 62
   179
370
    15
100
AcDbLine
 10
164.4397464405
 20
107.9947379828
 30
0.0
 11
159.9397464405
 21
107.9947379828
 31
0.0
  0
LINE
  5
25B
330
1F
100
AcDbEntity
  8
SLD-0
  6
Continuous
 62
   179
370
    15
100
AcDbLine
 10
164.2397464405
 20
140.3932265035
 30
0.0
 11
160.1397464405
 21
140.3932265035
 31
0.0
  0
LINE
  5
25C
330
1F
100
AcDbEntity
  8
SLD-0
  6
Continuous
 62
   179
370
    15
100
AcDbLine
 10
164.2397464405
 20
107.5517484097
 30
0.0
 11
160.1397464405
 21
107.5517484097
 31
0.0
  0
LINE
  5
25D
330
1F
100
AcDbEntity
  8
SLD-0
  6
Continuous
 62
   179
370
    15
100
AcDbLine
 10
164.4397464405
 20
140.4053671489
 30
0.0
 11
159.9397464405
 21
140.4053671489
 31
0.0
  0
LINE
  5
25E
330
1F
100
AcDbEntity
  8
SLD-0
  6
Continuous
 62
   179
370
    15
100
AcDbLine
 10
164.4397464405
 20
107.5396077643
 30
0.0
 11
159.9397464405
 21
107.5396077643
 31
0.0
  0
LINE
  5
25F
330
1F
100
AcDbEntity
  8
SLD-0
  6
Continuous
 62
   179
370
    15
100
AcDbLine
 10
164.2397464405
 20
140.7631892467
 30
0.0
 11
160.1397464405
 21
140.7631892467
 31
0.0
  0
LINE
  5
260
330
1F
100
AcDbEntity
  8
SLD-0
  6
Continuous
 62
   179
370
    15
100
AcDbLine
 10
164.2397464405
 20
107.1817856665
 30
0.0
 11
160.1397464405
 21
107.1817856665
 31
0.0
  0
LINE
  5
261
330
1F
100
AcDbEntity
  8
SLD-0
  6
Continuous
 62
   179
370
    15
100
AcDbLine
 10
161.7516175947
 20
140.9491904149
 30
0.0
 11
160.1397464405
 21
140.9491895474
 31
0.0
  0
LINE
  5
262
330
1F
100
AcDbEntity
  8
SLD-0
  6
Continuous
 62
   179
370
    15
100
AcDbLine
 10
164.2397464405
 20
140.9491895474
 30
0.0
 11
162.6289176392
 21
140.9491904149
 31
0.0
  0
LINE
  5
263
330
1F
100
AcDbEntity
  8
SLD-0
  6
Continuous
 62
   179
370
    15
100
AcDbLine
 10
164.2397464405
 20
106.9957853658
 30
0.0
 11
160.1397464405
 21
106.9957853658
 31
0.0
  0
LINE
  5
264
330
1F
100
AcDbEntity
  8
SLD-0
  6
Continuous
 62
   179
370
    15
100
AcDbLine
 10
156.9397464726
 20
110.4995740245
 30
0.0
 11
156.4805262123
 21
110.4539019654
 31
0.0
  0
LINE
  5
265
330
1F
100
AcDbEntity
  8
SLD-0
  6
Continuous
 62
   179
370
    15
100
AcDbLine
 10
156.4805262123
 20
110.4539019654
 30
0.0
 11
156.0912182421
 21
110.3238381112
 31
0.0
  0
LINE
  5
266
330
1F
100
AcDbEntity
  8
SLD-0
  6
Continuous
 62
   179
370
    15
100
AcDbLine
 10
156.0912182421
 20
110.3238381112
 30
0.0
 11
155.8310909994
 21
110.1291842426
 31
0.0
  0
LINE
  5
267
330
1F
100
AcDbEntity
  8
SLD-0
  6
Continuous
 62
   179
370
    15
100
AcDbLine
 10
155.8310909994
 20
110.1291842426
 30
0.0
 11
155.7397464156
 21
109.8995741124
 31
0.0
  0
LINE
  5
268
330
1F
100
AcDbEntity
  8
SLD-0
  6
Continuous
 62
   179
370
    15
100
AcDbLine
 10
155.7397464156
 20
109.8995741124
 30
0.0
 11
155.8310909994
 21
109.6699639822
 31
0.0
  0
LINE
  5
269
330
1F
100
AcDbEntity
  8
SLD-0
  6
Continuous
 62
   179
370
    15
100
AcDbLine
 10
155.8310909994
 20
109.6699639822
 30
0.0
 11
156.0912182421
 21
109.4753101135
 31
0.0
  0
LINE
  5
26A
330
1F
100
AcDbEntity
  8
SLD-0
  6
Continuous
 62
   179
370
    15
100
AcDbLine
 10
156.0912182421
 20
109.4753101135
 30
0.0
 11
156.4805262123
 21
109.3452462594
 31
0.0
  0
LINE
  5
26B
330
1F
100
AcDbEntity
  8
SLD-0
  6
Continuous
 62
   179
370
    15
100
AcDbLine
 10
156.4805262123
 20
109.3452462594
 30
0.0
 11
156.9397464726
 21
109.2995742003
 31
0.0
  0
LINE
  5
26C
330
1F
100
AcDbEntity
  8
SLD-0
  6
Continuous
 62
   179
370
    15
100
AcDbLine
 10
156.9397464726
 20
109.2995742003
 30
0.0
 11
157.3989665002
 21
109.3452462594
 31
0.0
  0
LINE
  5
26D
330
1F
100
AcDbEntity
  8
SLD-0
  6
Continuous
 62
   179
370
    15
100
AcDbLine
 10
157.3989665002
 20
109.3452462594
 30
0.0
 11
157.7882745868
 21
109.4753101135
 31
0.0
  0
LINE
  5
26E
330
1F
100
AcDbEntity
  8
SLD-0
  6
Continuous
 62
   179
370
    15
100
AcDbLine
 10
157.7882745868
 20
109.4753101135
 30
0.0
 11
158.0484018294
 21
109.6699639822
 31
0.0
  0
LINE
  5
26F
330
1F
100
AcDbEntity
  8
SLD-0
  6
Continuous
 62
   179
370
    15
100
AcDbLine
 10
158.0484018294
 20
109.6699639822
 30
0.0
 11
158.1397464132
 21
109.8995741124
 31
0.0
  0
LINE
  5
270
330
1F
100
AcDbEntity
  8
SLD-0
  6
Continuous
 62
   179
370
    15
100
AcDbLine
 10
158.1397464132
 20
109.8995741124
 30
0.0
 11
158.0484018294
 21
110.1291842426
 31
0.0
  0
LINE
  5
271
330
1F
100
AcDbEntity
  8
SLD-0
  6
Continuous
 62
   179
370
    15
100
AcDbLine
 10
158.0484018294
 20
110.1291842426
 30
0.0
 11
157.7882745868
 21
110.3238381112
 31
0.0
  0
LINE
  5
272
330
1F
100
AcDbEntity
  8
SLD-0
  6
Continuous
 62
   179
370
    15
100
AcDbLine
 10
157.7882745868
 20
110.3238381112
 30
0.0
 11
157.3989665002
 21
110.4539019654
 31
0.0
  0
LINE
  5
273
330
1F
100
AcDbEntity
  8
SLD-0
  6
Continuous
 62
   179
370
    15
100
AcDbLine
 10
157.3989665002
 20
110.4539019654
 30
0.0
 11
156.9397464726
 21
110.4995740245
 31
0.0
  0
LINE
  5
274
330
1F
100
AcDbEntity
  8
SLD-0
  6
Continuous
 62
   179
370
    15
100
AcDbLine
 10
156.1897463497
 20
109.6830676908
 30
0.0
 11
156.1897463497
 21
110.1160805339
 31
0.0
  0
LINE
  5
275
330
1F
100
AcDbEntity
  8
SLD-0
  6
Continuous
 62
   179
370
    15
100
AcDbLine
 10
156.9397464726
 20
109.4665612692
 30
0.0
 11
156.1897463497
 21
109.6830676908
 31
0.0
  0
LINE
  5
276
330
1F
100
AcDbEntity
  8
SLD-0
  6
Continuous
 62
   179
370
    15
100
AcDbLine
 10
157.6897463627
 20
109.6830676908
 30
0.0
 11
156.9397464726
 21
109.4665612692
 31
0.0
  0
LINE
  5
277
330
1F
100
AcDbEntity
  8
SLD-0
  6
Continuous
 62
   179
370
    15
100
AcDbLine
 10
157.6897463627
 20
110.1160805339
 30
0.0
 11
157.6897463627
 21
109.6830676908
 31
0.0
  0
LINE
  5
278
330
1F
100
AcDbEntity
  8
SLD-0
  6
Continuous
 62
   179
370
    15
100
AcDbLine
 10
156.9397464726
 20
110.3325869555
 30
0.0
 11
157.6897463627
 21
110.1160805339
 31
0.0
  0
LINE
  5
279
330
1F
100
AcDbEntity
  8
SLD-0
  6
Continuous
 62
   179
370
    15
100
AcDbLine
 10
156.1897463497
 20
110.1160805339
 30
0.0
 11
156.9397464726
 21
110.3325869555
 31
0.0
  0
LINE
  5
27A
330
1F
100
AcDbEntity
  8
SLD-0
  6
Continuous
 62
   179
370
    15
100
AcDbLine
 10
156.9397464726
 20
110.3325869555
 30
0.0
 11
156.9397464726
 21
109.4665612692
 31
0.0
  0
LINE
  5
27B
330
1F
100
AcDbEntity
  8
SLD-0
  6
Continuous
 62
   179
370
    15
100
AcDbLine
 10
156.9397464726
 20
138.6453995148
 30
0.0
 11
156.4805262123
 21
138.5997274558
 31
0.0
  0
LINE
  5
27C
330
1F
100
AcDbEntity
  8
SLD-0
  6
Continuous
 62
   179
370
    15
100
AcDbLine
 10
156.4805262123
 20
138.5997274558
 30
0.0
 11
156.0912182421
 21
138.4696636016
 31
0.0
  0
LINE
  5
27D
330
1F
100
AcDbEntity
  8
SLD-0
  6
Continuous
 62
   179
370
    15
100
AcDbLine
 10
156.0912182421
 20
138.4696636016
 30
0.0
 11
155.8310909994
 21
138.2750097329
 31
0.0
  0
LINE
  5
27E
330
1F
100
AcDbEntity
  8
SLD-0
  6
Continuous
 62
   179
370
    15
100
AcDbLine
 10
155.8310909994
 20
138.2750097329
 30
0.0
 11
155.7397464156
 21
138.0453996027
 31
0.0
  0
LINE
  5
27F
330
1F
100
AcDbEntity
  8
SLD-0
  6
Continuous
 62
   179
370
    15
100
AcDbLine
 10
155.7397464156
 20
138.0453996027
 30
0.0
 11
155.8310909994
 21
137.8157894725
 31
0.0
  0
LINE
  5
280
330
1F
100
AcDbEntity
  8
SLD-0
  6
Continuous
 62
   179
370
    15
100
AcDbLine
 10
155.8310909994
 20
137.8157894725
 30
0.0
 11
156.0912182421
 21
137.6211356039
 31
0.0
  0
LINE
  5
281
330
1F
100
AcDbEntity
  8
SLD-0
  6
Continuous
 62
   179
370
    15
100
AcDbLine
 10
156.0912182421
 20
137.6211356039
 30
0.0
 11
156.4805262123
 21
137.4910717497
 31
0.0
  0
LINE
  5
282
330
1F
100
AcDbEntity
  8
SLD-0
  6
Continuous
 62
   179
370
    15
100
AcDbLine
 10
156.4805262123
 20
137.4910717497
 30
0.0
 11
156.9397464726
 21
137.4453996907
 31
0.0
  0
LINE
  5
283
330
1F
100
AcDbEntity
  8
SLD-0
  6
Continuous
 62
   179
370
    15
100
AcDbLine
 10
156.9397464726
 20
137.4453996907
 30
0.0
 11
157.3989665002
 21
137.4910717497
 31
0.0
  0
LINE
  5
284
330
1F
100
AcDbEntity
  8
SLD-0
  6
Continuous
 62
   179
370
    15
100
AcDbLine
 10
157.3989665002
 20
137.4910717497
 30
0.0
 11
157.7882745868
 21
137.6211356039
 31
0.0
  0
LINE
  5
285
330
1F
100
AcDbEntity
  8
SLD-0
  6
Continuous
 62
   179
370
    15
100
AcDbLine
 10
157.7882745868
 20
137.6211356039
 30
0.0
 11
158.0484018294
 21
137.8157894725
 31
0.0
  0
LINE
  5
286
330
1F
100
AcDbEntity
  8
SLD-0
  6
Continuous
 62
   179
370
    15
100
AcDbLine
 10
158.0484018294
 20
137.8157894725
 30
0.0
 11
158.1397464132
 21
138.0453996027
 31
0.0
  0
LINE
  5
287
330
1F
100
AcDbEntity
  8
SLD-0
  6
Continuous
 62
   179
370
    15
100
AcDbLine
 10
158.1397464132
 20
138.0453996027
 30
0.0
 11
158.0484018294
 21
138.2750097329
 31
0.0
  0
LINE
  5
288
330
1F
100
AcDbEntity
  8
SLD-0
  6
Continuous
 62
   179
370
    15
100
AcDbLine
 10
158.0484018294
 20
138.2750097329
 30
0.0
 11
157.7882745868
 21
138.4696636016
 31
0.0
  0
LINE
  5
289
330
1F
100
AcDbEntity
  8
SLD-0
  6
Continuous
 62
   179
370
    15
100
AcDbLine
 10
157.7882745868
 20
138.4696636016
 30
0.0
 11
157.3989665002
 21
138.5997274558
 31
0.0
  0
LINE
  5
28A
330
1F
100
AcDbEntity
  8
SLD-0
  6
Continuous
 62
   179
370
    15
100
AcDbLine
 10
157.3989665002
 20
138.5997274558
 30
0.0
 11
156.9397464726
 21
138.6453995148
 31
0.0
  0
LINE
  5
28B
330
1F
100
AcDbEntity
  8
SLD-0
  6
Continuous
 62
   179
370
    15
100
AcDbLine
 10
156.1897463497
 20
137.8288931812
 30
0.0
 11
156.1897463497
 21
138.2619060243
 31
0.0
  0
LINE
  5
28C
330
1F
100
AcDbEntity
  8
SLD-0
  6
Continuous
 62
   179
370
    15
100
AcDbLine
 10
156.9397464726
 20
137.6123867596
 30
0.0
 11
156.1897463497
 21
137.8288931812
 31
0.0
  0
LINE
  5
28D
330
1F
100
AcDbEntity
  8
SLD-0
  6
Continuous
 62
   179
370
    15
100
AcDbLine
 10
157.6897463627
 20
137.8288931812
 30
0.0
 11
156.9397464726
 21
137.6123867596
 31
0.0
  0
LINE
  5
28E
330
1F
100
AcDbEntity
  8
SLD-0
  6
Continuous
 62
   179
370
    15
100
AcDbLine
 10
157.6897463627
 20
138.2619060243
 30
0.0
 11
157.6897463627
 21
137.8288931812
 31
0.0
  0
LINE
  5
28F
330
1F
100
AcDbEntity
  8
SLD-0
  6
Continuous
 62
   179
370
    15
100
AcDbLine
 10
156.9397464726
 20
138.4784124459
 30
0.0
 11
157.6897463627
 21
138.2619060243
 31
0.0
  0
LINE
  5
290
330
1F
100
AcDbEntity
  8
SLD-0
  6
Continuous
 62
   179
370
    15
100
AcDbLine
 10
156.1897463497
 20
138.2619060243
 30
0.0
 11
156.9397464726
 21
138.4784124459
 31
0.0
  0
LINE
  5
291
330
1F
100
AcDbEntity
  8
SLD-0
  6
Continuous
 62
   179
370
    15
100
AcDbLine
 10
156.9397464726
 20
137.6123867596
 30
0.0
 11
156.9397464726
 21
138.4784124459
 31
0.0
  0
LINE
  5
292
330
1F
100
AcDbEntity
  8
SLD-0
  6
Continuous
 62
   179
370
    15
100
AcDbLine
 10
159.2397464218
 20
123.9724868576
 30
0.0
 11
159.2397464218
 21
140.2224862615
 31
0.0
  0
LINE
  5
293
330
1F
100
AcDbEntity
  8
SLD-0
  6
Continuous
 62
   179
370
    15
100
AcDbLine
 10
159.2397464218
 20
107.7224874536
 30
0.0
 11
159.2397464218
 21
123.9724868576
 31
0.0
  0
LINE
  5
294
330
1F
100
AcDbEntity
  8
SLD-0
  6
Continuous
 62
   179
370
    15
100
AcDbLine
 10
154.6397461888
 20
140.2224862615
 30
0.0
 11
154.6397461888
 21
107.7224874536
 31
0.0
  0
LINE
  5
295
330
1F
100
AcDbEntity
  8
SLD-0
  6
Continuous
 62
   179
370
    15
100
AcDbLine
 10
154.4397465285
 20
107.9224871139
 30
0.0
 11
154.4397465285
 21
140.0224866013
 31
0.0
  0
LINE
  5
296
330
1F
100
AcDbEntity
  8
SLD-0
  6
Continuous
 62
   179
370
    15
100
AcDbLine
 10
83.9397498738
 20
139.3724867741
 30
0.0
 11
83.9397498738
 21
108.572486941
 31
0.0
  0
LINE
  5
297
330
1F
100
AcDbEntity
  8
SLD-0
  6
Continuous
 62
   179
370
    15
100
AcDbLine
 10
81.9397458207
 20
137.3724864463
 30
0.0
 11
81.9397458207
 21
110.5724872688
 31
0.0
  0
LINE
  5
298
330
1F
100
AcDbEntity
  8
SLD-0
  6
Continuous
 62
   179
370
    15
100
AcDbLine
 10
95.5397450697
 20
108.572486941
 30
0.0
 11
95.5397450697
 21
139.3724811862
 31
0.0
  0
LINE
  5
299
330
1F
100
AcDbEntity
  8
SLD-0
  6
Continuous
 62
   179
370
    15
100
AcDbLine
 10
95.7397484552
 20
139.1724871139
 30
0.0
 11
95.7397484552
 21
108.7724866013
 31
0.0
  0
LINE
  5
29A
330
1F
100
AcDbEntity
  8
SLD-0
  6
Continuous
 62
   179
370
    15
100
AcDbLine
 10
146.6897466552
 20
106.9779174069
 30
0.0
 11
146.9897461456
 21
107.278611664
 31
0.0
  0
LINE
  5
29B
330
1F
100
AcDbEntity
  8
SLD-0
  6
Continuous
 62
   179
370
    15
100
AcDbLine
 10
146.9897461456
 20
107.278611664
 30
0.0
 11
146.6897466552
 21
107.0261021743
 31
0.0
  0
LINE
  5
29C
330
1F
100
AcDbEntity
  8
SLD-0
  6
Continuous
 62
   179
370
    15
100
AcDbLine
 10
146.6897466552
 20
107.0261021743
 30
0.0
 11
146.9897461456
 21
107.4173321615
 31
0.0
  0
LINE
  5
29D
330
1F
100
AcDbEntity
  8
SLD-0
  6
Continuous
 62
   179
370
    15
100
AcDbLine
 10
146.9897461456
 20
107.4173321615
 30
0.0
 11
146.6897466552
 21
107.2599572728
 31
0.0
  0
LINE
  5
29E
330
1F
100
AcDbEntity
  8
SLD-0
  6
Continuous
 62
   179
370
    15
100
AcDbLine
 10
146.6897466552
 20
107.2599572728
 30
0.0
 11
146.9897461456
 21
107.7374351809
 31
0.0
  0
LINE
  5
29F
330
1F
100
AcDbEntity
  8
SLD-0
  6
Continuous
 62
   179
370
    15
100
AcDbLine
 10
146.9897461456
 20
107.7374351809
 30
0.0
 11
146.6897466552
 21
107.6769159774
 31
0.0
  0
LINE
  5
2A0
330
1F
100
AcDbEntity
  8
SLD-0
  6
Continuous
 62
   179
370
    15
100
AcDbLine
 10
146.6897466552
 20
107.6769159774
 30
0.0
 11
146.9897461456
 21
108.2354114989
 31
0.0
  0
LINE
  5
2A1
330
1F
100
AcDbEntity
  8
SLD-0
  6
Continuous
 62
   179
370
    15
100
AcDbLine
 10
146.9897461456
 20
108.2354114989
 30
0.0
 11
146.6897466552
 21
108.2724129448
 31
0.0
  0
LINE
  5
2A2
330
1F
100
AcDbEntity
  8
SLD-0
  6
Continuous
 62
   179
370
    15
100
AcDbLine
 10
146.6897466552
 20
108.2724129448
 30
0.0
 11
146.9897461456
 21
108.9058082218
 31
0.0
  0
LINE
  5
2A3
330
1F
100
AcDbEntity
  8
SLD-0
  6
Continuous
 62
   179
370
    15
100
AcDbLine
 10
146.9897461456
 20
108.9058082218
 30
0.0
 11
146.6897466552
 21
109.0399242605
 31
0.0
  0
LINE
  5
2A4
330
1F
100
AcDbEntity
  8
SLD-0
  6
Continuous
 62
   179
370
    15
100
AcDbLine
 10
146.6897466552
 20
109.0399242605
 30
0.0
 11
146.9897461456
 21
109.7412781457
 31
0.0
  0
LINE
  5
2A5
330
1F
100
AcDbEntity
  8
SLD-0
  6
Continuous
 62
   179
370
    15
100
AcDbLine
 10
146.9897461456
 20
109.7412781457
 30
0.0
 11
146.6897466552
 21
109.9710391501
 31
0.0
  0
LINE
  5
2A6
330
1F
100
AcDbEntity
  8
SLD-0
  6
Continuous
 62
   179
370
    15
100
AcDbLine
 10
146.6897466552
 20
109.9710391501
 30
0.0
 11
146.9897461456
 21
110.7326682324
 31
0.0
  0
LINE
  5
2A7
330
1F
100
AcDbEntity
  8
SLD-0
  6
Continuous
 62
   179
370
    15
100
AcDbLine
 10
146.9897461456
 20
110.7326682324
 30
0.0
 11
146.6897466552
 21
111.0555568377
 31
0.0
  0
LINE
  5
2A8
330
1F
100
AcDbEntity
  8
SLD-0
  6
Continuous
 62
   179
370
    15
100
AcDbLine
 10
146.6897466552
 20
111.0555568377
 30
0.0
 11
146.9897461456
 21
111.8691164667
 31
0.0
  0
LINE
  5
2A9
330
1F
100
AcDbEntity
  8
SLD-0
  6
Continuous
 62
   179
370
    15
100
AcDbLine
 10
146.9897461456
 20
111.8691164667
 30
0.0
 11
146.6897466552
 21
112.2815945784
 31
0.0
  0
LINE
  5
2AA
330
1F
100
AcDbEntity
  8
SLD-0
  6
Continuous
 62
   179
370
    15
100
AcDbLine
 10
146.6897466552
 20
112.2815945784
 30
0.0
 11
146.9897461456
 21
113.1381719972
 31
0.0
  0
LINE
  5
2AB
330
1F
100
AcDbEntity
  8
SLD-0
  6
Continuous
 62
   179
370
    15
100
AcDbLine
 10
146.9897461456
 20
113.1381719972
 30
0.0
 11
146.6897466552
 21
113.6357208381
 31
0.0
  0
LINE
  5
2AC
330
1F
100
AcDbEntity
  8
SLD-0
  6
Continuous
 62
   179
370
    15
100
AcDbLine
 10
146.6897466552
 20
113.6357208381
 30
0.0
 11
146.9897461456
 21
114.5259301777
 31
0.0
  0
LINE
  5
2AD
330
1F
100
AcDbEntity
  8
SLD-0
  6
Continuous
 62
   179
370
    15
100
AcDbLine
 10
146.9897461456
 20
114.5259301777
 30
0.0
 11
146.6897466552
 21
115.1030987168
 31
0.0
  0
LINE
  5
2AE
330
1F
100
AcDbEntity
  8
SLD-0
  6
Continuous
 62
   179
370
    15
100
AcDbLine
 10
146.6897466552
 20
115.1030987168
 30
0.0
 11
146.9897461456
 21
116.0171862359
 31
0.0
  0
LINE
  5
2AF
330
1F
100
AcDbEntity
  8
SLD-0
  6
Continuous
 62
   179
370
    15
100
AcDbLine
 10
146.9897461456
 20
116.0171862359
 30
0.0
 11
146.6897466552
 21
116.6676517243
 31
0.0
  0
LINE
  5
2B0
330
1F
100
AcDbEntity
  8
SLD-0
  6
Continuous
 62
   179
370
    15
100
AcDbLine
 10
146.6897466552
 20
116.6676517243
 30
0.0
 11
146.9897461456
 21
117.5956033769
 31
0.0
  0
LINE
  5
2B1
330
1F
100
AcDbEntity
  8
SLD-0
  6
Continuous
 62
   179
370
    15
100
AcDbLine
 10
146.9897461456
 20
117.5956033769
 30
0.0
 11
146.6897466552
 21
118.3122379372
 31
0.0
  0
LINE
  5
2B2
330
1F
100
AcDbEntity
  8
SLD-0
  6
Continuous
 62
   179
370
    15
100
AcDbLine
 10
146.6897466552
 20
118.3122379372
 30
0.0
 11
146.9897461456
 21
119.2438864748
 31
0.0
  0
LINE
  5
2B3
330
1F
100
AcDbEntity
  8
SLD-0
  6
Continuous
 62
   179
370
    15
100
AcDbLine
 10
146.9897461456
 20
119.2438864748
 30
0.0
 11
146.6897466552
 21
120.0188385921
 31
0.0
  0
LINE
  5
2B4
330
1F
100
AcDbEntity
  8
SLD-0
  6
Continuous
 62
   179
370
    15
100
AcDbLine
 10
146.6897466552
 20
120.0188385921
 30
0.0
 11
146.9897461456
 21
120.943976952
 31
0.0
  0
LINE
  5
2B5
330
1F
100
AcDbEntity
  8
SLD-0
  6
Continuous
 62
   179
370
    15
100
AcDbLine
 10
146.9897461456
 20
120.943976952
 30
0.0
 11
146.6897466552
 21
121.7687566897
 31
0.0
  0
LINE
  5
2B6
330
1F
100
AcDbEntity
  8
SLD-0
  6
Continuous
 62
   179
370
    15
100
AcDbLine
 10
146.6897466552
 20
121.7687566897
 30
0.0
 11
146.9897461456
 21
122.6772485899
 31
0.0
  0
LINE
  5
2B7
330
1F
100
AcDbEntity
  8
SLD-0
  6
Continuous
 62
   179
370
    15
100
AcDbLine
 10
146.9897461456
 20
122.6772485899
 30
0.0
 11
146.6897466552
 21
123.5428190341
 31
0.0
  0
LINE
  5
2B8
330
1F
100
AcDbEntity
  8
SLD-0
  6
Continuous
 62
   179
370
    15
100
AcDbLine
 10
146.6897466552
 20
123.5428190341
 30
0.0
 11
146.9897461456
 21
124.4247111392
 31
0.0
  0
LINE
  5
2B9
330
1F
100
AcDbEntity
  8
SLD-0
  6
Continuous
 62
   179
370
    15
100
AcDbLine
 10
146.9897461456
 20
124.4247111392
 30
0.0
 11
146.6897466552
 21
125.3215889812
 31
0.0
  0
LINE
  5
2BA
330
1F
100
AcDbEntity
  8
SLD-0
  6
Continuous
 62
   179
370
    15
100
AcDbLine
 10
146.6897466552
 20
125.3215889812
 30
0.0
 11
146.9897461456
 21
126.1672190523
 31
0.0
  0
LINE
  5
2BB
330
1F
100
AcDbEntity
  8
SLD-0
  6
Continuous
 62
   179
370
    15
100
AcDbLine
 10
146.9897461456
 20
126.1672190523
 30
0.0
 11
146.6897466552
 21
127.0855778495
 31
0.0
  0
LINE
  5
2BC
330
1F
100
AcDbEntity
  8
SLD-0
  6
Continuous
 62
   179
370
    15
100
AcDbLine
 10
146.6897466552
 20
127.0855778495
 30
0.0
 11
146.9897461456
 21
127.8856807987
 31
0.0
  0
LINE
  5
2BD
330
1F
100
AcDbEntity
  8
SLD-0
  6
Continuous
 62
   179
370
    15
100
AcDbLine
 10
146.9897461456
 20
127.8856807987
 30
0.0
 11
146.6897466552
 21
128.8154592405
 31
0.0
  0
LINE
  5
2BE
330
1F
100
AcDbEntity
  8
SLD-0
  6
Continuous
 62
   179
370
    15
100
AcDbLine
 10
146.6897466552
 20
128.8154592405
 30
0.0
 11
146.9897461456
 21
129.5612688775
 31
0.0
  0
LINE
  5
2BF
330
1F
100
AcDbEntity
  8
SLD-0
  6
Continuous
 62
   179
370
    15
100
AcDbLine
 10
146.9897461456
 20
129.5612688775
 30
0.0
 11
146.6897466552
 21
130.4922799247
 31
0.0
  0
LINE
  5
2C0
330
1F
100
AcDbEntity
  8
SLD-0
  6
Continuous
 62
   179
370
    15
100
AcDbLine
 10
146.6897466552
 20
130.4922799247
 30
0.0
 11
146.9897461456
 21
131.175625291
 31
0.0
  0
LINE
  5
2C1
330
1F
100
AcDbEntity
  8
SLD-0
  6
Continuous
 62
   179
370
    15
100
AcDbLine
 10
146.9897461456
 20
131.175625291
 30
0.0
 11
146.6897466552
 21
132.0976681674
 31
0.0
  0
LINE
  5
2C2
330
1F
100
AcDbEntity
  8
SLD-0
  6
Continuous
 62
   179
370
    15
100
AcDbLine
 10
146.6897466552
 20
132.0976681674
 30
0.0
 11
146.9897461456
 21
132.7110623608
 31
0.0
  0
LINE
  5
2C3
330
1F
100
AcDbEntity
  8
SLD-0
  6
Continuous
 62
   179
370
    15
100
AcDbLine
 10
146.9897461456
 20
132.7110623608
 30
0.0
 11
146.6897466552
 21
133.6140354762
 31
0.0
  0
LINE
  5
2C4
330
1F
100
AcDbEntity
  8
SLD-0
  6
Continuous
 62
   179
370
    15
100
AcDbLine
 10
146.6897466552
 20
133.6140354762
 30
0.0
 11
146.9897461456
 21
134.1507576073
 31
0.0
  0
LINE
  5
2C5
330
1F
100
AcDbEntity
  8
SLD-0
  6
Continuous
 62
   179
370
    15
100
AcDbLine
 10
146.9897461456
 20
134.1507576073
 30
0.0
 11
146.6897466552
 21
135.024767522
 31
0.0
  0
LINE
  5
2C6
330
1F
100
AcDbEntity
  8
SLD-0
  6
Continuous
 62
   179
370
    15
100
AcDbLine
 10
146.6897466552
 20
135.024767522
 30
0.0
 11
146.9897461456
 21
135.4789381514
 31
0.0
  0
LINE
  5
2C7
330
1F
100
AcDbEntity
  8
SLD-0
  6
Continuous
 62
   179
370
    15
100
AcDbLine
 10
146.9897461456
 20
135.4789381514
 30
0.0
 11
146.6897466552
 21
136.3144090066
 31
0.0
  0
LINE
  5
2C8
330
1F
100
AcDbEntity
  8
SLD-0
  6
Continuous
 62
   179
370
    15
100
AcDbLine
 10
146.6897466552
 20
136.3144090066
 30
0.0
 11
146.9897461456
 21
136.6810511465
 31
0.0
  0
LINE
  5
2C9
330
1F
100
AcDbEntity
  8
SLD-0
  6
Continuous
 62
   179
370
    15
100
AcDbLine
 10
146.9897461456
 20
136.6810511465
 30
0.0
 11
146.6897466552
 21
137.468829904
 31
0.0
  0
LINE
  5
2CA
330
1F
100
AcDbEntity
  8
SLD-0
  6
Continuous
 62
   179
370
    15
100
AcDbLine
 10
146.6897466552
 20
137.468829904
 30
0.0
 11
146.9897461456
 21
137.74392676
 31
0.0
  0
LINE
  5
2CB
330
1F
100
AcDbEntity
  8
SLD-0
  6
Continuous
 62
   179
370
    15
100
AcDbLine
 10
146.9897461456
 20
137.74392676
 30
0.0
 11
146.6897466552
 21
138.4753819222
 31
0.0
  0
LINE
  5
2CC
330
1F
100
AcDbEntity
  8
SLD-0
  6
Continuous
 62
   179
370
    15
100
AcDbLine
 10
146.6897466552
 20
138.4753819222
 30
0.0
 11
146.9897461456
 21
138.6559197346
 31
0.0
  0
LINE
  5
2CD
330
1F
100
AcDbEntity
  8
SLD-0
  6
Continuous
 62
   179
370
    15
100
AcDbLine
 10
146.9897461456
 20
138.6559197346
 30
0.0
 11
146.6897466552
 21
139.3230363394
 31
0.0
  0
LINE
  5
2CE
330
1F
100
AcDbEntity
  8
SLD-0
  6
Continuous
 62
   179
370
    15
100
AcDbLine
 10
146.6897466552
 20
139.3230363394
 30
0.0
 11
146.9897461456
 21
139.4070379103
 31
0.0
  0
LINE
  5
2CF
330
1F
100
AcDbEntity
  8
SLD-0
  6
Continuous
 62
   179
370
    15
100
AcDbLine
 10
146.9897461456
 20
139.4070379103
 30
0.0
 11
146.6897466552
 21
140.0025078694
 31
0.0
  0
LINE
  5
2D0
330
1F
100
AcDbEntity
  8
SLD-0
  6
Continuous
 62
   179
370
    15
100
AcDbLine
 10
146.6897466552
 20
140.0025078694
 30
0.0
 11
146.9897461456
 21
139.9890521208
 31
0.0
  0
LINE
  5
2D1
330
1F
100
AcDbEntity
  8
SLD-0
  6
Continuous
 62
   179
370
    15
100
AcDbLine
 10
146.9897461456
 20
139.9890521208
 30
0.0
 11
146.6897466552
 21
140.5063515196
 31
0.0
  0
LINE
  5
2D2
330
1F
100
AcDbEntity
  8
SLD-0
  6
Continuous
 62
   179
370
    15
100
AcDbLine
 10
146.6897466552
 20
140.5063515196
 30
0.0
 11
146.9897461456
 21
140.3955837379
 31
0.0
  0
LINE
  5
2D3
330
1F
100
AcDbEntity
  8
SLD-0
  6
Continuous
 62
   179
370
    15
100
AcDbLine
 10
146.9897461456
 20
140.3955837379
 30
0.0
 11
146.6897466552
 21
140.8290454785
 31
0.0
  0
LINE
  5
2D4
330
1F
100
AcDbEntity
  8
SLD-0
  6
Continuous
 62
   179
370
    15
100
AcDbLine
 10
146.6897466552
 20
140.8290454785
 30
0.0
 11
146.9897461456
 21
140.6221819709
 31
0.0
  0
LINE
  5
2D5
330
1F
100
AcDbEntity
  8
SLD-0
  6
Continuous
 62
   179
370
    15
100
AcDbLine
 10
146.9897461456
 20
140.6221819709
 30
0.0
 11
146.6897466552
 21
140.9670563082
 31
0.0
  0
LINE
  5
2D6
330
1F
100
AcDbEntity
  8
SLD-0
  6
Continuous
 62
   179
370
    15
100
AcDbLine
 10
146.6897466552
 20
140.9670563082
 30
0.0
 11
146.8359093514
 21
140.8205555419
 31
0.0
  0
LINE
  5
2D7
330
1F
100
AcDbEntity
  8
SLD-0
  6
Continuous
 62
   179
370
    15
100
AcDbLine
 10
147.4397463125
 20
140.2224862615
 30
0.0
 11
147.4397463125
 21
107.7224874536
 31
0.0
  0
LINE
  5
2D8
330
1F
100
AcDbEntity
  8
SLD-0
  6
Continuous
 62
   179
370
    15
100
AcDbLine
 10
134.9397470575
 20
107.7224874536
 30
0.0
 11
134.9397470575
 21
140.2224862615
 31
0.0
  0
LINE
  5
2D9
330
1F
100
AcDbEntity
  8
SLD-0
  6
Continuous
 62
   179
370
    15
100
AcDbLine
 10
135.6897467148
 20
140.9670563082
 30
0.0
 11
135.5435830873
 21
140.8205555419
 31
0.0
  0
LINE
  5
2DA
330
1F
100
AcDbEntity
  8
SLD-0
  6
Continuous
 62
   179
370
    15
100
AcDbLine
 10
135.3897472244
 20
140.6221819709
 30
0.0
 11
135.6897467148
 21
140.9670563082
 31
0.0
  0
LINE
  5
2DB
330
1F
100
AcDbEntity
  8
SLD-0
  6
Continuous
 62
   179
370
    15
100
AcDbLine
 10
135.6897467148
 20
140.8290454785
 30
0.0
 11
135.3897472244
 21
140.6221819709
 31
0.0
  0
LINE
  5
2DC
330
1F
100
AcDbEntity
  8
SLD-0
  6
Continuous
 62
   179
370
    15
100
AcDbLine
 10
135.3897472244
 20
140.3955837379
 30
0.0
 11
135.6897467148
 21
140.8290454785
 31
0.0
  0
LINE
  5
2DD
330
1F
100
AcDbEntity
  8
SLD-0
  6
Continuous
 62
   179
370
    15
100
AcDbLine
 10
135.6897467148
 20
140.5063515196
 30
0.0
 11
135.3897472244
 21
140.3955837379
 31
0.0
  0
LINE
  5
2DE
330
1F
100
AcDbEntity
  8
SLD-0
  6
Continuous
 62
   179
370
    15
100
AcDbLine
 10
135.3897472244
 20
139.9890521208
 30
0.0
 11
135.6897467148
 21
140.5063515196
 31
0.0
  0
LINE
  5
2DF
330
1F
100
AcDbEntity
  8
SLD-0
  6
Continuous
 62
   179
370
    15
100
AcDbLine
 10
135.6897467148
 20
140.0025078694
 30
0.0
 11
135.3897472244
 21
139.9890521208
 31
0.0
  0
LINE
  5
2E0
330
1F
100
AcDbEntity
  8
SLD-0
  6
Continuous
 62
   179
370
    15
100
AcDbLine
 10
135.3897472244
 20
139.4070379103
 30
0.0
 11
135.6897467148
 21
140.0025078694
 31
0.0
  0
LINE
  5
2E1
330
1F
100
AcDbEntity
  8
SLD-0
  6
Continuous
 62
   179
370
    15
100
AcDbLine
 10
135.6897467148
 20
139.3230363394
 30
0.0
 11
135.3897472244
 21
139.4070379103
 31
0.0
  0
LINE
  5
2E2
330
1F
100
AcDbEntity
  8
SLD-0
  6
Continuous
 62
   179
370
    15
100
AcDbLine
 10
135.3897472244
 20
138.6559197346
 30
0.0
 11
135.6897467148
 21
139.3230363394
 31
0.0
  0
LINE
  5
2E3
330
1F
100
AcDbEntity
  8
SLD-0
  6
Continuous
 62
   179
370
    15
100
AcDbLine
 10
135.6897467148
 20
138.4753819222
 30
0.0
 11
135.3897472244
 21
138.6559197346
 31
0.0
  0
LINE
  5
2E4
330
1F
100
AcDbEntity
  8
SLD-0
  6
Continuous
 62
   179
370
    15
100
AcDbLine
 10
135.3897472244
 20
137.74392676
 30
0.0
 11
135.6897467148
 21
138.4753819222
 31
0.0
  0
LINE
  5
2E5
330
1F
100
AcDbEntity
  8
SLD-0
  6
Continuous
 62
   179
370
    15
100
AcDbLine
 10
135.6897467148
 20
137.468829904
 30
0.0
 11
135.3897472244
 21
137.74392676
 31
0.0
  0
LINE
  5
2E6
330
1F
100
AcDbEntity
  8
SLD-0
  6
Continuous
 62
   179
370
    15
100
AcDbLine
 10
135.3897472244
 20
136.6810511465
 30
0.0
 11
135.6897467148
 21
137.468829904
 31
0.0
  0
LINE
  5
2E7
330
1F
100
AcDbEntity
  8
SLD-0
  6
Continuous
 62
   179
370
    15
100
AcDbLine
 10
135.6897467148
 20
136.3144090066
 30
0.0
 11
135.3897472244
 21
136.6810511465
 31
0.0
  0
LINE
  5
2E8
330
1F
100
AcDbEntity
  8
SLD-0
  6
Continuous
 62
   179
370
    15
100
AcDbLine
 10
135.3897472244
 20
135.4789381514
 30
0.0
 11
135.6897467148
 21
136.3144090066
 31
0.0
  0
LINE
  5
2E9
330
1F
100
AcDbEntity
  8
SLD-0
  6
Continuous
 62
   179
370
    15
100
AcDbLine
 10
135.6897467148
 20
135.024767522
 30
0.0
 11
135.3897472244
 21
135.4789381514
 31
0.0
  0
LINE
  5
2EA
330
1F
100
AcDbEntity
  8
SLD-0
  6
Continuous
 62
   179
370
    15
100
AcDbLine
 10
135.3897472244
 20
134.1507576073
 30
0.0
 11
135.6897467148
 21
135.024767522
 31
0.0
  0
LINE
  5
2EB
330
1F
100
AcDbEntity
  8
SLD-0
  6
Continuous
 62
   179
370
    15
100
AcDbLine
 10
135.6897467148
 20
133.6140354762
 30
0.0
 11
135.3897472244
 21
134.1507576073
 31
0.0
  0
LINE
  5
2EC
330
1F
100
AcDbEntity
  8
SLD-0
  6
Continuous
 62
   179
370
    15
100
AcDbLine
 10
135.3897472244
 20
132.7110623608
 30
0.0
 11
135.6897467148
 21
133.6140354762
 31
0.0
  0
LINE
  5
2ED
330
1F
100
AcDbEntity
  8
SLD-0
  6
Continuous
 62
   179
370
    15
100
AcDbLine
 10
135.6897467148
 20
132.0976681674
 30
0.0
 11
135.3897472244
 21
132.7110623608
 31
0.0
  0
LINE
  5
2EE
330
1F
100
AcDbEntity
  8
SLD-0
  6
Continuous
 62
   179
370
    15
100
AcDbLine
 10
135.3897472244
 20
131.175625291
 30
0.0
 11
135.6897467148
 21
132.0976681674
 31
0.0
  0
LINE
  5
2EF
330
1F
100
AcDbEntity
  8
SLD-0
  6
Continuous
 62
   179
370
    15
100
AcDbLine
 10
135.6897467148
 20
130.4922799247
 30
0.0
 11
135.3897472244
 21
131.175625291
 31
0.0
  0
LINE
  5
2F0
330
1F
100
AcDbEntity
  8
SLD-0
  6
Continuous
 62
   179
370
    15
100
AcDbLine
 10
135.3897472244
 20
129.5612688775
 30
0.0
 11
135.6897467148
 21
130.4922799247
 31
0.0
  0
LINE
  5
2F1
330
1F
100
AcDbEntity
  8
SLD-0
  6
Continuous
 62
   179
370
    15
100
AcDbLine
 10
135.6897467148
 20
128.8154592405
 30
0.0
 11
135.3897472244
 21
129.5612688775
 31
0.0
  0
LINE
  5
2F2
330
1F
100
AcDbEntity
  8
SLD-0
  6
Continuous
 62
   179
370
    15
100
AcDbLine
 10
135.3897472244
 20
127.8856807987
 30
0.0
 11
135.6897467148
 21
128.8154592405
 31
0.0
  0
LINE
  5
2F3
330
1F
100
AcDbEntity
  8
SLD-0
  6
Continuous
 62
   179
370
    15
100
AcDbLine
 10
135.6897467148
 20
127.0855778495
 30
0.0
 11
135.3897472244
 21
127.8856807987
 31
0.0
  0
LINE
  5
2F4
330
1F
100
AcDbEntity
  8
SLD-0
  6
Continuous
 62
   179
370
    15
100
AcDbLine
 10
135.3897472244
 20
126.1672190523
 30
0.0
 11
135.6897467148
 21
127.0855778495
 31
0.0
  0
LINE
  5
2F5
330
1F
100
AcDbEntity
  8
SLD-0
  6
Continuous
 62
   179
370
    15
100
AcDbLine
 10
135.6897467148
 20
125.3215889812
 30
0.0
 11
135.3897472244
 21
126.1672190523
 31
0.0
  0
LINE
  5
2F6
330
1F
100
AcDbEntity
  8
SLD-0
  6
Continuous
 62
   179
370
    15
100
AcDbLine
 10
135.3897472244
 20
124.4247111392
 30
0.0
 11
135.6897467148
 21
125.3215889812
 31
0.0
  0
LINE
  5
2F7
330
1F
100
AcDbEntity
  8
SLD-0
  6
Continuous
 62
   179
370
    15
100
AcDbLine
 10
135.6897467148
 20
123.5428190341
 30
0.0
 11
135.3897472244
 21
124.4247111392
 31
0.0
  0
LINE
  5
2F8
330
1F
100
AcDbEntity
  8
SLD-0
  6
Continuous
 62
   179
370
    15
100
AcDbLine
 10
135.3897472244
 20
122.6772485899
 30
0.0
 11
135.6897467148
 21
123.5428190341
 31
0.0
  0
LINE
  5
2F9
330
1F
100
AcDbEntity
  8
SLD-0
  6
Continuous
 62
   179
370
    15
100
AcDbLine
 10
135.6897467148
 20
121.7687566897
 30
0.0
 11
135.3897472244
 21
122.6772485899
 31
0.0
  0
LINE
  5
2FA
330
1F
100
AcDbEntity
  8
SLD-0
  6
Continuous
 62
   179
370
    15
100
AcDbLine
 10
135.3897472244
 20
120.943976952
 30
0.0
 11
135.6897467148
 21
121.7687566897
 31
0.0
  0
LINE
  5
2FB
330
1F
100
AcDbEntity
  8
SLD-0
  6
Continuous
 62
   179
370
    15
100
AcDbLine
 10
135.6897467148
 20
120.0188385921
 30
0.0
 11
135.3897472244
 21
120.943976952
 31
0.0
  0
LINE
  5
2FC
330
1F
100
AcDbEntity
  8
SLD-0
  6
Continuous
 62
   179
370
    15
100
AcDbLine
 10
135.3897472244
 20
119.2438864748
 30
0.0
 11
135.6897467148
 21
120.0188385921
 31
0.0
  0
LINE
  5
2FD
330
1F
100
AcDbEntity
  8
SLD-0
  6
Continuous
 62
   179
370
    15
100
AcDbLine
 10
135.6897467148
 20
118.3122379372
 30
0.0
 11
135.3897472244
 21
119.2438864748
 31
0.0
  0
LINE
  5
2FE
330
1F
100
AcDbEntity
  8
SLD-0
  6
Continuous
 62
   179
370
    15
100
AcDbLine
 10
135.3897472244
 20
117.5956033769
 30
0.0
 11
135.6897467148
 21
118.3122379372
 31
0.0
  0
LINE
  5
2FF
330
1F
100
AcDbEntity
  8
SLD-0
  6
Continuous
 62
   179
370
    15
100
AcDbLine
 10
135.6897467148
 20
116.6676517243
 30
0.0
 11
135.3897472244
 21
117.5956033769
 31
0.0
  0
LINE
  5
300
330
1F
100
AcDbEntity
  8
SLD-0
  6
Continuous
 62
   179
370
    15
100
AcDbLine
 10
135.3897472244
 20
116.0171862359
 30
0.0
 11
135.6897467148
 21
116.6676517243
 31
0.0
  0
LINE
  5
301
330
1F
100
AcDbEntity
  8
SLD-0
  6
Continuous
 62
   179
370
    15
100
AcDbLine
 10
135.6897467148
 20
115.1030987168
 30
0.0
 11
135.3897472244
 21
116.0171862359
 31
0.0
  0
LINE
  5
302
330
1F
100
AcDbEntity
  8
SLD-0
  6
Continuous
 62
   179
370
    15
100
AcDbLine
 10
135.3897472244
 20
114.5259301777
 30
0.0
 11
135.6897467148
 21
115.1030987168
 31
0.0
  0
LINE
  5
303
330
1F
100
AcDbEntity
  8
SLD-0
  6
Continuous
 62
   179
370
    15
100
AcDbLine
 10
135.6897467148
 20
113.6357208381
 30
0.0
 11
135.3897472244
 21
114.5259301777
 31
0.0
  0
LINE
  5
304
330
1F
100
AcDbEntity
  8
SLD-0
  6
Continuous
 62
   179
370
    15
100
AcDbLine
 10
135.3897472244
 20
113.1381719972
 30
0.0
 11
135.6897467148
 21
113.6357208381
 31
0.0
  0
LINE
  5
305
330
1F
100
AcDbEntity
  8
SLD-0
  6
Continuous
 62
   179
370
    15
100
AcDbLine
 10
135.6897467148
 20
112.2815945784
 30
0.0
 11
135.3897472244
 21
113.1381719972
 31
0.0
  0
LINE
  5
306
330
1F
100
AcDbEntity
  8
SLD-0
  6
Continuous
 62
   179
370
    15
100
AcDbLine
 10
135.3897472244
 20
111.8691164667
 30
0.0
 11
135.6897467148
 21
112.2815945784
 31
0.0
  0
LINE
  5
307
330
1F
100
AcDbEntity
  8
SLD-0
  6
Continuous
 62
   179
370
    15
100
AcDbLine
 10
135.6897467148
 20
111.0555568377
 30
0.0
 11
135.3897472244
 21
111.8691164667
 31
0.0
  0
LINE
  5
308
330
1F
100
AcDbEntity
  8
SLD-0
  6
Continuous
 62
   179
370
    15
100
AcDbLine
 10
135.3897472244
 20
110.7326682324
 30
0.0
 11
135.6897467148
 21
111.0555568377
 31
0.0
  0
LINE
  5
309
330
1F
100
AcDbEntity
  8
SLD-0
  6
Continuous
 62
   179
370
    15
100
AcDbLine
 10
135.6897467148
 20
109.9710391501
 30
0.0
 11
135.3897472244
 21
110.7326682324
 31
0.0
  0
LINE
  5
30A
330
1F
100
AcDbEntity
  8
SLD-0
  6
Continuous
 62
   179
370
    15
100
AcDbLine
 10
135.3897472244
 20
109.7412781457
 30
0.0
 11
135.6897467148
 21
109.9710391501
 31
0.0
  0
LINE
  5
30B
330
1F
100
AcDbEntity
  8
SLD-0
  6
Continuous
 62
   179
370
    15
100
AcDbLine
 10
135.6897467148
 20
109.0399242605
 30
0.0
 11
135.3897472244
 21
109.7412781457
 31
0.0
  0
LINE
  5
30C
330
1F
100
AcDbEntity
  8
SLD-0
  6
Continuous
 62
   179
370
    15
100
AcDbLine
 10
135.3897472244
 20
108.9058082218
 30
0.0
 11
135.6897467148
 21
109.0399242605
 31
0.0
  0
LINE
  5
30D
330
1F
100
AcDbEntity
  8
SLD-0
  6
Continuous
 62
   179
370
    15
100
AcDbLine
 10
135.6897467148
 20
108.2724129448
 30
0.0
 11
135.3897472244
 21
108.9058082218
 31
0.0
  0
LINE
  5
30E
330
1F
100
AcDbEntity
  8
SLD-0
  6
Continuous
 62
   179
370
    15
100
AcDbLine
 10
135.3897472244
 20
108.2354114989
 30
0.0
 11
135.6897467148
 21
108.2724129448
 31
0.0
  0
LINE
  5
30F
330
1F
100
AcDbEntity
  8
SLD-0
  6
Continuous
 62
   179
370
    15
100
AcDbLine
 10
135.6897467148
 20
107.6769159774
 30
0.0
 11
135.3897472244
 21
108.2354114989
 31
0.0
  0
LINE
  5
310
330
1F
100
AcDbEntity
  8
SLD-0
  6
Continuous
 62
   179
370
    15
100
AcDbLine
 10
135.3897472244
 20
107.7374351809
 30
0.0
 11
135.6897467148
 21
107.6769159774
 31
0.0
  0
LINE
  5
311
330
1F
100
AcDbEntity
  8
SLD-0
  6
Continuous
 62
   179
370
    15
100
AcDbLine
 10
135.6897467148
 20
107.2599572728
 30
0.0
 11
135.3897472244
 21
107.7374351809
 31
0.0
  0
LINE
  5
312
330
1F
100
AcDbEntity
  8
SLD-0
  6
Continuous
 62
   179
370
    15
100
AcDbLine
 10
135.3897472244
 20
107.4173321615
 30
0.0
 11
135.6897467148
 21
107.2599572728
 31
0.0
  0
LINE
  5
313
330
1F
100
AcDbEntity
  8
SLD-0
  6
Continuous
 62
   179
370
    15
100
AcDbLine
 10
135.6897467148
 20
107.0261021743
 30
0.0
 11
135.3897472244
 21
107.4173321615
 31
0.0
  0
LINE
  5
314
330
1F
100
AcDbEntity
  8
SLD-0
  6
Continuous
 62
   179
370
    15
100
AcDbLine
 10
135.3897472244
 20
107.278611664
 30
0.0
 11
135.6897467148
 21
107.0261021743
 31
0.0
  0
LINE
  5
315
330
1F
100
AcDbEntity
  8
SLD-0
  6
Continuous
 62
   179
370
    15
100
AcDbLine
 10
135.6897467148
 20
106.9779174069
 30
0.0
 11
135.3897472244
 21
107.278611664
 31
0.0
  0
LINE
  5
316
330
1F
100
AcDbEntity
  8
SLD-0
  6
Continuous
 62
   179
370
    15
100
AcDbLine
 10
153.7397463206
 20
138.9911362568
 30
0.0
 11
153.7397463206
 21
140.2224862615
 31
0.0
  0
LINE
  5
317
330
1F
100
AcDbEntity
  8
SLD-0
  6
Continuous
 62
   179
370
    15
100
AcDbLine
 10
153.7397463206
 20
107.7224874536
 30
0.0
 11
153.7397463206
 21
138.9911362568
 31
0.0
  0
LINE
  5
318
330
1F
100
AcDbEntity
  8
SLD-0
  6
Continuous
 62
   179
370
    15
100
AcDbLine
 10
153.9397464466
 20
138.8062920088
 30
0.0
 11
153.9397464466
 21
107.9224871139
 31
0.0
  0
LINE
  5
319
330
1F
100
AcDbEntity
  8
SLD-0
  6
Continuous
 62
   179
370
    15
100
AcDbLine
 10
153.9397464466
 20
140.0224866013
 30
0.0
 11
153.9397464466
 21
138.8062920088
 31
0.0
  0
LINE
  5
31A
330
1F
100
AcDbEntity
  8
SLD-0
  6
Continuous
 62
   179
370
    15
100
AcDbLine
 10
96.1397477757
 20
139.4724866042
 30
0.0
 11
96.1397477757
 21
108.4724871109
 31
0.0
  0
LINE
  5
31B
330
1F
100
AcDbEntity
  8
SLD-0
  6
Continuous
 62
   179
370
    15
100
AcDbLine
 10
95.9397443902
 20
108.6724867711
 30
0.0
 11
95.9397443902
 21
139.272486944
 31
0.0
  0
LINE
  5
31C
330
1F
100
AcDbEntity
  8
SLD-0
  6
Continuous
 62
   179
370
    15
100
AcDbLine
 10
135.6897467148
 20
123.5428190341
 30
0.0
 11
146.6897466552
 21
123.5428190341
 31
0.0
  0
LINE
  5
31D
330
1F
100
AcDbEntity
  8
SLD-0
  6
Continuous
 62
   179
370
    15
100
AcDbLine
 10
135.3897472244
 20
124.4247111392
 30
0.0
 11
146.9897461456
 21
124.4247111392
 31
0.0
  0
LINE
  5
31E
330
1F
100
AcDbEntity
  8
SLD-0
  6
Continuous
 62
   179
370
    15
100
AcDbLine
 10
135.6897467148
 20
125.3215889812
 30
0.0
 11
146.6897466552
 21
125.3215889812
 31
0.0
  0
LINE
  5
31F
330
1F
100
AcDbEntity
  8
SLD-0
  6
Continuous
 62
   179
370
    15
100
AcDbLine
 10
135.3897472244
 20
126.1672190523
 30
0.0
 11
146.9897461456
 21
126.1672190523
 31
0.0
  0
LINE
  5
320
330
1F
100
AcDbEntity
  8
SLD-0
  6
Continuous
 62
   179
370
    15
100
AcDbLine
 10
135.6897467148
 20
121.7687566897
 30
0.0
 11
146.6897466552
 21
121.7687566897
 31
0.0
  0
LINE
  5
321
330
1F
100
AcDbEntity
  8
SLD-0
  6
Continuous
 62
   179
370
    15
100
AcDbLine
 10
135.3897472244
 20
122.6772485899
 30
0.0
 11
146.9897461456
 21
122.6772485899
 31
0.0
  0
LINE
  5
322
330
1F
100
AcDbEntity
  8
SLD-0
  6
Continuous
 62
   179
370
    15
100
AcDbLine
 10
135.6897467148
 20
127.0855778495
 30
0.0
 11
146.6897466552
 21
127.0855778495
 31
0.0
  0
LINE
  5
323
330
1F
100
AcDbEntity
  8
SLD-0
  6
Continuous
 62
   179
370
    15
100
AcDbLine
 10
135.3897472244
 20
127.8856807987
 30
0.0
 11
146.9897461456
 21
127.8856807987
 31
0.0
  0
LINE
  5
324
330
1F
100
AcDbEntity
  8
SLD-0
  6
Continuous
 62
   179
370
    15
100
AcDbLine
 10
135.3897472244
 20
120.943976952
 30
0.0
 11
146.9897461456
 21
120.943976952
 31
0.0
  0
LINE
  5
325
330
1F
100
AcDbEntity
  8
SLD-0
  6
Continuous
 62
   179
370
    15
100
AcDbLine
 10
135.6897467148
 20
120.0188385921
 30
0.0
 11
146.6897466552
 21
120.0188385921
 31
0.0
  0
LINE
  5
326
330
1F
100
AcDbEntity
  8
SLD-0
  6
Continuous
 62
   179
370
    15
100
AcDbLine
 10
135.6897467148
 20
128.8154592405
 30
0.0
 11
146.6897466552
 21
128.8154592405
 31
0.0
  0
LINE
  5
327
330
1F
100
AcDbEntity
  8
SLD-0
  6
Continuous
 62
   179
370
    15
100
AcDbLine
 10
135.3897472244
 20
119.2438864748
 30
0.0
 11
146.9897461456
 21
119.2438864748
 31
0.0
  0
LINE
  5
328
330
1F
100
AcDbEntity
  8
SLD-0
  6
Continuous
 62
   179
370
    15
100
AcDbLine
 10
135.3897472244
 20
129.5612688775
 30
0.0
 11
146.9897461456
 21
129.5612688775
 31
0.0
  0
LINE
  5
329
330
1F
100
AcDbEntity
  8
SLD-0
  6
Continuous
 62
   179
370
    15
100
AcDbLine
 10
135.6897467148
 20
118.3122379372
 30
0.0
 11
146.6897466552
 21
118.3122379372
 31
0.0
  0
LINE
  5
32A
330
1F
100
AcDbEntity
  8
SLD-0
  6
Continuous
 62
   179
370
    15
100
AcDbLine
 10
135.6897467148
 20
130.4922799247
 30
0.0
 11
146.6897466552
 21
130.4922799247
 31
0.0
  0
LINE
  5
32B
330
1F
100
AcDbEntity
  8
SLD-0
  6
Continuous
 62
   179
370
    15
100
AcDbLine
 10
135.3897472244
 20
117.5956033769
 30
0.0
 11
146.9897461456
 21
117.5956033769
 31
0.0
  0
LINE
  5
32C
330
1F
100
AcDbEntity
  8
SLD-0
  6
Continuous
 62
   179
370
    15
100
AcDbLine
 10
135.3897472244
 20
131.175625291
 30
0.0
 11
146.9897461456
 21
131.175625291
 31
0.0
  0
LINE
  5
32D
330
1F
100
AcDbEntity
  8
SLD-0
  6
Continuous
 62
   179
370
    15
100
AcDbLine
 10
135.6897467148
 20
116.6676517243
 30
0.0
 11
146.6897466552
 21
116.6676517243
 31
0.0
  0
LINE
  5
32E
330
1F
100
AcDbEntity
  8
SLD-0
  6
Continuous
 62
   179
370
    15
100
AcDbLine
 10
135.6897467148
 20
132.0976681674
 30
0.0
 11
146.6897466552
 21
132.0976681674
 31
0.0
  0
LINE
  5
32F
330
1F
100
AcDbEntity
  8
SLD-0
  6
Continuous
 62
   179
370
    15
100
AcDbLine
 10
135.3897472244
 20
116.0171862359
 30
0.0
 11
146.9897461456
 21
116.0171862359
 31
0.0
  0
LINE
  5
330
330
1F
100
AcDbEntity
  8
SLD-0
  6
Continuous
 62
   179
370
    15
100
AcDbLine
 10
135.3897472244
 20
132.7110623608
 30
0.0
 11
146.9897461456
 21
132.7110623608
 31
0.0
  0
LINE
  5
331
330
1F
100
AcDbEntity
  8
SLD-0
  6
Continuous
 62
   179
370
    15
100
AcDbLine
 10
135.6897467148
 20
115.1030987168
 30
0.0
 11
146.6897466552
 21
115.1030987168
 31
0.0
  0
LINE
  5
332
330
1F
100
AcDbEntity
  8
SLD-0
  6
Continuous
 62
   179
370
    15
100
AcDbLine
 10
135.6897467148
 20
133.6140354762
 30
0.0
 11
146.6897466552
 21
133.6140354762
 31
0.0
  0
LINE
  5
333
330
1F
100
AcDbEntity
  8
SLD-0
  6
Continuous
 62
   179
370
    15
100
AcDbLine
 10
135.3897472244
 20
114.5259301777
 30
0.0
 11
146.9897461456
 21
114.5259301777
 31
0.0
  0
LINE
  5
334
330
1F
100
AcDbEntity
  8
SLD-0
  6
Continuous
 62
   179
370
    15
100
AcDbLine
 10
135.3897472244
 20
134.1507576073
 30
0.0
 11
146.9897461456
 21
134.1507576073
 31
0.0
  0
LINE
  5
335
330
1F
100
AcDbEntity
  8
SLD-0
  6
Continuous
 62
   179
370
    15
100
AcDbLine
 10
135.6897467148
 20
113.6357208381
 30
0.0
 11
146.6897466552
 21
113.6357208381
 31
0.0
  0
LINE
  5
336
330
1F
100
AcDbEntity
  8
SLD-0
  6
Continuous
 62
   179
370
    15
100
AcDbLine
 10
135.6897467148
 20
135.024767522
 30
0.0
 11
146.6897466552
 21
135.024767522
 31
0.0
  0
LINE
  5
337
330
1F
100
AcDbEntity
  8
SLD-0
  6
Continuous
 62
   179
370
    15
100
AcDbLine
 10
135.3897472244
 20
113.1381719972
 30
0.0
 11
146.9897461456
 21
113.1381719972
 31
0.0
  0
LINE
  5
338
330
1F
100
AcDbEntity
  8
SLD-0
  6
Continuous
 62
   179
370
    15
100
AcDbLine
 10
135.3897472244
 20
135.4789381514
 30
0.0
 11
146.9897461456
 21
135.4789381514
 31
0.0
  0
LINE
  5
339
330
1F
100
AcDbEntity
  8
SLD-0
  6
Continuous
 62
   179
370
    15
100
AcDbLine
 10
135.6897467148
 20
112.2815945784
 30
0.0
 11
146.6897466552
 21
112.2815945784
 31
0.0
  0
LINE
  5
33A
330
1F
100
AcDbEntity
  8
SLD-0
  6
Continuous
 62
   179
370
    15
100
AcDbLine
 10
135.3897472244
 20
111.8691164667
 30
0.0
 11
146.9897461456
 21
111.8691164667
 31
0.0
  0
LINE
  5
33B
330
1F
100
AcDbEntity
  8
SLD-0
  6
Continuous
 62
   179
370
    15
100
AcDbLine
 10
135.6897467148
 20
136.3144090066
 30
0.0
 11
146.6897466552
 21
136.3144090066
 31
0.0
  0
LINE
  5
33C
330
1F
100
AcDbEntity
  8
SLD-0
  6
Continuous
 62
   179
370
    15
100
AcDbLine
 10
135.3897472244
 20
136.6810511465
 30
0.0
 11
146.9897461456
 21
136.6810511465
 31
0.0
  0
LINE
  5
33D
330
1F
100
AcDbEntity
  8
SLD-0
  6
Continuous
 62
   179
370
    15
100
AcDbLine
 10
135.6897467148
 20
111.0555568377
 30
0.0
 11
146.6897466552
 21
111.0555568377
 31
0.0
  0
LINE
  5
33E
330
1F
100
AcDbEntity
  8
SLD-0
  6
Continuous
 62
   179
370
    15
100
AcDbLine
 10
135.3897472244
 20
110.7326682324
 30
0.0
 11
146.9897461456
 21
110.7326682324
 31
0.0
  0
LINE
  5
33F
330
1F
100
AcDbEntity
  8
SLD-0
  6
Continuous
 62
   179
370
    15
100
AcDbLine
 10
135.6897467148
 20
137.468829904
 30
0.0
 11
146.6897466552
 21
137.468829904
 31
0.0
  0
LINE
  5
340
330
1F
100
AcDbEntity
  8
SLD-0
  6
Continuous
 62
   179
370
    15
100
AcDbLine
 10
135.3897472244
 20
137.74392676
 30
0.0
 11
146.9897461456
 21
137.74392676
 31
0.0
  0
LINE
  5
341
330
1F
100
AcDbEntity
  8
SLD-0
  6
Continuous
 62
   179
370
    15
100
AcDbLine
 10
135.6897467148
 20
109.9710391501
 30
0.0
 11
146.6897466552
 21
109.9710391501
 31
0.0
  0
LINE
  5
342
330
1F
100
AcDbEntity
  8
SLD-0
  6
Continuous
 62
   179
370
    15
100
AcDbLine
 10
135.3897472244
 20
109.7412781457
 30
0.0
 11
146.9897461456
 21
109.7412781457
 31
0.0
  0
LINE
  5
343
330
1F
100
AcDbEntity
  8
SLD-0
  6
Continuous
 62
   179
370
    15
100
AcDbLine
 10
135.6897467148
 20
138.4753819222
 30
0.0
 11
146.6897466552
 21
138.4753819222
 31
0.0
  0
LINE
  5
344
330
1F
100
AcDbEntity
  8
SLD-0
  6
Continuous
 62
   179
370
    15
100
AcDbLine
 10
135.3897472244
 20
138.6559197346
 30
0.0
 11
146.9897461456
 21
138.6559197346
 31
0.0
  0
LINE
  5
345
330
1F
100
AcDbEntity
  8
SLD-0
  6
Continuous
 62
   179
370
    15
100
AcDbLine
 10
135.6897467148
 20
109.0399242605
 30
0.0
 11
146.6897466552
 21
109.0399242605
 31
0.0
  0
LINE
  5
346
330
1F
100
AcDbEntity
  8
SLD-0
  6
Continuous
 62
   179
370
    15
100
AcDbLine
 10
135.3897472244
 20
108.9058082218
 30
0.0
 11
146.9897461456
 21
108.9058082218
 31
0.0
  0
LINE
  5
347
330
1F
100
AcDbEntity
  8
SLD-0
  6
Continuous
 62
   179
370
    15
100
AcDbLine
 10
135.6897467148
 20
139.3230363394
 30
0.0
 11
146.6897466552
 21
139.3230363394
 31
0.0
  0
LINE
  5
348
330
1F
100
AcDbEntity
  8
SLD-0
  6
Continuous
 62
   179
370
    15
100
AcDbLine
 10
135.3897472244
 20
139.4070379103
 30
0.0
 11
146.9897461456
 21
139.4070379103
 31
0.0
  0
LINE
  5
349
330
1F
100
AcDbEntity
  8
SLD-0
  6
Continuous
 62
   179
370
    15
100
AcDbLine
 10
135.6897467148
 20
108.2724129448
 30
0.0
 11
146.6897466552
 21
108.2724129448
 31
0.0
  0
LINE
  5
34A
330
1F
100
AcDbEntity
  8
SLD-0
  6
Continuous
 62
   179
370
    15
100
AcDbLine
 10
135.3897472244
 20
108.2354114989
 30
0.0
 11
146.9897461456
 21
108.2354114989
 31
0.0
  0
LINE
  5
34B
330
1F
100
AcDbEntity
  8
SLD-0
  6
Continuous
 62
   179
370
    15
100
AcDbLine
 10
135.6897467148
 20
140.0025078694
 30
0.0
 11
146.6897466552
 21
140.0025078694
 31
0.0
  0
LINE
  5
34C
330
1F
100
AcDbEntity
  8
SLD-0
  6
Continuous
 62
   179
370
    15
100
AcDbLine
 10
135.6897467148
 20
107.6769159774
 30
0.0
 11
146.6897466552
 21
107.6769159774
 31
0.0
  0
LINE
  5
34D
330
1F
100
AcDbEntity
  8
SLD-0
  6
Continuous
 62
   179
370
    15
100
AcDbLine
 10
135.6897467148
 20
140.5063515196
 30
0.0
 11
146.6897466552
 21
140.5063515196
 31
0.0
  0
LINE
  5
34E
330
1F
100
AcDbEntity
  8
SLD-0
  6
Continuous
 62
   179
370
    15
100
AcDbLine
 10
135.6897467148
 20
107.2599572728
 30
0.0
 11
146.6897466552
 21
107.2599572728
 31
0.0
  0
LINE
  5
34F
330
1F
100
AcDbEntity
  8
SLD-0
  6
Continuous
 62
   179
370
    15
100
AcDbLine
 10
135.6897467148
 20
140.8290454785
 30
0.0
 11
146.6897466552
 21
140.8290454785
 31
0.0
  0
LINE
  5
350
330
1F
100
AcDbEntity
  8
SLD-0
  6
Continuous
 62
   179
370
    15
100
AcDbLine
 10
135.6897467148
 20
107.0261021743
 30
0.0
 11
146.6897466552
 21
107.0261021743
 31
0.0
  0
LINE
  5
351
330
1F
100
AcDbEntity
  8
SLD-0
  6
Continuous
 62
   179
370
    15
100
AcDbLine
 10
135.6897467148
 20
140.9670563082
 30
0.0
 11
146.6897466552
 21
140.9670563082
 31
0.0
  0
LINE
  5
352
330
1F
100
AcDbEntity
  8
SLD-0
  6
Continuous
 62
   179
370
    15
100
AcDbLine
 10
135.6897467148
 20
106.9779174069
 30
0.0
 11
146.6897466552
 21
106.9779174069
 31
0.0
  0
LINE
  5
353
330
1F
100
AcDbEntity
  8
SLD-0
  6
Continuous
 62
   179
370
    15
100
AcDbLine
 10
154.2397464026
 20
108.9724871928
 30
0.0
 11
154.2397464026
 21
138.9724865223
 31
0.0
  0
LINE
  5
354
330
1F
100
AcDbEntity
  8
SLD-0
  6
Continuous
 62
   179
370
     0
100
AcDbLine
 10
21.9397464168
 20
137.3724868576
 30
0.0
 11
21.9397464168
 21
110.5724868576
 31
0.0
  0
LINE
  5
355
330
1F
100
AcDbEntity
  8
SLD-0
  6
Continuous
 62
   179
370
     0
100
AcDbLine
 10
262.1657464168
 20
120.3668800424
 30
0.0
 11
262.1657464168
 21
127.4840622185
 31
0.0
  0
LINE
  5
356
330
1F
100
AcDbEntity
  8
SLD-0
  6
Continuous
 62
   179
370
     0
100
AcDbLine
 10
248.1397464168
 20
136.2724868576
 30
0.0
 11
246.4284215514
 21
136.2724868576
 31
0.0
  0
LINE
  5
357
330
1F
100
AcDbEntity
  8
SLD-0
  6
Continuous
 62
   179
370
     0
100
AcDbLine
 10
246.4284215514
 20
111.6724868576
 30
0.0
 11
248.1397464168
 21
111.6724868576
 31
0.0
  0
LINE
  5
358
330
1F
100
AcDbEntity
  8
SLD-0
  6
CENTERX2
 62
   179
370
     0
100
AcDbLine
 10
268.8548401946
 20
123.9724868576
 30
0.0
 11
16.8107979603
 21
123.9724868576
 31
0.0
  0
LINE
  5
359
330
1F
100
AcDbEntity
  8
0
  6
Continuous
 62
     7
370
    15
100
AcDbLine
 10
171.6837195726
 20
21.5267760824
 30
0.0
 11
170.1837195726
 21
19.1281653939
 31
0.0
  0
LINE
  5
35A
330
1F
100
AcDbEntity
  8
0
  6
Continuous
 62
     7
370
    15
100
AcDbLine
 10
168.6837195726
 20
21.5267760824
 30
0.0
 11
170.1837195726
 21
19.1281653939
 31
0.0
  0
LINE
  5
35B
330
1F
100
AcDbEntity
  8
0
  6
Continuous
 62
     7
370
    15
100
AcDbLine
 10
158.8830149162
 20
21.5267760824
 30
0.0
 11
157.3830149162
 21
19.1281653939
 31
0.0
  0
LINE
  5
35C
330
1F
100
AcDbEntity
  8
0
  6
Continuous
 62
     7
370
    15
100
AcDbLine
 10
155.8830149162
 20
21.5267760824
 30
0.0
 11
157.3830149162
 21
19.1281653939
 31
0.0
  0
LINE
  5
35D
330
1F
100
AcDbEntity
  8
0
  6
Continuous
 62
     7
370
    15
100
AcDbLine
 10
146.5190080732
 20
21.1742210547
 30
0.0
 11
145.0190080732
 21
18.8153031302
 31
0.0
  0
LINE
  5
35E
330
1F
100
AcDbEntity
  8
0
  6
Continuous
 62
     7
370
    15
100
AcDbLine
 10
143.5190080732
 20
21.1742210547
 30
0.0
 11
145.0190080732
 21
18.8153031302
 31
0.0
  0
LINE
  5
35F
330
1F
100
AcDbEntity
  8
0
  6
Continuous
 62
     7
370
    15
100
AcDbLine
 10
184.1612988799
 20
21.9915148182
 30
0.0
 11
182.6612988799
 21
19.3934386068
 31
0.0
  0
LINE
  5
360
330
1F
100
AcDbEntity
  8
0
  6
Continuous
 62
     7
370
    15
100
AcDbLine
 10
140.5190080732
 20
16.2245984807
 30
0.0
 11
143.5190080732
 21
16.2245984807
 31
0.0
  0
LINE
  5
361
330
1F
100
AcDbEntity
  8
0
  6
Continuous
 62
     7
370
    15
100
AcDbLine
 10
143.5190080732
 20
16.2245984807
 30
0.0
 11
142.0190080732
 21
13.6265222693
 31
0.0
  0
LINE
  5
362
330
1F
100
AcDbEntity
  8
0
  6
Continuous
 62
     7
370
    15
100
AcDbLine
 10
140.5190080732
 20
16.2245984807
 30
0.0
 11
142.0190080732
 21
13.6265222693
 31
0.0
  0
LINE
  5
363
330
1F
100
AcDbEntity
  8
0
  6
CENTER
 62
     7
370
    15
100
AcDbLine
 10
143.5190080732
 20
16.2245984807
 30
0.0
 11
146.5190080732
 21
16.2245984807
 31
0.0
  0
LINE
  5
364
330
1F
100
AcDbEntity
  8
0
  6
Continuous
 62
     7
370
     0
100
AcDbLine
 10
257.3173186858
 20
19.8802227647
 30
0.0
 11
253.4839853525
 21
19.8802227647
 31
0.0
  0
LINE
  5
365
330
1F
100
AcDbEntity
  8
0
  6
Continuous
 62
     7
370
    15
100
AcDbLine
 10
257.3173186858
 20
12.6302227647
 30
0.0
 11
248.3173186858
 21
12.6302227647
 31
0.0
  0
LINE
  5
366
330
1F
100
AcDbEntity
  8
0
  6
Continuous
 62
     7
370
     0
100
AcDbLine
 10
257.3173186858
 20
12.6302227647
 30
0.0
 11
257.3173186858
 21
19.8802227647
 31
0.0
  0
LINE
  5
367
330
1F
100
AcDbEntity
  8
0
  6
Continuous
 62
     7
370
     0
100
AcDbLine
 10
248.3173186858
 20
19.8802227647
 30
0.0
 11
243.4839853525
 21
19.8802227647
 31
0.0
  0
LINE
  5
368
330
1F
100
AcDbEntity
  8
0
  6
Continuous
 62
     7
370
    15
100
AcDbLine
 10
248.3173186858
 20
12.6302227647
 30
0.0
 11
227.6506520191
 21
12.6302227647
 31
0.0
  0
LINE
  5
369
330
1F
100
AcDbEntity
  8
0
  6
Continuous
 62
     7
370
     0
100
AcDbLine
 10
248.3173186858
 20
12.6302227647
 30
0.0
 11
248.3173186858
 21
19.8802227647
 31
0.0
  0
LINE
  5
36A
330
1F
100
AcDbEntity
  8
0
  6
Continuous
 62
     7
370
     0
100
AcDbLine
 10
227.6506520191
 20
19.8802227647
 30
0.0
 11
231.9839853525
 21
19.8802227647
 31
0.0
  0
LINE
  5
36B
330
1F
100
AcDbEntity
  8
0
  6
Continuous
 62
     7
370
    15
100
AcDbLine
 10
227.6506520191
 20
12.6302227647
 30
0.0
 11
218.6506520191
 21
12.6302227647
 31
0.0
  0
LINE
  5
36C
330
1F
100
AcDbEntity
  8
0
  6
Continuous
 62
     7
370
     0
100
AcDbLine
 10
227.6506520191
 20
12.6302227647
 30
0.0
 11
227.6506520191
 21
19.8802227647
 31
0.0
  0
LINE
  5
36D
330
1F
100
AcDbEntity
  8
0
  6
Continuous
 62
     7
370
    15
100
AcDbLine
 10
218.6506520191
 20
12.6302227647
 30
0.0
 11
197.9839853525
 21
12.6302227647
 31
0.0
  0
LINE
  5
36E
330
1F
100
AcDbEntity
  8
0
  6
Continuous
 62
     7
370
     0
100
AcDbLine
 10
218.6506520191
 20
19.8802227647
 30
0.0
 11
221.9839853525
 21
19.8802227647
 31
0.0
  0
LINE
  5
36F
330
1F
100
AcDbEntity
  8
0
  6
Continuous
 62
     7
370
     0
100
AcDbLine
 10
218.6506520191
 20
19.8802227647
 30
0.0
 11
218.6506520191
 21
12.6302227647
 31
0.0
  0
LINE
  5
370
330
1F
100
AcDbEntity
  8
0
  6
Continuous
 62
     7
370
    15
100
AcDbLine
 10
197.9839853525
 20
12.6302227647
 30
0.0
 11
188.9839853525
 21
12.6302227647
 31
0.0
  0
LINE
  5
371
330
1F
100
AcDbEntity
  8
0
  6
Continuous
 62
     7
370
     0
100
AcDbLine
 10
197.9839853525
 20
19.8802227647
 30
0.0
 11
200.4839853525
 21
19.8802227647
 31
0.0
  0
LINE
  5
372
330
1F
100
AcDbEntity
  8
0
  6
Continuous
 62
     7
370
     0
100
AcDbLine
 10
197.9839853525
 20
19.8802227647
 30
0.0
 11
197.9839853525
 21
12.6302227647
 31
0.0
  0
LINE
  5
373
330
1F
100
AcDbEntity
  8
0
  6
Continuous
 62
     7
370
     0
100
AcDbLine
 10
263.9839853525
 20
19.8802227647
 30
0.0
 11
257.3173186858
 21
19.8802227647
 31
0.0
  0
LINE
  5
374
330
1F
100
AcDbEntity
  8
0
  6
Continuous
 62
     7
370
     0
100
AcDbLine
 10
263.9839853525
 20
27.1302227647
 30
0.0
 11
255.9839853525
 21
27.1302227647
 31
0.0
  0
LINE
  5
375
330
1F
100
AcDbEntity
  8
0
  6
Continuous
 62
     7
370
     0
100
AcDbLine
 10
263.9839853525
 20
27.1302227647
 30
0.0
 11
263.9839853525
 21
19.8802227647
 31
0.0
  0
LINE
  5
376
330
1F
100
AcDbEntity
  8
0
  6
Continuous
 62
     7
370
     0
100
AcDbLine
 10
253.4839853525
 20
19.8802227647
 30
0.0
 11
248.3173186858
 21
19.8802227647
 31
0.0
  0
LINE
  5
377
330
1F
100
AcDbEntity
  8
0
  6
Continuous
 62
     7
370
     0
100
AcDbLine
 10
253.4839853525
 20
27.1302227647
 30
0.0
 11
255.9839853525
 21
27.1302227647
 31
0.0
  0
LINE
  5
378
330
1F
100
AcDbEntity
  8
0
  6
Continuous
 62
     7
370
     0
100
AcDbLine
 10
253.4839853525
 20
27.1302227647
 30
0.0
 11
253.4839853525
 21
19.8802227647
 31
0.0
  0
LINE
  5
379
330
1F
100
AcDbEntity
  8
0
  6
Continuous
 62
     7
370
     0
100
AcDbLine
 10
243.4839853525
 20
27.1302227647
 30
0.0
 11
253.4839853525
 21
27.1302227647
 31
0.0
  0
LINE
  5
37A
330
1F
100
AcDbEntity
  8
0
  6
Continuous
 62
     7
370
     0
100
AcDbLine
 10
243.4839853525
 20
27.1302227647
 30
0.0
 11
243.4839853525
 21
19.8802227647
 31
0.0
  0
LINE
  5
37B
330
1F
100
AcDbEntity
  8
0
  6
Continuous
 62
     7
370
     0
100
AcDbLine
 10
231.9839853525
 20
19.8802227647
 30
0.0
 11
243.4839853525
 21
19.8802227647
 31
0.0
  0
LINE
  5
37C
330
1F
100
AcDbEntity
  8
0
  6
Continuous
 62
     7
370
     0
100
AcDbLine
 10
231.9839853525
 20
27.1302227647
 30
0.0
 11
243.4839853525
 21
27.1302227647
 31
0.0
  0
LINE
  5
37D
330
1F
100
AcDbEntity
  8
0
  6
Continuous
 62
     7
370
     0
100
AcDbLine
 10
231.9839853525
 20
27.1302227647
 30
0.0
 11
231.9839853525
 21
19.8802227647
 31
0.0
  0
LINE
  5
37E
330
1F
100
AcDbEntity
  8
0
  6
Continuous
 62
     7
370
     0
100
AcDbLine
 10
221.9839853525
 20
19.8802227647
 30
0.0
 11
227.6506520191
 21
19.8802227647
 31
0.0
  0
LINE
  5
37F
330
1F
100
AcDbEntity
  8
0
  6
Continuous
 62
     7
370
     0
100
AcDbLine
 10
221.9839853525
 20
27.1302227647
 30
0.0
 11
231.9839853525
 21
27.1302227647
 31
0.0
  0
LINE
  5
380
330
1F
100
AcDbEntity
  8
0
  6
Continuous
 62
     7
370
     0
100
AcDbLine
 10
221.9839853525
 20
27.1302227647
 30
0.0
 11
221.9839853525
 21
19.8802227647
 31
0.0
  0
LINE
  5
381
330
1F
100
AcDbEntity
  8
0
  6
Continuous
 62
     7
370
     0
100
AcDbLine
 10
210.4839853525
 20
19.8802227647
 30
0.0
 11
218.6506520191
 21
19.8802227647
 31
0.0
  0
LINE
  5
382
330
1F
100
AcDbEntity
  8
0
  6
Continuous
 62
     7
370
     0
100
AcDbLine
 10
210.4839853525
 20
27.1302227647
 30
0.0
 11
221.9839853525
 21
27.1302227647
 31
0.0
  0
LINE
  5
383
330
1F
100
AcDbEntity
  8
0
  6
Continuous
 62
     7
370
     0
100
AcDbLine
 10
210.4839853525
 20
27.1302227647
 30
0.0
 11
210.4839853525
 21
19.8802227647
 31
0.0
  0
LINE
  5
384
330
1F
100
AcDbEntity
  8
0
  6
Continuous
 62
     7
370
     0
100
AcDbLine
 10
200.4839853525
 20
19.8802227647
 30
0.0
 11
210.4839853525
 21
19.8802227647
 31
0.0
  0
LINE
  5
385
330
1F
100
AcDbEntity
  8
0
  6
Continuous
 62
     7
370
     0
100
AcDbLine
 10
200.4839853525
 20
27.1302227647
 30
0.0
 11
210.4839853525
 21
27.1302227647
 31
0.0
  0
LINE
  5
386
330
1F
100
AcDbEntity
  8
0
  6
Continuous
 62
     7
370
     0
100
AcDbLine
 10
200.4839853525
 20
27.1302227647
 30
0.0
 11
200.4839853525
 21
19.8802227647
 31
0.0
  0
LINE
  5
387
330
1F
100
AcDbEntity
  8
0
  6
Continuous
 62
     7
370
     0
100
AcDbLine
 10
240.5839853525
 20
27.1302227647
 30
0.0
 11
240.5839853525
 21
46.9302227647
 31
0.0
  0
LINE
  5
388
330
1F
100
AcDbEntity
  8
0
  6
Continuous
 62
     7
370
    15
100
AcDbLine
 10
278.0
 20
193.0
 30
0.0
 11
16.3862068966
 21
193.0
 31
0.0
  0
LINE
  5
389
330
1F
100
AcDbEntity
  8
0
  6
Continuous
 62
     7
370
    15
100
AcDbLine
 10
16.3862068966
 20
193.0
 30
0.0
 11
16.3862068966
 21
12.6302227647
 31
0.0
  0
LINE
  5
38A
330
1F
100
AcDbEntity
  8
0
  6
Continuous
 62
     7
370
     0
100
AcDbLine
 10
16.3862068966
 20
58.0
 30
0.0
 11
35.0
 21
58.0
 31
0.0
  0
LINE
  5
38B
330
1F
100
AcDbEntity
  8
0
  6
Continuous
 62
     7
370
    15
100
AcDbLine
 10
16.3862068966
 20
12.6302227647
 30
0.0
 11
151.4839853525
 21
12.6302227647
 31
0.0
  0
LINE
  5
38C
330
1F
100
AcDbEntity
  8
0
  6
Continuous
 62
     7
370
     0
100
AcDbLine
 10
138.9839853525
 20
20.1302227647
 30
0.0
 11
138.9839853525
 21
12.6302227647
 31
0.0
  0
LINE
  5
38D
330
1F
100
AcDbEntity
  8
0
  6
Continuous
 62
     7
370
     0
100
AcDbLine
 10
188.9839853525
 20
58.0
 30
0.0
 11
188.9839853525
 21
53.6302227647
 31
0.0
  0
LINE
  5
38E
330
1F
100
AcDbEntity
  8
0
  6
Continuous
 62
     7
370
    15
100
AcDbLine
 10
277.9839853525
 20
12.6302227647
 30
0.0
 11
278.0
 21
193.0
 31
0.0
  0
LINE
  5
38F
330
1F
100
AcDbEntity
  8
0
  6
Continuous
 62
     7
370
     0
100
AcDbLine
 10
138.9839853525
 20
53.6302227647
 30
0.0
 11
158.4839853525
 21
53.6302227647
 31
0.0
  0
LINE
  5
390
330
1F
100
AcDbEntity
  8
0
  6
Continuous
 62
     7
370
     0
100
AcDbLine
 10
138.9839853525
 20
58.0
 30
0.0
 11
138.9839853525
 21
50.1302227647
 31
0.0
  0
LINE
  5
391
330
1F
100
AcDbEntity
  8
0
  6
Continuous
 62
     7
370
     0
100
AcDbLine
 10
124.0526313729
 20
57.7194048085
 30
0.0
 11
124.0526313729
 21
20.5
 31
0.0
  0
LINE
  5
392
330
1F
100
AcDbEntity
  8
0
  6
Continuous
 62
     7
370
     0
100
AcDbLine
 10
50.7680797243
 20
58.0
 30
0.0
 11
50.7632108866
 21
20.5
 31
0.0
  0
LINE
  5
393
330
1F
100
AcDbEntity
  8
0
  6
Continuous
 62
     7
370
     0
100
AcDbLine
 10
55.0
 20
58.0
 30
0.0
 11
277.9880136381
 21
58.0
 31
0.0
  0
LINE
  5
394
330
1F
100
AcDbEntity
  8
0
  6
Continuous
 62
     7
370
     0
100
AcDbLine
 10
188.9839853525
 20
53.6302227647
 30
0.0
 11
188.9839853525
 21
49.6302227647
 31
0.0
  0
LINE
  5
395
330
1F
100
AcDbEntity
  8
0
  6
Continuous
 62
     7
370
     0
100
AcDbLine
 10
138.9839853525
 20
29.6302227647
 30
0.0
 11
158.4839853525
 21
29.6302227647
 31
0.0
  0
LINE
  5
396
330
1F
100
AcDbEntity
  8
0
  6
Continuous
 62
     7
370
     0
100
AcDbLine
 10
138.9839853525
 20
29.6302227647
 30
0.0
 11
138.9839853525
 21
27.6302227647
 31
0.0
  0
LINE
  5
397
330
1F
100
AcDbEntity
  8
0
  6
Continuous
 62
     7
370
     0
100
AcDbLine
 10
188.9839853525
 20
29.6302227647
 30
0.0
 11
188.9839853525
 21
27.1302227647
 31
0.0
  0
LINE
  5
398
330
1F
100
AcDbEntity
  8
0
  6
Continuous
 62
     7
370
     0
100
AcDbLine
 10
138.9839853525
 20
25.1302227647
 30
0.0
 11
151.4839853525
 21
25.1302227647
 31
0.0
  0
LINE
  5
399
330
1F
100
AcDbEntity
  8
0
  6
Continuous
 62
     7
370
     0
100
AcDbLine
 10
139.0045766598
 20
25.1301756532
 30
0.0
 11
138.9833894669
 21
20.5
 31
0.0
  0
LINE
  5
39A
330
1F
100
AcDbEntity
  8
0
  6
Continuous
 62
     7
370
     0
100
AcDbLine
 10
188.9839853525
 20
25.1302227647
 30
0.0
 11
188.9839853525
 21
20.6302227647
 31
0.0
  0
LINE
  5
39B
330
1F
100
AcDbEntity
  8
0
  6
Continuous
 62
     7
370
     0
100
AcDbLine
 10
188.9839853525
 20
46.9302227647
 30
0.0
 11
188.9839853525
 21
45.6302227647
 31
0.0
  0
LINE
  5
39C
330
1F
100
AcDbEntity
  8
0
  6
Continuous
 62
     7
370
     0
100
AcDbLine
 10
138.9839853525
 20
18.1735003624
 30
0.0
 11
188.9839853525
 21
18.1735003624
 31
0.0
  0
LINE
  5
39D
330
1F
100
AcDbEntity
  8
0
  6
Continuous
 62
     7
370
     0
100
AcDbLine
 10
138.9839853525
 20
20.6302227647
 30
0.0
 11
138.9839853525
 21
20.1302227647
 31
0.0
  0
LINE
  5
39E
330
1F
100
AcDbEntity
  8
0
  6
Continuous
 62
     7
370
     0
100
AcDbLine
 10
188.9839853525
 20
20.6302227647
 30
0.0
 11
188.9839853525
 21
19.8802227647
 31
0.0
  0
LINE
  5
39F
330
1F
100
AcDbEntity
  8
0
  6
Continuous
 62
     7
370
     0
100
AcDbLine
 10
188.9839853525
 20
27.1302227647
 30
0.0
 11
188.9839853525
 21
25.1302227647
 31
0.0
  0
LINE
  5
3A0
330
1F
100
AcDbEntity
  8
0
  6
Continuous
 62
     7
370
     0
100
AcDbLine
 10
151.4839853525
 20
25.1302227647
 30
0.0
 11
151.4839853525
 21
12.6302227647
 31
0.0
  0
LINE
  5
3A1
330
1F
100
AcDbEntity
  8
0
  6
Continuous
 62
     7
370
     0
100
AcDbLine
 10
151.4839853525
 20
25.1302227647
 30
0.0
 11
163.9839853525
 21
25.1302227647
 31
0.0
  0
LINE
  5
3A2
330
1F
100
AcDbEntity
  8
0
  6
Continuous
 62
     7
370
    15
100
AcDbLine
 10
151.4839853525
 20
12.6302227647
 30
0.0
 11
163.9839853525
 21
12.6302227647
 31
0.0
  0
LINE
  5
3A3
330
1F
100
AcDbEntity
  8
0
  6
Continuous
 62
     7
370
     0
100
AcDbLine
 10
163.9839853525
 20
12.6302227647
 30
0.0
 11
163.9839853525
 21
25.1302227647
 31
0.0
  0
LINE
  5
3A4
330
1F
100
AcDbEntity
  8
0
  6
Continuous
 62
     7
370
    15
100
AcDbLine
 10
163.9839853525
 20
12.6302227647
 30
0.0
 11
176.4839853525
 21
12.6302227647
 31
0.0
  0
LINE
  5
3A5
330
1F
100
AcDbEntity
  8
0
  6
Continuous
 62
     7
370
     0
100
AcDbLine
 10
163.9839853525
 20
25.1302227647
 30
0.0
 11
176.4839853525
 21
25.1302227647
 31
0.0
  0
LINE
  5
3A6
330
1F
100
AcDbEntity
  8
0
  6
Continuous
 62
     7
370
     0
100
AcDbLine
 10
176.4839853525
 20
25.1302227647
 30
0.0
 11
176.4839853525
 21
12.6302227647
 31
0.0
  0
LINE
  5
3A7
330
1F
100
AcDbEntity
  8
0
  6
Continuous
 62
     7
370
     0
100
AcDbLine
 10
176.4839853525
 20
25.1302227647
 30
0.0
 11
188.9839853525
 21
25.1302227647
 31
0.0
  0
LINE
  5
3A8
330
1F
100
AcDbEntity
  8
0
  6
Continuous
 62
     7
370
    15
100
AcDbLine
 10
176.4839853525
 20
12.6302227647
 30
0.0
 11
188.9839853525
 21
12.6302227647
 31
0.0
  0
LINE
  5
3A9
330
1F
100
AcDbEntity
  8
0
  6
Continuous
 62
     7
370
     0
100
AcDbLine
 10
188.9839853525
 20
19.8802227647
 30
0.0
 11
188.9839853525
 21
12.6302227647
 31
0.0
  0
LINE
  5
3AA
330
1F
100
AcDbEntity
  8
0
  6
Continuous
 62
     7
370
     0
100
AcDbLine
 10
188.9839853525
 20
37.0302227647
 30
0.0
 11
277.9839853525
 21
37.0302227647
 31
0.0
  0
LINE
  5
3AB
330
1F
100
AcDbEntity
  8
0
  6
Continuous
 62
     7
370
     0
100
AcDbLine
 10
188.9839853525
 20
37.0302227647
 30
0.0
 11
188.9839853525
 21
33.6302227647
 31
0.0
  0
LINE
  5
3AC
330
1F
100
AcDbEntity
  8
0
  6
Continuous
 62
     7
370
     0
100
AcDbLine
 10
277.9839853525
 20
46.9302227647
 30
0.0
 11
255.9839853525
 21
46.9302227647
 31
0.0
  0
LINE
  5
3AD
330
1F
100
AcDbEntity
  8
0
  6
Continuous
 62
     7
370
     0
100
AcDbLine
 10
277.9839853525
 20
27.1302227647
 30
0.0
 11
263.9839853525
 21
27.1302227647
 31
0.0
  0
LINE
  5
3AE
330
1F
100
AcDbEntity
  8
0
  6
Continuous
 62
     7
370
     0
100
AcDbLine
 10
277.9839853525
 20
19.8802227647
 30
0.0
 11
263.9839853525
 21
19.8802227647
 31
0.0
  0
LINE
  5
3AF
330
1F
100
AcDbEntity
  8
0
  6
Continuous
 62
     7
370
    15
100
AcDbLine
 10
277.9839853525
 20
12.6302227647
 30
0.0
 11
257.3173186858
 21
12.6302227647
 31
0.0
  0
LINE
  5
3B0
330
1F
100
AcDbEntity
  8
0
  6
Continuous
 62
     7
370
     0
100
AcDbLine
 10
204.4839853525
 20
46.9302227647
 30
0.0
 11
204.4839853525
 21
27.1302227647
 31
0.0
  0
LINE
  5
3B1
330
1F
100
AcDbEntity
  8
0
  6
Continuous
 62
     7
370
     0
100
AcDbLine
 10
204.4839853525
 20
46.9302227647
 30
0.0
 11
188.9839853525
 21
46.9302227647
 31
0.0
  0
LINE
  5
3B2
330
1F
100
AcDbEntity
  8
0
  6
Continuous
 62
     7
370
     0
100
AcDbLine
 10
188.9839853525
 20
27.1302227647
 30
0.0
 11
200.4839853525
 21
27.1302227647
 31
0.0
  0
LINE
  5
3B3
330
1F
100
AcDbEntity
  8
0
  6
Continuous
 62
     7
370
     0
100
AcDbLine
 10
188.9839853525
 20
19.8802227647
 30
0.0
 11
197.9839853525
 21
19.8802227647
 31
0.0
  0
LINE
  5
3B4
330
1F
100
AcDbEntity
  8
0
  6
Continuous
 62
     7
370
     0
100
AcDbLine
 10
240.5839853525
 20
46.9302227647
 30
0.0
 11
204.4839853525
 21
46.9302227647
 31
0.0
  0
LINE
  5
3B5
330
1F
100
AcDbEntity
  8
0
  6
Continuous
 62
     7
370
     0
100
AcDbLine
 10
255.9839853525
 20
46.9302227647
 30
0.0
 11
255.9839853525
 21
27.1302227647
 31
0.0
  0
LINE
  5
3B6
330
1F
100
AcDbEntity
  8
0
  6
Continuous
 62
     7
370
     0
100
AcDbLine
 10
255.9839853525
 20
46.9302227647
 30
0.0
 11
240.5839853525
 21
46.9302227647
 31
0.0
  0
LINE
  5
3B7
330
1F
100
AcDbEntity
  8
0
  6
Continuous
 62
     7
370
     0
100
AcDbLine
 10
158.4839853525
 20
53.6302227647
 30
0.0
 11
158.4839853525
 21
29.6302227647
 31
0.0
  0
LINE
  5
3B8
330
1F
100
AcDbEntity
  8
0
  6
Continuous
 62
     7
370
     0
100
AcDbLine
 10
158.4839853525
 20
53.6302227647
 30
0.0
 11
168.6506520191
 21
53.6302227647
 31
0.0
  0
LINE
  5
3B9
330
1F
100
AcDbEntity
  8
0
  6
Continuous
 62
     7
370
     0
100
AcDbLine
 10
158.4839853525
 20
29.6302227647
 30
0.0
 11
168.6506520191
 21
29.6302227647
 31
0.0
  0
LINE
  5
3BA
330
1F
100
AcDbEntity
  8
0
  6
Continuous
 62
     7
370
     0
100
AcDbLine
 10
168.6506520191
 20
29.6302227647
 30
0.0
 11
168.6506520191
 21
53.6302227647
 31
0.0
  0
LINE
  5
3BB
330
1F
100
AcDbEntity
  8
0
  6
Continuous
 62
     7
370
     0
100
AcDbLine
 10
168.6506520191
 20
29.6302227647
 30
0.0
 11
178.8173186858
 21
29.6302227647
 31
0.0
  0
LINE
  5
3BC
330
1F
100
AcDbEntity
  8
0
  6
Continuous
 62
     7
370
     0
100
AcDbLine
 10
168.6506520191
 20
53.6302227647
 30
0.0
 11
178.8173186858
 21
53.6302227647
 31
0.0
  0
LINE
  5
3BD
330
1F
100
AcDbEntity
  8
0
  6
Continuous
 62
     7
370
     0
100
AcDbLine
 10
178.8173186858
 20
53.6302227647
 30
0.0
 11
178.8173186858
 21
29.6302227647
 31
0.0
  0
LINE
  5
3BE
330
1F
100
AcDbEntity
  8
0
  6
Continuous
 62
     7
370
     0
100
AcDbLine
 10
178.8173186858
 20
53.6302227647
 30
0.0
 11
188.9839853525
 21
53.6302227647
 31
0.0
  0
LINE
  5
3BF
330
1F
100
AcDbEntity
  8
0
  6
Continuous
 62
     7
370
     0
100
AcDbLine
 10
178.8173186858
 20
29.6302227647
 30
0.0
 11
188.9839853525
 21
29.6302227647
 31
0.0
  0
LINE
  5
3C0
330
1F
100
AcDbEntity
  8
0
  6
Continuous
 62
     7
370
     0
100
AcDbLine
 10
138.9839853525
 20
50.1302227647
 30
0.0
 11
138.9839853525
 21
49.6302227647
 31
0.0
  0
LINE
  5
3C1
330
1F
100
AcDbEntity
  8
0
  6
Continuous
 62
     7
370
     0
100
AcDbLine
 10
138.9839853525
 20
42.6302227647
 30
0.0
 11
138.9839853525
 21
41.6302227647
 31
0.0
  0
LINE
  5
3C2
330
1F
100
AcDbEntity
  8
0
  6
Continuous
 62
     7
370
     0
100
AcDbLine
 10
138.9839853525
 20
35.1302227647
 30
0.0
 11
138.9839853525
 21
33.6302227647
 31
0.0
  0
LINE
  5
3C3
330
1F
100
AcDbEntity
  8
0
  6
Continuous
 62
     7
370
     0
100
AcDbLine
 10
138.9839853525
 20
27.6302227647
 30
0.0
 11
138.9839853525
 21
25.1302227647
 31
0.0
  0
LINE
  5
3C4
330
1F
100
AcDbEntity
  8
0
  6
Continuous
 62
     7
370
     0
100
AcDbLine
 10
188.9839853525
 20
49.6302227647
 30
0.0
 11
138.9839853525
 21
49.6302227647
 31
0.0
  0
LINE
  5
3C5
330
1F
100
AcDbEntity
  8
0
  6
Continuous
 62
     7
370
     0
100
AcDbLine
 10
29.4750638265
 20
58.0
 30
0.0
 11
29.4750638265
 21
20.5
 31
0.0
  0
LINE
  5
3C6
330
1F
100
AcDbEntity
  8
0
  6
Continuous
 62
     7
370
     0
100
AcDbLine
 10
35.0
 20
58.0
 30
0.0
 11
55.0
 21
58.0
 31
0.0
  0
LINE
  5
3C7
330
1F
100
AcDbEntity
  8
0
  6
Continuous
 62
     7
370
     0
100
AcDbLine
 10
16.3862068966
 20
49.9776772435
 30
0.0
 11
138.9845430089
 21
49.9776772435
 31
0.0
  0
LINE
  5
3C8
330
1F
100
AcDbEntity
  8
0
  6
Continuous
 62
     7
370
     0
100
AcDbLine
 10
188.9839853525
 20
49.6302227647
 30
0.0
 11
188.9839853525
 21
46.9302227647
 31
0.0
  0
LINE
  5
3C9
330
1F
100
AcDbEntity
  8
0
  6
Continuous
 62
     7
370
     0
100
AcDbLine
 10
138.9839853525
 20
49.6302227647
 30
0.0
 11
138.9839853525
 21
45.6302227647
 31
0.0
  0
LINE
  5
3CA
330
1F
100
AcDbEntity
  8
0
  6
Continuous
 62
     7
370
     0
100
AcDbLine
 10
138.9839853525
 20
42.6302227647
 30
0.0
 11
16.3856492401
 21
42.6302227647
 31
0.0
  0
LINE
  5
3CB
330
1F
100
AcDbEntity
  8
0
  6
Continuous
 62
     7
370
     0
100
AcDbLine
 10
188.9839853525
 20
45.6302227647
 30
0.0
 11
138.9839853525
 21
45.6302227647
 31
0.0
  0
LINE
  5
3CC
330
1F
100
AcDbEntity
  8
0
  6
Continuous
 62
     7
370
     0
100
AcDbLine
 10
188.9839853525
 20
45.6302227647
 30
0.0
 11
188.9839853525
 21
41.6302227647
 31
0.0
  0
LINE
  5
3CD
330
1F
100
AcDbEntity
  8
0
  6
Continuous
 62
     7
370
     0
100
AcDbLine
 10
16.3862068966
 20
35.5
 30
0.0
 11
138.9871452063
 21
35.5
 31
0.0
  0
LINE
  5
3CE
330
1F
100
AcDbEntity
  8
0
  6
Continuous
 62
     7
370
     0
100
AcDbLine
 10
138.9839853525
 20
45.6302227647
 30
0.0
 11
138.9839853525
 21
42.6302227647
 31
0.0
  0
LINE
  5
3CF
330
1F
100
AcDbEntity
  8
0
  6
Continuous
 62
     7
370
     0
100
AcDbLine
 10
138.9839853525
 20
41.6302227647
 30
0.0
 11
188.9839853525
 21
41.6302227647
 31
0.0
  0
LINE
  5
3D0
330
1F
100
AcDbEntity
  8
0
  6
Continuous
 62
     7
370
     0
100
AcDbLine
 10
16.3862068966
 20
28.0
 30
0.0
 11
138.9856051947
 21
28.0
 31
0.0
  0
LINE
  5
3D1
330
1F
100
AcDbEntity
  8
0
  6
Continuous
 62
     7
370
     0
100
AcDbLine
 10
138.9839853525
 20
41.6302227647
 30
0.0
 11
138.9839853525
 21
37.6302227647
 31
0.0
  0
LINE
  5
3D2
330
1F
100
AcDbEntity
  8
0
  6
Continuous
 62
     7
370
     0
100
AcDbLine
 10
188.9839853525
 20
41.6302227647
 30
0.0
 11
188.9839853525
 21
37.6302227647
 31
0.0
  0
LINE
  5
3D3
330
1F
100
AcDbEntity
  8
0
  6
Continuous
 62
     7
370
     0
100
AcDbLine
 10
188.9839853525
 20
37.6302227647
 30
0.0
 11
138.9839853525
 21
37.6302227647
 31
0.0
  0
LINE
  5
3D4
330
1F
100
AcDbEntity
  8
0
  6
Continuous
 62
     7
370
     0
100
AcDbLine
 10
188.9839853525
 20
37.6302227647
 30
0.0
 11
188.9839853525
 21
37.0302227647
 31
0.0
  0
LINE
  5
3D5
330
1F
100
AcDbEntity
  8
0
  6
Continuous
 62
     7
370
     0
100
AcDbLine
 10
138.9839853525
 20
37.6302227647
 30
0.0
 11
138.9839853525
 21
35.1302227647
 31
0.0
  0
LINE
  5
3D6
330
1F
100
AcDbEntity
  8
0
  6
Continuous
 62
     7
370
     0
100
AcDbLine
 10
138.9839853525
 20
33.6302227647
 30
0.0
 11
188.9839853525
 21
33.6302227647
 31
0.0
  0
LINE
  5
3D7
330
1F
100
AcDbEntity
  8
0
  6
Continuous
 62
     7
370
     0
100
AcDbLine
 10
138.9839853525
 20
33.6302227647
 30
0.0
 11
138.9839853525
 21
29.6302227647
 31
0.0
  0
LINE
  5
3D8
330
1F
100
AcDbEntity
  8
0
  6
Continuous
 62
     7
370
     0
100
AcDbLine
 10
188.9839853525
 20
33.6302227647
 30
0.0
 11
188.9839853525
 21
29.6302227647
 31
0.0
  0
LINE
  5
3D9
330
1F
100
AcDbEntity
  8
0
  6
CENTER
 62
     7
370
    15
100
AcDbLine
 10
143.5190080732
 20
16.2245984807
 30
0.0
 11
145.0190080732
 21
13.6265222693
 31
0.0
  0
LINE
  5
3DA
330
1F
100
AcDbEntity
  8
0
  6
CENTER
 62
     7
370
    15
100
AcDbLine
 10
146.5190080732
 20
16.2245984807
 30
0.0
 11
145.0190080732
 21
13.6265222693
 31
0.0
  0
LINE
  5
3DB
330
1F
100
AcDbEntity
  8
0
  6
CENTER
 62
     7
370
    15
100
AcDbLine
 10
146.5190080732
 20
16.2245984807
 30
0.0
 11
149.5190080732
 21
16.2245984807
 31
0.0
  0
LINE
  5
3DC
330
1F
100
AcDbEntity
  8
0
  6
CENTER
 62
     7
370
    15
100
AcDbLine
 10
146.5190080732
 20
16.2245984807
 30
0.0
 11
148.0190080732
 21
13.6265222693
 31
0.0
  0
LINE
  5
3DD
330
1F
100
AcDbEntity
  8
0
  6
CENTER
 62
     7
370
    15
100
AcDbLine
 10
149.5190080732
 20
16.2245984807
 30
0.0
 11
148.0190080732
 21
13.6265222693
 31
0.0
  0
LINE
  5
3DE
330
1F
100
AcDbEntity
  8
0
  6
Continuous
 62
     7
370
    15
100
AcDbLine
 10
154.3830149162
 20
16.251892094
 30
0.0
 11
157.3830149162
 21
16.251892094
 31
0.0
  0
LINE
  5
3DF
330
1F
100
AcDbEntity
  8
0
  6
Continuous
 62
     7
370
    15
100
AcDbLine
 10
157.3830149162
 20
16.251892094
 30
0.0
 11
155.8830149162
 21
13.6538158827
 31
0.0
  0
LINE
  5
3E0
330
1F
100
AcDbEntity
  8
0
  6
Continuous
 62
     7
370
    15
100
AcDbLine
 10
154.3830149162
 20
16.251892094
 30
0.0
 11
155.8830149162
 21
13.6538158827
 31
0.0
  0
LINE
  5
3E1
330
1F
100
AcDbEntity
  8
0
  6
CENTER
 62
     7
370
    15
100
AcDbLine
 10
157.3830149162
 20
16.251892094
 30
0.0
 11
160.3830149162
 21
16.251892094
 31
0.0
  0
LINE
  5
3E2
330
1F
100
AcDbEntity
  8
0
  6
Continuous
 62
     7
370
     0
100
AcDbLine
 10
32.7408638108
 20
12.6302227647
 30
0.0
 11
32.7408638108
 21
20.5
 31
0.0
  0
LINE
  5
3E3
330
1F
100
AcDbEntity
  8
0
  6
Continuous
 62
     7
370
     0
100
AcDbLine
 10
50.7632108866
 20
20.5
 30
0.0
 11
50.7632108866
 21
12.6302227647
 31
0.0
  0
LINE
  5
3E4
330
1F
100
AcDbEntity
  8
0
  6
Continuous
 62
     7
370
     0
100
AcDbLine
 10
87.2144075495
 20
20.5
 30
0.0
 11
87.2144075495
 21
12.6302227647
 31
0.0
  0
LINE
  5
3E5
330
1F
100
AcDbEntity
  8
0
  6
Continuous
 62
     7
370
     0
100
AcDbLine
 10
138.9833894669
 20
20.5
 30
0.0
 11
16.3862068966
 21
20.5
 31
0.0
  0
LINE
  5
3E6
330
1F
100
AcDbEntity
  8
0
  6
Continuous
 62
     7
370
     0
100
AcDbLine
 10
103.5434074712
 20
20.5
 30
0.0
 11
103.5434074712
 21
12.6302227647
 31
0.0
  0
LINE
  5
3E7
330
1F
100
AcDbEntity
  8
0
  6
CENTER
 62
     7
370
    15
100
AcDbLine
 10
160.3830149162
 20
16.251892094
 30
0.0
 11
158.8830149162
 21
13.6538158827
 31
0.0
  0
LINE
  5
3E8
330
1F
100
AcDbEntity
  8
0
  6
CENTER
 62
     7
370
    15
100
AcDbLine
 10
157.3830149162
 20
16.251892094
 30
0.0
 11
158.8830149162
 21
13.6538158827
 31
0.0
  0
LINE
  5
3E9
330
1F
100
AcDbEntity
  8
0
  6
Continuous
 62
     7
370
    15
100
AcDbLine
 10
168.6837195726
 20
16.088130414
 30
0.0
 11
171.6837195726
 21
16.088130414
 31
0.0
  0
LINE
  5
3EA
330
1F
100
AcDbEntity
  8
0
  6
Continuous
 62
     7
370
    15
100
AcDbLine
 10
171.6837195726
 20
16.088130414
 30
0.0
 11
170.1837195726
 21
13.4900542026
 31
0.0
  0
LINE
  5
3EB
330
1F
100
AcDbEntity
  8
0
  6
Continuous
 62
     7
370
    15
100
AcDbLine
 10
168.6837195726
 20
16.088130414
 30
0.0
 11
170.1837195726
 21
13.4900542026
 31
0.0
  0
LINE
  5
3EC
330
1F
100
AcDbEntity
  8
0
  6
Continuous
 62
     7
370
    15
100
AcDbLine
 10
181.1612988799
 20
21.9915148182
 30
0.0
 11
182.6612988799
 21
19.3934386068
 31
0.0
  0
ARC
  5
3ED
330
1F
100
AcDbEntity
  8
SLD-0
  6
Continuous
 62
   179
370
    15
100
AcDbCircle
 10
157.8687266418
 20
110.2183712329
 30
0.0
 40
0.5740586416923057
100
AcDbArc
 50
301.0119480704
 51
354.1019221894
  0
ARC
  5
3EE
330
1F
100
AcDbEntity
  8
SLD-0
  6
Continuous
 62
   179
370
    15
100
AcDbCircle
 10
156.0107672657
 20
110.2183723052
 30
0.0
 40
0.5740600564436344
100
AcDbArc
 50
185.8981708105
 51
238.9880247622
  0
ARC
  5
3EF
330
1F
100
AcDbEntity
  8
SLD-0
  6
Continuous
 62
   179
370
    15
100
AcDbCircle
 10
157.8687266418
 20
137.7266024822
 30
0.0
 40
0.5740586416923057
100
AcDbArc
 50
5.8980778103
 51
58.9880519296
  0
ARC
  5
3F0
330
1F
100
AcDbEntity
  8
SLD-0
  6
Continuous
 62
   179
370
    15
100
AcDbCircle
 10
156.0107672657
 20
137.72660141
 30
0.0
 40
0.5740600564007524
100
AcDbArc
 50
121.0119752429
 51
174.1018291895
  0
SPLINE
  5
3F1
330
1F
100
AcDbEntity
  8
SLD-0
  6
Continuous
 62
   179
370
    15
100
AcDbSpline
210
0.0
220
0.0
230
1.0
 70
     8
 71
     3
 72
    18
 73
    14
 74
     0
 42
0.00000001
 43
0.00000001
 40
0.0
 40
0.0
 40
0.0
 40
0.0
 40
0.1255208564663568
 40
0.2509641962504365
 40
0.3753941910813662
 40
0.4363119330682156
 40
0.4996563971492518
 40
0.5630938061745907
 40
0.624143631667117
 40
0.7489716378441652
 40
0.8741917262581446
 40
0.9999385511346852
 40
1.0
 40
1.0
 40
1.0
 40
1.0
 10
233.1572660576883
 20
137.8224749947066
 30
0.0
 10
233.1370514154159
 20
137.8197542982019
 30
0.0
 10
233.0966346146294
 20
137.8143145853863
 30
0.0
 10
232.7375752016901
 20
137.7794359427126
 30
0.0
 10
232.3259941688049
 20
137.7506696706944
 30
0.0
 10
231.9419600541347
 20
137.7380167022654
 30
0.0
 10
231.6413245697372
 20
137.7349984143814
 30
0.0
 10
231.340134464602
 20
137.7379897572072
 30
0.0
 10
230.9561640026189
 20
137.7505183953026
 30
0.0
 10
230.535003271494
 20
137.7801844240605
 30
0.0
 10
230.2109614711984
 20
137.8112421150233
 30
0.0
 10
230.0814159243889
 20
137.8263043306717
 30
0.0
 10
230.122110613886
 20
137.8224889654489
 30
0.0
 10
230.1221304905
 20
137.8224871019
 30
0.0
  0
SPLINE
  5
3F2
330
1F
100
AcDbEntity
  8
SLD-0
  6
Continuous
 62
   179
370
    15
100
AcDbSpline
210
0.0
220
0.0
230
1.0
 70
     8
 71
     3
 72
    12
 73
     8
 74
     0
 42
0.00000001
 43
0.00000001
 40
0.0
 40
0.0
 40
0.0
 40
0.0
 40
0.1319227625430386
 40
0.2588382823894408
 40
0.5181490758464837
 40
0.7793567618885509
 40
1.0
 40
1.0
 40
1.0
 40
1.0
 10
231.6397467028609
 20
118.4290136808999
 30
0.0
 10
231.7411662905043
 20
118.4242606534589
 30
0.0
 10
231.9401559975133
 20
118.4149350038495
 30
0.0
 10
232.3243789017392
 20
118.3058906354424
 30
0.0
 10
232.7349621666016
 20
118.0368295948675
 30
0.0
 10
233.0812824869749
 20
117.6050026708452
 30
0.0
 10
233.1213860247922
 20
117.2795960258257
 30
0.0
 10
233.1397497426978
 20
117.1305898244031
 30
0.0
  0
SPLINE
  5
3F3
330
1F
100
AcDbEntity
  8
SLD-0
  6
Continuous
 62
   179
370
    15
100
AcDbSpline
210
0.0
220
0.0
230
1.0
 70
     8
 71
     3
 72
    12
 73
     8
 74
     0
 42
0.00000001
 43
0.00000001
 40
0.0
 40
0.0
 40
0.0
 40
0.0
 40
0.2204019614197671
 40
0.4814871043312721
 40
0.7409756496341411
 40
0.8679761153158844
 40
1.0
 40
1.0
 40
1.0
 40
1.0
 10
230.1397436630241
 20
117.129933241988
 30
0.0
 10
230.1579833699977
 20
117.2788268195388
 30
0.0
 10
230.1978295838789
 20
117.6040976884852
 30
0.0
 10
230.5437896317246
 20
118.0361795426726
 30
0.0
 10
230.954426099779
 20
118.3056415395292
 30
0.0
 10
231.3390175759203
 20
118.414903159507
 30
0.0
 10
231.5382159349973
 20
118.4242497523554
 30
0.0
 10
231.6397467028609
 20
118.4290136808999
 30
0.0
  0
SPLINE
  5
3F4
330
1F
100
AcDbEntity
  8
SLD-0
  6
Continuous
 62
   179
370
    15
100
AcDbSpline
210
0.0
220
0.0
230
1.0
 70
     8
 71
     3
 72
     8
 73
     4
 74
     0
 42
0.00000001
 43
0.00000001
 40
0.0
 40
0.0
 40
0.0
 40
0.0
 40
1.0
 40
1.0
 40
1.0
 40
1.0
 10
160.1397464405009
 20
140.9491895474278
 30
0.0
 10
160.0657998169825
 20
140.8906015310783
 30
0.0
 10
159.9989669562201
 20
140.8317079723194
 30
0.0
 10
159.9397464405009
 20
140.7724874566001
 30
0.0
  0
SPLINE
  5
3F5
330
1F
100
AcDbEntity
  8
SLD-0
  6
Continuous
 62
   179
370
    15
100
AcDbSpline
210
0.0
220
0.0
230
1.0
 70
     8
 71
     3
 72
     8
 73
     4
 74
     0
 42
0.00000001
 43
0.00000001
 40
0.0
 40
0.0
 40
0.0
 40
0.0
 40
1.0
 40
1.0
 40
1.0
 40
1.0
 10
159.9397464405009
 20
140.680455298787
 30
0.0
 10
159.9989669562176
 20
140.7705197723918
 30
0.0
 10
160.0657998169794
 20
140.8600869992919
 30
0.0
 10
160.1397464405009
 20
140.9491895474278
 30
0.0
  0
SPLINE
  5
3F6
330
1F
100
AcDbEntity
  8
SLD-0
  6
Continuous
 62
   179
370
    15
100
AcDbSpline
210
0.0
220
0.0
230
1.0
 70
     8
 71
     3
 72
     8
 73
     4
 74
     0
 42
0.00000001
 43
0.00000001
 40
0.0
 40
0.0
 40
0.0
 40
0.0
 40
1.0
 40
1.0
 40
1.0
 40
1.0
 10
160.1397464405009
 20
140.7631892467174
 30
0.0
 10
160.0657998169842
 20
140.7357576647187
 30
0.0
 10
159.9989669562216
 20
140.7081830242548
 30
0.0
 10
159.9397464405009
 20
140.680455298787
 30
0.0
  0
SPLINE
  5
3F7
330
1F
100
AcDbEntity
  8
SLD-0
  6
Continuous
 62
   179
370
    15
100
AcDbSpline
210
0.0
220
0.0
230
1.0
 70
     8
 71
     3
 72
     8
 73
     4
 74
     0
 42
0.00000001
 43
0.00000001
 40
0.0
 40
0.0
 40
0.0
 40
0.0
 40
1.0
 40
1.0
 40
1.0
 40
1.0
 10
159.9397464405009
 20
140.405367148928
 30
0.0
 10
159.9989669562138
 20
140.5252888151929
 30
0.0
 10
160.0657998169747
 20
140.6445483929534
 30
0.0
 10
160.1397464405009
 20
140.7631892467174
 30
0.0
  0
SPLINE
  5
3F8
330
1F
100
AcDbEntity
  8
SLD-0
  6
Continuous
 62
   179
370
    15
100
AcDbSpline
210
0.0
220
0.0
230
1.0
 70
     8
 71
     3
 72
     8
 73
     4
 74
     0
 42
0.00000001
 43
0.00000001
 40
0.0
 40
0.0
 40
0.0
 40
0.0
 40
1.0
 40
1.0
 40
1.0
 40
1.0
 10
160.1397464405008
 20
140.3932265035142
 30
0.0
 10
160.0657998169847
 20
140.3972519020176
 30
0.0
 10
159.9989669562219
 20
140.4012982933801
 30
0.0
 10
159.9397464405009
 20
140.405367148928
 30
0.0
  0
SPLINE
  5
3F9
330
1F
100
AcDbEntity
  8
SLD-0
  6
Continuous
 62
   179
370
    15
100
AcDbSpline
210
0.0
220
0.0
230
1.0
 70
     8
 71
     3
 72
     8
 73
     4
 74
     0
 42
0.00000001
 43
0.00000001
 40
0.0
 40
0.0
 40
0.0
 40
0.0
 40
1.0
 40
1.0
 40
1.0
 40
1.0
 10
159.9397464405008
 20
139.9502369303586
 30
0.0
 10
159.9989669562083
 20
140.0987019024054
 30
0.0
 10
160.0657998169681
 20
140.2463471981357
 30
0.0
 10
160.1397464405008
 20
140.3932265035142
 30
0.0
  0
SPLINE
  5
3FA
330
1F
100
AcDbEntity
  8
SLD-0
  6
Continuous
 62
   179
370
    15
100
AcDbSpline
210
0.0
220
0.0
230
1.0
 70
     8
 71
     3
 72
     8
 73
     4
 74
     0
 42
0.00000001
 43
0.00000001
 40
0.0
 40
0.0
 40
0.0
 40
0.0
 40
1.0
 40
1.0
 40
1.0
 40
1.0
 10
160.1397464405007
 20
139.8433547070525
 30
0.0
 10
160.0657998169838
 20
139.8787929829499
 30
0.0
 10
159.9989669562212
 20
139.9144160730281
 30
0.0
 10
159.9397464405008
 20
139.9502369303586
 30
0.0
  0
SPLINE
  5
3FB
330
1F
100
AcDbEntity
  8
SLD-0
  6
Continuous
 62
   179
370
    15
100
AcDbSpline
210
0.0
220
0.0
230
1.0
 70
     8
 71
     3
 72
     8
 73
     4
 74
     0
 42
0.00000001
 43
0.00000001
 40
0.0
 40
0.0
 40
0.0
 40
0.0
 40
1.0
 40
1.0
 40
1.0
 40
1.0
 10
159.9397464405007
 20
139.3200511449957
 30
0.0
 10
159.9989669562009
 20
139.4954328095116
 30
0.0
 10
160.0657998169592
 20
139.6698461904554
 30
0.0
 10
160.1397464405007
 20
139.8433547070525
 30
0.0
  0
SPLINE
  5
3FC
330
1F
100
AcDbEntity
  8
SLD-0
  6
Continuous
 62
   179
370
    15
100
AcDbSpline
210
0.0
220
0.0
230
1.0
 70
     8
 71
     3
 72
     8
 73
     4
 74
     0
 42
0.00000001
 43
0.00000001
 40
0.0
 40
0.0
 40
0.0
 40
0.0
 40
1.0
 40
1.0
 40
1.0
 40
1.0
 10
160.1397464405007
 20
139.1195983678023
 30
0.0
 10
160.0657998169816
 20
139.1860612519289
 30
0.0
 10
159.9989669562194
 20
139.2528707466935
 30
0.0
 10
159.9397464405007
 20
139.3200511449957
 30
0.0
  0
SPLINE
  5
3FD
330
1F
100
AcDbEntity
  8
SLD-0
  6
Continuous
 62
   179
370
    15
100
AcDbSpline
210
0.0
220
0.0
230
1.0
 70
     8
 71
     3
 72
     8
 73
     4
 74
     0
 42
0.00000001
 43
0.00000001
 40
0.0
 40
0.0
 40
0.0
 40
0.0
 40
1.0
 40
1.0
 40
1.0
 40
1.0
 10
159.9397464405007
 20
138.5217142401786
 30
0.0
 10
159.9989669561912
 20
138.7220910789313
 30
0.0
 10
160.0657998169472
 20
138.9213616355891
 30
0.0
 10
160.1397464405007
 20
139.1195983678023
 30
0.0
  0
SPLINE
  5
3FE
330
1F
100
AcDbEntity
  8
SLD-0
  6
Continuous
 62
   179
370
    15
100
AcDbSpline
210
0.0
220
0.0
230
1.0
 70
     8
 71
     3
 72
     8
 73
     4
 74
     0
 42
0.00000001
 43
0.00000001
 40
0.0
 40
0.0
 40
0.0
 40
0.0
 40
1.0
 40
1.0
 40
1.0
 40
1.0
 10
160.1397464405006
 20
138.2298871116722
 30
0.0
 10
160.0657998169782
 20
138.3266464227648
 30
0.0
 10
159.9989669562165
 20
138.4239103434105
 30
0.0
 10
159.9397464405007
 20
138.5217142401786
 30
0.0
  0
SPLINE
  5
3FF
330
1F
100
AcDbEntity
  8
SLD-0
  6
Continuous
 62
   179
370
    15
100
AcDbSpline
210
0.0
220
0.0
230
1.0
 70
     8
 71
     3
 72
     8
 73
     4
 74
     0
 42
0.00000001
 43
0.00000001
 40
0.0
 40
0.0
 40
0.0
 40
0.0
 40
1.0
 40
1.0
 40
1.0
 40
1.0
 10
159.9397464405006
 20
137.5639729620991
 30
0.0
 10
159.9989669561881
 20
137.7871496045293
 30
0.0
 10
160.0657998169434
 20
138.0090940869818
 30
0.0
 10
160.1397464405006
 20
138.2298871116722
 30
0.0
  0
SPLINE
  5
400
330
1F
100
AcDbEntity
  8
SLD-0
  6
Continuous
 62
   179
370
    15
100
AcDbSpline
210
0.0
220
0.0
230
1.0
 70
     8
 71
     3
 72
     8
 73
     4
 74
     0
 42
0.00000001
 43
0.00000001
 40
0.0
 40
0.0
 40
0.0
 40
0.0
 40
1.0
 40
1.0
 40
1.0
 40
1.0
 10
160.1397464405005
 20
137.1839688013685
 30
0.0
 10
160.0657998169729
 20
137.3099644241721
 30
0.0
 10
159.9989669562123
 20
137.4366171268307
 30
0.0
 10
159.9397464405006
 20
137.5639729620991
 30
0.0
  0
SPLINE
  5
401
330
1F
100
AcDbEntity
  8
SLD-0
  6
Continuous
 62
   179
370
    15
100
AcDbSpline
210
0.0
220
0.0
230
1.0
 70
     8
 71
     3
 72
     8
 73
     4
 74
     0
 42
0.00000001
 43
0.00000001
 40
0.0
 40
0.0
 40
0.0
 40
0.0
 40
1.0
 40
1.0
 40
1.0
 40
1.0
 10
159.9397464405005
 20
136.4573205246202
 30
0.0
 10
159.9989669561985
 20
136.7008518007843
 30
0.0
 10
160.0657998169562
 20
136.943038538835
 30
0.0
 10
160.1397464405005
 20
137.1839688013685
 30
0.0
  0
SPLINE
  5
402
330
1F
100
AcDbEntity
  8
SLD-0
  6
Continuous
 62
   179
370
    15
100
AcDbSpline
210
0.0
220
0.0
230
1.0
 70
     8
 71
     3
 72
     8
 73
     4
 74
     0
 42
0.00000001
 43
0.00000001
 40
0.0
 40
0.0
 40
0.0
 40
0.0
 40
1.0
 40
1.0
 40
1.0
 40
1.0
 10
160.1397464405005
 20
135.9933027367713
 30
0.0
 10
160.0657998169658
 20
136.1471542368843
 30
0.0
 10
159.9989669562064
 20
136.3018080880418
 30
0.0
 10
159.9397464405005
 20
136.4573205246202
 30
0.0
  0
SPLINE
  5
403
330
1F
100
AcDbEntity
  8
SLD-0
  6
Continuous
 62
   179
370
    15
100
AcDbSpline
210
0.0
220
0.0
230
1.0
 70
     8
 71
     3
 72
     8
 73
     4
 74
     0
 42
0.00000001
 43
0.00000001
 40
0.0
 40
0.0
 40
0.0
 40
0.0
 40
1.0
 40
1.0
 40
1.0
 40
1.0
 10
159.9397464405005
 20
135.2138816434288
 30
0.0
 10
159.9989669562064
 20
135.4750993736978
 30
0.0
 10
160.0657998169658
 20
135.734874918764
 30
0.0
 10
160.1397464405005
 20
135.9933027367713
 30
0.0
  0
SPLINE
  5
404
330
1F
100
AcDbEntity
  8
SLD-0
  6
Continuous
 62
   179
370
    15
100
AcDbSpline
210
0.0
220
0.0
230
1.0
 70
     8
 71
     3
 72
     8
 73
     4
 74
     0
 42
0.00000001
 43
0.00000001
 40
0.0
 40
0.0
 40
0.0
 40
0.0
 40
1.0
 40
1.0
 40
1.0
 40
1.0
 10
160.1397464405005
 20
134.6709341044472
 30
0.0
 10
160.0657998169562
 20
134.85095585265
 30
0.0
 10
159.9989669561985
 20
135.0319164323503
 30
0.0
 10
159.9397464405005
 20
135.2138816434288
 30
0.0
  0
SPLINE
  5
405
330
1F
100
AcDbEntity
  8
SLD-0
  6
Continuous
 62
   179
370
    15
100
AcDbSpline
210
0.0
220
0.0
230
1.0
 70
     8
 71
     3
 72
     8
 73
     4
 74
     0
 42
0.00000001
 43
0.00000001
 40
0.0
 40
0.0
 40
0.0
 40
0.0
 40
1.0
 40
1.0
 40
1.0
 40
1.0
 10
159.9397464405005
 20
133.8472796951136
 30
0.0
 10
159.9989669562122
 20
134.123321923366
 30
0.0
 10
160.0657998169728
 20
134.3978401202146
 30
0.0
 10
160.1397464405005
 20
134.6709341044472
 30
0.0
  0
SPLINE
  5
406
330
1F
100
AcDbEntity
  8
SLD-0
  6
Continuous
 62
   179
370
    15
100
AcDbSpline
210
0.0
220
0.0
230
1.0
 70
     8
 71
     3
 72
     8
 73
     4
 74
     0
 42
0.00000001
 43
0.00000001
 40
0.0
 40
0.0
 40
0.0
 40
0.0
 40
1.0
 40
1.0
 40
1.0
 40
1.0
 10
160.1397464405004
 20
133.2313510518554
 30
0.0
 10
160.0657998169433
 20
133.4355706922185
 30
0.0
 10
159.998966956188
 20
133.6408553584824
 30
0.0
 10
159.9397464405005
 20
133.8472796951136
 30
0.0
  0
SPLINE
  5
407
330
1F
100
AcDbEntity
  8
SLD-0
  6
Continuous
 62
   179
370
    15
100
AcDbSpline
210
0.0
220
0.0
230
1.0
 70
     8
 71
     3
 72
     8
 73
     4
 74
     0
 42
0.00000001
 43
0.00000001
 40
0.0
 40
0.0
 40
0.0
 40
0.0
 40
1.0
 40
1.0
 40
1.0
 40
1.0
 10
159.9397464405004
 20
132.3724874565999
 30
0.0
 10
159.9989669562162
 20
132.6603298064123
 30
0.0
 10
160.0657998169779
 20
132.9465829762322
 30
0.0
 10
160.1397464405004
 20
133.2313510518554
 30
0.0
  0
SPLINE
  5
408
330
1F
100
AcDbEntity
  8
SLD-0
  6
Continuous
 62
   179
370
    15
100
AcDbSpline
210
0.0
220
0.0
230
1.0
 70
     8
 71
     3
 72
     8
 73
     4
 74
     0
 42
0.00000001
 43
0.00000001
 40
0.0
 40
0.0
 40
0.0
 40
0.0
 40
1.0
 40
1.0
 40
1.0
 40
1.0
 10
160.1397464405004
 20
131.6903259521722
 30
0.0
 10
160.0657998169469
 20
131.9165060115373
 30
0.0
 10
159.9989669561909
 20
132.1438656226013
 30
0.0
 10
159.9397464405004
 20
132.3724874565999
 30
0.0
  0
SPLINE
  5
409
330
1F
100
AcDbEntity
  8
SLD-0
  6
Continuous
 62
   179
370
    15
100
AcDbSpline
210
0.0
220
0.0
230
1.0
 70
     8
 71
     3
 72
     8
 73
     4
 74
     0
 42
0.00000001
 43
0.00000001
 40
0.0
 40
0.0
 40
0.0
 40
0.0
 40
1.0
 40
1.0
 40
1.0
 40
1.0
 10
159.9397464405004
 20
130.8056630602733
 30
0.0
 10
159.9989669562191
 20
131.1021518706211
 30
0.0
 10
160.0657998169813
 20
131.3970037637816
 30
0.0
 10
160.1397464405004
 20
131.6903259521722
 30
0.0
  0
SPLINE
  5
40A
330
1F
100
AcDbEntity
  8
SLD-0
  6
Continuous
 62
   179
370
    15
100
AcDbSpline
210
0.0
220
0.0
230
1.0
 70
     8
 71
     3
 72
     8
 73
     4
 74
     0
 42
0.00000001
 43
0.00000001
 40
0.0
 40
0.0
 40
0.0
 40
0.0
 40
1.0
 40
1.0
 40
1.0
 40
1.0
 10
160.1397464405004
 20
130.06474259887
 30
0.0
 10
160.0657998169588
 20
130.3104050011461
 30
0.0
 10
159.9989669562006
 20
130.5573485575322
 30
0.0
 10
159.9397464405004
 20
130.8056630602733
 30
0.0
  0
SPLINE
  5
40B
330
1F
100
AcDbEntity
  8
SLD-0
  6
Continuous
 62
   179
370
    15
100
AcDbSpline
210
0.0
220
0.0
230
1.0
 70
     8
 71
     3
 72
     8
 73
     4
 74
     0
 42
0.00000001
 43
0.00000001
 40
0.0
 40
0.0
 40
0.0
 40
0.0
 40
1.0
 40
1.0
 40
1.0
 40
1.0
 10
159.9397464405004
 20
129.163972962099
 30
0.0
 10
159.9989669562208
 20
129.4658598395265
 30
0.0
 10
160.0657998169834
 20
129.7660799969845
 30
0.0
 10
160.1397464405004
 20
130.06474259887
 30
0.0
  0
SPLINE
  5
40C
330
1F
100
AcDbEntity
  8
SLD-0
  6
Continuous
 62
   179
370
    15
100
AcDbSpline
210
0.0
220
0.0
230
1.0
 70
     8
 71
     3
 72
     8
 73
     4
 74
     0
 42
0.00000001
 43
0.00000001
 40
0.0
 40
0.0
 40
0.0
 40
0.0
 40
1.0
 40
1.0
 40
1.0
 40
1.0
 10
160.1397464405004
 20
128.3724112233427
 30
0.0
 10
160.0657998169677
 20
128.6348644398474
 30
0.0
 10
159.9989669562079
 20
128.8986863762758
 30
0.0
 10
159.9397464405004
 20
129.163972962099
 30
0.0
  0
SPLINE
  5
40D
330
1F
100
AcDbEntity
  8
SLD-0
  6
Continuous
 62
   179
370
    15
100
AcDbSpline
210
0.0
220
0.0
230
1.0
 70
     8
 71
     3
 72
     8
 73
     4
 74
     0
 42
0.00000001
 43
0.00000001
 40
0.0
 40
0.0
 40
0.0
 40
0.0
 40
1.0
 40
1.0
 40
1.0
 40
1.0
 10
159.9397464405004
 20
127.4654038623382
 30
0.0
 10
159.9989669562214
 20
127.7693812710372
 30
0.0
 10
160.0657998169842
 20
128.0716804179227
 30
0.0
 10
160.1397464405004
 20
128.3724112233427
 30
0.0
  0
SPLINE
  5
40E
330
1F
100
AcDbEntity
  8
SLD-0
  6
Continuous
 62
   179
370
    15
100
AcDbSpline
210
0.0
220
0.0
230
1.0
 70
     8
 71
     3
 72
     8
 73
     4
 74
     0
 42
0.00000001
 43
0.00000001
 40
0.0
 40
0.0
 40
0.0
 40
0.0
 40
1.0
 40
1.0
 40
1.0
 40
1.0
 10
160.1397464405003
 20
126.6318733622838
 30
0.0
 10
160.0657998169742
 20
126.9082419006601
 30
0.0
 10
159.9989669562133
 20
127.1860517287872
 30
0.0
 10
159.9397464405004
 20
127.4654038623382
 30
0.0
  0
SPLINE
  5
40F
330
1F
100
AcDbEntity
  8
SLD-0
  6
Continuous
 62
   179
370
    15
100
AcDbSpline
210
0.0
220
0.0
230
1.0
 70
     8
 71
     3
 72
     8
 73
     4
 74
     0
 42
0.00000001
 43
0.00000001
 40
0.0
 40
0.0
 40
0.0
 40
0.0
 40
1.0
 40
1.0
 40
1.0
 40
1.0
 10
159.9397464405003
 20
125.7285656394965
 30
0.0
 10
159.998966956221
 20
126.0313031393606
 30
0.0
 10
160.0657998169836
 20
126.3323692229604
 30
0.0
 10
160.1397464405003
 20
126.6318733622838
 30
0.0
  0
SPLINE
  5
410
330
1F
100
AcDbEntity
  8
SLD-0
  6
Continuous
 62
   179
370
    15
100
AcDbSpline
210
0.0
220
0.0
230
1.0
 70
     8
 71
     3
 72
     8
 73
     4
 74
     0
 42
0.00000001
 43
0.00000001
 40
0.0
 40
0.0
 40
0.0
 40
0.0
 40
1.0
 40
1.0
 40
1.0
 40
1.0
 10
160.1397464405003
 20
124.8621987127299
 30
0.0
 10
160.0657998169788
 20
125.1494546214427
 30
0.0
 10
159.998966956217
 20
125.4382085986562
 30
0.0
 10
159.9397464405003
 20
125.7285656394965
 30
0.0
  0
SPLINE
  5
411
330
1F
100
AcDbEntity
  8
SLD-0
  6
Continuous
 62
   179
370
    15
100
AcDbSpline
210
0.0
220
0.0
230
1.0
 70
     8
 71
     3
 72
     8
 73
     4
 74
     0
 42
0.00000001
 43
0.00000001
 40
0.0
 40
0.0
 40
0.0
 40
0.0
 40
1.0
 40
1.0
 40
1.0
 40
1.0
 10
159.9397464405003
 20
123.9724874565999
 30
0.0
 10
159.9989669562195
 20
124.2706681922236
 30
0.0
 10
160.0657998169819
 20
124.5672026695237
 30
0.0
 10
160.1397464405003
 20
124.8621987127299
 30
0.0
  0
SPLINE
  5
412
330
1F
100
AcDbEntity
  8
SLD-0
  6
Continuous
 62
   179
370
    15
100
AcDbSpline
210
0.0
220
0.0
230
1.0
 70
     8
 71
     3
 72
     8
 73
     4
 74
     0
 42
0.00000001
 43
0.00000001
 40
0.0
 40
0.0
 40
0.0
 40
0.0
 40
1.0
 40
1.0
 40
1.0
 40
1.0
 10
160.1397464405003
 20
123.0827762004698
 30
0.0
 10
160.0657998169819
 20
123.377772243676
 30
0.0
 10
159.9989669562195
 20
123.6743067209762
 30
0.0
 10
159.9397464405003
 20
123.9724874565999
 30
0.0
  0
SPLINE
  5
413
330
1F
100
AcDbEntity
  8
SLD-0
  6
Continuous
 62
   179
370
    15
100
AcDbSpline
210
0.0
220
0.0
230
1.0
 70
     8
 71
     3
 72
     8
 73
     4
 74
     0
 42
0.00000001
 43
0.00000001
 40
0.0
 40
0.0
 40
0.0
 40
0.0
 40
1.0
 40
1.0
 40
1.0
 40
1.0
 10
159.9397464405003
 20
122.2164092737033
 30
0.0
 10
159.998966956217
 20
122.5067663145436
 30
0.0
 10
160.0657998169788
 20
122.7955202917571
 30
0.0
 10
160.1397464405003
 20
123.0827762004698
 30
0.0
  0
SPLINE
  5
414
330
1F
100
AcDbEntity
  8
SLD-0
  6
Continuous
 62
   179
370
    15
100
AcDbSpline
210
0.0
220
0.0
230
1.0
 70
     8
 71
     3
 72
     8
 73
     4
 74
     0
 42
0.00000001
 43
0.00000001
 40
0.0
 40
0.0
 40
0.0
 40
0.0
 40
1.0
 40
1.0
 40
1.0
 40
1.0
 10
160.1397464405003
 20
121.3131015509159
 30
0.0
 10
160.0657998169836
 20
121.6126056902394
 30
0.0
 10
159.998966956221
 20
121.9136717738392
 30
0.0
 10
159.9397464405003
 20
122.2164092737033
 30
0.0
  0
SPLINE
  5
415
330
1F
100
AcDbEntity
  8
SLD-0
  6
Continuous
 62
   179
370
    15
100
AcDbSpline
210
0.0
220
0.0
230
1.0
 70
     8
 71
     3
 72
     8
 73
     4
 74
     0
 42
0.00000001
 43
0.00000001
 40
0.0
 40
0.0
 40
0.0
 40
0.0
 40
1.0
 40
1.0
 40
1.0
 40
1.0
 10
159.9397464405003
 20
120.4795710508615
 30
0.0
 10
159.9989669562133
 20
120.7589231844126
 30
0.0
 10
160.0657998169741
 20
121.0367330125397
 30
0.0
 10
160.1397464405003
 20
121.3131015509159
 30
0.0
  0
SPLINE
  5
416
330
1F
100
AcDbEntity
  8
SLD-0
  6
Continuous
 62
   179
370
    15
100
AcDbSpline
210
0.0
220
0.0
230
1.0
 70
     8
 71
     3
 72
     8
 73
     4
 74
     0
 42
0.00000001
 43
0.00000001
 40
0.0
 40
0.0
 40
0.0
 40
0.0
 40
1.0
 40
1.0
 40
1.0
 40
1.0
 10
160.1397464405003
 20
119.572563689857
 30
0.0
 10
160.0657998169841
 20
119.8732944952771
 30
0.0
 10
159.9989669562213
 20
120.1755936421626
 30
0.0
 10
159.9397464405003
 20
120.4795710508615
 30
0.0
  0
SPLINE
  5
417
330
1F
100
AcDbEntity
  8
SLD-0
  6
Continuous
 62
   179
370
    15
100
AcDbSpline
210
0.0
220
0.0
230
1.0
 70
     8
 71
     3
 72
     8
 73
     4
 74
     0
 42
0.00000001
 43
0.00000001
 40
0.0
 40
0.0
 40
0.0
 40
0.0
 40
1.0
 40
1.0
 40
1.0
 40
1.0
 10
159.9397464405003
 20
118.7810019511008
 30
0.0
 10
159.9989669562078
 20
119.046288536924
 30
0.0
 10
160.0657998169677
 20
119.3101104733524
 30
0.0
 10
160.1397464405003
 20
119.572563689857
 30
0.0
  0
SPLINE
  5
418
330
1F
100
AcDbEntity
  8
SLD-0
  6
Continuous
 62
   179
370
    15
100
AcDbSpline
210
0.0
220
0.0
230
1.0
 70
     8
 71
     3
 72
     8
 73
     4
 74
     0
 42
0.00000001
 43
0.00000001
 40
0.0
 40
0.0
 40
0.0
 40
0.0
 40
1.0
 40
1.0
 40
1.0
 40
1.0
 10
160.1397464405003
 20
117.8802323143298
 30
0.0
 10
160.0657998169833
 20
118.1788949162153
 30
0.0
 10
159.9989669562207
 20
118.4791150736733
 30
0.0
 10
159.9397464405003
 20
118.7810019511008
 30
0.0
  0
SPLINE
  5
419
330
1F
100
AcDbEntity
  8
SLD-0
  6
Continuous
 62
   179
370
    15
100
AcDbSpline
210
0.0
220
0.0
230
1.0
 70
     8
 71
     3
 72
     8
 73
     4
 74
     0
 42
0.00000001
 43
0.00000001
 40
0.0
 40
0.0
 40
0.0
 40
0.0
 40
1.0
 40
1.0
 40
1.0
 40
1.0
 10
159.9397464405003
 20
117.1393118529264
 30
0.0
 10
159.9989669562005
 20
117.3876263556676
 30
0.0
 10
160.0657998169587
 20
117.6345699120537
 30
0.0
 10
160.1397464405003
 20
117.8802323143298
 30
0.0
  0
SPLINE
  5
41A
330
1F
100
AcDbEntity
  8
SLD-0
  6
Continuous
 62
   179
370
    15
100
AcDbSpline
210
0.0
220
0.0
230
1.0
 70
     8
 71
     3
 72
     8
 73
     4
 74
     0
 42
0.00000001
 43
0.00000001
 40
0.0
 40
0.0
 40
0.0
 40
0.0
 40
1.0
 40
1.0
 40
1.0
 40
1.0
 10
160.1397464405003
 20
116.2546489610276
 30
0.0
 10
160.0657998169812
 20
116.5479711494182
 30
0.0
 10
159.998966956219
 20
116.8428230425787
 30
0.0
 10
159.9397464405003
 20
117.1393118529264
 30
0.0
  0
SPLINE
  5
41B
330
1F
100
AcDbEntity
  8
SLD-0
  6
Continuous
 62
   179
370
    15
100
AcDbSpline
210
0.0
220
0.0
230
1.0
 70
     8
 71
     3
 72
     8
 73
     4
 74
     0
 42
0.00000001
 43
0.00000001
 40
0.0
 40
0.0
 40
0.0
 40
0.0
 40
1.0
 40
1.0
 40
1.0
 40
1.0
 10
159.9397464405003
 20
115.5724874565999
 30
0.0
 10
159.9989669561908
 20
115.8011092905985
 30
0.0
 10
160.0657998169468
 20
116.0284689016625
 30
0.0
 10
160.1397464405003
 20
116.2546489610276
 30
0.0
  0
SPLINE
  5
41C
330
1F
100
AcDbEntity
  8
SLD-0
  6
Continuous
 62
   179
370
    15
100
AcDbSpline
210
0.0
220
0.0
230
1.0
 70
     8
 71
     3
 72
     8
 73
     4
 74
     0
 42
0.00000001
 43
0.00000001
 40
0.0
 40
0.0
 40
0.0
 40
0.0
 40
1.0
 40
1.0
 40
1.0
 40
1.0
 10
160.1397464405003
 20
114.7136238613444
 30
0.0
 10
160.0657998169778
 20
114.9983919369676
 30
0.0
 10
159.9989669562161
 20
115.2846451067875
 30
0.0
 10
159.9397464405003
 20
115.5724874565999
 30
0.0
  0
SPLINE
  5
41D
330
1F
100
AcDbEntity
  8
SLD-0
  6
Continuous
 62
   179
370
    15
100
AcDbSpline
210
0.0
220
0.0
230
1.0
 70
     8
 71
     3
 72
     8
 73
     4
 74
     0
 42
0.00000001
 43
0.00000001
 40
0.0
 40
0.0
 40
0.0
 40
0.0
 40
1.0
 40
1.0
 40
1.0
 40
1.0
 10
159.9397464405003
 20
114.0976952180863
 30
0.0
 10
159.9989669561878
 20
114.3041195547175
 30
0.0
 10
160.0657998169431
 20
114.5094042209814
 30
0.0
 10
160.1397464405003
 20
114.7136238613444
 30
0.0
  0
SPLINE
  5
41E
330
1F
100
AcDbEntity
  8
SLD-0
  6
Continuous
 62
   179
370
    15
100
AcDbSpline
210
0.0
220
0.0
230
1.0
 70
     8
 71
     3
 72
     8
 73
     4
 74
     0
 42
0.00000001
 43
0.00000001
 40
0.0
 40
0.0
 40
0.0
 40
0.0
 40
1.0
 40
1.0
 40
1.0
 40
1.0
 10
160.1397464405003
 20
113.2740408087526
 30
0.0
 10
160.0657998169726
 20
113.5471347929853
 30
0.0
 10
159.9989669562121
 20
113.8216529898339
 30
0.0
 10
159.9397464405003
 20
114.0976952180863
 30
0.0
  0
SPLINE
  5
41F
330
1F
100
AcDbEntity
  8
SLD-0
  6
Continuous
 62
   179
370
    15
100
AcDbSpline
210
0.0
220
0.0
230
1.0
 70
     8
 71
     3
 72
     8
 73
     4
 74
     0
 42
0.00000001
 43
0.00000001
 40
0.0
 40
0.0
 40
0.0
 40
0.0
 40
1.0
 40
1.0
 40
1.0
 40
1.0
 10
159.9397464405003
 20
112.7310932697711
 30
0.0
 10
159.9989669561983
 20
112.9130584808496
 30
0.0
 10
160.065799816956
 20
113.0940190605499
 30
0.0
 10
160.1397464405003
 20
113.2740408087526
 30
0.0
  0
SPLINE
  5
420
330
1F
100
AcDbEntity
  8
SLD-0
  6
Continuous
 62
   179
370
    15
100
AcDbSpline
210
0.0
220
0.0
230
1.0
 70
     8
 71
     3
 72
     8
 73
     4
 74
     0
 42
0.00000001
 43
0.00000001
 40
0.0
 40
0.0
 40
0.0
 40
0.0
 40
1.0
 40
1.0
 40
1.0
 40
1.0
 10
160.1397464405003
 20
111.9516721764286
 30
0.0
 10
160.0657998169656
 20
112.2100999944359
 30
0.0
 10
159.9989669562062
 20
112.4698755395021
 30
0.0
 10
159.9397464405003
 20
112.7310932697711
 30
0.0
  0
SPLINE
  5
421
330
1F
100
AcDbEntity
  8
SLD-0
  6
Continuous
 62
   179
370
    15
100
AcDbSpline
210
0.0
220
0.0
230
1.0
 70
     8
 71
     3
 72
     8
 73
     4
 74
     0
 42
0.00000001
 43
0.00000001
 40
0.0
 40
0.0
 40
0.0
 40
0.0
 40
1.0
 40
1.0
 40
1.0
 40
1.0
 10
159.9397464405003
 20
111.4876543885797
 30
0.0
 10
159.9989669562062
 20
111.6431668251581
 30
0.0
 10
160.0657998169656
 20
111.7978206763157
 30
0.0
 10
160.1397464405003
 20
111.9516721764286
 30
0.0
  0
SPLINE
  5
422
330
1F
100
AcDbEntity
  8
SLD-0
  6
Continuous
 62
   179
370
    15
100
AcDbSpline
210
0.0
220
0.0
230
1.0
 70
     8
 71
     3
 72
     8
 73
     4
 74
     0
 42
0.00000001
 43
0.00000001
 40
0.0
 40
0.0
 40
0.0
 40
0.0
 40
1.0
 40
1.0
 40
1.0
 40
1.0
 10
160.1397464405003
 20
110.7610061118314
 30
0.0
 10
160.065799816956
 20
111.0019363743648
 30
0.0
 10
159.9989669561983
 20
111.2441231124156
 30
0.0
 10
159.9397464405003
 20
111.4876543885797
 30
0.0
  0
SPLINE
  5
423
330
1F
100
AcDbEntity
  8
SLD-0
  6
Continuous
 62
   179
370
    15
100
AcDbSpline
210
0.0
220
0.0
230
1.0
 70
     8
 71
     3
 72
     8
 73
     4
 74
     0
 42
0.00000001
 43
0.00000001
 40
0.0
 40
0.0
 40
0.0
 40
0.0
 40
1.0
 40
1.0
 40
1.0
 40
1.0
 10
159.9397464405003
 20
110.3810019511008
 30
0.0
 10
159.9989669562121
 20
110.5083577863693
 30
0.0
 10
160.0657998169726
 20
110.6350104890278
 30
0.0
 10
160.1397464405003
 20
110.7610061118314
 30
0.0
  0
SPLINE
  5
424
330
1F
100
AcDbEntity
  8
SLD-0
  6
Continuous
 62
   179
370
    15
100
AcDbSpline
210
0.0
220
0.0
230
1.0
 70
     8
 71
     3
 72
     8
 73
     4
 74
     0
 42
0.00000001
 43
0.00000001
 40
0.0
 40
0.0
 40
0.0
 40
0.0
 40
1.0
 40
1.0
 40
1.0
 40
1.0
 10
160.1397464405003
 20
109.7150878015277
 30
0.0
 10
160.0657998169431
 20
109.9358808262181
 30
0.0
 10
159.9989669561878
 20
110.1578253086706
 30
0.0
 10
159.9397464405003
 20
110.3810019511008
 30
0.0
  0
SPLINE
  5
425
330
1F
100
AcDbEntity
  8
SLD-0
  6
Continuous
 62
   179
370
    15
100
AcDbSpline
210
0.0
220
0.0
230
1.0
 70
     8
 71
     3
 72
     8
 73
     4
 74
     0
 42
0.00000001
 43
0.00000001
 40
0.0
 40
0.0
 40
0.0
 40
0.0
 40
1.0
 40
1.0
 40
1.0
 40
1.0
 10
159.9397464405002
 20
109.4232606730213
 30
0.0
 10
159.998966956216
 20
109.5210645697894
 30
0.0
 10
160.0657998169777
 20
109.6183284904351
 30
0.0
 10
160.1397464405003
 20
109.7150878015277
 30
0.0
  0
SPLINE
  5
426
330
1F
100
AcDbEntity
  8
SLD-0
  6
Continuous
 62
   179
370
    15
100
AcDbSpline
210
0.0
220
0.0
230
1.0
 70
     8
 71
     3
 72
     8
 73
     4
 74
     0
 42
0.00000001
 43
0.00000001
 40
0.0
 40
0.0
 40
0.0
 40
0.0
 40
1.0
 40
1.0
 40
1.0
 40
1.0
 10
160.1397464405003
 20
108.8253765453976
 30
0.0
 10
160.0657998169467
 20
109.0236132776108
 30
0.0
 10
159.9989669561908
 20
109.2228838342686
 30
0.0
 10
159.9397464405002
 20
109.4232606730213
 30
0.0
  0
SPLINE
  5
427
330
1F
100
AcDbEntity
  8
SLD-0
  6
Continuous
 62
   179
370
    15
100
AcDbSpline
210
0.0
220
0.0
230
1.0
 70
     8
 71
     3
 72
     8
 73
     4
 74
     0
 42
0.00000001
 43
0.00000001
 40
0.0
 40
0.0
 40
0.0
 40
0.0
 40
1.0
 40
1.0
 40
1.0
 40
1.0
 10
159.9397464405002
 20
108.6249237682042
 30
0.0
 10
159.9989669562189
 20
108.6921041665065
 30
0.0
 10
160.0657998169811
 20
108.7589136612711
 30
0.0
 10
160.1397464405003
 20
108.8253765453976
 30
0.0
  0
SPLINE
  5
428
330
1F
100
AcDbEntity
  8
SLD-0
  6
Continuous
 62
   179
370
    15
100
AcDbSpline
210
0.0
220
0.0
230
1.0
 70
     8
 71
     3
 72
     8
 73
     4
 74
     0
 42
0.00000001
 43
0.00000001
 40
0.0
 40
0.0
 40
0.0
 40
0.0
 40
1.0
 40
1.0
 40
1.0
 40
1.0
 10
160.1397464405002
 20
108.1016202061475
 30
0.0
 10
160.0657998169586
 20
108.2751287227445
 30
0.0
 10
159.9989669562004
 20
108.4495421036883
 30
0.0
 10
159.9397464405002
 20
108.6249237682042
 30
0.0
  0
SPLINE
  5
429
330
1F
100
AcDbEntity
  8
SLD-0
  6
Continuous
 62
   179
370
    15
100
AcDbSpline
210
0.0
220
0.0
230
1.0
 70
     8
 71
     3
 72
     8
 73
     4
 74
     0
 42
0.00000001
 43
0.00000001
 40
0.0
 40
0.0
 40
0.0
 40
0.0
 40
1.0
 40
1.0
 40
1.0
 40
1.0
 10
159.9397464405002
 20
107.9947379828413
 30
0.0
 10
159.9989669562206
 20
108.0305588401718
 30
0.0
 10
160.0657998169831
 20
108.06618193025
 30
0.0
 10
160.1397464405002
 20
108.1016202061475
 30
0.0
  0
SPLINE
  5
42A
330
1F
100
AcDbEntity
  8
SLD-0
  6
Continuous
 62
   179
370
    15
100
AcDbSpline
210
0.0
220
0.0
230
1.0
 70
     8
 71
     3
 72
     8
 73
     4
 74
     0
 42
0.00000001
 43
0.00000001
 40
0.0
 40
0.0
 40
0.0
 40
0.0
 40
1.0
 40
1.0
 40
1.0
 40
1.0
 10
160.1397464405001
 20
107.5517484096858
 30
0.0
 10
160.0657998169675
 20
107.6986277150642
 30
0.0
 10
159.9989669562077
 20
107.8462730107946
 30
0.0
 10
159.9397464405002
 20
107.9947379828413
 30
0.0
  0
SPLINE
  5
42B
330
1F
100
AcDbEntity
  8
SLD-0
  6
Continuous
 62
   179
370
    15
100
AcDbSpline
210
0.0
220
0.0
230
1.0
 70
     8
 71
     3
 72
     8
 73
     4
 74
     0
 42
0.00000001
 43
0.00000001
 40
0.0
 40
0.0
 40
0.0
 40
0.0
 40
1.0
 40
1.0
 40
1.0
 40
1.0
 10
159.9397464405001
 20
107.5396077642721
 30
0.0
 10
159.9989669562211
 20
107.54367661982
 30
0.0
 10
160.0657998169839
 20
107.5477230111824
 30
0.0
 10
160.1397464405001
 20
107.5517484096858
 30
0.0
  0
SPLINE
  5
42C
330
1F
100
AcDbEntity
  8
SLD-0
  6
Continuous
 62
   179
370
    15
100
AcDbSpline
210
0.0
220
0.0
230
1.0
 70
     8
 71
     3
 72
     8
 73
     4
 74
     0
 42
0.00000001
 43
0.00000001
 40
0.0
 40
0.0
 40
0.0
 40
0.0
 40
1.0
 40
1.0
 40
1.0
 40
1.0
 10
160.1397464405
 20
107.1817856664827
 30
0.0
 10
160.0657998169739
 20
107.3004265202467
 30
0.0
 10
159.998966956213
 20
107.4196860980071
 30
0.0
 10
159.9397464405001
 20
107.5396077642721
 30
0.0
  0
SPLINE
  5
42D
330
1F
100
AcDbEntity
  8
SLD-0
  6
Continuous
 62
   179
370
    15
100
AcDbSpline
210
0.0
220
0.0
230
1.0
 70
     8
 71
     3
 72
     8
 73
     4
 74
     0
 42
0.00000001
 43
0.00000001
 40
0.0
 40
0.0
 40
0.0
 40
0.0
 40
1.0
 40
1.0
 40
1.0
 40
1.0
 10
159.9397464405
 20
107.264519614413
 30
0.0
 10
159.9989669562207
 20
107.2367918889453
 30
0.0
 10
160.0657998169833
 20
107.2092172484814
 30
0.0
 10
160.1397464405
 20
107.1817856664827
 30
0.0
  0
SPLINE
  5
42E
330
1F
100
AcDbEntity
  8
SLD-0
  6
Continuous
 62
   179
370
    15
100
AcDbSpline
210
0.0
220
0.0
230
1.0
 70
     8
 71
     3
 72
     8
 73
     4
 74
     0
 42
0.00000001
 43
0.00000001
 40
0.0
 40
0.0
 40
0.0
 40
0.0
 40
1.0
 40
1.0
 40
1.0
 40
1.0
 10
160.1397464405
 20
106.9957853657723
 30
0.0
 10
160.0657998169785
 20
107.0848879139081
 30
0.0
 10
159.9989669562167
 20
107.1744551408083
 30
0.0
 10
159.9397464405
 20
107.264519614413
 30
0.0
  0
SPLINE
  5
42F
330
1F
100
AcDbEntity
  8
SLD-0
  6
Continuous
 62
   179
370
    15
100
AcDbSpline
210
0.0
220
0.0
230
1.0
 70
     8
 71
     3
 72
     8
 73
     4
 74
     0
 42
0.00000001
 43
0.00000001
 40
0.0
 40
0.0
 40
0.0
 40
0.0
 40
1.0
 40
1.0
 40
1.0
 40
1.0
 10
159.9397464405
 20
107.1724874566
 30
0.0
 10
159.9989669562192
 20
107.1132669408808
 30
0.0
 10
160.0657998169816
 20
107.0543733821217
 30
0.0
 10
160.1397464405
 20
106.9957853657723
 30
0.0
  0
SPLINE
  5
430
330
1F
100
AcDbEntity
  8
SLD-0
  6
Continuous
 62
   179
370
    15
100
AcDbSpline
210
0.0
220
0.0
230
1.0
 70
     8
 71
     3
 72
     8
 73
     4
 74
     0
 42
0.00000001
 43
0.00000001
 40
0.0
 40
0.0
 40
0.0
 40
0.0
 40
1.0
 40
1.0
 40
1.0
 40
1.0
 10
164.4397464405
 20
125.7285656394965
 30
0.0
 10
164.3805259247832
 20
125.4382085986562
 30
0.0
 10
164.3136930640214
 20
125.1494546214427
 30
0.0
 10
164.2397464405
 20
124.8621987127299
 30
0.0
  0
SPLINE
  5
431
330
1F
100
AcDbEntity
  8
SLD-0
  6
Continuous
 62
   179
370
    15
100
AcDbSpline
210
0.0
220
0.0
230
1.0
 70
     8
 71
     3
 72
     8
 73
     4
 74
     0
 42
0.00000001
 43
0.00000001
 40
0.0
 40
0.0
 40
0.0
 40
0.0
 40
1.0
 40
1.0
 40
1.0
 40
1.0
 10
164.2397464405
 20
124.8621987127299
 30
0.0
 10
164.3136930640183
 20
124.5672026695237
 30
0.0
 10
164.3805259247807
 20
124.2706681922236
 30
0.0
 10
164.4397464405
 20
123.9724874565999
 30
0.0
  0
SPLINE
  5
432
330
1F
100
AcDbEntity
  8
SLD-0
  6
Continuous
 62
   179
370
    15
100
AcDbSpline
210
0.0
220
0.0
230
1.0
 70
     8
 71
     3
 72
     8
 73
     4
 74
     0
 42
0.00000001
 43
0.00000001
 40
0.0
 40
0.0
 40
0.0
 40
0.0
 40
1.0
 40
1.0
 40
1.0
 40
1.0
 10
164.2397464405
 20
106.9957853657723
 30
0.0
 10
164.3136930640183
 20
107.0543733821217
 30
0.0
 10
164.3805259247807
 20
107.1132669408808
 30
0.0
 10
164.4397464405
 20
107.1724874566
 30
0.0
  0
SPLINE
  5
433
330
1F
100
AcDbEntity
  8
SLD-0
  6
Continuous
 62
   179
370
    15
100
AcDbSpline
210
0.0
220
0.0
230
1.0
 70
     8
 71
     3
 72
     8
 73
     4
 74
     0
 42
0.00000001
 43
0.00000001
 40
0.0
 40
0.0
 40
0.0
 40
0.0
 40
1.0
 40
1.0
 40
1.0
 40
1.0
 10
164.4397464405
 20
107.264519614413
 30
0.0
 10
164.3805259247832
 20
107.1744551408083
 30
0.0
 10
164.3136930640214
 20
107.0848879139081
 30
0.0
 10
164.2397464405
 20
106.9957853657723
 30
0.0
  0
SPLINE
  5
434
330
1F
100
AcDbEntity
  8
SLD-0
  6
Continuous
 62
   179
370
    15
100
AcDbSpline
210
0.0
220
0.0
230
1.0
 70
     8
 71
     3
 72
     8
 73
     4
 74
     0
 42
0.00000001
 43
0.00000001
 40
0.0
 40
0.0
 40
0.0
 40
0.0
 40
1.0
 40
1.0
 40
1.0
 40
1.0
 10
164.2397464405
 20
107.1817856664827
 30
0.0
 10
164.3136930640166
 20
107.2092172484814
 30
0.0
 10
164.3805259247792
 20
107.2367918889453
 30
0.0
 10
164.4397464405
 20
107.264519614413
 30
0.0
  0
SPLINE
  5
435
330
1F
100
AcDbEntity
  8
SLD-0
  6
Continuous
 62
   179
370
    15
100
AcDbSpline
210
0.0
220
0.0
230
1.0
 70
     8
 71
     3
 72
     8
 73
     4
 74
     0
 42
0.00000001
 43
0.00000001
 40
0.0
 40
0.0
 40
0.0
 40
0.0
 40
1.0
 40
1.0
 40
1.0
 40
1.0
 10
164.4397464405
 20
107.5396077642721
 30
0.0
 10
164.380525924787
 20
107.4196860980071
 30
0.0
 10
164.3136930640261
 20
107.3004265202467
 30
0.0
 10
164.2397464405
 20
107.1817856664827
 30
0.0
  0
SPLINE
  5
436
330
1F
100
AcDbEntity
  8
SLD-0
  6
Continuous
 62
   179
370
    15
100
AcDbSpline
210
0.0
220
0.0
230
1.0
 70
     8
 71
     3
 72
     8
 73
     4
 74
     0
 42
0.00000001
 43
0.00000001
 40
0.0
 40
0.0
 40
0.0
 40
0.0
 40
1.0
 40
1.0
 40
1.0
 40
1.0
 10
164.2397464405
 20
107.5517484096858
 30
0.0
 10
164.3136930640161
 20
107.5477230111824
 30
0.0
 10
164.3805259247789
 20
107.54367661982
 30
0.0
 10
164.4397464405
 20
107.5396077642721
 30
0.0
  0
SPLINE
  5
437
330
1F
100
AcDbEntity
  8
SLD-0
  6
Continuous
 62
   179
370
    15
100
AcDbSpline
210
0.0
220
0.0
230
1.0
 70
     8
 71
     3
 72
     8
 73
     4
 74
     0
 42
0.00000001
 43
0.00000001
 40
0.0
 40
0.0
 40
0.0
 40
0.0
 40
1.0
 40
1.0
 40
1.0
 40
1.0
 10
164.4397464405
 20
107.9947379828413
 30
0.0
 10
164.3805259247924
 20
107.8462730107946
 30
0.0
 10
164.3136930640326
 20
107.6986277150642
 30
0.0
 10
164.2397464405
 20
107.5517484096858
 30
0.0
  0
SPLINE
  5
438
330
1F
100
AcDbEntity
  8
SLD-0
  6
Continuous
 62
   179
370
    15
100
AcDbSpline
210
0.0
220
0.0
230
1.0
 70
     8
 71
     3
 72
     8
 73
     4
 74
     0
 42
0.00000001
 43
0.00000001
 40
0.0
 40
0.0
 40
0.0
 40
0.0
 40
1.0
 40
1.0
 40
1.0
 40
1.0
 10
164.2397464405
 20
108.1016202061475
 30
0.0
 10
164.3136930640169
 20
108.06618193025
 30
0.0
 10
164.3805259247795
 20
108.0305588401718
 30
0.0
 10
164.4397464405
 20
107.9947379828413
 30
0.0
  0
SPLINE
  5
439
330
1F
100
AcDbEntity
  8
SLD-0
  6
Continuous
 62
   179
370
    15
100
AcDbSpline
210
0.0
220
0.0
230
1.0
 70
     8
 71
     3
 72
     8
 73
     4
 74
     0
 42
0.00000001
 43
0.00000001
 40
0.0
 40
0.0
 40
0.0
 40
0.0
 40
1.0
 40
1.0
 40
1.0
 40
1.0
 10
164.4397464405
 20
108.6249237682042
 30
0.0
 10
164.3805259247997
 20
108.4495421036883
 30
0.0
 10
164.3136930640415
 20
108.2751287227445
 30
0.0
 10
164.2397464405
 20
108.1016202061475
 30
0.0
  0
SPLINE
  5
43A
330
1F
100
AcDbEntity
  8
SLD-0
  6
Continuous
 62
   179
370
    15
100
AcDbSpline
210
0.0
220
0.0
230
1.0
 70
     8
 71
     3
 72
     8
 73
     4
 74
     0
 42
0.00000001
 43
0.00000001
 40
0.0
 40
0.0
 40
0.0
 40
0.0
 40
1.0
 40
1.0
 40
1.0
 40
1.0
 10
164.2397464405
 20
108.8253765453976
 30
0.0
 10
164.313693064019
 20
108.7589136612711
 30
0.0
 10
164.3805259247812
 20
108.6921041665064
 30
0.0
 10
164.4397464405
 20
108.6249237682042
 30
0.0
  0
SPLINE
  5
43B
330
1F
100
AcDbEntity
  8
SLD-0
  6
Continuous
 62
   179
370
    15
100
AcDbSpline
210
0.0
220
0.0
230
1.0
 70
     8
 71
     3
 72
     8
 73
     4
 74
     0
 42
0.00000001
 43
0.00000001
 40
0.0
 40
0.0
 40
0.0
 40
0.0
 40
1.0
 40
1.0
 40
1.0
 40
1.0
 10
164.4397464405
 20
109.4232606730213
 30
0.0
 10
164.3805259248095
 20
109.2228838342686
 30
0.0
 10
164.3136930640534
 20
109.0236132776108
 30
0.0
 10
164.2397464405
 20
108.8253765453976
 30
0.0
  0
SPLINE
  5
43C
330
1F
100
AcDbEntity
  8
SLD-0
  6
Continuous
 62
   179
370
    15
100
AcDbSpline
210
0.0
220
0.0
230
1.0
 70
     8
 71
     3
 72
     8
 73
     4
 74
     0
 42
0.00000001
 43
0.00000001
 40
0.0
 40
0.0
 40
0.0
 40
0.0
 40
1.0
 40
1.0
 40
1.0
 40
1.0
 10
164.2397464405
 20
109.7150878015277
 30
0.0
 10
164.3136930640225
 20
109.6183284904351
 30
0.0
 10
164.3805259247841
 20
109.5210645697894
 30
0.0
 10
164.4397464405
 20
109.4232606730213
 30
0.0
  0
SPLINE
  5
43D
330
1F
100
AcDbEntity
  8
SLD-0
  6
Continuous
 62
   179
370
    15
100
AcDbSpline
210
0.0
220
0.0
230
1.0
 70
     8
 71
     3
 72
     8
 73
     4
 74
     0
 42
0.00000001
 43
0.00000001
 40
0.0
 40
0.0
 40
0.0
 40
0.0
 40
1.0
 40
1.0
 40
1.0
 40
1.0
 10
164.4397464405
 20
110.3810019511008
 30
0.0
 10
164.3805259248124
 20
110.1578253086706
 30
0.0
 10
164.3136930640571
 20
109.9358808262181
 30
0.0
 10
164.2397464405
 20
109.7150878015277
 30
0.0
  0
SPLINE
  5
43E
330
1F
100
AcDbEntity
  8
SLD-0
  6
Continuous
 62
   179
370
    15
100
AcDbSpline
210
0.0
220
0.0
230
1.0
 70
     8
 71
     3
 72
     8
 73
     4
 74
     0
 42
0.00000001
 43
0.00000001
 40
0.0
 40
0.0
 40
0.0
 40
0.0
 40
1.0
 40
1.0
 40
1.0
 40
1.0
 10
164.2397464405
 20
110.7610061118314
 30
0.0
 10
164.3136930640276
 20
110.6350104890278
 30
0.0
 10
164.3805259247883
 20
110.5083577863693
 30
0.0
 10
164.4397464405
 20
110.3810019511008
 30
0.0
  0
SPLINE
  5
43F
330
1F
100
AcDbEntity
  8
SLD-0
  6
Continuous
 62
   179
370
    15
100
AcDbSpline
210
0.0
220
0.0
230
1.0
 70
     8
 71
     3
 72
     8
 73
     4
 74
     0
 42
0.00000001
 43
0.00000001
 40
0.0
 40
0.0
 40
0.0
 40
0.0
 40
1.0
 40
1.0
 40
1.0
 40
1.0
 10
164.4397464405
 20
111.4876543885797
 30
0.0
 10
164.3805259248019
 20
111.2441231124156
 30
0.0
 10
164.3136930640442
 20
111.0019363743648
 30
0.0
 10
164.2397464405
 20
110.7610061118314
 30
0.0
  0
SPLINE
  5
440
330
1F
100
AcDbEntity
  8
SLD-0
  6
Continuous
 62
   179
370
    15
100
AcDbSpline
210
0.0
220
0.0
230
1.0
 70
     8
 71
     3
 72
     8
 73
     4
 74
     0
 42
0.00000001
 43
0.00000001
 40
0.0
 40
0.0
 40
0.0
 40
0.0
 40
1.0
 40
1.0
 40
1.0
 40
1.0
 10
164.2397464405
 20
111.9516721764286
 30
0.0
 10
164.3136930640346
 20
111.7978206763157
 30
0.0
 10
164.380525924794
 20
111.6431668251581
 30
0.0
 10
164.4397464405
 20
111.4876543885797
 30
0.0
  0
SPLINE
  5
441
330
1F
100
AcDbEntity
  8
SLD-0
  6
Continuous
 62
   179
370
    15
100
AcDbSpline
210
0.0
220
0.0
230
1.0
 70
     8
 71
     3
 72
     8
 73
     4
 74
     0
 42
0.00000001
 43
0.00000001
 40
0.0
 40
0.0
 40
0.0
 40
0.0
 40
1.0
 40
1.0
 40
1.0
 40
1.0
 10
164.4397464405
 20
112.7310932697711
 30
0.0
 10
164.3805259247941
 20
112.4698755395021
 30
0.0
 10
164.3136930640346
 20
112.2100999944359
 30
0.0
 10
164.2397464405
 20
111.9516721764286
 30
0.0
  0
SPLINE
  5
442
330
1F
100
AcDbEntity
  8
SLD-0
  6
Continuous
 62
   179
370
    15
100
AcDbSpline
210
0.0
220
0.0
230
1.0
 70
     8
 71
     3
 72
     8
 73
     4
 74
     0
 42
0.00000001
 43
0.00000001
 40
0.0
 40
0.0
 40
0.0
 40
0.0
 40
1.0
 40
1.0
 40
1.0
 40
1.0
 10
164.2397464405
 20
113.2740408087526
 30
0.0
 10
164.3136930640442
 20
113.0940190605499
 30
0.0
 10
164.3805259248019
 20
112.9130584808496
 30
0.0
 10
164.4397464405
 20
112.7310932697711
 30
0.0
  0
SPLINE
  5
443
330
1F
100
AcDbEntity
  8
SLD-0
  6
Continuous
 62
   179
370
    15
100
AcDbSpline
210
0.0
220
0.0
230
1.0
 70
     8
 71
     3
 72
     8
 73
     4
 74
     0
 42
0.00000001
 43
0.00000001
 40
0.0
 40
0.0
 40
0.0
 40
0.0
 40
1.0
 40
1.0
 40
1.0
 40
1.0
 10
164.4397464405
 20
114.0976952180863
 30
0.0
 10
164.3805259247883
 20
113.8216529898339
 30
0.0
 10
164.3136930640276
 20
113.5471347929853
 30
0.0
 10
164.2397464405
 20
113.2740408087526
 30
0.0
  0
SPLINE
  5
444
330
1F
100
AcDbEntity
  8
SLD-0
  6
Continuous
 62
   179
370
    15
100
AcDbSpline
210
0.0
220
0.0
230
1.0
 70
     8
 71
     3
 72
     8
 73
     4
 74
     0
 42
0.00000001
 43
0.00000001
 40
0.0
 40
0.0
 40
0.0
 40
0.0
 40
1.0
 40
1.0
 40
1.0
 40
1.0
 10
164.2397464405
 20
114.7136238613444
 30
0.0
 10
164.3136930640571
 20
114.5094042209814
 30
0.0
 10
164.3805259248124
 20
114.3041195547175
 30
0.0
 10
164.4397464405
 20
114.0976952180863
 30
0.0
  0
SPLINE
  5
445
330
1F
100
AcDbEntity
  8
SLD-0
  6
Continuous
 62
   179
370
    15
100
AcDbSpline
210
0.0
220
0.0
230
1.0
 70
     8
 71
     3
 72
     8
 73
     4
 74
     0
 42
0.00000001
 43
0.00000001
 40
0.0
 40
0.0
 40
0.0
 40
0.0
 40
1.0
 40
1.0
 40
1.0
 40
1.0
 10
164.4397464405
 20
115.5724874565999
 30
0.0
 10
164.3805259247841
 20
115.2846451067875
 30
0.0
 10
164.3136930640225
 20
114.9983919369676
 30
0.0
 10
164.2397464405
 20
114.7136238613444
 30
0.0
  0
SPLINE
  5
446
330
1F
100
AcDbEntity
  8
SLD-0
  6
Continuous
 62
   179
370
    15
100
AcDbSpline
210
0.0
220
0.0
230
1.0
 70
     8
 71
     3
 72
     8
 73
     4
 74
     0
 42
0.00000001
 43
0.00000001
 40
0.0
 40
0.0
 40
0.0
 40
0.0
 40
1.0
 40
1.0
 40
1.0
 40
1.0
 10
164.2397464405
 20
116.2546489610276
 30
0.0
 10
164.3136930640534
 20
116.0284689016625
 30
0.0
 10
164.3805259248095
 20
115.8011092905985
 30
0.0
 10
164.4397464405
 20
115.5724874565999
 30
0.0
  0
SPLINE
  5
447
330
1F
100
AcDbEntity
  8
SLD-0
  6
Continuous
 62
   179
370
    15
100
AcDbSpline
210
0.0
220
0.0
230
1.0
 70
     8
 71
     3
 72
     8
 73
     4
 74
     0
 42
0.00000001
 43
0.00000001
 40
0.0
 40
0.0
 40
0.0
 40
0.0
 40
1.0
 40
1.0
 40
1.0
 40
1.0
 10
164.4397464405
 20
117.1393118529264
 30
0.0
 10
164.3805259247812
 20
116.8428230425787
 30
0.0
 10
164.313693064019
 20
116.5479711494182
 30
0.0
 10
164.2397464405
 20
116.2546489610276
 30
0.0
  0
SPLINE
  5
448
330
1F
100
AcDbEntity
  8
SLD-0
  6
Continuous
 62
   179
370
    15
100
AcDbSpline
210
0.0
220
0.0
230
1.0
 70
     8
 71
     3
 72
     8
 73
     4
 74
     0
 42
0.00000001
 43
0.00000001
 40
0.0
 40
0.0
 40
0.0
 40
0.0
 40
1.0
 40
1.0
 40
1.0
 40
1.0
 10
164.2397464405
 20
117.8802323143298
 30
0.0
 10
164.3136930640415
 20
117.6345699120537
 30
0.0
 10
164.3805259247997
 20
117.3876263556676
 30
0.0
 10
164.4397464405
 20
117.1393118529264
 30
0.0
  0
SPLINE
  5
449
330
1F
100
AcDbEntity
  8
SLD-0
  6
Continuous
 62
   179
370
    15
100
AcDbSpline
210
0.0
220
0.0
230
1.0
 70
     8
 71
     3
 72
     8
 73
     4
 74
     0
 42
0.00000001
 43
0.00000001
 40
0.0
 40
0.0
 40
0.0
 40
0.0
 40
1.0
 40
1.0
 40
1.0
 40
1.0
 10
164.4397464405
 20
118.7810019511008
 30
0.0
 10
164.3805259247795
 20
118.4791150736733
 30
0.0
 10
164.3136930640169
 20
118.1788949162153
 30
0.0
 10
164.2397464405
 20
117.8802323143298
 30
0.0
  0
SPLINE
  5
44A
330
1F
100
AcDbEntity
  8
SLD-0
  6
Continuous
 62
   179
370
    15
100
AcDbSpline
210
0.0
220
0.0
230
1.0
 70
     8
 71
     3
 72
     8
 73
     4
 74
     0
 42
0.00000001
 43
0.00000001
 40
0.0
 40
0.0
 40
0.0
 40
0.0
 40
1.0
 40
1.0
 40
1.0
 40
1.0
 10
164.2397464405
 20
119.572563689857
 30
0.0
 10
164.3136930640326
 20
119.3101104733524
 30
0.0
 10
164.3805259247924
 20
119.046288536924
 30
0.0
 10
164.4397464405
 20
118.7810019511008
 30
0.0
  0
SPLINE
  5
44B
330
1F
100
AcDbEntity
  8
SLD-0
  6
Continuous
 62
   179
370
    15
100
AcDbSpline
210
0.0
220
0.0
230
1.0
 70
     8
 71
     3
 72
     8
 73
     4
 74
     0
 42
0.00000001
 43
0.00000001
 40
0.0
 40
0.0
 40
0.0
 40
0.0
 40
1.0
 40
1.0
 40
1.0
 40
1.0
 10
164.4397464405
 20
120.4795710508615
 30
0.0
 10
164.3805259247789
 20
120.1755936421626
 30
0.0
 10
164.3136930640161
 20
119.8732944952771
 30
0.0
 10
164.2397464405
 20
119.572563689857
 30
0.0
  0
SPLINE
  5
44C
330
1F
100
AcDbEntity
  8
SLD-0
  6
Continuous
 62
   179
370
    15
100
AcDbSpline
210
0.0
220
0.0
230
1.0
 70
     8
 71
     3
 72
     8
 73
     4
 74
     0
 42
0.00000001
 43
0.00000001
 40
0.0
 40
0.0
 40
0.0
 40
0.0
 40
1.0
 40
1.0
 40
1.0
 40
1.0
 10
164.2397464405
 20
121.3131015509159
 30
0.0
 10
164.3136930640261
 20
121.0367330125396
 30
0.0
 10
164.380525924787
 20
120.7589231844126
 30
0.0
 10
164.4397464405
 20
120.4795710508615
 30
0.0
  0
SPLINE
  5
44D
330
1F
100
AcDbEntity
  8
SLD-0
  6
Continuous
 62
   179
370
    15
100
AcDbSpline
210
0.0
220
0.0
230
1.0
 70
     8
 71
     3
 72
     8
 73
     4
 74
     0
 42
0.00000001
 43
0.00000001
 40
0.0
 40
0.0
 40
0.0
 40
0.0
 40
1.0
 40
1.0
 40
1.0
 40
1.0
 10
164.4397464405
 20
122.2164092737033
 30
0.0
 10
164.3805259247792
 20
121.9136717738392
 30
0.0
 10
164.3136930640166
 20
121.6126056902394
 30
0.0
 10
164.2397464405
 20
121.3131015509159
 30
0.0
  0
SPLINE
  5
44E
330
1F
100
AcDbEntity
  8
SLD-0
  6
Continuous
 62
   179
370
    15
100
AcDbSpline
210
0.0
220
0.0
230
1.0
 70
     8
 71
     3
 72
     8
 73
     4
 74
     0
 42
0.00000001
 43
0.00000001
 40
0.0
 40
0.0
 40
0.0
 40
0.0
 40
1.0
 40
1.0
 40
1.0
 40
1.0
 10
164.2397464405
 20
123.0827762004698
 30
0.0
 10
164.3136930640214
 20
122.7955202917571
 30
0.0
 10
164.3805259247832
 20
122.5067663145436
 30
0.0
 10
164.4397464405
 20
122.2164092737033
 30
0.0
  0
SPLINE
  5
44F
330
1F
100
AcDbEntity
  8
SLD-0
  6
Continuous
 62
   179
370
    15
100
AcDbSpline
210
0.0
220
0.0
230
1.0
 70
     8
 71
     3
 72
     8
 73
     4
 74
     0
 42
0.00000001
 43
0.00000001
 40
0.0
 40
0.0
 40
0.0
 40
0.0
 40
1.0
 40
1.0
 40
1.0
 40
1.0
 10
164.4397464405
 20
123.9724874565999
 30
0.0
 10
164.3805259247807
 20
123.6743067209762
 30
0.0
 10
164.3136930640183
 20
123.377772243676
 30
0.0
 10
164.2397464405
 20
123.0827762004698
 30
0.0
  0
SPLINE
  5
450
330
1F
100
AcDbEntity
  8
SLD-0
  6
Continuous
 62
   179
370
    15
100
AcDbSpline
210
0.0
220
0.0
230
1.0
 70
     8
 71
     3
 72
     8
 73
     4
 74
     0
 42
0.00000001
 43
0.00000001
 40
0.0
 40
0.0
 40
0.0
 40
0.0
 40
1.0
 40
1.0
 40
1.0
 40
1.0
 10
164.2397464405
 20
126.6318733622838
 30
0.0
 10
164.3136930640166
 20
126.3323692229604
 30
0.0
 10
164.3805259247792
 20
126.0313031393606
 30
0.0
 10
164.4397464405
 20
125.7285656394965
 30
0.0
  0
SPLINE
  5
451
330
1F
100
AcDbEntity
  8
SLD-0
  6
Continuous
 62
   179
370
    15
100
AcDbSpline
210
0.0
220
0.0
230
1.0
 70
     8
 71
     3
 72
     8
 73
     4
 74
     0
 42
0.00000001
 43
0.00000001
 40
0.0
 40
0.0
 40
0.0
 40
0.0
 40
1.0
 40
1.0
 40
1.0
 40
1.0
 10
164.4397464405
 20
127.4654038623382
 30
0.0
 10
164.380525924787
 20
127.1860517287872
 30
0.0
 10
164.3136930640261
 20
126.9082419006601
 30
0.0
 10
164.2397464405
 20
126.6318733622838
 30
0.0
  0
SPLINE
  5
452
330
1F
100
AcDbEntity
  8
SLD-0
  6
Continuous
 62
   179
370
    15
100
AcDbSpline
210
0.0
220
0.0
230
1.0
 70
     8
 71
     3
 72
     8
 73
     4
 74
     0
 42
0.00000001
 43
0.00000001
 40
0.0
 40
0.0
 40
0.0
 40
0.0
 40
1.0
 40
1.0
 40
1.0
 40
1.0
 10
164.2397464405
 20
128.3724112233427
 30
0.0
 10
164.3136930640161
 20
128.0716804179227
 30
0.0
 10
164.3805259247789
 20
127.7693812710372
 30
0.0
 10
164.4397464405
 20
127.4654038623382
 30
0.0
  0
SPLINE
  5
453
330
1F
100
AcDbEntity
  8
SLD-0
  6
Continuous
 62
   179
370
    15
100
AcDbSpline
210
0.0
220
0.0
230
1.0
 70
     8
 71
     3
 72
     8
 73
     4
 74
     0
 42
0.00000001
 43
0.00000001
 40
0.0
 40
0.0
 40
0.0
 40
0.0
 40
1.0
 40
1.0
 40
1.0
 40
1.0
 10
164.4397464405
 20
129.163972962099
 30
0.0
 10
164.3805259247924
 20
128.8986863762758
 30
0.0
 10
164.3136930640326
 20
128.6348644398474
 30
0.0
 10
164.2397464405
 20
128.3724112233427
 30
0.0
  0
SPLINE
  5
454
330
1F
100
AcDbEntity
  8
SLD-0
  6
Continuous
 62
   179
370
    15
100
AcDbSpline
210
0.0
220
0.0
230
1.0
 70
     8
 71
     3
 72
     8
 73
     4
 74
     0
 42
0.00000001
 43
0.00000001
 40
0.0
 40
0.0
 40
0.0
 40
0.0
 40
1.0
 40
1.0
 40
1.0
 40
1.0
 10
164.2397464405
 20
130.06474259887
 30
0.0
 10
164.3136930640169
 20
129.7660799969845
 30
0.0
 10
164.3805259247795
 20
129.4658598395265
 30
0.0
 10
164.4397464405
 20
129.163972962099
 30
0.0
  0
SPLINE
  5
455
330
1F
100
AcDbEntity
  8
SLD-0
  6
Continuous
 62
   179
370
    15
100
AcDbSpline
210
0.0
220
0.0
230
1.0
 70
     8
 71
     3
 72
     8
 73
     4
 74
     0
 42
0.00000001
 43
0.00000001
 40
0.0
 40
0.0
 40
0.0
 40
0.0
 40
1.0
 40
1.0
 40
1.0
 40
1.0
 10
164.4397464405
 20
130.8056630602733
 30
0.0
 10
164.3805259247997
 20
130.5573485575322
 30
0.0
 10
164.3136930640415
 20
130.3104050011461
 30
0.0
 10
164.2397464405
 20
130.06474259887
 30
0.0
  0
SPLINE
  5
456
330
1F
100
AcDbEntity
  8
SLD-0
  6
Continuous
 62
   179
370
    15
100
AcDbSpline
210
0.0
220
0.0
230
1.0
 70
     8
 71
     3
 72
     8
 73
     4
 74
     0
 42
0.00000001
 43
0.00000001
 40
0.0
 40
0.0
 40
0.0
 40
0.0
 40
1.0
 40
1.0
 40
1.0
 40
1.0
 10
164.2397464405
 20
131.6903259521722
 30
0.0
 10
164.313693064019
 20
131.3970037637816
 30
0.0
 10
164.3805259247812
 20
131.1021518706211
 30
0.0
 10
164.4397464405
 20
130.8056630602733
 30
0.0
  0
SPLINE
  5
457
330
1F
100
AcDbEntity
  8
SLD-0
  6
Continuous
 62
   179
370
    15
100
AcDbSpline
210
0.0
220
0.0
230
1.0
 70
     8
 71
     3
 72
     8
 73
     4
 74
     0
 42
0.00000001
 43
0.00000001
 40
0.0
 40
0.0
 40
0.0
 40
0.0
 40
1.0
 40
1.0
 40
1.0
 40
1.0
 10
164.4397464405
 20
132.3724874565999
 30
0.0
 10
164.3805259248095
 20
132.1438656226013
 30
0.0
 10
164.3136930640534
 20
131.9165060115373
 30
0.0
 10
164.2397464405
 20
131.6903259521722
 30
0.0
  0
SPLINE
  5
458
330
1F
100
AcDbEntity
  8
SLD-0
  6
Continuous
 62
   179
370
    15
100
AcDbSpline
210
0.0
220
0.0
230
1.0
 70
     8
 71
     3
 72
     8
 73
     4
 74
     0
 42
0.00000001
 43
0.00000001
 40
0.0
 40
0.0
 40
0.0
 40
0.0
 40
1.0
 40
1.0
 40
1.0
 40
1.0
 10
164.2397464405
 20
133.2313510518553
 30
0.0
 10
164.3136930640225
 20
132.9465829762322
 30
0.0
 10
164.3805259247841
 20
132.6603298064123
 30
0.0
 10
164.4397464405
 20
132.3724874565999
 30
0.0
  0
SPLINE
  5
459
330
1F
100
AcDbEntity
  8
SLD-0
  6
Continuous
 62
   179
370
    15
100
AcDbSpline
210
0.0
220
0.0
230
1.0
 70
     8
 71
     3
 72
     8
 73
     4
 74
     0
 42
0.00000001
 43
0.00000001
 40
0.0
 40
0.0
 40
0.0
 40
0.0
 40
1.0
 40
1.0
 40
1.0
 40
1.0
 10
164.4397464405
 20
133.8472796951135
 30
0.0
 10
164.3805259248124
 20
133.6408553584823
 30
0.0
 10
164.3136930640571
 20
133.4355706922183
 30
0.0
 10
164.2397464405
 20
133.2313510518553
 30
0.0
  0
SPLINE
  5
45A
330
1F
100
AcDbEntity
  8
SLD-0
  6
Continuous
 62
   179
370
    15
100
AcDbSpline
210
0.0
220
0.0
230
1.0
 70
     8
 71
     3
 72
     8
 73
     4
 74
     0
 42
0.00000001
 43
0.00000001
 40
0.0
 40
0.0
 40
0.0
 40
0.0
 40
1.0
 40
1.0
 40
1.0
 40
1.0
 10
164.2397464405
 20
134.6709341044471
 30
0.0
 10
164.3136930640276
 20
134.3978401202145
 30
0.0
 10
164.3805259247883
 20
134.1233219233659
 30
0.0
 10
164.4397464405
 20
133.8472796951135
 30
0.0
  0
SPLINE
  5
45B
330
1F
100
AcDbEntity
  8
SLD-0
  6
Continuous
 62
   179
370
    15
100
AcDbSpline
210
0.0
220
0.0
230
1.0
 70
     8
 71
     3
 72
     8
 73
     4
 74
     0
 42
0.00000001
 43
0.00000001
 40
0.0
 40
0.0
 40
0.0
 40
0.0
 40
1.0
 40
1.0
 40
1.0
 40
1.0
 10
164.4397464405
 20
135.2138816434287
 30
0.0
 10
164.3805259248019
 20
135.0319164323502
 30
0.0
 10
164.3136930640442
 20
134.8509558526499
 30
0.0
 10
164.2397464405
 20
134.6709341044471
 30
0.0
  0
SPLINE
  5
45C
330
1F
100
AcDbEntity
  8
SLD-0
  6
Continuous
 62
   179
370
    15
100
AcDbSpline
210
0.0
220
0.0
230
1.0
 70
     8
 71
     3
 72
     8
 73
     4
 74
     0
 42
0.00000001
 43
0.00000001
 40
0.0
 40
0.0
 40
0.0
 40
0.0
 40
1.0
 40
1.0
 40
1.0
 40
1.0
 10
164.2397464405
 20
135.9933027367712
 30
0.0
 10
164.3136930640346
 20
135.7348749187639
 30
0.0
 10
164.3805259247941
 20
135.4750993736977
 30
0.0
 10
164.4397464405
 20
135.2138816434287
 30
0.0
  0
SPLINE
  5
45D
330
1F
100
AcDbEntity
  8
SLD-0
  6
Continuous
 62
   179
370
    15
100
AcDbSpline
210
0.0
220
0.0
230
1.0
 70
     8
 71
     3
 72
     8
 73
     4
 74
     0
 42
0.00000001
 43
0.00000001
 40
0.0
 40
0.0
 40
0.0
 40
0.0
 40
1.0
 40
1.0
 40
1.0
 40
1.0
 10
164.4397464405
 20
136.4573205246201
 30
0.0
 10
164.380525924794
 20
136.3018080880417
 30
0.0
 10
164.3136930640346
 20
136.1471542368842
 30
0.0
 10
164.2397464405
 20
135.9933027367712
 30
0.0
  0
SPLINE
  5
45E
330
1F
100
AcDbEntity
  8
SLD-0
  6
Continuous
 62
   179
370
    15
100
AcDbSpline
210
0.0
220
0.0
230
1.0
 70
     8
 71
     3
 72
     8
 73
     4
 74
     0
 42
0.00000001
 43
0.00000001
 40
0.0
 40
0.0
 40
0.0
 40
0.0
 40
1.0
 40
1.0
 40
1.0
 40
1.0
 10
164.2397464405
 20
137.1839688013684
 30
0.0
 10
164.3136930640442
 20
136.9430385388349
 30
0.0
 10
164.3805259248019
 20
136.7008518007842
 30
0.0
 10
164.4397464405
 20
136.4573205246201
 30
0.0
  0
SPLINE
  5
45F
330
1F
100
AcDbEntity
  8
SLD-0
  6
Continuous
 62
   179
370
    15
100
AcDbSpline
210
0.0
220
0.0
230
1.0
 70
     8
 71
     3
 72
     8
 73
     4
 74
     0
 42
0.00000001
 43
0.00000001
 40
0.0
 40
0.0
 40
0.0
 40
0.0
 40
1.0
 40
1.0
 40
1.0
 40
1.0
 10
164.4397464405
 20
137.563972962099
 30
0.0
 10
164.3805259247883
 20
137.4366171268305
 30
0.0
 10
164.3136930640276
 20
137.309964424172
 30
0.0
 10
164.2397464405
 20
137.1839688013684
 30
0.0
  0
SPLINE
  5
460
330
1F
100
AcDbEntity
  8
SLD-0
  6
Continuous
 62
   179
370
    15
100
AcDbSpline
210
0.0
220
0.0
230
1.0
 70
     8
 71
     3
 72
     8
 73
     4
 74
     0
 42
0.00000001
 43
0.00000001
 40
0.0
 40
0.0
 40
0.0
 40
0.0
 40
1.0
 40
1.0
 40
1.0
 40
1.0
 10
164.2397464405
 20
138.2298871116721
 30
0.0
 10
164.3136930640571
 20
138.0090940869817
 30
0.0
 10
164.3805259248124
 20
137.7871496045292
 30
0.0
 10
164.4397464405
 20
137.563972962099
 30
0.0
  0
SPLINE
  5
461
330
1F
100
AcDbEntity
  8
SLD-0
  6
Continuous
 62
   179
370
    15
100
AcDbSpline
210
0.0
220
0.0
230
1.0
 70
     8
 71
     3
 72
     8
 73
     4
 74
     0
 42
0.00000001
 43
0.00000001
 40
0.0
 40
0.0
 40
0.0
 40
0.0
 40
1.0
 40
1.0
 40
1.0
 40
1.0
 10
164.4397464405
 20
138.5217142401785
 30
0.0
 10
164.3805259247841
 20
138.4239103434104
 30
0.0
 10
164.3136930640225
 20
138.3266464227647
 30
0.0
 10
164.2397464405
 20
138.2298871116721
 30
0.0
  0
SPLINE
  5
462
330
1F
100
AcDbEntity
  8
SLD-0
  6
Continuous
 62
   179
370
    15
100
AcDbSpline
210
0.0
220
0.0
230
1.0
 70
     8
 71
     3
 72
     8
 73
     4
 74
     0
 42
0.00000001
 43
0.00000001
 40
0.0
 40
0.0
 40
0.0
 40
0.0
 40
1.0
 40
1.0
 40
1.0
 40
1.0
 10
164.2397464405
 20
139.1195983678022
 30
0.0
 10
164.3136930640534
 20
138.921361635589
 30
0.0
 10
164.3805259248095
 20
138.7220910789312
 30
0.0
 10
164.4397464405
 20
138.5217142401785
 30
0.0
  0
SPLINE
  5
463
330
1F
100
AcDbEntity
  8
SLD-0
  6
Continuous
 62
   179
370
    15
100
AcDbSpline
210
0.0
220
0.0
230
1.0
 70
     8
 71
     3
 72
     8
 73
     4
 74
     0
 42
0.00000001
 43
0.00000001
 40
0.0
 40
0.0
 40
0.0
 40
0.0
 40
1.0
 40
1.0
 40
1.0
 40
1.0
 10
164.4397464405
 20
139.3200511449956
 30
0.0
 10
164.3805259247812
 20
139.2528707466934
 30
0.0
 10
164.313693064019
 20
139.1860612519288
 30
0.0
 10
164.2397464405
 20
139.1195983678022
 30
0.0
  0
SPLINE
  5
464
330
1F
100
AcDbEntity
  8
SLD-0
  6
Continuous
 62
   179
370
    15
100
AcDbSpline
210
0.0
220
0.0
230
1.0
 70
     8
 71
     3
 72
     8
 73
     4
 74
     0
 42
0.00000001
 43
0.00000001
 40
0.0
 40
0.0
 40
0.0
 40
0.0
 40
1.0
 40
1.0
 40
1.0
 40
1.0
 10
164.2397464405
 20
139.8433547070524
 30
0.0
 10
164.3136930640415
 20
139.6698461904553
 30
0.0
 10
164.3805259247997
 20
139.4954328095115
 30
0.0
 10
164.4397464405
 20
139.3200511449956
 30
0.0
  0
SPLINE
  5
465
330
1F
100
AcDbEntity
  8
SLD-0
  6
Continuous
 62
   179
370
    15
100
AcDbSpline
210
0.0
220
0.0
230
1.0
 70
     8
 71
     3
 72
     8
 73
     4
 74
     0
 42
0.00000001
 43
0.00000001
 40
0.0
 40
0.0
 40
0.0
 40
0.0
 40
1.0
 40
1.0
 40
1.0
 40
1.0
 10
164.4397464405
 20
139.9502369303585
 30
0.0
 10
164.3805259247795
 20
139.914416073028
 30
0.0
 10
164.3136930640169
 20
139.8787929829498
 30
0.0
 10
164.2397464405
 20
139.8433547070524
 30
0.0
  0
SPLINE
  5
466
330
1F
100
AcDbEntity
  8
SLD-0
  6
Continuous
 62
   179
370
    15
100
AcDbSpline
210
0.0
220
0.0
230
1.0
 70
     8
 71
     3
 72
     8
 73
     4
 74
     0
 42
0.00000001
 43
0.00000001
 40
0.0
 40
0.0
 40
0.0
 40
0.0
 40
1.0
 40
1.0
 40
1.0
 40
1.0
 10
164.2397464405
 20
140.3932265035141
 30
0.0
 10
164.3136930640326
 20
140.2463471981356
 30
0.0
 10
164.3805259247924
 20
140.0987019024053
 30
0.0
 10
164.4397464405
 20
139.9502369303585
 30
0.0
  0
SPLINE
  5
467
330
1F
100
AcDbEntity
  8
SLD-0
  6
Continuous
 62
   179
370
    15
100
AcDbSpline
210
0.0
220
0.0
230
1.0
 70
     8
 71
     3
 72
     8
 73
     4
 74
     0
 42
0.00000001
 43
0.00000001
 40
0.0
 40
0.0
 40
0.0
 40
0.0
 40
1.0
 40
1.0
 40
1.0
 40
1.0
 10
164.4397464405
 20
140.4053671489279
 30
0.0
 10
164.3805259247789
 20
140.40129829338
 30
0.0
 10
164.3136930640161
 20
140.3972519020175
 30
0.0
 10
164.2397464405
 20
140.3932265035141
 30
0.0
  0
SPLINE
  5
468
330
1F
100
AcDbEntity
  8
SLD-0
  6
Continuous
 62
   179
370
    15
100
AcDbSpline
210
0.0
220
0.0
230
1.0
 70
     8
 71
     3
 72
     8
 73
     4
 74
     0
 42
0.00000001
 43
0.00000001
 40
0.0
 40
0.0
 40
0.0
 40
0.0
 40
1.0
 40
1.0
 40
1.0
 40
1.0
 10
164.2397464405
 20
140.7631892467173
 30
0.0
 10
164.3136930640261
 20
140.6445483929533
 30
0.0
 10
164.380525924787
 20
140.5252888151928
 30
0.0
 10
164.4397464405
 20
140.4053671489279
 30
0.0
  0
SPLINE
  5
469
330
1F
100
AcDbEntity
  8
SLD-0
  6
Continuous
 62
   179
370
    15
100
AcDbSpline
210
0.0
220
0.0
230
1.0
 70
     8
 71
     3
 72
     8
 73
     4
 74
     0
 42
0.00000001
 43
0.00000001
 40
0.0
 40
0.0
 40
0.0
 40
0.0
 40
1.0
 40
1.0
 40
1.0
 40
1.0
 10
164.4397464405
 20
140.6804552987869
 30
0.0
 10
164.3805259247792
 20
140.7081830242547
 30
0.0
 10
164.3136930640166
 20
140.7357576647186
 30
0.0
 10
164.2397464405
 20
140.7631892467173
 30
0.0
  0
SPLINE
  5
46A
330
1F
100
AcDbEntity
  8
SLD-0
  6
Continuous
 62
   179
370
    15
100
AcDbSpline
210
0.0
220
0.0
230
1.0
 70
     8
 71
     3
 72
     8
 73
     4
 74
     0
 42
0.00000001
 43
0.00000001
 40
0.0
 40
0.0
 40
0.0
 40
0.0
 40
1.0
 40
1.0
 40
1.0
 40
1.0
 10
164.2397464405
 20
140.9491895474277
 30
0.0
 10
164.3136930640214
 20
140.8600869992918
 30
0.0
 10
164.3805259247832
 20
140.7705197723917
 30
0.0
 10
164.4397464405
 20
140.6804552987869
 30
0.0
  0
SPLINE
  5
46B
330
1F
100
AcDbEntity
  8
SLD-0
  6
Continuous
 62
   179
370
    15
100
AcDbSpline
210
0.0
220
0.0
230
1.0
 70
     8
 71
     3
 72
     8
 73
     4
 74
     0
 42
0.00000001
 43
0.00000001
 40
0.0
 40
0.0
 40
0.0
 40
0.0
 40
1.0
 40
1.0
 40
1.0
 40
1.0
 10
164.4397464405
 20
140.7724874566
 30
0.0
 10
164.3805259247807
 20
140.8317079723192
 30
0.0
 10
164.3136930640183
 20
140.8906015310782
 30
0.0
 10
164.2397464405
 20
140.9491895474277
 30
0.0
  0
SPLINE
  5
46C
330
1F
100
AcDbEntity
  8
SLD-0
  6
Continuous
 62
   179
370
    15
100
AcDbSpline
210
0.0
220
0.0
230
1.0
 70
     8
 71
     3
 72
    10
 73
     6
 74
     0
 42
0.00000001
 43
0.00000001
 40
0.0
 40
0.0
 40
0.0
 40
0.0
 40
0.5
 40
0.5
 40
1.0
 40
1.0
 40
1.0
 40
1.0
 10
161.7547836182071
 20
140.9491889483858
 30
0.0
 10
161.891549832078
 20
140.9321673106451
 30
0.0
 10
162.0364352180584
 20
140.9227404532222
 30
0.0
 10
162.3313602562517
 20
140.9222092117495
 30
0.0
 10
162.4768224066619
 20
140.9311429558943
 30
0.0
 10
162.6141521852862
 20
140.9477571464899
 30
0.0
  0
SPLINE
  5
46D
330
1F
100
AcDbEntity
  8
SLD-0
  6
Continuous
 62
   179
370
    15
100
AcDbSpline
210
0.0
220
0.0
230
1.0
 70
     8
 71
     3
 72
    17
 73
    13
 74
     0
 42
0.00000001
 43
0.00000001
 40
0.4996701089169019
 40
0.4996701089169019
 40
0.4996701089169019
 40
0.4996701089169019
 40
0.5313881417963483
 40
0.561917806866714
 40
0.6243376873099592
 40
0.6869476183999909
 40
0.7499126158830499
 40
0.8127296879321667
 40
0.875379341767546
 40
0.9377625929162111
 40
0.9682841269053798
 40
1.0
 40
1.0
 40
1.0
 40
1.0
 10
156.9397790689281
 20
137.2084544638641
 30
0.0
 10
156.8377386757606
 20
137.2082942744593
 30
0.0
 10
156.6385010626485
 20
137.2186558516005
 30
0.0
 10
156.2532098931402
 20
137.2855355298503
 30
0.0
 10
155.8371055623407
 20
137.4550435559001
 30
0.0
 10
155.4881781629308
 20
137.7338917190144
 30
0.0
 10
155.3825607209034
 20
138.0490844112001
 30
0.0
 10
155.4881562082561
 20
138.3432293901002
 30
0.0
 10
155.837332402473
 20
138.5727573039578
 30
0.0
 10
156.2534038777267
 20
138.6985490888165
 30
0.0
 10
156.6383821817959
 20
138.7483433008539
 30
0.0
 10
156.8380147227145
 20
138.7525180725663
 30
0.0
 10
156.939746472638
 20
138.7546455154665
 30
0.0
  0
SPLINE
  5
46E
330
1F
100
AcDbEntity
  8
SLD-0
  6
Continuous
 62
   179
370
    15
100
AcDbSpline
210
0.0
220
0.0
230
1.0
 70
     8
 71
     3
 72
    15
 73
    11
 74
     0
 42
0.00000001
 43
0.00000001
 40
0.0
 40
0.0
 40
0.0
 40
0.0
 40
0.0619355260676113
 40
0.1242779447371751
 40
0.186877951259736
 40
0.249752440423877
 40
0.3126581465452829
 40
0.3753158699346665
 40
0.4376564411534853
 40
0.4996701089169019
 40
0.4996701089169019
 40
0.4996701089169019
 40
0.4996701089169019
 10
156.939746472638
 20
138.7546455154665
 30
0.0
 10
157.1401250464517
 20
138.745973190598
 30
0.0
 10
157.5421986042956
 20
138.7285715670199
 30
0.0
 10
158.0420177225187
 20
138.5715238962694
 30
0.0
 10
158.3912530575261
 20
138.3436900095948
 30
0.0
 10
158.4969177897145
 20
138.0492043983916
 30
0.0
 10
158.3914560472197
 20
137.7340423028274
 30
0.0
 10
158.0425918652477
 20
137.4553543975331
 30
0.0
 10
157.5433293227155
 20
137.2510946554238
 30
0.0
 10
157.1392838447883
 20
137.2087676589657
 30
0.0
 10
156.9397790689281
 20
137.2084544638641
 30
0.0
  0
SPLINE
  5
46F
330
1F
100
AcDbEntity
  8
SLD-0
  6
Continuous
 62
   179
370
    15
100
AcDbSpline
210
0.0
220
0.0
230
1.0
 70
     8
 71
     3
 72
    17
 73
    13
 74
     0
 42
0.00000001
 43
0.00000001
 40
0.4996701102612916
 40
0.4996701102612916
 40
0.4996701102612916
 40
0.4996701102612916
 40
0.53138814391807
 40
0.561917799792644
 40
0.6243377024031297
 40
0.6869476850651041
 40
0.7499125702014793
 40
0.8127296744275821
 40
0.8753793454568981
 40
0.937762598165393
 40
0.9682841251537547
 40
1.0
 40
1.0
 40
1.0
 40
1.0
 10
156.9397790689281
 20
109.1903281996496
 30
0.0
 10
156.8377386819982
 20
109.1902366119637
 30
0.0
 10
156.6385011280687
 20
109.197598327205
 30
0.0
 10
156.2532097149531
 20
109.2459189356043
 30
0.0
 10
155.8371054710128
 20
109.3724402936626
 30
0.0
 10
155.4881785166959
 20
109.6020539143156
 30
0.0
 10
155.3825606501452
 20
109.8962398553044
 30
0.0
 10
155.4881562214224
 20
110.2114353695898
 30
0.0
 10
155.8373323458355
 20
110.4902448237808
 30
0.0
 10
156.2534038035039
 20
110.6587197092602
 30
0.0
 10
156.6383822338615
 20
110.7276867021098
 30
0.0
 10
156.8380147308847
 20
110.7335376413171
 30
0.0
 10
156.939746472638
 20
110.736519251252
 30
0.0
  0
SPLINE
  5
470
330
1F
100
AcDbEntity
  8
SLD-0
  6
Continuous
 62
   179
370
    15
100
AcDbSpline
210
0.0
220
0.0
230
1.0
 70
     8
 71
     3
 72
    15
 73
    11
 74
     0
 42
0.00000001
 43
0.00000001
 40
0.0
 40
0.0
 40
0.0
 40
0.0
 40
0.0619355313321644
 40
0.124277915293814
 40
0.1868779627779177
 40
0.2497524795323412
 40
0.3126581558443519
 40
0.3753158704386628
 40
0.4376564421152294
 40
0.4996701102612916
 40
0.4996701102612916
 40
0.4996701102612916
 40
0.4996701102612916
 10
156.939746472638
 20
110.736519251252
 30
0.0
 10
157.14012500855
 20
110.7241836585715
 30
0.0
 10
157.5421983609074
 20
110.6994314410759
 30
0.0
 10
158.0420180752415
 20
110.4884614479273
 30
0.0
 10
158.3912529601867
 20
110.2120674337506
 30
0.0
 10
158.4969178186906
 20
109.8963150076619
 30
0.0
 10
158.3914560093619
 20
109.6022113124172
 30
0.0
 10
158.0425918255527
 20
109.3726461032676
 30
0.0
 10
157.5433293341921
 20
109.2203223570976
 30
0.0
 10
157.1392838289345
 20
109.1905072677602
 30
0.0
 10
156.9397790689281
 20
109.1903281996496
 30
0.0
  0
SPLINE
  5
471
330
1F
100
AcDbEntity
  8
SLD-0
  6
Continuous
 62
   179
370
    15
100
AcDbSpline
210
0.0
220
0.0
230
1.0
 70
     8
 71
     3
 72
     8
 73
     4
 74
     0
 42
0.00000001
 43
0.00000001
 40
0.0
 40
0.0
 40
0.0
 40
0.0
 40
0.0952805906439922
 40
0.0952805906439922
 40
0.0952805906439922
 40
0.0952805906439922
 10
89.72642210838781
 20
139.3724811861646
 30
0.0
 10
89.71242084192549
 20
139.3714904043818
 30
0.0
 10
89.69841957546312
 20
139.3704996225991
 30
0.0
 10
89.65288487789617
 20
139.3679298127424
 30
0.0
  0
SPLINE
  5
472
330
1F
100
AcDbEntity
  8
SLD-0
  6
Continuous
 62
   179
370
    15
100
AcDbSpline
210
0.0
220
0.0
230
1.0
 70
     8
 71
     3
 72
     8
 73
     4
 74
     0
 42
0.00000001
 43
0.00000001
 40
0.0952805906439922
 40
0.0952805906439922
 40
0.0952805906439922
 40
0.0952805906439922
 40
0.1932660652721236
 40
0.1932660652721236
 40
0.1932660652721236
 40
0.1932660652721236
 10
89.65288487789617
 20
139.3679298127424
 30
0.0
 10
89.60605751334073
 20
139.3652870495437
 30
0.0
 10
89.52588092360759
 20
139.3609743328717
 30
0.0
 10
89.43201241610038
 20
139.3566151747835
 30
0.0
  0
SPLINE
  5
473
330
1F
100
AcDbEntity
  8
SLD-0
  6
Continuous
 62
   179
370
    15
100
AcDbSpline
210
0.0
220
0.0
230
1.0
 70
     8
 71
     3
 72
     8
 73
     4
 74
     0
 42
0.00000001
 43
0.00000001
 40
0.1932660652721236
 40
0.1932660652721236
 40
0.1932660652721236
 40
0.1932660652721236
 40
0.2908551802475571
 40
0.2908551802475571
 40
0.2908551802475571
 40
0.2908551802475571
 10
89.43201241610038
 20
139.3566151747835
 30
0.0
 10
89.33852361476063
 20
139.3522736498638
 30
0.0
 10
89.23145344157433
 20
139.347886058487
 30
0.0
 10
89.11192057249534
 20
139.3447845841181
 30
0.0
  0
SPLINE
  5
474
330
1F
100
AcDbEntity
  8
SLD-0
  6
Continuous
 62
   179
370
    15
100
AcDbSpline
210
0.0
220
0.0
230
1.0
 70
     8
 71
     3
 72
     8
 73
     4
 74
     0
 42
0.00000001
 43
0.00000001
 40
0.2908551802475571
 40
0.2908551802475571
 40
0.2908551802475571
 40
0.2908551802475571
 40
0.3377279622213515
 40
0.3377279622213515
 40
0.3377279622213515
 40
0.3377279622213515
 10
89.11192057249534
 20
139.3447845841181
 30
0.0
 10
89.05450804126733
 20
139.343294922777
 30
0.0
 10
88.99422042496843
 20
139.3421019625543
 30
0.0
 10
88.9327415597199
 20
139.3413070256245
 30
0.0
  0
SPLINE
  5
475
330
1F
100
AcDbEntity
  8
SLD-0
  6
Continuous
 62
   179
370
    15
100
AcDbSpline
210
0.0
220
0.0
230
1.0
 70
     8
 71
     3
 72
     8
 73
     4
 74
     0
 42
0.00000001
 43
0.00000001
 40
0.3377279622213515
 40
0.3377279622213515
 40
0.3377279622213515
 40
0.3377279622213515
 40
0.3858640553978727
 40
0.3858640553978727
 40
0.3858640553978727
 40
0.3858640553978727
 10
88.9327415597199
 20
139.3413070256245
 30
0.0
 10
88.86960572136398
 20
139.3404906636228
 30
0.0
 10
88.80521355584926
 20
139.3400940690198
 30
0.0
 10
88.74079970238195
 20
139.3400897870195
 30
0.0
  0
SPLINE
  5
476
330
1F
100
AcDbEntity
  8
SLD-0
  6
Continuous
 62
   179
370
    15
100
AcDbSpline
210
0.0
220
0.0
230
1.0
 70
     8
 71
     3
 72
     8
 73
     4
 74
     0
 42
0.00000001
 43
0.00000001
 40
0.3858640553978727
 40
0.3858640553978727
 40
0.3858640553978727
 40
0.3858640553978727
 40
0.4339020780712047
 40
0.4339020780712047
 40
0.4339020780712047
 40
0.4339020780712047
 10
88.74079970238195
 20
139.3400897870195
 30
0.0
 10
88.67651708305947
 20
139.3400855137432
 30
0.0
 10
88.61221286406669
 20
139.3404719561347
 30
0.0
 10
88.54920802233204
 20
139.3412781546247
 30
0.0
  0
SPLINE
  5
477
330
1F
100
AcDbEntity
  8
SLD-0
  6
Continuous
 62
   179
370
    15
100
AcDbSpline
210
0.0
220
0.0
230
1.0
 70
     8
 71
     3
 72
     8
 73
     4
 74
     0
 42
0.00000001
 43
0.00000001
 40
0.4339020780712047
 40
0.4339020780712047
 40
0.4339020780712047
 40
0.4339020780712047
 40
0.4807642409726727
 40
0.4807642409726727
 40
0.4807642409726727
 40
0.4807642409726727
 10
88.54920802233204
 20
139.3412781546247
 30
0.0
 10
88.4877453935093
 20
139.342064619239
 30
0.0
 10
88.42751930897155
 20
139.3432505421333
 30
0.0
 10
88.36999920723423
 20
139.3447436059248
 30
0.0
  0
SPLINE
  5
478
330
1F
100
AcDbEntity
  8
SLD-0
  6
Continuous
 62
   179
370
    15
100
AcDbSpline
210
0.0
220
0.0
230
1.0
 70
     8
 71
     3
 72
     8
 73
     4
 74
     0
 42
0.00000001
 43
0.00000001
 40
0.4807642409726727
 40
0.4807642409726727
 40
0.4807642409726727
 40
0.4807642409726727
 40
0.5786220855169857
 40
0.5786220855169857
 40
0.5786220855169857
 40
0.5786220855169857
 10
88.36999920723423
 20
139.3447436059248
 30
0.0
 10
88.24988539204784
 20
139.3478614305271
 30
0.0
 10
88.14157129583853
 20
139.3523185749039
 30
0.0
 10
88.04872272131429
 20
139.3565918917191
 30
0.0
  0
SPLINE
  5
479
330
1F
100
AcDbEntity
  8
SLD-0
  6
Continuous
 62
   179
370
    15
100
AcDbSpline
210
0.0
220
0.0
230
1.0
 70
     8
 71
     3
 72
     8
 73
     4
 74
     0
 42
0.00000001
 43
0.00000001
 40
0.5786220855169857
 40
0.5786220855169857
 40
0.5786220855169857
 40
0.5786220855169857
 40
0.6766584394116383
 40
0.6766584394116383
 40
0.6766584394116383
 40
0.6766584394116383
 10
88.04872272131429
 20
139.3565918917191
 30
0.0
 10
87.9557047752001
 20
139.3608730037909
 30
0.0
 10
87.8782088257173
 20
139.364969617024
 30
0.0
 10
87.82706049797522
 20
139.3679102549684
 30
0.0
  0
SPLINE
  5
47A
330
1F
100
AcDbEntity
  8
SLD-0
  6
Continuous
 62
   179
370
    15
100
AcDbSpline
210
0.0
220
0.0
230
1.0
 70
     8
 71
     3
 72
     8
 73
     4
 74
     0
 42
0.00000001
 43
0.00000001
 40
0.6766584394116383
 40
0.6766584394116383
 40
0.6766584394116383
 40
0.6766584394116383
 40
0.7239684675478154
 40
0.7239684675478154
 40
0.7239684675478154
 40
0.7239684675478154
 10
87.82706049797522
 20
139.3679102549684
 30
0.0
 10
87.80237752346156
 20
139.3693293373635
 30
0.0
 10
87.78383038194707
 20
139.3704792162838
 30
0.0
 10
87.77156857368934
 20
139.371263016237
 30
0.0
  0
SPLINE
  5
47B
330
1F
100
AcDbEntity
  8
SLD-0
  6
Continuous
 62
   179
370
    15
100
AcDbSpline
210
0.0
220
0.0
230
1.0
 70
     8
 71
     3
 72
     8
 73
     4
 74
     0
 42
0.00000001
 43
0.00000001
 40
0.7239684675478154
 40
0.7239684675478154
 40
0.7239684675478154
 40
0.7239684675478154
 40
0.7480312623448261
 40
0.7480312623448261
 40
0.7480312623448261
 40
0.7480312623448261
 10
87.77156857368934
 20
139.371263016237
 30
0.0
 10
87.76533198099283
 20
139.3716616720437
 30
0.0
 10
87.7607213639252
 20
139.3719656255563
 30
0.0
 10
87.75765833971487
 20
139.3721701244247
 30
0.0
  0
SPLINE
  5
47C
330
1F
100
AcDbEntity
  8
SLD-0
  6
Continuous
 62
   179
370
    15
100
AcDbSpline
210
0.0
220
0.0
230
1.0
 70
     8
 71
     3
 72
     8
 73
     4
 74
     0
 42
0.00000001
 43
0.00000001
 40
0.7480312623448261
 40
0.7480312623448261
 40
0.7480312623448261
 40
0.7480312623448261
 40
0.7602659623031605
 40
0.7602659623031605
 40
0.7602659623031605
 40
0.7602659623031605
 10
87.75765833971487
 20
139.3721701244247
 30
0.0
 10
87.7561009486265
 20
139.3722741016358
 30
0.0
 10
87.75494364157917
 20
139.3723523678107
 30
0.0
 10
87.7541640174149
 20
139.3724057490361
 30
0.0
  0
SPLINE
  5
47D
330
1F
100
AcDbEntity
  8
SLD-0
  6
Continuous
 62
   179
370
    15
100
AcDbSpline
210
0.0
220
0.0
230
1.0
 70
     8
 71
     3
 72
     8
 73
     4
 74
     0
 42
0.00000001
 43
0.00000001
 40
0.7602659623031605
 40
0.7602659623031605
 40
0.7602659623031605
 40
0.7602659623031605
 40
0.7664462276754911
 40
0.7664462276754911
 40
0.7664462276754911
 40
0.7664462276754911
 10
87.7541640174149
 20
139.3724057490361
 30
0.0
 10
87.75377019621436
 20
139.3724327141549
 30
0.0
 10
87.75347274790838
 20
139.3724533294106
 30
0.0
 10
87.75327739832386
 20
139.3724662850034
 30
0.0
  0
SPLINE
  5
47E
330
1F
100
AcDbEntity
  8
SLD-0
  6
Continuous
 62
   179
370
    15
100
AcDbSpline
210
0.0
220
0.0
230
1.0
 70
     8
 71
     3
 72
     8
 73
     4
 74
     0
 42
0.00000001
 43
0.00000001
 40
0.7664462276754911
 40
0.7664462276754911
 40
0.7664462276754911
 40
0.7664462276754911
 40
0.7695535077779874
 40
0.7695535077779874
 40
0.7695535077779874
 40
0.7695535077779874
 10
87.75327739832386
 20
139.3724662850034
 30
0.0
 10
87.75317918152565
 20
139.3724727987457
 30
0.0
 10
87.75310677347117
 20
139.3724773762612
 30
0.0
 10
87.75305388090597
 20
139.3724811861646
 30
0.0
  0
SPLINE
  5
47F
330
1F
100
AcDbEntity
  8
SLD-0
  6
Continuous
 62
   179
370
    15
100
AcDbSpline
210
0.0
220
0.0
230
1.0
 70
     8
 71
     3
 72
     8
 73
     4
 74
     0
 42
0.00000001
 43
0.00000001
 40
0.7695535077779874
 40
0.7695535077779874
 40
0.7695535077779874
 40
0.7695535077779874
 40
0.7711116253655627
 40
0.7711116253655627
 40
0.7711116253655627
 40
0.7711116253655627
 10
87.75305388090597
 20
139.3724811861646
 30
0.0
 10
87.75302735840611
 20
139.3724830966062
 30
0.0
 10
87.75300574294057
 20
139.3724848140372
 30
0.0
 10
87.7529942762612
 20
139.3724858427775
 30
0.0
  0
SPLINE
  5
480
330
1F
100
AcDbEntity
  8
SLD-0
  6
Continuous
 62
   179
370
    15
100
AcDbSpline
210
0.0
220
0.0
230
1.0
 70
     8
 71
     3
 72
     8
 73
     4
 74
     0
 42
0.00000001
 43
0.00000001
 40
0.7727164781629436
 40
0.7727164781629436
 40
0.7727164781629436
 40
0.7727164781629436
 40
0.8680176466944195
 40
0.8680176466944195
 40
0.8680176466944195
 40
0.8680176466944195
 10
87.75297937507547
 20
139.3724867741115
 30
0.0
 10
87.75297981101173
 20
139.3724867465625
 30
0.0
 10
87.77921372347403
 20
139.3708309176641
 30
0.0
 10
87.82689658517754
 20
139.367929812754
 30
0.0
  0
SPLINE
  5
481
330
1F
100
AcDbEntity
  8
SLD-0
  6
Continuous
 62
   179
370
    15
100
AcDbSpline
210
0.0
220
0.0
230
1.0
 70
     8
 71
     3
 72
     8
 73
     4
 74
     0
 42
0.00000001
 43
0.00000001
 40
0.8680176466944195
 40
0.8680176466944195
 40
0.8680176466944195
 40
0.8680176466944195
 40
0.9661296650453433
 40
0.9661296650453433
 40
0.9661296650453433
 40
0.9661296650453433
 10
87.82689658520206
 20
139.3679298127425
 30
0.0
 10
87.87598582381862
 20
139.3649431415131
 30
0.0
 10
87.94780791786788
 20
139.3606366536703
 30
0.0
 10
88.04846940157398
 20
139.3566086555254
 30
0.0
  0
SPLINE
  5
482
330
1F
100
AcDbEntity
  8
SLD-0
  6
Continuous
 62
   179
370
    15
100
AcDbSpline
210
0.0
220
0.0
230
1.0
 70
     8
 71
     3
 72
     8
 73
     4
 74
     0
 42
0.00000001
 43
0.00000001
 40
0.9661296650453433
 40
0.9661296650453433
 40
0.9661296650453433
 40
0.9661296650453433
 40
1.0
 40
1.0
 40
1.0
 40
1.0
 10
88.04846940157398
 20
139.3566086555254
 30
0.0
 10
88.08321986566051
 20
139.3552181057369
 30
0.0
 10
88.12140733841882
 20
139.3538607456767
 30
0.0
 10
88.1595948111771
 20
139.3525033856165
 30
0.0
  0
SPLINE
  5
483
330
1F
100
AcDbEntity
  8
0
  6
Continuous
 62
     8
370
    15
100
AcDbSpline
210
0.0
220
0.0
230
1.0
 70
     8
 71
     3
 72
    11
 73
     7
 74
     0
 42
0.00000001
 43
0.00000001
 40
0.0
 40
0.0
 40
0.0
 40
0.0
 40
0.2830912462189042
 40
0.5136186913771149
 40
0.7601132866708651
 40
1.0
 40
1.0
 40
1.0
 40
1.0
 10
180.4759199014129
 20
14.82098538002784
 30
0.0
 10
180.8956298264582
 20
15.3244955611251
 30
0.0
 10
181.6571187998511
 20
16.23802518722401
 30
0.0
 10
182.4367469791955
 20
14.76577874420737
 30
0.0
 10
183.4663738869579
 20
13.5334604671322
 30
0.0
 10
184.0924157386796
 20
14.39571521756938
 30
0.0
 10
184.4011840230556
 20
14.82098538002784
 30
0.0
  0
DIMENSION
  5
484
330
1F
100
AcDbEntity
  8
SLD-0
 62
   179
100
AcDbDimension
  2
*D2
 10
21.9397464168
 20
156.6949384197
 30
0.0
 11
53.9397464168
 21
156.6949384197
 31
0.0
 70
   160
  1
W,D=<>
 71
     1
 42
-1.0
  3
SLDDIMSTYLE0
100
AcDbAlignedDimension
 13
81.9397464168
 23
123.9724868576
 33
0.0
 14
21.9397464168
 24
123.9724868576
 34
0.0
100
AcDbRotatedDimension
  0
DIMENSION
  5
498
330
1F
100
AcDbEntity
  8
SLD-0
 62
   179
100
AcDbDimension
  2
*D3
 10
262.1657464168
 20
156.6949384197
 30
0.0
 11
253.4752905528
 21
156.6949384197
 31
0.0
 70
   160
  1
FB=<>
 71
     1
 42
-1.0
  3
SLDDIMSTYLE1
100
AcDbAlignedDimension
 13
244.6397464168
 23
123.9724868576
 33
0.0
 14
262.1657464168
 24
123.9724868576
 34
0.0
100
AcDbRotatedDimension
  0
DIMENSION
  5
4A6
330
1F
100
AcDbEntity
  8
SLD-0
 62
   179
100
AcDbDimension
  2
*D4
 10
72.0575860718
 20
139.3724868576
 30
0.0
 11
72.0575860718
 21
121.7731498972
 31
0.0
 70
   160
  1
%%c<>
 71
     1
 42
-1.0
  3
SLDDIMSTYLE2
100
AcDbAlignedDimension
 13
83.9397464168
 23
108.5724868576
 33
0.0
 14
83.9397464168
 24
139.3724868576
 34
0.0
 50
90.0
100
AcDbRotatedDimension
  0
DIMENSION
  5
4B2
330
1F
100
AcDbEntity
  8
SLD-0
 62
   179
100
AcDbDimension
  2
*D5
 10
81.9397464168
 20
156.6949384197
 30
0.0
 11
165.2897464168
 21
156.6949384197
 31
0.0
 70
   160
  1
(<>)
 71
     1
 42
-1.0
  3
SLDDIMSTYLE3
100
AcDbAlignedDimension
 13
244.6397464168
 23
137.9724868576
 33
0.0
 14
81.9397464168
 24
137.3724868576
 34
0.0
100
AcDbRotatedDimension
  0
DIMENSION
  5
4BF
330
1F
100
AcDbEntity
  8
SLD-0
 62
   179
100
AcDbDimension
  2
*D6
 10
164.9397464168
 20
149.2805953693
 30
0.0
 11
209.6884233738
 21
149.2805953693
 31
0.0
 70
   160
 71
     1
 42
-1.0
  3
SLDDIMSTYLE2
100
AcDbAlignedDimension
 13
244.6397464168
 23
137.9724868576
 33
0.0
 14
164.9397464168
 24
140.2724868576
 34
0.0
100
AcDbRotatedDimension
  0
DIMENSION
  5
4C9
330
1F
100
AcDbEntity
  8
SLD-0
 62
   179
100
AcDbDimension
  2
*D7
 10
244.6397464168
 20
149.2805953693
 30
0.0
 11
246.6387279223
 21
149.2805953693
 31
0.0
 70
   160
 71
     1
 42
-1.0
  3
SLDDIMSTYLE0
100
AcDbAlignedDimension
 13
248.6397464168
 23
136.1724868576
 33
0.0
 14
244.6397464168
 24
137.9724868576
 34
0.0
100
AcDbRotatedDimension
  0
DIMENSION
  5
4D5
330
1F
100
AcDbEntity
  8
SLD-0
 62
   179
100
AcDbDimension
  2
*D8
 10
212.5286195126
 20
137.8224868576
 30
0.0
 11
212.5286195126
 21
93.0404525694
 31
0.0
 70
   160
  1
%%c<>
 71
     1
 42
-1.0
  3
SLDDIMSTYLE4
100
AcDbAlignedDimension
 13
196.1897464168
 23
110.1224868576
 33
0.0
 14
196.1897464168
 24
137.8224868576
 34
0.0
 50
90.0
100
AcDbRotatedDimension
  0
MTEXT
  5
4E5
330
1F
100
AcDbEntity
  8
SLD-0
 62
   179
100
AcDbMText
 10
255.6217602599
 20
103.2513973297
 30
0.0
 40
3.7041666667
 41
0.0
 71
     1
 72
     1
  1
M25.4X32山
  7
SLDTEXTSTYLE0
 73
     1
 44
1.0
  0
MTEXT
  5
4E6
330
1F
100
AcDbEntity
  8
SLD-0
 62
   179
100
AcDbMText
 10
42.7283864638
 20
116.0772269321
 30
0.0
 40
3.7041666667
 41
0.0
 71
     1
 72
     1
  1
M22.5XP0.5
  7
SLDTEXTSTYLE0
 73
     1
 44
1.0
  0
MTEXT
  5
4E7
330
1F
100
AcDbEntity
  8
SLD-0
 62
   179
100
AcDbMText
 10
40.9311797639
 20
109.5498101358
 30
0.0
 40
3.7041666667
 41
0.0
 71
     1
 72
     1
  1
(ﾌｨﾙﾀｰ用ﾈｼﾞ)
  7
SLDTEXTSTYLE0
 73
     1
 44
1.0
  0
MTEXT
  5
4E8
330
1F
100
AcDbEntity
  8
SLD-0
 62
   179
100
AcDbMText
 10
255.6217602599
 20
95.5481237302
 30
0.0
 40
3.7041666667
 41
0.0
 71
     1
 72
     1
  1
(Cﾏｳﾝﾄﾈｼﾞ)
  7
SLDTEXTSTYLE0
 73
     1
 44
1.0
  0
MTEXT
  5
4EA
330
1F
100
AcDbEntity
  8
0
  6
Continuous
 62
     7
370
     0
100
AcDbMText
 10
20.1673184238
 20
25.3534799816
 30
0.0
 40
3.0
 41
0.0
 71
     1
 72
     1
  1
符号
  7
SLDTEXTSTYLE2
 73
     1
 44
1.0
  0
MTEXT
  5
4EB
330
1F
100
AcDbEntity
  8
0
  6
Continuous
 62
     7
370
     0
100
AcDbMText
 10
32.6513867884
 20
25.3534799816
 30
0.0
 40
3.0
 41
0.0
 71
     1
 72
     1
  1
年　月　日
  7
SLDTEXTSTYLE2
 73
     1
 44
1.0
  0
MTEXT
  5
4ED
330
1F
100
AcDbEntity
  8
0
  6
Continuous
 62
     7
370
     0
100
AcDbMText
 10
67.877689901
 20
25.3043950547
 30
0.0
 40
3.0
 41
0.0
 71
     1
 72
     1
  1
変   更   内   容
  7
SLDTEXTSTYLE3
 73
     1
 44
1.0
  0
MTEXT
  5
4EE
330
1F
100
AcDbEntity
  8
0
  6
Continuous
 62
     7
370
     0
100
AcDbMText
 10
127.7765643344
 20
25.3700268834
 30
0.0
 40
3.0
 41
0.0
 71
     1
 72
     1
  1
担 当
  7
SLDTEXTSTYLE2
 73
     1
 44
1.0
  0
MTEXT
  5
4F0
330
1F
100
AcDbEntity
  8
0
  6
Continuous
 62
     7
370
     0
100
AcDbMText
 10
68.4422761572
 20
32.766264895
 30
0.0
 40
3.5
 41
0.0
 71
     1
 72
     1
  1
図  面  登  録
  7
SLDTEXTSTYLE4
 73
     1
 44
1.0
  0
MTEXT
  5
4F1
330
1F
100
AcDbEntity
  8
0
  6
Continuous
 62
     7
370
     0
100
AcDbMText
 10
22.662601761
 20
18.1169123537
 30
0.0
 40
3.5
 41
0.0
 71
     1
 72
     1
  1
原型
  7
SLDTEXTSTYLE2
 73
     1
 44
1.0
  0
MTEXT
  5
4F2
330
1F
100
AcDbEntity
  8
0
  6
Continuous
 62
     7
370
     0
100
AcDbMText
 10
38.291667926
 20
18.1169123537
 30
0.0
 40
3.5
 41
0.0
 71
     1
 72
     1
  1
機種
  7
SLDTEXTSTYLE2
 73
     1
 44
1.0
  0
MTEXT
  5
4F3
330
1F
100
AcDbEntity
  8
0
  6
Continuous
 62
     7
370
     0
100
AcDbMText
 10
92.0909687178
 20
18.1169123537
 30
0.0
 40
3.5
 41
0.0
 71
     1
 72
     1
  1
番号
  7
SLDTEXTSTYLE2
 73
     1
 44
1.0
  0
MTEXT
  5
4F4
330
1F
100
AcDbEntity
  8
0
  6
Continuous
 62
     7
370
     0
100
AcDbMText
 10
127.7503886693
 20
33.8767908659
 30
0.0
 40
3.5
 41
0.0
 71
     1
 72
     1
  1
桑名
  7
SLDTEXTSTYLE2
 73
     1
 44
1.0
  0
MTEXT
  5
4F5
330
1F
100
AcDbEntity
  8
0
  6
Continuous
 62
     7
370
     0
100
AcDbMText
 10
31.6354592827
 20
32.766264895
 30
0.0
 40
3.5
 41
0.0
 71
     1
 72
     1
  1
2012/10/10
  7
SLDTEXTSTYLE2
 73
     1
 44
1.0
  0
MTEXT
  5
4F6
330
1F
100
AcDbEntity
  8
0
  6
Continuous
 62
     7
370
     0
100
AcDbMText
 10
56.3409679366
 20
18.2352828962
 30
0.0
 40
3.7041666667
 41
0.0
 71
     1
 72
     1
  1
KCM-6D-65
  7
SLDTEXTSTYLE2
 73
     1
 44
1.0
  0
MTEXT
  5
4F7
330
1F
100
AcDbEntity
  8
0
  6
Continuous
 62
     7
370
     0
100
AcDbMText
 10
110.6810309645
 20
18.2352828962
 30
0.0
 40
3.7041666667
 41
0.0
 71
     1
 72
     1
  1
TSTM-212
  7
SLDTEXTSTYLE2
 73
     1
 44
1.0
  0
MTEXT
  5
4F8
330
1F
100
AcDbEntity
  8
0
  6
Continuous
 62
     7
370
     0
100
AcDbMText
 10
210.785402157
 20
33.8064581183
 30
0.0
 40
3.7041666667
 41
0.0
 71
     1
 72
     1
  1
KCM-Z6Ⅱ
  7
SLDTEXTSTYLE2
 73
     1
 44
1.0
  0
MTEXT
  5
4F9
330
1F
100
AcDbEntity
  8
0
  6
Continuous
 62
     7
370
     0
100
AcDbMText
 10
211.0542954734
 20
43.0061721729
 30
0.0
 40
3.7041666667
 41
0.0
 71
     1
 72
     1
  1
TSTM-212
  7
SLDTEXTSTYLE2
 73
     1
 44
1.0
  0
MTEXT
  5
4FA
330
1F
100
AcDbEntity
  8
0
  6
Continuous
 62
     7
370
     0
100
AcDbMText
 10
262.8776662977
 20
18.1266981786
 30
0.0
 40
3.5
 41
0.0
 71
     1
 72
     1
  1
斉藤
  7
SLDTEXTSTYLE2
 73
     1
 44
1.0
  0
MTEXT
  5
4FB
330
1F
100
AcDbEntity
  8
0
  6
Continuous
 62
     7
370
     0
100
AcDbMText
 10
220.5746746222
 20
54.188555699
 30
0.0
 40
5.2916666667
 41
0.0
 71
     1
 72
     1
  1
ケンコ-・トキナ-
  7
SLDTEXTSTYLE1
 73
     1
 44
1.0
  0
MTEXT
  5
4FC
330
1F
100
AcDbEntity
  8
0
  6
Continuous
 62
     7
370
     0
100
AcDbMText
 10
233.364351392
 20
18.0248320056
 30
0.0
 40
3.5
 41
0.0
 71
     1
 72
     1
  1
桑名
  7
SLDTEXTSTYLE2
 73
     1
 44
1.0
  0
MTEXT
  5
4FD
330
1F
100
AcDbEntity
  8
0
  6
Continuous
 62
     7
370
     0
100
AcDbMText
 10
267.3125784495
 20
24.6308227838
 30
0.0
 40
3.5
 41
0.0
 71
     1
 72
     1
  1
1/1
  7
SLDTEXTSTYLE1
 73
     1
 44
1.0
  0
MTEXT
  5
4FE
330
1F
100
AcDbEntity
  8
0
  6
Continuous
 62
     7
370
     0
100
AcDbMText
 10
204.096117416
 20
24.4897607919
 30
0.0
 40
3.5
 41
0.0
 71
     1
 72
     1
  1
1
  7
SLDTEXTSTYLE1
 73
     1
 44
1.0
  0
INSERT
  5
504
330
1F
100
AcDbEntity
  8
0
  6
Continuous
 62
     7
370
     0
100
AcDbBlockReference
  2
SW_NOTE_0
 10
142.7793787733
 20
21.7744726175
 30
0.0
  0
MTEXT
  5
505
330
1F
100
AcDbEntity
  8
0
  6
Continuous
 62
     7
370
     0
100
AcDbMText
 10
155.7616450499
 20
24.4379196921
 30
0.0
 40
2.1166666667
 41
0.0
 71
     1
 72
     1
  1
6.3
  7
SLDTEXTSTYLE1
 73
     1
 44
1.0
  0
MTEXT
  5
506
330
1F
100
AcDbEntity
  8
0
  6
Continuous
 62
     7
370
     0
100
AcDbMText
 10
181.1058074648
 20
24.6761296679
 30
0.0
 40
2.1166666667
 41
0.0
 71
     1
 72
     1
  1
100
  7
SLDTEXTSTYLE1
 73
     1
 44
1.0
  0
MTEXT
  5
507
330
1F
100
AcDbEntity
  8
0
  6
Continuous
 62
     7
370
     0
100
AcDbMText
 10
169.1143559015
 20
24.4102542546
 30
0.0
 40
2.1166666667
 41
0.0
 71
     1
 72
     1
  1
25
  7
SLDTEXTSTYLE1
 73
     1
 44
1.0
  0
INSERT
  5
511
330
1F
100
AcDbEntity
  8
0
  6
Continuous
 62
     7
370
     0
100
AcDbBlockReference
  2
SW_NOTE_1
 10
246.8404028783
 20
25.0580955502
 30
0.0
  0
MTEXT
  5
512
330
1F
100
AcDbEntity
  8
0
  6
Continuous
 62
     7
370
     0
100
AcDbMText
 10
198.5190480166
 20
52.6382043245
 30
0.0
 40
3.7041666667
 41
0.0
 71
     1
 72
     1
  1
株式会社
  7
SLDTEXTSTYLE1
 73
     1
 44
1.0
  0
MTEXT
  5
513
330
1F
100
AcDbEntity
  8
0
  6
Continuous
 62
     7
370
     0
100
AcDbMText
 10
179.2491442488
 20
44.1206701955
 30
0.0
 40
1.8520833333
 41
0.0
 71
     1
 72
     1
  1
±１.５
  7
SLDTEXTSTYLE1
 73
     1
 44
1.0
  0
MTEXT
  5
514
330
1F
100
AcDbEntity
  8
0
  6
Continuous
 62
     7
370
     0
100
AcDbMText
 10
159.5566845917
 20
48.2763188206
 30
0.0
 40
1.8520833333
 41
0.0
 71
     1
 72
     1
  1
±０.１
  7
SLDTEXTSTYLE1
 73
     1
 44
1.0
  0
MTEXT
  5
515
330
1F
100
AcDbEntity
  8
0
  6
Continuous
 62
     7
370
     0
100
AcDbMText
 10
169.3995930962
 20
48.2614700443
 30
0.0
 40
1.8520833333
 41
0.0
 71
     1
 72
     1
  1
±０.３
  7
SLDTEXTSTYLE1
 73
     1
 44
1.0
  0
MTEXT
  5
516
330
1F
100
AcDbEntity
  8
0
  6
Continuous
 62
     7
370
     0
100
AcDbMText
 10
179.4887017891
 20
48.2571851859
 30
0.0
 40
1.8520833333
 41
0.0
 71
     1
 72
     1
  1
± １
  7
SLDTEXTSTYLE1
 73
     1
 44
1.0
  0
MTEXT
  5
517
330
1F
100
AcDbEntity
  8
0
  6
Continuous
 62
     7
370
     0
100
AcDbMText
 10
159.529330486
 20
36.4092901269
 30
0.0
 40
1.8520833333
 41
0.0
 71
     1
 72
     1
  1
±０.５
  7
SLDTEXTSTYLE1
 73
     1
 44
1.0
  0
MTEXT
  5
518
330
1F
100
AcDbEntity
  8
0
  6
Continuous
 62
     7
370
     0
100
AcDbMText
 10
159.5454266022
 20
44.3895495302
 30
0.0
 40
1.8520833333
 41
0.0
 71
     1
 72
     1
  1
±０.２
  7
SLDTEXTSTYLE1
 73
     1
 44
1.0
  0
MTEXT
  5
519
330
1F
100
AcDbEntity
  8
0
  6
Continuous
 62
     7
370
     0
100
AcDbMText
 10
159.5775380315
 20
40.3932035656
 30
0.0
 40
1.8520833333
 41
0.0
 71
     1
 72
     1
  1
±０.３
  7
SLDTEXTSTYLE1
 73
     1
 44
1.0
  0
MTEXT
  5
51A
330
1F
100
AcDbEntity
  8
0
  6
Continuous
 62
     7
370
     0
100
AcDbMText
 10
169.4729873653
 20
44.373079808
 30
0.0
 40
1.8520833333
 41
0.0
 71
     1
 72
     1
  1
±０.５
  7
SLDTEXTSTYLE1
 73
     1
 44
1.0
  0
MTEXT
  5
51B
330
1F
100
AcDbEntity
  8
0
  6
Continuous
 62
     7
370
     0
100
AcDbMText
 10
159.5520703615
 20
32.5985506478
 30
0.0
 40
1.8520833333
 41
0.0
 71
     1
 72
     1
  1
±０.８
  7
SLDTEXTSTYLE1
 73
     1
 44
1.0
  0
MTEXT
  5
51C
330
1F
100
AcDbEntity
  8
0
  6
Continuous
 62
     7
370
     0
100
AcDbMText
 10
169.5230806647
 20
40.4013490628
 30
0.0
 40
1.8520833333
 41
0.0
 71
     1
 72
     1
  1
±０.８
  7
SLDTEXTSTYLE1
 73
     1
 44
1.0
  0
MTEXT
  5
51D
330
1F
100
AcDbEntity
  8
0
  6
Continuous
 62
     7
370
     0
100
AcDbMText
 10
169.5078210519
 20
36.3781574752
 30
0.0
 40
1.8520833333
 41
0.0
 71
     1
 72
     1
  1
±１.２
  7
SLDTEXTSTYLE1
 73
     1
 44
1.0
  0
MTEXT
  5
51E
330
1F
100
AcDbEntity
  8
0
  6
Continuous
 62
     7
370
     0
100
AcDbMText
 10
168.2763576358
 20
34.1275201232
 30
0.0
 40
1.8520833333
 41
0.0
 71
     1
 72
     1
  1
± ２
  7
SLDTEXTSTYLE1
 73
     1
 44
1.0
  0
MTEXT
  5
51F
330
1F
100
AcDbEntity
  8
0
  6
Continuous
 62
     7
370
     0
100
AcDbMText
 10
179.60170045
 20
40.4174403116
 30
0.0
 40
1.8520833333
 41
0.0
 71
     1
 72
     1
  1
± ２
  7
SLDTEXTSTYLE1
 73
     1
 44
1.0
  0
MTEXT
  5
520
330
1F
100
AcDbEntity
  8
0
  6
Continuous
 62
     7
370
     0
100
AcDbMText
 10
179.5718577139
 20
36.4130555337
 30
0.0
 40
1.8520833333
 41
0.0
 71
     1
 72
     1
  1
± ３
  7
SLDTEXTSTYLE1
 73
     1
 44
1.0
  0
MTEXT
  5
521
330
1F
100
AcDbEntity
  8
0
  6
Continuous
 62
     7
370
     0
100
AcDbMText
 10
179.6368453392
 20
32.5881908531
 30
0.0
 40
1.8520833333
 41
0.0
 71
     1
 72
     1
  1
± ４
  7
SLDTEXTSTYLE1
 73
     1
 44
1.0
  0
MTEXT
  5
522
330
1F
100
AcDbEntity
  8
0
  6
Continuous
 62
     7
370
     0
100
AcDbMText
 10
258.64349467
 20
11.2277442989
 30
0.0
 40
3.5
 41
0.0
 71
     1
 72
     1
  1
三角法
  7
SLDTEXTSTYLE2
 73
     1
 44
1.0
  0
INSERT
  5
528
330
1F
100
AcDbEntity
  8
0
  6
Continuous
 62
     7
370
     0
100
AcDbBlockReference
  2
SW_NOTE_2
 10
212.6624711524
 20
23.5943204688
 30
0.0
  0
MTEXT
  5
52A
330
1F
100
AcDbEntity
  8
0
  6
Continuous
 62
     7
370
     0
100
AcDbMText
 10
151.3766780809
 20
48.8834969504
 30
0.0
 40
2.5
 41
0.0
 71
     1
 72
     1
  1
16以下
  7
SLDTEXTSTYLE5
 73
     1
 44
1.0
  0
MTEXT
  5
52B
330
1F
100
AcDbEntity
  8
0
  6
Continuous
 62
     7
370
     0
100
AcDbMText
 10
254.8153303542
 20
24.7566987671
 30
0.0
 40
3.0
 41
0.0
 71
     1
 72
     1
  1
尺度
  7
SLDTEXTSTYLE2
 73
     1
 44
1.0
  0
MTEXT
  5
52C
330
1F
100
AcDbEntity
  8
0
  6
Continuous
 62
     7
370
     0
100
AcDbMText
 10
242.1891051304
 20
31.9005297674
 30
0.0
 40
3.0
 41
0.0
 71
     1
 72
     1
  1
処　理
  7
SLDTEXTSTYLE2
 73
     1
 44
1.0
  0
MTEXT
  5
52D
330
1F
100
AcDbEntity
  8
0
  6
Continuous
 62
     7
370
     0
100
AcDbMText
 10
242.1891051304
 20
35.9005297674
 30
0.0
 40
3.0
 41
0.0
 71
     1
 72
     1
  1
表　面
  7
SLDTEXTSTYLE2
 73
     1
 44
1.0
  0
MTEXT
  5
52E
330
1F
100
AcDbEntity
  8
0
  6
Continuous
 62
     7
370
     0
100
AcDbMText
 10
244.340072503
 20
43.6330790724
 30
0.0
 40
3.0
 41
0.0
 71
     1
 72
     1
  1
材料
  7
SLDTEXTSTYLE2
 73
     1
 44
1.0
  0
MTEXT
  5
52F
330
1F
100
AcDbEntity
  8
0
  6
Continuous
 62
     7
370
     0
100
AcDbMText
 10
248.9839853525
 20
17.9211317963
 30
0.0
 40
3.0
 41
0.0
 71
     1
 72
     1
  1
承認
  7
SLDTEXTSTYLE2
 73
     1
 44
1.0
  0
MTEXT
  5
530
330
1F
100
AcDbEntity
  8
0
  6
Continuous
 62
     7
370
     0
100
AcDbMText
 10
219.9839853525
 20
17.9211317963
 30
0.0
 40
3.0
 41
0.0
 71
     1
 72
     1
  1
製図
  7
SLDTEXTSTYLE2
 73
     1
 44
1.0
  0
MTEXT
  5
531
330
1F
100
AcDbEntity
  8
0
  6
Continuous
 62
     7
370
     0
100
AcDbMText
 10
189.9839853525
 20
17.9211317963
 30
0.0
 40
3.0
 41
0.0
 71
     1
 72
     1
  1
設計
  7
SLDTEXTSTYLE2
 73
     1
 44
1.0
  0
MTEXT
  5
532
330
1F
100
AcDbEntity
  8
0
  6
Continuous
 62
     7
370
     0
100
AcDbMText
 10
191.3480581424
 20
25.1431701381
 30
0.0
 40
3.0
 41
0.0
 71
     1
 72
     1
  1
個数
  7
SLDTEXTSTYLE2
 73
     1
 44
1.0
  0
MTEXT
  5
533
330
1F
100
AcDbEntity
  8
0
  6
Continuous
 62
     7
370
     0
100
AcDbMText
 10
191.2502868982
 20
33.7470396284
 30
0.0
 40
3.0
 41
0.0
 71
     1
 72
     1
  1
製品名
  7
SLDTEXTSTYLE2
 73
     1
 44
1.0
  0
MTEXT
  5
535
330
1F
100
AcDbEntity
  8
0
  6
Continuous
 62
     7
370
     0
100
AcDbMText
 10
191.1777216762
 20
41.4099285091
 30
0.0
 40
3.0
 41
0.0
 71
     1
 72
     1
  1
番  号
  7
SLDTEXTSTYLE6
 73
     1
 44
1.0
  0
MTEXT
  5
536
330
1F
100
AcDbEntity
  8
0
  6
Continuous
 62
     7
370
     0
100
AcDbMText
 10
191.1777216762
 20
45.6099285091
 30
0.0
 40
3.0
 41
0.0
 71
     1
 72
     1
  1
図　面
  7
SLDTEXTSTYLE2
 73
     1
 44
1.0
  0
MTEXT
  5
538
330
1F
100
AcDbEntity
  8
0
  6
Continuous
 62
     7
370
     0
100
AcDbMText
 10
180.4367772702
 20
52.9109620374
 30
0.0
 40
2.5
 41
0.0
 71
     1
 72
     1
  1
Ｃ　級
  7
SLDTEXTSTYLE7
 73
     1
 44
1.0
  0
MTEXT
  5
539
330
1F
100
AcDbEntity
  8
0
  6
Continuous
 62
     7
370
     0
100
AcDbMText
 10
170.2963366885
 20
52.9073736597
 30
0.0
 40
2.5
 41
0.0
 71
     1
 72
     1
  1
Ｂ　級
  7
SLDTEXTSTYLE7
 73
     1
 44
1.0
  0
MTEXT
  5
53A
330
1F
100
AcDbEntity
  8
0
  6
Continuous
 62
     7
370
     0
100
AcDbMText
 10
160.0772880404
 20
52.9073736597
 30
0.0
 40
2.5
 41
0.0
 71
     1
 72
     1
  1
Ａ　級
  7
SLDTEXTSTYLE7
 73
     1
 44
1.0
  0
MTEXT
  5
53C
330
1F
100
AcDbEntity
  8
0
  6
Continuous
 62
     7
370
     0
100
AcDbMText
 10
139.6411632667
 20
32.8770434102
 30
0.0
 40
2.5
 41
0.0
 71
     1
 72
     1
  1
500をこえ1000以下
  7
SLDTEXTSTYLE8
 73
     1
 44
1.0
  0
MTEXT
  5
53D
330
1F
100
AcDbEntity
  8
0
  6
Continuous
 62
     7
370
     0
100
AcDbMText
 10
142.0626850998
 20
44.9949162535
 30
0.0
 40
2.5
 41
0.0
 71
     1
 72
     1
  1
16をこえ63以下
  7
SLDTEXTSTYLE5
 73
     1
 44
1.0
  0
MTEXT
  5
53E
330
1F
100
AcDbEntity
  8
0
  6
Continuous
 62
     7
370
     0
100
AcDbMText
 10
139.7713760233
 20
36.8526887733
 30
0.0
 40
2.5
 41
0.0
 71
     1
 72
     1
  1
250をこえ500以下
  7
SLDTEXTSTYLE5
 73
     1
 44
1.0
  0
MTEXT
  5
53F
330
1F
100
AcDbEntity
  8
0
  6
Continuous
 62
     7
370
     0
100
AcDbMText
 10
141.0118976199
 20
40.8873150734
 30
0.0
 40
2.5
 41
0.0
 71
     1
 72
     1
  1
63をこえ250以下
  7
SLDTEXTSTYLE5
 73
     1
 44
1.0
  0
MTEXT
  5
540
330
1F
100
AcDbEntity
  8
0
  6
Continuous
 62
     7
370
     0
100
AcDbMText
 10
141.0118976199
 20
52.9073736597
 30
0.0
 40
2.5
 41
0.0
 71
     1
 72
     1
  1
呼び寸法区分
  7
SLDTEXTSTYLE2
 73
     1
 44
1.0
  0
MTEXT
  5
541
330
1F
100
AcDbEntity
  8
0
  6
Continuous
 62
     7
370
     0
100
AcDbMText
 10
149.6224151926
 20
56.8895701039
 30
0.0
 40
2.5
 41
0.0
 71
     1
 72
     1
  1
一  般  公  差
  7
SLDTEXTSTYLE4
 73
     1
 44
1.0
  0
MTEXT
  5
542
330
1F
100
AcDbEntity
  8
0
  6
Continuous
 62
     7
370
     0
100
AcDbMText
 10
153.7626725863
 20
29.2195379145
 30
0.0
 40
3.0
 41
0.0
 71
     1
 72
     1
  1
仕         上
  7
SLDTEXTSTYLE6
 73
     1
 44
1.0
  0
MTEXT
  5
543
330
1F
100
AcDbEntity
  8
0
  6
Continuous
 62
     7
370
     0
100
AcDbMText
 10
234.5438606795
 20
24.6685316898
 30
0.0
 40
3.0
 41
0.0
 71
     1
 72
     1
  1
仕上
  7
SLDTEXTSTYLE2
 73
     1
 44
1.0
  0
MTEXT
  5
544
330
1F
100
AcDbEntity
  8
0
  6
Continuous
 62
     7
370
     0
100
AcDbMText
 10
244.5429480172
 20
11.2618218356
 30
0.0
 40
3.5
 41
0.0
 71
     1
 72
     1
  1
〔ｍｍ〕
  7
SLDTEXTSTYLE2
 73
     1
 44
1.0
  0
MTEXT
  5
545
330
1F
100
AcDbEntity
  8
0
  6
Continuous
 62
     7
370
     0
100
AcDbMText
 10
272.0115811995
 20
11.2479028114
 30
0.0
 40
3.5
 41
0.0
 71
     1
 72
     1
  1
A4
  7
SLDTEXTSTYLE2
 73
     1
 44
1.0
  0
INSERT
  5
546
330
1F
100
AcDbEntity
  8
SLD-0
100
AcDbBlockReference
  2
_Open30
 10
81.9397458207
 20
123.7995220486
 30
0.0
 41
6.0
 42
6.0
 50
36.2859541859
  0
LINE
  5
547
330
1F
100
AcDbEntity
  8
SLD-0
100
AcDbLine
 10
40.6708627005
 20
111.3498795558
 30
0.0
 11
64.9829003988
 21
111.3498795558
 31
0.0
  0
LINE
  5
548
330
1F
100
AcDbEntity
  8
SLD-0
100
AcDbLine
 10
64.9829003988
 20
111.3498795558
 30
0.0
 11
81.9397458207
 21
123.7995220486
 31
0.0
  0
INSERT
  5
549
330
1F
100
AcDbEntity
  8
SLD-0
100
AcDbBlockReference
  2
_Open30
 10
247.3819078642
 20
111.272487011
 30
0.0
 41
6.0
 42
6.0
 50
117.6880582409
  0
LINE
  5
54A
330
1F
100
AcDbEntity
  8
SLD-0
100
AcDbLine
 10
275.3348787443
 20
97.8431919457
 30
0.0
 11
254.428875313
 21
97.8431919457
 31
0.0
  0
LINE
  5
54B
330
1F
100
AcDbEntity
  8
SLD-0
100
AcDbLine
 10
254.428875313
 20
97.8431919457
 30
0.0
 11
247.3819078642
 21
111.272487011
 31
0.0
  0
ENDSEC
  0
SECTION
  2
OBJECTS
  0
DICTIONARY
  5
C
330
0
100
AcDbDictionary
281
     1
  3
ACAD_GROUP
350
D
  3
ACAD_LAYOUT
350
1A
  3
ACAD_MLINESTYLE
350
17
  3
ACAD_PLOTSETTINGS
350
19
  3
ACAD_PLOTSTYLENAME
350
E
  0
DICTIONARY
  5
D
102
{ACAD_REACTORS
330
C
102
}
330
C
100
AcDbDictionary
281
     1
  0
DICTIONARY
  5
1A
102
{ACAD_REACTORS
330
C
102
}
330
C
100
AcDbDictionary
281
     1
  3
Layout1
350
1E
  3
Layout2
350
26
  3
Model
350
22
  0
DICTIONARY
  5
17
102
{ACAD_REACTORS
330
C
102
}
330
C
100
AcDbDictionary
281
     1
  3
Standard
350
18
  0
DICTIONARY
  5
19
102
{ACAD_REACTORS
330
C
102
}
330
C
100
AcDbDictionary
281
     1
  0
ACDBDICTIONARYWDFLT
  5
E
102
{ACAD_REACTORS
330
C
102
}
330
C
100
AcDbDictionary
281
     1
  3
Normal
350
F
100
AcDbDictionaryWithDefault
340
F
  0
LAYOUT
  5
1E
102
{ACAD_REACTORS
330
1A
102
}
330
1A
100
AcDbPlotSettings
  1

  2
none_device
  4

  6

 40
0.0
 41
0.0
 42
0.0
 43
0.0
 44
0.0
 45
0.0
 46
0.0
 47
0.0
 48
0.0
 49
0.0
140
0.0
141
0.0
142
1.0
143
1.0
 70
   688
 72
     0
 73
     0
 74
     5
  7

 75
    16
147
1.0
148
0.0
149
0.0
100
AcDbLayout
  1
Layout1
 70
     1
 71
     1
 10
0.0
 20
0.0
 11
420.0
 21
297.0
 12
0.0
 22
0.0
 32
0.0
 14
1.0000000000E+20
 24
1.0000000000E+20
 34
1.0000000000E+20
 15
-1.0000000000E+20
 25
-1.0000000000E+20
 35
-1.0000000000E+20
146
0.0
 13
0.0
 23
0.0
 33
0.0
 16
1.0
 26
0.0
 36
0.0
 17
0.0
 27
1.0
 37
0.0
 76
     0
330
1B
  0
LAYOUT
  5
26
102
{ACAD_REACTORS
330
1A
102
}
330
1A
100
AcDbPlotSettings
  1

  2
none_device
  4

  6

 40
0.0
 41
0.0
 42
0.0
 43
0.0
 44
0.0
 45
0.0
 46
0.0
 47
0.0
 48
0.0
 49
0.0
140
0.0
141
0.0
142
1.0
143
1.0
 70
   688
 72
     0
 73
     0
 74
     5
  7

 75
    16
147
1.0
148
0.0
149
0.0
100
AcDbLayout
  1
Layout2
 70
     1
 71
     2
 10
0.0
 20
0.0
 11
0.0
 21
0.0
 12
0.0
 22
0.0
 32
0.0
 14
0.0
 24
0.0
 34
0.0
 15
0.0
 25
0.0
 35
0.0
146
0.0
 13
0.0
 23
0.0
 33
0.0
 16
1.0
 26
0.0
 36
0.0
 17
0.0
 27
1.0
 37
0.0
 76
     0
330
23
  0
LAYOUT
  5
22
102
{ACAD_REACTORS
330
1A
102
}
330
1A
100
AcDbPlotSettings
  1

  2
none_device
  4

  6

 40
0.0
 41
0.0
 42
0.0
 43
0.0
 44
0.0
 45
0.0
 46
0.0
 47
0.0
 48
0.0
 49
0.0
140
0.0
141
0.0
142
1.0
143
1.0
 70
  1712
 72
     0
 73
     0
 74
     0
  7

 75
     0
147
1.0
148
0.0
149
0.0
100
AcDbLayout
  1
Model
 70
     1
 71
     0
 10
0.0
 20
0.0
 11
0.0
 21
0.0
 12
0.0
 22
0.0
 32
0.0
 14
0.0
 24
0.0
 34
0.0
 15
297.0
 25
210.0
 35
0.0
146
0.0
 13
0.0
 23
0.0
 33
0.0
 16
1.0
 26
0.0
 36
0.0
 17
0.0
 27
1.0
 37
0.0
 76
     0
330
1F
  0
MLINESTYLE
  5
18
102
{ACAD_REACTORS
330
17
102
}
330
17
100
AcDbMlineStyle
  2
Standard
 70
     0
  3

 62
   256
 51
90.0
 52
90.0
 71
     2
 49
0.5
 62
   256
  6
BYLAYER
 49
-0.5
 62
   256
  6
BYLAYER
  0
ACDBPLACEHOLDER
  5
F
102
{ACAD_REACTORS
330
E
102
}
330
E
  0
ENDSEC
  0
EOF
