  0
SECTION
  2
HEADER
  9
$ACADVER
  1
AC1015
  9
$ACADMAINTVER
 70
     6
  9
$DWGCODEPAGE
  3
DOS932
  9
$INSBASE
 10
0.0
 20
0.0
 30
0.0
  9
$EXTMIN
 10
0.0
 20
0.0
 30
0.0
  9
$EXTMAX
 10
297.0
 20
210.0
 30
0.0
  9
$LIMMIN
 10
0.0
 20
0.0
  9
$LIMMAX
 10
0.0
 20
0.0
  9
$ORTHOMODE
 70
     0
  9
$REGENMODE
 70
     1
  9
$FILLMODE
 70
     1
  9
$QTEXTMODE
 70
     0
  9
$MIRRTEXT
 70
     1
  9
$LTSCALE
 40
1.0
  9
$ATTMODE
 70
     1
  9
$TEXTSIZE
 40
3.5
  9
$TRACEWID
 40
1.0
  9
$TEXTSTYLE
  7
Standard
  9
$CLAYER
  8
0
  9
$CELTYPE
  6
ByLayer
  9
$CECOLOR
 62
   256
  9
$CELTSCALE
 40
1.0
  9
$DISPSILH
 70
     0
  9
$DIMSCALE
 40
1.0
  9
$DIMASZ
 40
6.0
  9
$DIMEXO
 40
1.0
  9
$DIMDLI
 40
3.75
  9
$DIMRND
 40
0.0
  9
$DIMDLE
 40
0.0
  9
$DIMEXE
 40
1.0
  9
$DIMTP
 40
0.0
  9
$DIMTM
 40
0.0
  9
$DIMTXT
 40
3.5
  9
$DIMCEN
 40
2.5
  9
$DIMTSZ
 40
0.0
  9
$DIMTOL
 70
     0
  9
$DIMLIM
 70
     0
  9
$DIMTIH
 70
     1
  9
$DIMTOH
 70
     1
  9
$DIMSE1
 70
     0
  9
$DIMSE2
 70
     0
  9
$DIMTAD
 70
     1
  9
$DIMZIN
 70
     1
  9
$DIMBLK
  1

  9
$DIMASO
 70
     1
  9
$DIMSHO
 70
     1
  9
$DIMPOST
  1

  9
$DIMAPOST
  1

  9
$DIMALT
 70
     0
  9
$DIMALTD
 70
     3
  9
$DIMALTF
 40
0.0393700787
  9
$DIMLFAC
 40
1.0
  9
$DIMTOFL
 70
     1
  9
$DIMTVP
 40
0.0
  9
$DIMTIX
 70
     0
  9
$DIMSOXD
 70
     0
  9
$DIMSAH
 70
     0
  9
$DIMBLK1
  1

  9
$DIMBLK2
  1

  9
$DIMSTYLE
  2
ISO-25
  9
$DIMCLRD
 70
     0
  9
$DIMCLRE
 70
     0
  9
$DIMCLRT
 70
     0
  9
$DIMTFAC
 40
1.0
  9
$DIMGAP
 40
1.524
  9
$DIMJUST
 70
     0
  9
$DIMSD1
 70
     0
  9
$DIMSD2
 70
     0
  9
$DIMTOLJ
 70
     0
  9
$DIMTZIN
 70
     1
  9
$DIMALTZ
 70
     0
  9
$DIMALTTZ
 70
     0
  9
$DIMUPT
 70
     0
  9
$DIMDEC
 70
     2
  9
$DIMTDEC
 70
     2
  9
$DIMALTU
 70
     2
  9
$DIMALTTD
 70
     3
  9
$DIMTXSTY
  7
Standard
  9
$DIMAUNIT
 70
     0
  9
$DIMADEC
 70
     0
  9
$DIMALTRND
 40
0.0
  9
$DIMAZIN
 70
     0
  9
$DIMDSEP
 70
    44
  9
$DIMATFIT
 70
     3
  9
$DIMFRAC
 70
     0
  9
$DIMLDRBLK
  1

  9
$DIMLUNIT
 70
     2
  9
$DIMLWD
 70
    -2
  9
$DIMLWE
 70
    -2
  9
$DIMTMOVE
 70
     0
  9
$LUNITS
 70
     2
  9
$LUPREC
 70
     4
  9
$SKETCHINC
 40
1.0
  9
$FILLETRAD
 40
10.0
  9
$AUNITS
 70
     0
  9
$AUPREC
 70
     0
  9
$MENU
  1
.
  9
$ELEVATION
 40
0.0
  9
$PELEVATION
 40
0.0
  9
$THICKNESS
 40
0.0
  9
$LIMCHECK
 70
     0
  9
$CHAMFERA
 40
10.0
  9
$CHAMFERB
 40
10.0
  9
$CHAMFERC
 40
20.0
  9
$CHAMFERD
 40
0.0
  9
$SKPOLY
 70
     0
  9
$TDCREATE
 40
2456211.789807037
  9
$TDUCREATE
 40
2456211.414807037
  9
$TDUPDATE
 40
2456211.789807049
  9
$TDUUPDATE
 40
2456211.414807049
  9
$TDINDWG
 40
0.0000000116
  9
$TDUSRTIMER
 40
0.0000000116
  9
$USRTIMER
 70
     1
  9
$ANGBASE
 50
0.0
  9
$ANGDIR
 70
     0
  9
$PDMODE
 70
     0
  9
$PDSIZE
 40
-1.0
  9
$PLINEWID
 40
0.0
  9
$SPLFRAME
 70
     0
  9
$SPLINETYPE
 70
     6
  9
$SPLINESEGS
 70
     8
  9
$HANDSEED
  5
258
  9
$SURFTAB1
 70
     6
  9
$SURFTAB2
 70
     6
  9
$SURFTYPE
 70
     6
  9
$SURFU
 70
     6
  9
$SURFV
 70
     6
  9
$UCSBASE
  2

  9
$UCSNAME
  2

  9
$UCSORG
 10
0.0
 20
0.0
 30
0.0
  9
$UCSXDIR
 10
1.0
 20
0.0
 30
0.0
  9
$UCSYDIR
 10
0.0
 20
1.0
 30
0.0
  9
$UCSORTHOREF
  2

  9
$UCSORTHOVIEW
 70
     0
  9
$UCSORGTOP
 10
0.0
 20
0.0
 30
0.0
  9
$UCSORGBOTTOM
 10
0.0
 20
0.0
 30
0.0
  9
$UCSORGLEFT
 10
0.0
 20
0.0
 30
0.0
  9
$UCSORGRIGHT
 10
0.0
 20
0.0
 30
0.0
  9
$UCSORGFRONT
 10
0.0
 20
0.0
 30
0.0
  9
$UCSORGBACK
 10
0.0
 20
0.0
 30
0.0
  9
$PUCSBASE
  2

  9
$PUCSNAME
  2

  9
$PUCSORG
 10
0.0
 20
0.0
 30
0.0
  9
$PUCSXDIR
 10
1.0
 20
0.0
 30
0.0
  9
$PUCSYDIR
 10
0.0
 20
1.0
 30
0.0
  9
$PUCSORTHOREF
  2

  9
$PUCSORTHOVIEW
 70
     0
  9
$PUCSORGTOP
 10
0.0
 20
0.0
 30
0.0
  9
$PUCSORGBOTTOM
 10
0.0
 20
0.0
 30
0.0
  9
$PUCSORGLEFT
 10
0.0
 20
0.0
 30
0.0
  9
$PUCSORGRIGHT
 10
0.0
 20
0.0
 30
0.0
  9
$PUCSORGFRONT
 10
0.0
 20
0.0
 30
0.0
  9
$PUCSORGBACK
 10
0.0
 20
0.0
 30
0.0
  9
$USERI1
 70
     0
  9
$USERI2
 70
     0
  9
$USERI3
 70
     0
  9
$USERI4
 70
     0
  9
$USERI5
 70
     0
  9
$USERR1
 40
0.0
  9
$USERR2
 40
0.0
  9
$USERR3
 40
0.0
  9
$USERR4
 40
0.0
  9
$USERR5
 40
0.0
  9
$WORLDVIEW
 70
     1
  9
$SHADEDGE
 70
     3
  9
$SHADEDIF
 70
    70
  9
$TILEMODE
 70
     1
  9
$MAXACTVP
 70
    64
  9
$PINSBASE
 10
0.0
 20
0.0
 30
0.0
  9
$PLIMCHECK
 70
     0
  9
$PEXTMIN
 10
1.0000000000E+20
 20
1.0000000000E+20
 30
1.0000000000E+20
  9
$PEXTMAX
 10
-1.0000000000E+20
 20
-1.0000000000E+20
 30
-1.0000000000E+20
  9
$PLIMMIN
 10
0.0
 20
0.0
  9
$PLIMMAX
 10
420.0
 20
297.0
  9
$UNITMODE
 70
     0
  9
$VISRETAIN
 70
     1
  9
$PLINEGEN
 70
     0
  9
$PSLTSCALE
 70
     1
  9
$TREEDEPTH
 70
  3020
  9
$CMLSTYLE
  2
Standard
  9
$CMLJUST
 70
     0
  9
$CMLSCALE
 40
20.0
  9
$PROXYGRAPHICS
 70
     1
  9
$MEASUREMENT
 70
     1
  9
$CELWEIGHT
370
    -1
  9
$ENDCAPS
280
     0
  9
$JOINSTYLE
280
     0
  9
$LWDISPLAY
290
     1
  9
$INSUNITS
 70
     4
  9
$HYPERLINKBASE
  1

  9
$STYLESHEET
  1

  9
$XEDIT
290
     1
  9
$CEPSNTYPE
380
     0
  9
$PSTYLEMODE
290
     1
  9
$FINGERPRINTGUID
  2
{CC8344E7-E0AD-4EEB-A3C9-FCB4ECA7894A}
  9
$VERSIONGUID
  2
{FAEB1C32-E019-11D5-929B-00C0DF256EC4}
  9
$EXTNAMES
290
     1
  9
$PSVPSCALE
 40
0.0
  9
$OLESTARTUP
290
     0
  0
ENDSEC
  0
SECTION
  2
CLASSES
  0
CLASS
  1
ACDBDICTIONARYWDFLT
  2
AcDbDictionaryWithDefault
  3
ObjectDBX Classes
 90
        0
280
     0
281
     0
  0
CLASS
  1
ACDBPLACEHOLDER
  2
AcDbPlaceHolder
  3
ObjectDBX Classes
 90
        0
280
     0
281
     0
  0
CLASS
  1
LAYOUT
  2
AcDbLayout
  3
ObjectDBX Classes
 90
        0
280
     0
281
     0
  0
ENDSEC
  0
SECTION
  2
TABLES
  0
TABLE
  2
VPORT
  5
8
330
0
100
AcDbSymbolTable
 70
     1
  0
VPORT
  5
29
330
8
100
AcDbSymbolTableRecord
100
AcDbViewportTableRecord
  2
*Active
 70
     0
 10
0.0
 20
0.0
 11
1.0
 21
1.0
 12
148.5
 22
105.0
 13
0.0
 23
0.0
 14
10.0
 24
10.0
 15
10.0
 25
10.0
 16
0.0
 26
0.0
 36
1.0
 17
0.0
 27
0.0
 37
0.0
 40
210.0
 41
1.4142857143
 42
50.0
 43
0.0
 44
0.0
 50
0.0
 51
0.0
 71
     0
 72
  2000
 73
     1
 74
     3
 75
     0
 76
     0
 77
     0
 78
     0
281
     0
 65
     1
110
0.0
120
0.0
130
0.0
111
1.0
121
0.0
131
0.0
112
0.0
122
1.0
132
0.0
 79
     0
146
0.0
  0
ENDTAB
  0
TABLE
  2
LTYPE
  5
5
330
0
100
AcDbSymbolTable
 70
     6
  0
LTYPE
  5
14
330
5
100
AcDbSymbolTableRecord
100
AcDbLinetypeTableRecord
  2
ByBlock
 70
     0
  3

 72
    65
 73
     0
 40
0.0
  0
LTYPE
  5
15
330
5
100
AcDbSymbolTableRecord
100
AcDbLinetypeTableRecord
  2
ByLayer
 70
     0
  3

 72
    65
 73
     0
 40
0.0
  0
LTYPE
  5
16
330
5
100
AcDbSymbolTableRecord
100
AcDbLinetypeTableRecord
  2
Continuous
 70
     0
  3
Solid line
 72
    65
 73
     0
 40
0.0
  0
LTYPE
  5
2A
330
5
100
AcDbSymbolTableRecord
100
AcDbLinetypeTableRecord
  2
HIDDEN
 70
     0
  3
Hidden __ __ __ __ __ __ __ __ __ __ __ __ __ __
 72
    65
 73
     2
 40
1.905
 49
1.27
 74
     0
 49
-0.635
 74
     0
  0
LTYPE
  5
2B
330
5
100
AcDbSymbolTableRecord
100
AcDbLinetypeTableRecord
  2
PHANTOM
 70
     0
  3
Phantom ______  __  __  ______  __  __  ______
 72
    65
 73
     6
 40
12.7
 49
6.35
 74
     0
 49
-1.27
 74
     0
 49
1.27
 74
     0
 49
-1.27
 74
     0
 49
1.27
 74
     0
 49
-1.27
 74
     0
  0
LTYPE
  5
2C
330
5
100
AcDbSymbolTableRecord
100
AcDbLinetypeTableRecord
  2
CENTER
 70
     0
  3
Center ____ _ ____ _ ____ _ ____ _ ____ _ ____
 72
    65
 73
     4
 40
10.16
 49
6.35
 74
     0
 49
-1.27
 74
     0
 49
1.27
 74
     0
 49
-1.27
 74
     0
  0
LTYPE
  5
2D
330
5
100
AcDbSymbolTableRecord
100
AcDbLinetypeTableRecord
  2
CENTERX2
 70
     0
  3
Center (2x) ________  __  ________  __  _____
 72
    65
 73
     4
 40
20.32
 49
12.7
 74
     0
 49
-2.54
 74
     0
 49
2.54
 74
     0
 49
-2.54
 74
     0
  0
LTYPE
  5
2E
330
5
100
AcDbSymbolTableRecord
100
AcDbLinetypeTableRecord
  2
DOT2
 70
     0
  3
Dot (.5x) ........................................
 72
    65
 73
     2
 40
0.635
 49
0.0
 74
     0
 49
-0.635
 74
     0
  0
ENDTAB
  0
TABLE
  2
LAYER
  5
2
330
0
100
AcDbSymbolTable
 70
    18
  0
LAYER
  5
10
330
2
100
AcDbSymbolTableRecord
100
AcDbLayerTableRecord
  2
0
 70
     0
 62
     7
  6
Continuous
370
    -3
390
F
  0
LAYER
  5
2F
330
2
100
AcDbSymbolTableRecord
100
AcDbLayerTableRecord
  2
SLD-0
 70
     0
 62
   179
  6
Continuous
370
    -3
390
F
  0
LAYER
  5
30
330
2
100
AcDbSymbolTableRecord
100
AcDbLayerTableRecord
  2
LAYER1
 70
     0
 62
   179
  6
Continuous
370
    -3
390
F
  0
LAYER
  5
31
330
2
100
AcDbSymbolTableRecord
100
AcDbLayerTableRecord
  2
DIMENSION
 70
     0
 62
   179
  6
Continuous
370
    -3
390
F
  0
LAYER
  5
32
330
2
100
AcDbSymbolTableRecord
100
AcDbLayerTableRecord
  2
6-図面枠
 70
     0
 62
     5
  6
Continuous
370
    15
390
F
  0
LAYER
  5
33
330
2
100
AcDbSymbolTableRecord
100
AcDbLayerTableRecord
  2
4-寸法線
 70
     0
 62
     5
  6
Continuous
370
    15
390
F
  0
LAYER
  5
34
330
2
100
AcDbSymbolTableRecord
100
AcDbLayerTableRecord
  2
補助線
 70
     0
 62
   254
  6
Continuous
370
    -3
390
F
  0
LAYER
  5
35
330
2
100
AcDbSymbolTableRecord
100
AcDbLayerTableRecord
  2
2-中心線
 70
     0
 62
     5
  6
CENTER
370
    15
390
F
  0
LAYER
  5
36
330
2
100
AcDbSymbolTableRecord
100
AcDbLayerTableRecord
  2
$DDT_AUDIT_GENERATED_(179)
 70
     0
 62
   179
  6
Continuous
370
    40
390
F
  0
LAYER
  5
37
330
2
100
AcDbSymbolTableRecord
100
AcDbLayerTableRecord
  2
12-中線
 70
     0
 62
   179
  6
Continuous
370
    15
390
F
  0
LAYER
  5
38
330
2
100
AcDbSymbolTableRecord
100
AcDbLayerTableRecord
  2
13-細線
 70
     0
 62
   179
  6
Continuous
370
    -3
390
F
  0
LAYER
  5
39
330
2
100
AcDbSymbolTableRecord
100
AcDbLayerTableRecord
  2
5-文字
 70
     0
 62
     5
  6
Continuous
370
    15
390
F
  0
LAYER
  5
3A
330
2
100
AcDbSymbolTableRecord
100
AcDbLayerTableRecord
  2
3-かくれ線
 70
     0
 62
     5
  6
HIDDEN
370
    15
390
F
  0
LAYER
  5
3B
330
2
100
AcDbSymbolTableRecord
100
AcDbLayerTableRecord
  2
AAA
 70
     0
 62
   179
  6
Continuous
370
    -3
390
F
  0
LAYER
  5
3C
330
2
100
AcDbSymbolTableRecord
100
AcDbLayerTableRecord
  2
基準線層
 70
     0
 62
   179
  6
Continuous
370
    -3
390
F
  0
LAYER
  5
3D
330
2
100
AcDbSymbolTableRecord
100
AcDbLayerTableRecord
  2
注記層
 70
     0
 62
   179
  6
Continuous
370
    -3
390
F
  0
LAYER
  5
3E
330
2
100
AcDbSymbolTableRecord
100
AcDbLayerTableRecord
  2
寸法線層
 70
     0
 62
   179
  6
Continuous
370
    -3
390
F
  0
LAYER
  5
3F
330
2
100
AcDbSymbolTableRecord
100
AcDbLayerTableRecord
  2
SLD-DEFPOINTS
 70
     0
 62
   179
  6
Continuous
370
    -3
390
F
  0
ENDTAB
  0
TABLE
  2
STYLE
  5
3
330
0
100
AcDbSymbolTable
 70
    10
  0
STYLE
  5
11
330
3
100
AcDbSymbolTableRecord
100
AcDbTextStyleTableRecord
  2
Standard
 70
     0
 40
0.0
 41
1.0
 50
0.0
 71
     0
 42
2.5
  3
txt
  4
bigfont
  0
STYLE
  5
19B
330
3
100
AcDbSymbolTableRecord
100
AcDbTextStyleTableRecord
  2
SLDTEXTSTYLE0
 70
     0
 40
0.0
 41
0.7291666667
 50
0.0
 71
     0
 42
0.2
  3
TXT
  4
bigfont
  0
STYLE
  5
1AD
330
3
100
AcDbSymbolTableRecord
100
AcDbTextStyleTableRecord
  2
SLDTEXTSTYLE1
 70
     0
 40
0.0
 41
0.7
 50
0.0
 71
     0
 42
0.2
  3
TXT
  4
bigfont
  0
STYLE
  5
1F3
330
3
100
AcDbSymbolTableRecord
100
AcDbTextStyleTableRecord
  2
SLDTEXTSTYLE2
 70
     0
 40
0.0
 41
0.63
 50
0.0
 71
     0
 42
0.2
  3
TXT
  4
bigfont
  0
STYLE
  5
1F8
330
3
100
AcDbSymbolTableRecord
100
AcDbTextStyleTableRecord
  2
SLDTEXTSTYLE3
 70
     0
 40
0.0
 41
0.3722727273
 50
0.0
 71
     0
 42
0.2
  3
TXT
  4
bigfont
  0
STYLE
  5
1FB
330
3
100
AcDbSymbolTableRecord
100
AcDbTextStyleTableRecord
  2
SLDTEXTSTYLE4
 70
     0
 40
0.0
 41
0.39375
 50
0.0
 71
     0
 42
0.2
  3
TXT
  4
bigfont
  0
STYLE
  5
235
330
3
100
AcDbSymbolTableRecord
100
AcDbTextStyleTableRecord
  2
SLDTEXTSTYLE5
 70
     0
 40
0.0
 41
0.4725
 50
0.0
 71
     0
 42
0.2
  3
TXT
  4
bigfont
  0
STYLE
  5
240
330
3
100
AcDbSymbolTableRecord
100
AcDbTextStyleTableRecord
  2
SLDTEXTSTYLE6
 70
     0
 40
0.0
 41
0.315
 50
0.0
 71
     0
 42
0.2
  3
TXT
  4
bigfont
  0
STYLE
  5
243
330
3
100
AcDbSymbolTableRecord
100
AcDbTextStyleTableRecord
  2
SLDTEXTSTYLE7
 70
     0
 40
0.0
 41
0.441
 50
0.0
 71
     0
 42
0.2
  3
TXT
  4
bigfont
  0
STYLE
  5
247
330
3
100
AcDbSymbolTableRecord
100
AcDbTextStyleTableRecord
  2
SLDTEXTSTYLE8
 70
     0
 40
0.0
 41
0.441
 50
0.0
 71
     0
 42
0.2
  3
TXT
  4
bigfont
  0
ENDTAB
  0
TABLE
  2
VIEW
  5
6
330
0
100
AcDbSymbolTable
 70
     0
  0
ENDTAB
  0
TABLE
  2
UCS
  5
7
330
0
100
AcDbSymbolTable
 70
     0
  0
ENDTAB
  0
TABLE
  2
APPID
  5
9
330
0
100
AcDbSymbolTable
 70
     1
  0
APPID
  5
12
330
9
100
AcDbSymbolTableRecord
100
AcDbRegAppTableRecord
  2
ACAD
 70
     0
  0
ENDTAB
  0
TABLE
  2
DIMSTYLE
  5
A
330
0
100
AcDbSymbolTable
 70
     6
100
AcDbDimStyleTable
  0
DIMSTYLE
105
27
330
A
100
AcDbSymbolTableRecord
100
AcDbDimStyleTableRecord
  2
ISO-25
 70
     0
 41
2.5
 42
0.625
 43
3.75
 44
1.25
 73
     0
 74
     0
 77
     1
 78
     8
140
2.5
141
2.5
143
0.0393700787
147
0.625
171
     3
172
     1
271
     2
272
     2
274
     3
278
    44
283
     0
284
     8
340
11
  0
DIMSTYLE
105
19C
102
{ACAD_REACTORS
330
19A
102
}
330
A
100
AcDbSymbolTableRecord
100
AcDbDimStyleTableRecord
  2
SLDDIMSTYLE0
 70
     0
 41
6.0
 44
0.0
 73
     0
 74
     0
 77
     3
 78
    12
140
4.2443576389
147
1.0610894097
173
     1
271
     0
284
    12
340
19B
341
19D
343
19D
344
19D
  0
DIMSTYLE
105
1B0
102
{ACAD_REACTORS
330
1AF
102
}
330
A
100
AcDbSymbolTableRecord
100
AcDbDimStyleTableRecord
  2
SLDDIMSTYLE1
 70
     0
 41
6.0
 44
0.0
 48
0.1
 71
     1
 73
     0
 74
     0
 77
     3
 78
    12
140
4.2443576389
147
1.0610894097
173
     1
271
     1
272
     1
340
19B
341
19D
343
19D
344
19D
  0
DIMSTYLE
105
1C0
102
{ACAD_REACTORS
330
1BF
330
1CC
102
}
330
A
100
AcDbSymbolTableRecord
100
AcDbDimStyleTableRecord
  2
SLDDIMSTYLE2
 70
     0
 41
6.0
 44
0.0
 73
     0
 74
     0
 77
     3
 78
    12
140
4.2443576389
147
1.0610894097
173
     1
271
     2
284
    12
340
19B
341
19D
343
19D
344
19D
  0
DIMSTYLE
105
1D7
102
{ACAD_REACTORS
330
1D6
102
}
330
A
100
AcDbSymbolTableRecord
100
AcDbDimStyleTableRecord
  2
SLDDIMSTYLE3
 70
     0
 41
6.0
 44
0.0
 73
     0
 74
     0
 77
     3
 78
    12
140
4.2443576389
147
1.0610894097
173
     1
271
     3
284
    12
340
19B
341
19D
343
19D
344
19D
  0
DIMSTYLE
105
1E5
102
{ACAD_REACTORS
330
1E4
102
}
330
A
100
AcDbSymbolTableRecord
100
AcDbDimStyleTableRecord
  2
SLDDIMSTYLE4
 70
     0
 41
6.0
 44
0.0
 73
     0
 74
     0
 77
     3
 78
    12
140
4.2443576389
147
1.0610894097
173
     1
271
     1
284
    12
340
19B
341
19D
343
19D
344
19D
  0
ENDTAB
  0
TABLE
  2
BLOCK_RECORD
  5
1
330
0
100
AcDbSymbolTable
 70
    11
  0
BLOCK_RECORD
  5
1F
330
1
100
AcDbSymbolTableRecord
100
AcDbBlockTableRecord
  2
*Model_Space
340
22
  0
BLOCK_RECORD
  5
1B
330
1
100
AcDbSymbolTableRecord
100
AcDbBlockTableRecord
  2
*Paper_Space
340
1E
  0
BLOCK_RECORD
  5
23
330
1
100
AcDbSymbolTableRecord
100
AcDbBlockTableRecord
  2
*Paper_Space0
340
26
  0
BLOCK_RECORD
  5
19D
330
1
100
AcDbSymbolTableRecord
100
AcDbBlockTableRecord
  2
_Open30
340
0
102
{BLKREFS
331
1A6
331
1A7
331
1B4
331
1B5
331
1C4
331
1C5
331
1D0
331
1D1
331
1DB
331
1DC
331
1E9
331
1EA
331
252
331
255
102
}
1001
ACAD
1000
DesignCenter Data
1002
{
1070
     1
1070
     0
1002
}
  0
BLOCK_RECORD
  5
1A3
330
1
100
AcDbSymbolTableRecord
100
AcDbBlockTableRecord
  2
*D2
340
0
  0
BLOCK_RECORD
  5
1B1
330
1
100
AcDbSymbolTableRecord
100
AcDbBlockTableRecord
  2
*D3
340
0
  0
BLOCK_RECORD
  5
1C1
330
1
100
AcDbSymbolTableRecord
100
AcDbBlockTableRecord
  2
*D4
340
0
  0
BLOCK_RECORD
  5
1CD
330
1
100
AcDbSymbolTableRecord
100
AcDbBlockTableRecord
  2
*D5
340
0
  0
BLOCK_RECORD
  5
1D8
330
1
100
AcDbSymbolTableRecord
100
AcDbBlockTableRecord
  2
*D6
340
0
  0
BLOCK_RECORD
  5
1E6
330
1
100
AcDbSymbolTableRecord
100
AcDbBlockTableRecord
  2
*D7
340
0
  0
BLOCK_RECORD
  5
20B
330
1
100
AcDbSymbolTableRecord
100
AcDbBlockTableRecord
  2
SW_NOTE_0
340
0
102
{BLKREFS
331
210
102
}
1001
ACAD
1000
DesignCenter Data
1002
{
1070
     1
1070
     0
1002
}
  0
BLOCK_RECORD
  5
214
330
1
100
AcDbSymbolTableRecord
100
AcDbBlockTableRecord
  2
SW_NOTE_1
340
0
102
{BLKREFS
331
21D
102
}
1001
ACAD
1000
DesignCenter Data
1002
{
1070
     1
1070
     0
1002
}
  0
BLOCK_RECORD
  5
22F
330
1
100
AcDbSymbolTableRecord
100
AcDbBlockTableRecord
  2
SW_NOTE_2
340
0
102
{BLKREFS
331
234
102
}
1001
ACAD
1000
DesignCenter Data
1002
{
1070
     1
1070
     0
1002
}
  0
ENDTAB
  0
ENDSEC
  0
SECTION
  2
BLOCKS
  0
BLOCK
  5
20
330
1F
100
AcDbEntity
  8
0
100
AcDbBlockBegin
  2
*Model_Space
 70
     0
 71
     0
 10
0.0
 20
0.0
 30
0.0
  3
*Model_Space
  1

  0
ENDBLK
  5
21
330
1F
100
AcDbEntity
  8
0
100
AcDbBlockEnd
  0
BLOCK
  5
1C
330
1B
100
AcDbEntity
 67
     1
  8
0
100
AcDbBlockBegin
  2
*Paper_Space
 70
     0
 71
     0
 10
0.0
 20
0.0
 30
0.0
  3
*Paper_Space
  1

  0
ENDBLK
  5
1D
330
1B
100
AcDbEntity
 67
     1
  8
0
100
AcDbBlockEnd
  0
BLOCK
  5
24
330
23
100
AcDbEntity
  8
0
100
AcDbBlockBegin
  2
*Paper_Space0
 70
     0
 71
     0
 10
0.0
 20
0.0
 30
0.0
  3
*Paper_Space0
  1

  0
ENDBLK
  5
25
330
23
100
AcDbEntity
  8
0
100
AcDbBlockEnd
  0
BLOCK
  5
19E
330
19D
100
AcDbEntity
  8
0
100
AcDbBlockBegin
  2
_Open30
 70
     0
 71
     0
 10
0.0
 20
0.0
 30
0.0
  3
_Open30
  1

  0
LINE
  5
1A0
330
19D
100
AcDbEntity
  8
0
  6
ByBlock
 62
     0
370
    -2
100
AcDbLine
 10
-1.0
 20
0.267949
 30
0.0
 11
0.0
 21
0.0
 31
0.0
  0
LINE
  5
1A1
330
19D
100
AcDbEntity
  8
0
  6
ByBlock
 62
     0
370
    -2
100
AcDbLine
 10
0.0
 20
0.0
 30
0.0
 11
-1.0
 21
-0.267949
 31
0.0
  0
LINE
  5
1A2
330
19D
100
AcDbEntity
  8
0
  6
ByBlock
 62
     0
370
    -2
100
AcDbLine
 10
0.0
 20
0.0
 30
0.0
 11
-1.0
 21
0.0
 31
0.0
  0
ENDBLK
  5
19F
330
19D
100
AcDbEntity
  8
0
100
AcDbBlockEnd
  0
BLOCK
  5
1A4
330
1A3
100
AcDbEntity
  8
0
100
AcDbBlockBegin
  2
*D2
 70
     1
 71
     0
 10
0.0
 20
0.0
 30
0.0
  3
*D2
  1

  0
INSERT
  5
1A6
330
1A3
100
AcDbEntity
  8
DIMENSION
100
AcDbBlockReference
  2
_Open30
 10
235.5690307329
 20
146.7175683891
 30
0.1
 41
6.0
 42
6.0
 50
360.0
  0
INSERT
  5
1A7
330
1A3
100
AcDbEntity
  8
DIMENSION
100
AcDbBlockReference
  2
_Open30
 10
239.5690307329
 20
146.7175683891
 30
0.1
 41
6.0
 42
6.0
 50
180.0
  0
LINE
  5
1A8
330
1A3
100
AcDbEntity
  8
DIMENSION
100
AcDbLine
 10
235.5690307329
 20
133.9752955083
 30
0.0
 11
235.5690307329
 21
147.7175683891
 31
0.0
  0
LINE
  5
1A9
330
1A3
100
AcDbEntity
  8
DIMENSION
100
AcDbLine
 10
239.5690307329
 20
132.0752955083
 30
0.0
 11
239.5690307329
 21
147.7175683891
 31
0.0
  0
LINE
  5
1AA
330
1A3
100
AcDbEntity
  8
DIMENSION
100
AcDbLine
 10
235.5690307329
 20
146.7175683891
 30
0.0
 11
223.5690307329
 21
146.7175683891
 31
0.0
  0
LINE
  5
1AB
330
1A3
100
AcDbEntity
  8
DIMENSION
100
AcDbLine
 10
235.5690307329
 20
146.7175683891
 30
0.0
 11
239.5690307329
 21
146.7175683891
 31
0.0
  0
LINE
  5
1AC
330
1A3
100
AcDbEntity
  8
DIMENSION
100
AcDbLine
 10
239.5690307329
 20
146.7175683891
 30
0.0
 11
251.5690307329
 21
146.7175683891
 31
0.0
  0
MTEXT
  5
1AE
330
1A3
100
AcDbEntity
  8
DIMENSION
100
AcDbMText
 10
236.2867694524
 20
151.0278715358
 30
0.0
 40
3.7041666667
 41
0.0
 71
     1
 72
     1
  1
4
  7
SLDTEXTSTYLE1
 73
     1
 44
1.0
  0
ENDBLK
  5
1A5
330
1A3
100
AcDbEntity
  8
0
100
AcDbBlockEnd
  0
BLOCK
  5
1B2
330
1B1
100
AcDbEntity
  8
0
100
AcDbBlockBegin
  2
*D3
 70
     1
 71
     0
 10
0.0
 20
0.0
 30
0.0
  3
*D3
  1

  0
INSERT
  5
1B4
330
1B1
100
AcDbEntity
  8
DIMENSION
100
AcDbBlockReference
  2
_Open30
 10
202.2967938636
 20
105.1252955083
 30
0.1
 41
6.0
 42
6.0
 50
270.0
  0
INSERT
  5
1B5
330
1B1
100
AcDbEntity
  8
DIMENSION
100
AcDbBlockReference
  2
_Open30
 10
202.2967938636
 20
132.8252955083
 30
0.1
 41
6.0
 42
6.0
 50
90.0
  0
LINE
  5
1B6
330
1B1
100
AcDbEntity
  8
DIMENSION
100
AcDbLine
 10
202.4452952831
 20
105.1252955083
 30
0.0
 11
201.2967938636
 21
105.1252955083
 31
0.0
  0
LINE
  5
1B7
330
1B1
100
AcDbEntity
  8
DIMENSION
100
AcDbLine
 10
202.4452952831
 20
132.8252955083
 30
0.0
 11
201.2967938636
 21
132.8252955083
 31
0.0
  0
LINE
  5
1B8
330
1B1
100
AcDbEntity
  8
DIMENSION
100
AcDbLine
 10
202.2967938636
 20
105.1252955083
 30
0.0
 11
202.2967938636
 21
73.6519088309
 31
0.0
  0
LINE
  5
1B9
330
1B1
100
AcDbEntity
  8
DIMENSION
100
AcDbLine
 10
202.2967938636
 20
105.1252955083
 30
0.0
 11
202.2967938636
 21
132.8252955083
 31
0.0
  0
MTEXT
  5
1BA
330
1B1
100
AcDbEntity
  8
DIMENSION
100
AcDbMText
 10
197.9864907169
 20
75.2394088309
 30
0.0
 40
3.7041666667
 41
0.0
 71
     1
 72
     1
  1
%%c
  7
SLDTEXTSTYLE1
 11
6.123031769111886E-17
 21
1.0
 31
0.0
 73
     1
 44
1.0
  0
MTEXT
  5
1BB
330
1B1
100
AcDbEntity
  8
DIMENSION
100
AcDbMText
 10
197.9864907169
 20
79.9312844407
 30
0.0
 40
3.7041666667
 41
0.0
 71
     1
 72
     1
  1
27.7
  7
SLDTEXTSTYLE1
 11
6.123031769111886E-17
 21
1.0
 31
0.0
 73
     1
 44
1.0
  0
MTEXT
  5
1BC
330
1B1
100
AcDbEntity
  8
DIMENSION
100
AcDbMText
 10
198.7592729286
 20
92.205896026
 30
0.0
 40
2.9104166667
 41
0.0
 71
     1
 72
     1
  1
-
  7
SLDTEXTSTYLE1
 11
6.123031769111886E-17
 21
1.0
 31
0.0
 73
     1
 44
1.0
  0
MTEXT
  5
1BD
330
1B1
100
AcDbEntity
  8
DIMENSION
100
AcDbMText
 10
198.7592729286
 20
94.219338709
 30
0.0
 40
2.9104166667
 41
0.0
 71
     1
 72
     1
  1
0.1
  7
SLDTEXTSTYLE1
 11
6.123031769111886E-17
 21
1.0
 31
0.0
 73
     1
 44
1.0
  0
MTEXT
  5
1BE
330
1B1
100
AcDbEntity
  8
DIMENSION
100
AcDbMText
 10
194.8801631725
 20
94.219338709
 30
0.0
 40
2.9104166667
 41
0.0
 71
     1
 72
     1
  1
0.0
  7
SLDTEXTSTYLE1
 11
6.123031769111886E-17
 21
1.0
 31
0.0
 73
     1
 44
1.0
  0
ENDBLK
  5
1B3
330
1B1
100
AcDbEntity
  8
0
100
AcDbBlockEnd
  0
BLOCK
  5
1C2
330
1C1
100
AcDbEntity
  8
0
100
AcDbBlockBegin
  2
*D4
 70
     1
 71
     0
 10
0.0
 20
0.0
 30
0.0
  3
*D4
  1

  0
INSERT
  5
1C4
330
1C1
100
AcDbEntity
  8
DIMENSION
100
AcDbBlockReference
  2
_Open30
 10
87.5170307329
 20
155.0361420691
 30
0.1
 41
6.0
 42
6.0
 50
180.0
  0
INSERT
  5
1C5
330
1C1
100
AcDbEntity
  8
DIMENSION
100
AcDbBlockReference
  2
_Open30
 10
235.5690307329
 20
155.0361420691
 30
0.1
 41
6.0
 42
6.0
 50
360.0
  0
LINE
  5
1C6
330
1C1
100
AcDbEntity
  8
DIMENSION
100
AcDbLine
 10
87.5170307329
 20
133.3752955083
 30
0.0
 11
87.5170307329
 21
156.0361420691
 31
0.0
  0
LINE
  5
1C7
330
1C1
100
AcDbEntity
  8
DIMENSION
100
AcDbLine
 10
235.5690307329
 20
133.9752955083
 30
0.0
 11
235.5690307329
 21
156.0361420691
 31
0.0
  0
LINE
  5
1C8
330
1C1
100
AcDbEntity
  8
DIMENSION
100
AcDbLine
 10
87.5170307329
 20
155.0361420691
 30
0.0
 11
235.5690307329
 21
155.0361420691
 31
0.0
  0
MTEXT
  5
1C9
330
1C1
100
AcDbEntity
  8
DIMENSION
100
AcDbMText
 10
151.2834011597
 20
159.3464452158
 30
0.0
 40
3.7041666667
 41
0.0
 71
     1
 72
     1
  1
(
  7
SLDTEXTSTYLE1
 73
     1
 44
1.0
  0
MTEXT
  5
1CA
330
1C1
100
AcDbEntity
  8
DIMENSION
100
AcDbMText
 10
153.8479237207
 20
159.3464452158
 30
0.0
 40
3.7041666667
 41
0.0
 71
     1
 72
     1
  1
148.05
  7
SLDTEXTSTYLE1
 73
     1
 44
1.0
  0
MTEXT
  5
1CB
330
1C1
100
AcDbEntity
  8
DIMENSION
100
AcDbMText
 10
169.2381377451
 20
159.3464452158
 30
0.0
 40
3.7041666667
 41
0.0
 71
     1
 72
     1
  1
)
  7
SLDTEXTSTYLE1
 73
     1
 44
1.0
  0
ENDBLK
  5
1C3
330
1C1
100
AcDbEntity
  8
0
100
AcDbBlockEnd
  0
BLOCK
  5
1CE
330
1CD
100
AcDbEntity
  8
0
100
AcDbBlockBegin
  2
*D5
 70
     1
 71
     0
 10
0.0
 20
0.0
 30
0.0
  3
*D5
  1

  0
INSERT
  5
1D0
330
1CD
100
AcDbEntity
  8
DIMENSION
100
AcDbBlockReference
  2
_Open30
 10
160.3170307329
 20
146.7175683891
 30
0.1
 41
6.0
 42
6.0
 50
180.0
  0
INSERT
  5
1D1
330
1CD
100
AcDbEntity
  8
DIMENSION
100
AcDbBlockReference
  2
_Open30
 10
235.5690307329
 20
146.7175683891
 30
0.1
 41
6.0
 42
6.0
 50
360.0
  0
LINE
  5
1D2
330
1CD
100
AcDbEntity
  8
DIMENSION
100
AcDbLine
 10
160.3170307329
 20
136.4752955083
 30
0.0
 11
160.3170307329
 21
147.7175683891
 31
0.0
  0
LINE
  5
1D3
330
1CD
100
AcDbEntity
  8
DIMENSION
100
AcDbLine
 10
235.5690307329
 20
133.9752955083
 30
0.0
 11
235.5690307329
 21
147.7175683891
 31
0.0
  0
LINE
  5
1D4
330
1CD
100
AcDbEntity
  8
DIMENSION
100
AcDbLine
 10
160.3170307329
 20
146.7175683891
 30
0.0
 11
235.5690307329
 21
146.7175683891
 31
0.0
  0
MTEXT
  5
1D5
330
1CD
100
AcDbEntity
  8
DIMENSION
100
AcDbMText
 10
191.5301850012
 20
151.0278715358
 30
0.0
 40
3.7041666667
 41
0.0
 71
     1
 72
     1
  1
75.25
  7
SLDTEXTSTYLE1
 73
     1
 44
1.0
  0
ENDBLK
  5
1CF
330
1CD
100
AcDbEntity
  8
0
100
AcDbBlockEnd
  0
BLOCK
  5
1D9
330
1D8
100
AcDbEntity
  8
0
100
AcDbBlockBegin
  2
*D6
 70
     1
 71
     0
 10
0.0
 20
0.0
 30
0.0
  3
*D6
  1

  0
INSERT
  5
1DB
330
1D8
100
AcDbEntity
  8
DIMENSION
100
AcDbBlockReference
  2
_Open30
 10
235.5690307329
 20
155.0361420691
 30
0.1
 41
6.0
 42
6.0
 50
360.0
  0
INSERT
  5
1DC
330
1D8
100
AcDbEntity
  8
DIMENSION
100
AcDbBlockReference
  2
_Open30
 10
253.0950307329
 20
155.0361420691
 30
0.1
 41
6.0
 42
6.0
 50
180.0
  0
LINE
  5
1DD
330
1D8
100
AcDbEntity
  8
DIMENSION
100
AcDbLine
 10
235.5690307329
 20
133.9752955083
 30
0.0
 11
235.5690307329
 21
156.0361420691
 31
0.0
  0
LINE
  5
1DE
330
1D8
100
AcDbEntity
  8
DIMENSION
100
AcDbLine
 10
253.0950307329
 20
119.9752955083
 30
0.0
 11
253.0950307329
 21
156.0361420691
 31
0.0
  0
LINE
  5
1DF
330
1D8
100
AcDbEntity
  8
DIMENSION
100
AcDbLine
 10
235.5690307329
 20
155.0361420691
 30
0.0
 11
223.5690307329
 21
155.0361420691
 31
0.0
  0
LINE
  5
1E0
330
1D8
100
AcDbEntity
  8
DIMENSION
100
AcDbLine
 10
235.5690307329
 20
155.0361420691
 30
0.0
 11
253.0950307329
 21
155.0361420691
 31
0.0
  0
LINE
  5
1E1
330
1D8
100
AcDbEntity
  8
DIMENSION
100
AcDbLine
 10
253.0950307329
 20
155.0361420691
 30
0.0
 11
265.0950307329
 21
155.0361420691
 31
0.0
  0
MTEXT
  5
1E2
330
1D8
100
AcDbEntity
  8
DIMENSION
100
AcDbMText
 10
232.7901398792
 20
159.3464452158
 30
0.0
 40
3.7041666667
 41
0.0
 71
     1
 72
     1
  1
FB=
  7
SLDTEXTSTYLE1
 73
     1
 44
1.0
  0
MTEXT
  5
1E3
330
1D8
100
AcDbEntity
  8
DIMENSION
100
AcDbMText
 10
240.4837075622
 20
159.3464452158
 30
0.0
 40
3.7041666667
 41
0.0
 71
     1
 72
     1
  1
17.526
  7
SLDTEXTSTYLE1
 73
     1
 44
1.0
  0
ENDBLK
  5
1DA
330
1D8
100
AcDbEntity
  8
0
100
AcDbBlockEnd
  0
BLOCK
  5
1E7
330
1E6
100
AcDbEntity
  8
0
100
AcDbBlockBegin
  2
*D7
 70
     1
 71
     0
 10
0.0
 20
0.0
 30
0.0
  3
*D7
  1

  0
INSERT
  5
1E9
330
1E6
100
AcDbEntity
  8
DIMENSION
100
AcDbBlockReference
  2
_Open30
 10
77.2933731364
 20
103.5752955083
 30
0.1
 41
6.0
 42
6.0
 50
270.0
  0
INSERT
  5
1EA
330
1E6
100
AcDbEntity
  8
DIMENSION
100
AcDbBlockReference
  2
_Open30
 10
77.2933731364
 20
134.3752955083
 30
0.1
 41
6.0
 42
6.0
 50
90.0
  0
LINE
  5
1EB
330
1E6
100
AcDbEntity
  8
DIMENSION
100
AcDbLine
 10
88.5170307329
 20
103.5752955083
 30
0.0
 11
76.2933731364
 21
103.5752955083
 31
0.0
  0
LINE
  5
1EC
330
1E6
100
AcDbEntity
  8
DIMENSION
100
AcDbLine
 10
88.5170307329
 20
134.3752955083
 30
0.0
 11
76.2933731364
 21
134.3752955083
 31
0.0
  0
LINE
  5
1ED
330
1E6
100
AcDbEntity
  8
DIMENSION
100
AcDbLine
 10
77.2933731364
 20
103.5752955083
 30
0.0
 11
77.2933731364
 21
134.3752955083
 31
0.0
  0
MTEXT
  5
1EE
330
1E6
100
AcDbEntity
  8
DIMENSION
100
AcDbMText
 10
72.9830699897
 20
109.0492999104
 30
0.0
 40
3.7041666667
 41
0.0
 71
     1
 72
     1
  1
%%c
  7
SLDTEXTSTYLE1
 11
6.123031769111886E-17
 21
1.0
 31
0.0
 73
     1
 44
1.0
  0
MTEXT
  5
1EF
330
1E6
100
AcDbEntity
  8
DIMENSION
100
AcDbMText
 10
72.9830699897
 20
113.7411755202
 30
0.0
 40
3.7041666667
 41
0.0
 71
     1
 72
     1
  1
30.8
  7
SLDTEXTSTYLE1
 11
6.123031769111886E-17
 21
1.0
 31
0.0
 73
     1
 44
1.0
  0
ENDBLK
  5
1E8
330
1E6
100
AcDbEntity
  8
0
100
AcDbBlockEnd
  0
BLOCK
  5
20C
330
20B
100
AcDbEntity
  8
0
100
AcDbBlockBegin
  2
SW_NOTE_0
 70
     0
 71
     0
 10
0.0
 20
0.0
 30
0.0
  3
SW_NOTE_0
  1

  0
MTEXT
  5
20E
330
20B
100
AcDbEntity
  8
0
  6
Continuous
 62
     0
370
     0
100
AcDbMText
 10
0.0
 20
2.463030303
 30
0.0
 40
2.1166666667
 41
0.0
 71
     1
 72
     1
  1
1
  7
SLDTEXTSTYLE1
 73
     1
 44
1.0
  0
MTEXT
  5
20F
330
20B
100
AcDbEntity
  8
0
  6
Continuous
 62
     0
370
     0
100
AcDbMText
 10
1.4111110941
 20
2.463030303
 30
0.0
 40
2.1166666667
 41
0.0
 71
     1
 72
     1
  1
.6
  7
SLDTEXTSTYLE1
 73
     1
 44
1.0
  0
ENDBLK
  5
20D
330
20B
100
AcDbEntity
  8
0
100
AcDbBlockEnd
  0
BLOCK
  5
215
330
214
100
AcDbEntity
  8
0
100
AcDbBlockBegin
  2
SW_NOTE_1
 70
     0
 71
     0
 10
0.0
 20
0.0
 30
0.0
  3
SW_NOTE_1
  1

  0
LINE
  5
217
330
214
100
AcDbEntity
  8
0
  6
Continuous
 62
     0
370
     0
100
AcDbLine
 10
0.0
 20
0.0
 30
0.0
 11
0.0
 21
-4.497920122
 31
0.0
  0
LINE
  5
218
330
214
100
AcDbEntity
  8
0
  6
Continuous
 62
     0
370
     0
100
AcDbLine
 10
0.0
 20
-4.497920122
 30
0.0
 11
4.0730652439
 21
-4.497920122
 31
0.0
  0
LINE
  5
219
330
214
100
AcDbEntity
  8
0
  6
Continuous
 62
     0
370
     0
100
AcDbLine
 10
4.0730652439
 20
-4.497920122
 30
0.0
 11
4.0730652439
 21
0.0
 31
0.0
  0
LINE
  5
21A
330
214
100
AcDbEntity
  8
0
  6
Continuous
 62
     0
370
     0
100
AcDbLine
 10
4.0730652439
 20
0.0
 30
0.0
 11
0.0
 21
0.0
 31
0.0
  0
LINE
  5
21B
330
214
100
AcDbEntity
  8
0
  6
Continuous
 62
     0
370
     0
100
AcDbLine
 10
0.0
 20
0.0
 30
0.0
 11
4.0730652439
 21
-4.497920122
 31
0.0
  0
LINE
  5
21C
330
214
100
AcDbEntity
  8
0
  6
Continuous
 62
     0
370
     0
100
AcDbLine
 10
0.0
 20
-4.497920122
 30
0.0
 11
4.0730652439
 21
0.0
 31
0.0
  0
ENDBLK
  5
216
330
214
100
AcDbEntity
  8
0
100
AcDbBlockEnd
  0
BLOCK
  5
230
330
22F
100
AcDbEntity
  8
0
100
AcDbBlockBegin
  2
SW_NOTE_2
 70
     0
 71
     0
 10
0.0
 20
0.0
 30
0.0
  3
SW_NOTE_2
  1

  0
MTEXT
  5
232
330
22F
100
AcDbEntity
  8
0
  6
Continuous
 62
     0
370
     0
100
AcDbMText
 10
0.0
 20
3.4909090909
 30
0.0
 40
3.0
 41
0.0
 71
     1
 72
     1
  1
一般
  7
SLDTEXTSTYLE2
 73
     1
 44
1.0
  0
MTEXT
  5
233
330
22F
100
AcDbEntity
  8
0
  6
Continuous
 62
     0
370
     0
100
AcDbMText
 10
0.0
 20
-0.2090909102
 30
0.0
 40
3.0
 41
0.0
 71
     1
 72
     1
  1
公差
  7
SLDTEXTSTYLE2
 73
     1
 44
1.0
  0
ENDBLK
  5
231
330
22F
100
AcDbEntity
  8
0
100
AcDbBlockEnd
  0
ENDSEC
  0
SECTION
  2
ENTITIES
  0
LINE
  5
40
330
1F
100
AcDbEntity
  8
LAYER1
100
AcDbLine
 10
167.3190307329
 20
134.2252955083
 30
0.0
 11
167.3190307329
 21
103.7252955083
 31
0.0
  0
LINE
  5
41
330
1F
100
AcDbEntity
  8
LAYER1
100
AcDbLine
 10
159.8170307329
 20
118.9752955083
 30
0.0
 11
155.3170307329
 21
118.9752955083
 31
0.0
  0
LINE
  5
42
330
1F
100
AcDbEntity
  8
LAYER1
100
AcDbLine
 10
143.0668060656
 20
115.192439631
 30
0.0
 11
131.0668060656
 21
115.192439631
 31
0.0
  0
LINE
  5
43
330
1F
100
AcDbEntity
  8
LAYER1
100
AcDbLine
 10
143.0668060656
 20
135.5490700154
 30
0.0
 11
131.0668060656
 21
135.5490700154
 31
0.0
  0
LINE
  5
44
330
1F
100
AcDbEntity
  8
LAYER1
100
AcDbLine
 10
249.5594968269
 20
122.5108294142
 30
0.0
 11
256.6305646388
 21
115.4397616023
 31
0.0
  0
LINE
  5
45
330
1F
100
AcDbEntity
  8
LAYER1
100
AcDbLine
 10
249.5594968269
 20
115.4397616023
 30
0.0
 11
256.6305646388
 21
122.5108294142
 31
0.0
  0
LINE
  5
46
330
1F
100
AcDbEntity
  8
LAYER1
  6
CENTERX2
100
AcDbLine
 10
157.5670307329
 20
120.9989116341
 30
0.0
 11
157.5670307329
 21
116.9516793825
 31
0.0
  0
LINE
  5
47
330
1F
100
AcDbEntity
  8
LAYER1
100
AcDbLine
 10
89.5170307329
 20
134.3752955083
 30
0.0
 11
89.5170307329
 21
103.5752955083
 31
0.0
  0
LINE
  5
48
330
1F
100
AcDbEntity
  8
LAYER1
100
AcDbLine
 10
87.5170307329
 20
105.5752955083
 30
0.0
 11
87.5170307329
 21
132.3752955083
 31
0.0
  0
LINE
  5
49
330
1F
100
AcDbEntity
  8
LAYER1
100
AcDbLine
 10
100.1170307329
 20
132.7752955083
 30
0.0
 11
100.3168060656
 21
132.7752955083
 31
0.0
  0
LINE
  5
4A
330
1F
100
AcDbEntity
  8
LAYER1
100
AcDbLine
 10
100.1170307329
 20
134.3752955083
 30
0.0
 11
100.1170307329
 21
103.5752955083
 31
0.0
  0
LINE
  5
4B
330
1F
100
AcDbEntity
  8
LAYER1
100
AcDbLine
 10
100.3168060656
 20
134.4752955083
 30
0.0
 11
100.3168060656
 21
103.4752955083
 31
0.0
  0
LINE
  5
4C
330
1F
100
AcDbEntity
  8
LAYER1
100
AcDbLine
 10
143.8168060656
 20
135.2252955083
 30
0.0
 11
143.8168060656
 21
102.7252955083
 31
0.0
  0
LINE
  5
4D
330
1F
100
AcDbEntity
  8
LAYER1
100
AcDbLine
 10
131.0668060656
 20
135.9752955083
 30
0.0
 11
131.0668060656
 21
101.9752955083
 31
0.0
  0
LINE
  5
4E
330
1F
100
AcDbEntity
  8
LAYER1
100
AcDbLine
 10
143.0668060656
 20
135.9752955083
 30
0.0
 11
143.0668060656
 21
101.9752955083
 31
0.0
  0
LINE
  5
4F
330
1F
100
AcDbEntity
  8
LAYER1
100
AcDbLine
 10
159.8170307329
 20
135.5490700154
 30
0.0
 11
155.3170307329
 21
135.5490700154
 31
0.0
  0
LINE
  5
50
330
1F
100
AcDbEntity
  8
LAYER1
100
AcDbLine
 10
159.8170307329
 20
134.2917662626
 30
0.0
 11
155.3170307329
 21
134.2917662626
 31
0.0
  0
LINE
  5
51
330
1F
100
AcDbEntity
  8
LAYER1
100
AcDbLine
 10
159.8170307329
 20
132.2664307102
 30
0.0
 11
155.3170307329
 21
132.2664307102
 31
0.0
  0
LINE
  5
52
330
1F
100
AcDbEntity
  8
LAYER1
100
AcDbLine
 10
159.8170307329
 20
129.5746221399
 30
0.0
 11
155.3170307329
 21
129.5746221399
 31
0.0
  0
LINE
  5
53
330
1F
100
AcDbEntity
  8
LAYER1
100
AcDbLine
 10
159.8170307329
 20
126.3513190733
 30
0.0
 11
155.3170307329
 21
126.3513190733
 31
0.0
  0
LINE
  5
54
330
1F
100
AcDbEntity
  8
LAYER1
100
AcDbLine
 10
159.8170307329
 20
122.7581513855
 30
0.0
 11
155.3170307329
 21
122.7581513855
 31
0.0
  0
LINE
  5
55
330
1F
100
AcDbEntity
  8
LAYER1
100
AcDbLine
 10
159.8170307329
 20
115.192439631
 30
0.0
 11
155.3170307329
 21
115.192439631
 31
0.0
  0
LINE
  5
56
330
1F
100
AcDbEntity
  8
LAYER1
100
AcDbLine
 10
149.3168060656
 20
135.2252955083
 30
0.0
 11
149.3168060656
 21
102.7252955083
 31
0.0
  0
LINE
  5
57
330
1F
100
AcDbEntity
  8
LAYER1
100
AcDbLine
 10
154.8170307329
 20
102.7252955083
 30
0.0
 11
149.8170307329
 21
102.7252955083
 31
0.0
  0
LINE
  5
58
330
1F
100
AcDbEntity
  8
LAYER1
100
AcDbLine
 10
149.8170307329
 20
135.2252955083
 30
0.0
 11
149.8170307329
 21
102.7252955083
 31
0.0
  0
LINE
  5
59
330
1F
100
AcDbEntity
  8
LAYER1
100
AcDbLine
 10
159.8170307329
 20
135.9752955083
 30
0.0
 11
159.8170307329
 21
101.9752955083
 31
0.0
  0
LINE
  5
5A
330
1F
100
AcDbEntity
  8
LAYER1
100
AcDbLine
 10
155.3170307329
 20
135.9752955083
 30
0.0
 11
155.3170307329
 21
101.9752955083
 31
0.0
  0
LINE
  5
5B
330
1F
100
AcDbEntity
  8
LAYER1
100
AcDbLine
 10
159.8170307329
 20
135.9752955083
 30
0.0
 11
160.3170307329
 21
135.4752955083
 31
0.0
  0
LINE
  5
5C
330
1F
100
AcDbEntity
  8
LAYER1
100
AcDbLine
 10
159.8170307329
 20
135.9752955083
 30
0.0
 11
155.3170307329
 21
135.9752955083
 31
0.0
  0
LINE
  5
5D
330
1F
100
AcDbEntity
  8
LAYER1
100
AcDbLine
 10
160.3170307329
 20
135.4752955083
 30
0.0
 11
160.3170307329
 21
102.4752955083
 31
0.0
  0
LINE
  5
5E
330
1F
100
AcDbEntity
  8
LAYER1
100
AcDbLine
 10
154.8170307329
 20
135.4752955083
 30
0.0
 11
154.8170307329
 21
102.4752955083
 31
0.0
  0
LINE
  5
5F
330
1F
100
AcDbEntity
  8
LAYER1
100
AcDbLine
 10
168.3190307329
 20
133.2252955083
 30
0.0
 11
168.3190307329
 21
104.7252955083
 31
0.0
  0
LINE
  5
60
330
1F
100
AcDbEntity
  8
LAYER1
100
AcDbLine
 10
185.5690307329
 20
132.5752955083
 30
0.0
 11
185.5690307329
 21
105.3752955083
 31
0.0
  0
LINE
  5
61
330
1F
100
AcDbEntity
  8
LAYER1
  6
CENTERX2
100
AcDbLine
 10
190.5690307329
 20
102.4752955083
 30
0.0
 11
190.5690307329
 21
135.4752955083
 31
0.0
  0
LINE
  5
62
330
1F
100
AcDbEntity
  8
LAYER1
  6
CENTERX2
100
AcDbLine
 10
185.5690307329
 20
102.4752955083
 30
0.0
 11
185.5690307329
 21
135.4752955083
 31
0.0
  0
LINE
  5
63
330
1F
100
AcDbEntity
  8
LAYER1
100
AcDbLine
 10
190.5690307329
 20
131.5752955083
 30
0.0
 11
190.5690307329
 21
106.3752955083
 31
0.0
  0
LINE
  5
64
330
1F
100
AcDbEntity
  8
LAYER1
100
AcDbLine
 10
191.8190307329
 20
132.8252955083
 30
0.0
 11
191.8190307329
 21
105.1252955083
 31
0.0
  0
LINE
  5
65
330
1F
100
AcDbEntity
  8
LAYER1
100
AcDbLine
 10
185.3190307329
 20
132.8252955083
 30
0.0
 11
185.3190307329
 21
105.1252955083
 31
0.0
  0
LINE
  5
66
330
1F
100
AcDbEntity
  8
LAYER1
100
AcDbLine
 10
189.3190307329
 20
132.8252955083
 30
0.0
 11
189.3190307329
 21
105.1252955083
 31
0.0
  0
LINE
  5
67
330
1F
100
AcDbEntity
  8
LAYER1
100
AcDbLine
 10
143.0668060656
 20
134.2917662626
 30
0.0
 11
131.0668060656
 21
134.2917662626
 31
0.0
  0
LINE
  5
68
330
1F
100
AcDbEntity
  8
LAYER1
100
AcDbLine
 10
143.0668060656
 20
132.2664307102
 30
0.0
 11
131.0668060656
 21
132.2664307102
 31
0.0
  0
LINE
  5
69
330
1F
100
AcDbEntity
  8
LAYER1
100
AcDbLine
 10
143.0668060656
 20
129.5746221399
 30
0.0
 11
131.0668060656
 21
129.5746221399
 31
0.0
  0
LINE
  5
6A
330
1F
100
AcDbEntity
  8
LAYER1
100
AcDbLine
 10
143.0668060656
 20
126.3513190733
 30
0.0
 11
131.0668060656
 21
126.3513190733
 31
0.0
  0
LINE
  5
6B
330
1F
100
AcDbEntity
  8
LAYER1
100
AcDbLine
 10
143.0668060656
 20
122.7581513855
 30
0.0
 11
131.0668060656
 21
122.7581513855
 31
0.0
  0
LINE
  5
6C
330
1F
100
AcDbEntity
  8
LAYER1
100
AcDbLine
 10
143.0668060656
 20
118.9752955083
 30
0.0
 11
131.0668060656
 21
118.9752955083
 31
0.0
  0
LINE
  5
6D
330
1F
100
AcDbEntity
  8
LAYER1
  6
CENTERX2
100
AcDbLine
 10
152.3170307329
 20
121.6830867183
 30
0.0
 11
152.3170307329
 21
116.2675042983
 31
0.0
  0
LINE
  5
6E
330
1F
100
AcDbEntity
  8
LAYER1
100
AcDbLine
 10
234.5690307329
 20
118.9752955083
 30
0.0
 11
226.5690307329
 21
118.9752955083
 31
0.0
  0
LINE
  5
6F
330
1F
100
AcDbEntity
  8
LAYER1
100
AcDbLine
 10
234.5690307329
 20
128.6171096536
 30
0.0
 11
226.5690307329
 21
128.6171096536
 31
0.0
  0
LINE
  5
70
330
1F
100
AcDbEntity
  8
LAYER1
100
AcDbLine
 10
234.5690307329
 20
124.1055976582
 30
0.0
 11
226.5690307329
 21
124.1055976582
 31
0.0
  0
LINE
  5
71
330
1F
100
AcDbEntity
  8
LAYER1
100
AcDbLine
 10
234.5690307329
 20
133.0706848201
 30
0.0
 11
226.5690307329
 21
133.0706848201
 31
0.0
  0
LINE
  5
72
330
1F
100
AcDbEntity
  8
LAYER1
100
AcDbLine
 10
234.5690307329
 20
131.965676565
 30
0.0
 11
226.5690307329
 21
131.965676565
 31
0.0
  0
LINE
  5
73
330
1F
100
AcDbEntity
  8
LAYER1
100
AcDbLine
 10
234.5690307329
 20
130.4659621551
 30
0.0
 11
226.5690307329
 21
130.4659621551
 31
0.0
  0
LINE
  5
74
330
1F
100
AcDbEntity
  8
LAYER1
100
AcDbLine
 10
234.5690307329
 20
103.9752955083
 30
0.0
 11
234.5690307329
 21
133.9752955083
 31
0.0
  0
LINE
  5
75
330
1F
100
AcDbEntity
  8
LAYER1
100
AcDbLine
 10
226.5690307329
 20
103.9752955083
 30
0.0
 11
226.5690307329
 21
133.9752955083
 31
0.0
  0
LINE
  5
76
330
1F
100
AcDbEntity
  8
LAYER1
100
AcDbLine
 10
185.8190307329
 20
132.8252955083
 30
0.0
 11
185.8190307329
 21
105.1252955083
 31
0.0
  0
LINE
  5
77
330
1F
100
AcDbEntity
  8
LAYER1
100
AcDbLine
 10
222.5690308651
 20
113.6744134649
 30
0.0
 11
222.5690307329
 21
111.6744134649
 31
0.0
  0
LINE
  5
78
330
1F
100
AcDbEntity
  8
LAYER1
100
AcDbLine
 10
219.5690307329
 20
138.8252955083
 30
0.0
 11
225.5690307329
 21
138.8252955083
 31
0.0
  0
LINE
  5
79
330
1F
100
AcDbEntity
  8
LAYER1
100
AcDbLine
 10
222.5690307329
 20
138.8252955083
 30
0.0
 11
222.5690307329
 21
134.8252955083
 31
0.0
  0
LINE
  5
7A
330
1F
100
AcDbEntity
  8
LAYER1
  6
CENTERX2
100
AcDbLine
 10
222.5690307329
 20
141.5795010904
 30
0.0
 11
222.5690307329
 21
130.5710899261
 31
0.0
  0
LINE
  5
7B
330
1F
100
AcDbEntity
  8
LAYER1
100
AcDbLine
 10
219.5690307329
 20
134.8252955083
 30
0.0
 11
220.0690307329
 21
134.3252955083
 31
0.0
  0
LINE
  5
7C
330
1F
100
AcDbEntity
  8
LAYER1
100
AcDbLine
 10
225.5690307329
 20
134.8252955083
 30
0.0
 11
225.0690307329
 21
134.3252955083
 31
0.0
  0
LINE
  5
7D
330
1F
100
AcDbEntity
  8
LAYER1
100
AcDbLine
 10
223.7690307329
 20
134.3252955083
 30
0.0
 11
223.7690307329
 21
132.8252955083
 31
0.0
  0
LINE
  5
7E
330
1F
100
AcDbEntity
  8
LAYER1
100
AcDbLine
 10
221.3690307329
 20
134.3252955083
 30
0.0
 11
221.3690307329
 21
132.8252955083
 31
0.0
  0
LINE
  5
7F
330
1F
100
AcDbEntity
  8
LAYER1
100
AcDbLine
 10
223.496081716
 20
138.8252955083
 30
0.0
 11
223.496081716
 21
134.8252955083
 31
0.0
  0
LINE
  5
80
330
1F
100
AcDbEntity
  8
LAYER1
100
AcDbLine
 10
221.6419797497
 20
138.8252955083
 30
0.0
 11
221.6419797497
 21
134.8252955083
 31
0.0
  0
LINE
  5
81
330
1F
100
AcDbEntity
  8
LAYER1
100
AcDbLine
 10
220.805674976
 20
138.8252955083
 30
0.0
 11
220.805674976
 21
134.8252955083
 31
0.0
  0
LINE
  5
82
330
1F
100
AcDbEntity
  8
LAYER1
100
AcDbLine
 10
220.0690307329
 20
139.3252955083
 30
0.0
 11
225.0690307329
 21
139.3252955083
 31
0.0
  0
LINE
  5
83
330
1F
100
AcDbEntity
  8
LAYER1
100
AcDbLine
 10
220.0690307329
 20
139.3252955083
 30
0.0
 11
219.5690307329
 21
138.8252955083
 31
0.0
  0
LINE
  5
84
330
1F
100
AcDbEntity
  8
LAYER1
100
AcDbLine
 10
130.3168060656
 20
135.2252955083
 30
0.0
 11
130.3168060656
 21
102.7252955083
 31
0.0
  0
LINE
  5
85
330
1F
100
AcDbEntity
  8
LAYER1
  6
CENTERX2
100
AcDbLine
 10
149.8170307329
 20
133.9752955083
 30
0.0
 11
149.3168060656
 21
133.9752955083
 31
0.0
  0
LINE
  5
86
330
1F
100
AcDbEntity
  8
LAYER1
100
AcDbLine
 10
239.5690307329
 20
131.0752955083
 30
0.0
 11
238.9690307329
 21
131.6752955083
 31
0.0
  0
LINE
  5
87
330
1F
100
AcDbEntity
  8
LAYER1
100
AcDbLine
 10
236.5690307329
 20
130.9752955083
 30
0.0
 11
235.5690307329
 21
130.9752955083
 31
0.0
  0
LINE
  5
88
330
1F
100
AcDbEntity
  8
LAYER1
100
AcDbLine
 10
185.3190307329
 20
132.8252955083
 30
0.0
 11
185.5690307329
 21
132.5752955083
 31
0.0
  0
LINE
  5
89
330
1F
100
AcDbEntity
  8
LAYER1
100
AcDbLine
 10
189.3190307329
 20
132.8252955083
 30
0.0
 11
185.8190307329
 21
132.8252955083
 31
0.0
  0
LINE
  5
8A
330
1F
100
AcDbEntity
  8
LAYER1
100
AcDbLine
 10
190.5690307329
 20
131.5752955083
 30
0.0
 11
189.3190307329
 21
132.8252955083
 31
0.0
  0
LINE
  5
8B
330
1F
100
AcDbEntity
  8
LAYER1
100
AcDbLine
 10
190.5690307329
 20
131.5752955083
 30
0.0
 11
191.8190307329
 21
132.8252955083
 31
0.0
  0
LINE
  5
8C
330
1F
100
AcDbEntity
  8
LAYER1
100
AcDbLine
 10
185.8190307329
 20
132.8252955083
 30
0.0
 11
185.5690307329
 21
132.5752955083
 31
0.0
  0
LINE
  5
8D
330
1F
100
AcDbEntity
  8
LAYER1
100
AcDbLine
 10
167.3190307329
 20
134.2252955083
 30
0.0
 11
168.3190307329
 21
133.2252955083
 31
0.0
  0
LINE
  5
8E
330
1F
100
AcDbEntity
  8
LAYER1
100
AcDbLine
 10
155.3170307329
 20
135.9752955083
 30
0.0
 11
154.8170307329
 21
135.4752955083
 31
0.0
  0
LINE
  5
8F
330
1F
100
AcDbEntity
  8
LAYER1
100
AcDbLine
 10
234.5690307329
 20
133.9752955083
 30
0.0
 11
226.5690307329
 21
133.9752955083
 31
0.0
  0
LINE
  5
90
330
1F
100
AcDbEntity
  8
LAYER1
100
AcDbLine
 10
220.1419797497
 20
138.8252955083
 30
0.0
 11
220.1419797497
 21
134.8252955083
 31
0.0
  0
LINE
  5
91
330
1F
100
AcDbEntity
  8
LAYER1
100
AcDbLine
 10
225.4222002817
 20
138.8252955083
 30
0.0
 11
225.4222002817
 21
134.8252955083
 31
0.0
  0
LINE
  5
92
330
1F
100
AcDbEntity
  8
LAYER1
100
AcDbLine
 10
224.996081716
 20
138.8252955083
 30
0.0
 11
224.996081716
 21
134.8252955083
 31
0.0
  0
LINE
  5
93
330
1F
100
AcDbEntity
  8
LAYER1
100
AcDbLine
 10
219.715861184
 20
138.8252955083
 30
0.0
 11
219.715861184
 21
134.8252955083
 31
0.0
  0
LINE
  5
94
330
1F
100
AcDbEntity
  8
LAYER1
100
AcDbLine
 10
219.5690307329
 20
134.8252955083
 30
0.0
 11
219.5690307329
 21
138.8252955083
 31
0.0
  0
LINE
  5
95
330
1F
100
AcDbEntity
  8
LAYER1
100
AcDbLine
 10
225.0690307329
 20
139.3252955083
 30
0.0
 11
225.5690307329
 21
138.8252955083
 31
0.0
  0
LINE
  5
96
330
1F
100
AcDbEntity
  8
LAYER1
100
AcDbLine
 10
224.3323864897
 20
138.8252955083
 30
0.0
 11
224.3323864897
 21
134.8252955083
 31
0.0
  0
LINE
  5
97
330
1F
100
AcDbEntity
  8
LAYER1
100
AcDbLine
 10
221.0690307329
 20
134.3252955083
 30
0.0
 11
221.0690307329
 21
132.8252955083
 31
0.0
  0
LINE
  5
98
330
1F
100
AcDbEntity
  8
LAYER1
100
AcDbLine
 10
225.0690307329
 20
134.3252955083
 30
0.0
 11
220.0690307329
 21
134.3252955083
 31
0.0
  0
LINE
  5
99
330
1F
100
AcDbEntity
  8
LAYER1
100
AcDbLine
 10
225.5690307329
 20
134.8252955083
 30
0.0
 11
219.5690307329
 21
134.8252955083
 31
0.0
  0
LINE
  5
9A
330
1F
100
AcDbEntity
  8
LAYER1
100
AcDbLine
 10
224.0690307329
 20
134.3252955083
 30
0.0
 11
224.0690307329
 21
132.8252955083
 31
0.0
  0
LINE
  5
9B
330
1F
100
AcDbEntity
  8
LAYER1
100
AcDbLine
 10
225.5690307329
 20
138.8252955083
 30
0.0
 11
225.5690307329
 21
134.8252955083
 31
0.0
  0
LINE
  5
9C
330
1F
100
AcDbEntity
  8
LAYER1
100
AcDbLine
 10
234.5690307329
 20
104.2031792131
 30
0.0
 11
226.5690307329
 21
104.2031792131
 31
0.0
  0
LINE
  5
9D
330
1F
100
AcDbEntity
  8
LAYER1
100
AcDbLine
 10
234.5690307329
 20
133.7474118035
 30
0.0
 11
226.5690307329
 21
133.7474118035
 31
0.0
  0
LINE
  5
9E
330
1F
100
AcDbEntity
  8
LAYER1
100
AcDbLine
 10
234.5690307329
 20
121.5800181733
 30
0.0
 11
226.5690307329
 21
121.5800181733
 31
0.0
  0
LINE
  5
9F
330
1F
100
AcDbEntity
  8
LAYER1
100
AcDbLine
 10
223.7690307329
 20
132.8252955083
 30
0.0
 11
221.3690307329
 21
132.8252955083
 31
0.0
  0
LINE
  5
A0
330
1F
100
AcDbEntity
  8
LAYER1
100
AcDbLine
 10
185.3190307329
 20
132.8252955083
 30
0.0
 11
168.3190307329
 21
132.8252955083
 31
0.0
  0
LINE
  5
A1
330
1F
100
AcDbEntity
  8
LAYER1
100
AcDbLine
 10
225.5690307329
 20
132.8252955083
 30
0.0
 11
223.7690307329
 21
132.8252955083
 31
0.0
  0
LINE
  5
A2
330
1F
100
AcDbEntity
  8
LAYER1
100
AcDbLine
 10
131.0668060656
 20
135.9752955083
 30
0.0
 11
130.3168060656
 21
135.2252955083
 31
0.0
  0
LINE
  5
A3
330
1F
100
AcDbEntity
  8
LAYER1
100
AcDbLine
 10
143.0668060656
 20
135.9752955083
 30
0.0
 11
131.0668060656
 21
135.9752955083
 31
0.0
  0
LINE
  5
A4
330
1F
100
AcDbEntity
  8
LAYER1
100
AcDbLine
 10
221.3690307329
 20
132.8252955083
 30
0.0
 11
191.8190307329
 21
132.8252955083
 31
0.0
  0
LINE
  5
A5
330
1F
100
AcDbEntity
  8
LAYER1
100
AcDbLine
 10
130.3168060656
 20
134.4752955083
 30
0.0
 11
100.3168060656
 21
134.4752955083
 31
0.0
  0
LINE
  5
A6
330
1F
100
AcDbEntity
  8
LAYER1
100
AcDbLine
 10
160.3170307329
 20
134.2252955083
 30
0.0
 11
167.3190307329
 21
134.2252955083
 31
0.0
  0
LINE
  5
A7
330
1F
100
AcDbEntity
  8
LAYER1
100
AcDbLine
 10
143.8168060656
 20
135.2252955083
 30
0.0
 11
149.3168060656
 21
135.2252955083
 31
0.0
  0
LINE
  5
A8
330
1F
100
AcDbEntity
  8
LAYER1
100
AcDbLine
 10
143.8168060656
 20
135.2252955083
 30
0.0
 11
143.0668060656
 21
135.9752955083
 31
0.0
  0
LINE
  5
A9
330
1F
100
AcDbEntity
  8
LAYER1
100
AcDbLine
 10
234.5690307329
 20
107.4846288615
 30
0.0
 11
226.5690307329
 21
107.4846288615
 31
0.0
  0
LINE
  5
AA
330
1F
100
AcDbEntity
  8
LAYER1
100
AcDbLine
 10
234.5690307329
 20
105.9849144515
 30
0.0
 11
226.5690307329
 21
105.9849144515
 31
0.0
  0
LINE
  5
AB
330
1F
100
AcDbEntity
  8
LAYER1
100
AcDbLine
 10
234.5690307329
 20
104.8799061965
 30
0.0
 11
226.5690307329
 21
104.8799061965
 31
0.0
  0
LINE
  5
AC
330
1F
100
AcDbEntity
  8
LAYER1
100
AcDbLine
 10
234.5690307329
 20
116.3705728433
 30
0.0
 11
226.5690307329
 21
116.3705728433
 31
0.0
  0
LINE
  5
AD
330
1F
100
AcDbEntity
  8
LAYER1
100
AcDbLine
 10
234.5690307329
 20
109.333481363
 30
0.0
 11
226.5690307329
 21
109.333481363
 31
0.0
  0
LINE
  5
AE
330
1F
100
AcDbEntity
  8
LAYER1
100
AcDbLine
 10
234.5690307329
 20
113.8449933584
 30
0.0
 11
226.5690307329
 21
113.8449933584
 31
0.0
  0
LINE
  5
AF
330
1F
100
AcDbEntity
  8
LAYER1
100
AcDbLine
 10
234.5690307329
 20
111.4752955083
 30
0.0
 11
226.5690307329
 21
111.4752955083
 31
0.0
  0
LINE
  5
B0
330
1F
100
AcDbEntity
  8
LAYER1
100
AcDbLine
 10
234.5690307329
 20
126.4752955083
 30
0.0
 11
226.5690307329
 21
126.4752955083
 31
0.0
  0
LINE
  5
B1
330
1F
100
AcDbEntity
  8
LAYER1
100
AcDbLine
 10
238.9690307329
 20
106.2752955083
 30
0.0
 11
238.9690307329
 21
131.6752955083
 31
0.0
  0
LINE
  5
B2
330
1F
100
AcDbEntity
  8
LAYER1
100
AcDbLine
 10
236.5690307329
 20
131.6752955083
 30
0.0
 11
236.5690307329
 21
106.2752955083
 31
0.0
  0
LINE
  5
B3
330
1F
100
AcDbEntity
  8
LAYER1
100
AcDbLine
 10
239.5690307329
 20
131.0752955083
 30
0.0
 11
239.5690307329
 21
106.8752955083
 31
0.0
  0
LINE
  5
B4
330
1F
100
AcDbEntity
  8
LAYER1
100
AcDbLine
 10
235.5690307329
 20
132.9752955083
 30
0.0
 11
235.5690307329
 21
104.9752955083
 31
0.0
  0
LINE
  5
B5
330
1F
100
AcDbEntity
  8
LAYER1
100
AcDbLine
 10
225.5690307329
 20
132.9752955083
 30
0.0
 11
225.5690307329
 21
104.9752955083
 31
0.0
  0
LINE
  5
B6
330
1F
100
AcDbEntity
  8
LAYER1
100
AcDbLine
 10
238.9690307329
 20
131.6752955083
 30
0.0
 11
236.5690307329
 21
131.6752955083
 31
0.0
  0
LINE
  5
B7
330
1F
100
AcDbEntity
  8
LAYER1
100
AcDbLine
 10
239.3690307329
 20
131.2752955083
 30
0.0
 11
236.5690307329
 21
131.2752955083
 31
0.0
  0
LINE
  5
B8
330
1F
100
AcDbEntity
  8
LAYER1
100
AcDbLine
 10
100.1170307329
 20
105.1752955083
 30
0.0
 11
100.3168060656
 21
105.1752955083
 31
0.0
  0
LINE
  5
B9
330
1F
100
AcDbEntity
  8
LAYER1
100
AcDbLine
 10
185.3190307329
 20
105.1252955083
 30
0.0
 11
168.3190307329
 21
105.1252955083
 31
0.0
  0
LINE
  5
BA
330
1F
100
AcDbEntity
  8
LAYER1
100
AcDbLine
 10
143.0668060656
 20
101.9752955083
 30
0.0
 11
131.0668060656
 21
101.9752955083
 31
0.0
  0
LINE
  5
BB
330
1F
100
AcDbEntity
  8
LAYER1
100
AcDbLine
 10
131.0668060656
 20
101.9752955083
 30
0.0
 11
130.3168060656
 21
102.7252955083
 31
0.0
  0
LINE
  5
BC
330
1F
100
AcDbEntity
  8
LAYER1
100
AcDbLine
 10
143.0668060656
 20
111.5992719433
 30
0.0
 11
131.0668060656
 21
111.5992719433
 31
0.0
  0
LINE
  5
BD
330
1F
100
AcDbEntity
  8
LAYER1
100
AcDbLine
 10
143.0668060656
 20
108.3759688767
 30
0.0
 11
131.0668060656
 21
108.3759688767
 31
0.0
  0
LINE
  5
BE
330
1F
100
AcDbEntity
  8
LAYER1
100
AcDbLine
 10
143.0668060656
 20
105.6841603063
 30
0.0
 11
131.0668060656
 21
105.6841603063
 31
0.0
  0
LINE
  5
BF
330
1F
100
AcDbEntity
  8
LAYER1
100
AcDbLine
 10
143.0668060656
 20
103.6588247539
 30
0.0
 11
131.0668060656
 21
103.6588247539
 31
0.0
  0
LINE
  5
C0
330
1F
100
AcDbEntity
  8
LAYER1
100
AcDbLine
 10
143.0668060656
 20
102.4015210012
 30
0.0
 11
131.0668060656
 21
102.4015210012
 31
0.0
  0
LINE
  5
C1
330
1F
100
AcDbEntity
  8
LAYER1
100
AcDbLine
 10
89.5170307329
 20
103.5752955083
 30
0.0
 11
87.5170307329
 21
105.5752955083
 31
0.0
  0
LINE
  5
C2
330
1F
100
AcDbEntity
  8
LAYER1
100
AcDbLine
 10
89.5170307329
 20
103.5752955083
 30
0.0
 11
100.1170307329
 21
103.5752955083
 31
0.0
  0
LINE
  5
C3
330
1F
100
AcDbEntity
  8
LAYER1
100
AcDbLine
 10
225.5690307329
 20
105.1252955083
 30
0.0
 11
191.8190307329
 21
105.1252955083
 31
0.0
  0
LINE
  5
C4
330
1F
100
AcDbEntity
  8
LAYER1
100
AcDbLine
 10
190.5690307329
 20
106.3752955083
 30
0.0
 11
191.8190307329
 21
105.1252955083
 31
0.0
  0
LINE
  5
C5
330
1F
100
AcDbEntity
  8
LAYER1
100
AcDbLine
 10
130.3168060656
 20
103.4752955083
 30
0.0
 11
100.3168060656
 21
103.4752955083
 31
0.0
  0
LINE
  5
C6
330
1F
100
AcDbEntity
  8
LAYER1
100
AcDbLine
 10
238.9690307329
 20
106.2752955083
 30
0.0
 11
236.5690307329
 21
106.2752955083
 31
0.0
  0
LINE
  5
C7
330
1F
100
AcDbEntity
  8
LAYER1
100
AcDbLine
 10
239.5690307329
 20
106.8752955083
 30
0.0
 11
238.9690307329
 21
106.2752955083
 31
0.0
  0
LINE
  5
C8
330
1F
100
AcDbEntity
  8
LAYER1
100
AcDbLine
 10
234.5690307329
 20
103.9752955083
 30
0.0
 11
235.5690307329
 21
104.9752955083
 31
0.0
  0
LINE
  5
C9
330
1F
100
AcDbEntity
  8
LAYER1
100
AcDbLine
 10
236.5690307329
 20
106.9752955083
 30
0.0
 11
235.5690307329
 21
106.9752955083
 31
0.0
  0
LINE
  5
CA
330
1F
100
AcDbEntity
  8
LAYER1
100
AcDbLine
 10
234.5690307329
 20
103.9752955083
 30
0.0
 11
226.5690307329
 21
103.9752955083
 31
0.0
  0
LINE
  5
CB
330
1F
100
AcDbEntity
  8
LAYER1
100
AcDbLine
 10
239.3690307329
 20
106.6752955083
 30
0.0
 11
236.5690307329
 21
106.6752955083
 31
0.0
  0
LINE
  5
CC
330
1F
100
AcDbEntity
  8
LAYER1
100
AcDbLine
 10
234.5690307329
 20
133.9752955083
 30
0.0
 11
235.5690307329
 21
132.9752955083
 31
0.0
  0
LINE
  5
CD
330
1F
100
AcDbEntity
  8
LAYER1
100
AcDbLine
 10
225.5690307329
 20
132.9752955083
 30
0.0
 11
226.5690307329
 21
133.9752955083
 31
0.0
  0
LINE
  5
CE
330
1F
100
AcDbEntity
  8
LAYER1
100
AcDbLine
 10
89.5170307329
 20
134.3752955083
 30
0.0
 11
100.1170307329
 21
134.3752955083
 31
0.0
  0
LINE
  5
CF
330
1F
100
AcDbEntity
  8
LAYER1
100
AcDbLine
 10
89.5170307329
 20
134.3752955083
 30
0.0
 11
87.5170307329
 21
132.3752955083
 31
0.0
  0
LINE
  5
D0
330
1F
100
AcDbEntity
  8
LAYER1
100
AcDbLine
 10
154.8170307329
 20
135.2252955083
 30
0.0
 11
149.8170307329
 21
135.2252955083
 31
0.0
  0
LINE
  5
D1
330
1F
100
AcDbEntity
  8
LAYER1
100
AcDbLine
 10
219.5690307329
 20
111.0763369982
 30
0.0
 11
219.5690307329
 21
109.0763372536
 31
0.0
  0
LINE
  5
D2
330
1F
100
AcDbEntity
  8
LAYER1
100
AcDbLine
 10
219.715861184
 20
111.8791869556
 30
0.0
 11
219.715861184
 21
109.8791869556
 31
0.0
  0
LINE
  5
D3
330
1F
100
AcDbEntity
  8
LAYER1
100
AcDbLine
 10
220.1419797497
 20
112.6034481349
 30
0.0
 11
220.1419797497
 21
110.6034481349
 31
0.0
  0
LINE
  5
D4
330
1F
100
AcDbEntity
  8
LAYER1
100
AcDbLine
 10
224.996081716
 20
112.6034481349
 30
0.0
 11
224.996081716
 21
110.6034481349
 31
0.0
  0
LINE
  5
D5
330
1F
100
AcDbEntity
  8
LAYER1
100
AcDbLine
 10
225.4222002817
 20
111.8791869556
 30
0.0
 11
225.4222002817
 21
109.8791869556
 31
0.0
  0
LINE
  5
D6
330
1F
100
AcDbEntity
  8
LAYER1
100
AcDbLine
 10
225.5690307329
 20
111.0763367692
 30
0.0
 11
225.5690307329
 21
109.0763372536
 31
0.0
  0
LINE
  5
D7
330
1F
100
AcDbEntity
  8
LAYER1
100
AcDbLine
 10
185.8190307329
 20
105.1252955083
 30
0.0
 11
185.5690307329
 21
105.3752955083
 31
0.0
  0
LINE
  5
D8
330
1F
100
AcDbEntity
  8
LAYER1
100
AcDbLine
 10
189.3190307329
 20
105.1252955083
 30
0.0
 11
185.8190307329
 21
105.1252955083
 31
0.0
  0
LINE
  5
D9
330
1F
100
AcDbEntity
  8
LAYER1
100
AcDbLine
 10
190.5690307329
 20
106.3752955083
 30
0.0
 11
189.3190307329
 21
105.1252955083
 31
0.0
  0
LINE
  5
DA
330
1F
100
AcDbEntity
  8
LAYER1
100
AcDbLine
 10
185.3190307329
 20
105.1252955083
 30
0.0
 11
185.5690307329
 21
105.3752955083
 31
0.0
  0
LINE
  5
DB
330
1F
100
AcDbEntity
  8
LAYER1
100
AcDbLine
 10
160.3170307329
 20
103.7252955083
 30
0.0
 11
167.3190307329
 21
103.7252955083
 31
0.0
  0
LINE
  5
DC
330
1F
100
AcDbEntity
  8
LAYER1
100
AcDbLine
 10
155.3170307329
 20
101.9752955083
 30
0.0
 11
159.8170307329
 21
101.9752955083
 31
0.0
  0
LINE
  5
DD
330
1F
100
AcDbEntity
  8
LAYER1
100
AcDbLine
 10
159.8170307329
 20
101.9752955083
 30
0.0
 11
160.3170307329
 21
102.4752955083
 31
0.0
  0
LINE
  5
DE
330
1F
100
AcDbEntity
  8
LAYER1
100
AcDbLine
 10
154.8170307329
 20
102.4752955083
 30
0.0
 11
155.3170307329
 21
101.9752955083
 31
0.0
  0
LINE
  5
DF
330
1F
100
AcDbEntity
  8
LAYER1
100
AcDbLine
 10
168.3190307329
 20
104.7252955083
 30
0.0
 11
167.3190307329
 21
103.7252955083
 31
0.0
  0
LINE
  5
E0
330
1F
100
AcDbEntity
  8
LAYER1
100
AcDbLine
 10
159.8170307329
 20
111.5992719433
 30
0.0
 11
155.3170307329
 21
111.5992719433
 31
0.0
  0
LINE
  5
E1
330
1F
100
AcDbEntity
  8
LAYER1
100
AcDbLine
 10
159.8170307329
 20
108.3759688767
 30
0.0
 11
155.3170307329
 21
108.3759688767
 31
0.0
  0
LINE
  5
E2
330
1F
100
AcDbEntity
  8
LAYER1
100
AcDbLine
 10
159.8170307329
 20
105.6841603063
 30
0.0
 11
155.3170307329
 21
105.6841603063
 31
0.0
  0
LINE
  5
E3
330
1F
100
AcDbEntity
  8
LAYER1
100
AcDbLine
 10
159.8170307329
 20
103.6588247539
 30
0.0
 11
155.3170307329
 21
103.6588247539
 31
0.0
  0
LINE
  5
E4
330
1F
100
AcDbEntity
  8
LAYER1
100
AcDbLine
 10
159.8170307329
 20
102.4015210012
 30
0.0
 11
155.3170307329
 21
102.4015210012
 31
0.0
  0
LINE
  5
E5
330
1F
100
AcDbEntity
  8
LAYER1
100
AcDbLine
 10
143.8168060656
 20
102.7252955083
 30
0.0
 11
143.0668060656
 21
101.9752955083
 31
0.0
  0
LINE
  5
E6
330
1F
100
AcDbEntity
  8
LAYER1
  6
CENTERX2
100
AcDbLine
 10
149.8170307329
 20
103.9752955083
 30
0.0
 11
149.3168060656
 21
103.9752955083
 31
0.0
  0
LINE
  5
E7
330
1F
100
AcDbEntity
  8
LAYER1
100
AcDbLine
 10
143.8168060656
 20
102.7252955083
 30
0.0
 11
149.3168060656
 21
102.7252955083
 31
0.0
  0
LINE
  5
E8
330
1F
100
AcDbEntity
  8
LAYER1
100
AcDbLine
 10
225.5690307329
 20
104.9752955083
 30
0.0
 11
226.5690307329
 21
103.9752955083
 31
0.0
  0
LINE
  5
E9
330
1F
100
AcDbEntity
  8
LAYER1
  6
CENTERX2
100
AcDbLine
 10
68.1110959151
 20
118.9752955083
 30
0.0
 11
253.0950307329
 21
118.9752955083
 31
0.0
  0
LINE
  5
EA
330
1F
100
AcDbEntity
  8
LAYER1
100
AcDbLine
 10
68.1110959151
 20
155.0361420691
 30
0.0
 11
87.5170307329
 21
155.0361420691
 31
0.0
  0
LINE
  5
EB
330
1F
100
AcDbEntity
  8
LAYER1
100
AcDbLine
 10
87.5170307329
 20
155.0361420691
 30
0.0
 11
85.4003641775
 21
154.468982975
 31
0.0
  0
LINE
  5
EC
330
1F
100
AcDbEntity
  8
LAYER1
100
AcDbLine
 10
87.5170307329
 20
155.0361420691
 30
0.0
 11
85.4003641775
 21
155.6033011633
 31
0.0
  0
LINE
  5
ED
330
1F
100
AcDbEntity
  8
LAYER1
100
AcDbLine
 10
39.5780727209
 20
115.4397616023
 30
0.0
 11
46.6491405328
 21
122.5108294142
 31
0.0
  0
LINE
  5
EE
330
1F
100
AcDbEntity
  8
LAYER1
100
AcDbLine
 10
43.1136066269
 20
155.0361420691
 30
0.0
 11
55.6928599844
 21
155.0361420691
 31
0.0
  0
LINE
  5
EF
330
1F
100
AcDbEntity
  8
LAYER1
100
AcDbLine
 10
43.1136066269
 20
155.0361420691
 30
0.0
 11
45.2302731823
 21
155.6033011633
 31
0.0
  0
LINE
  5
F0
330
1F
100
AcDbEntity
  8
LAYER1
100
AcDbLine
 10
43.1136066269
 20
155.0361420691
 30
0.0
 11
45.2302731823
 21
154.468982975
 31
0.0
  0
LINE
  5
F1
330
1F
100
AcDbEntity
  8
LAYER1
100
AcDbLine
 10
43.1136066269
 20
118.9752955083
 30
0.0
 11
43.1136066269
 21
156.3923781991
 31
0.0
  0
LINE
  5
F2
330
1F
100
AcDbEntity
  8
LAYER1
100
AcDbLine
 10
55.6928599844
 20
155.0361420691
 30
0.0
 11
58.797418967
 21
165.0361420691
 31
0.0
  0
LINE
  5
F3
330
1F
100
AcDbEntity
  8
LAYER1
100
AcDbLine
 10
65.0065369324
 20
145.0361420691
 30
0.0
 11
58.797418967
 21
165.0361420691
 31
0.0
  0
LINE
  5
F4
330
1F
100
AcDbEntity
  8
LAYER1
100
AcDbLine
 10
65.0065369324
 20
145.0361420691
 30
0.0
 11
68.1110959151
 21
155.0361420691
 31
0.0
  0
LINE
  5
F5
330
1F
100
AcDbEntity
  8
LAYER1
  6
CENTERX2
100
AcDbLine
 10
65.0065369324
 20
108.9752955083
 30
0.0
 11
68.1110959151
 21
118.9752955083
 31
0.0
  0
LINE
  5
F6
330
1F
100
AcDbEntity
  8
LAYER1
  6
CENTERX2
100
AcDbLine
 10
65.0065369324
 20
108.9752955083
 30
0.0
 11
58.797418967
 21
128.9752955083
 31
0.0
  0
LINE
  5
F7
330
1F
100
AcDbEntity
  8
LAYER1
  6
CENTERX2
100
AcDbLine
 10
55.6928599844
 20
118.9752955083
 30
0.0
 11
58.797418967
 21
128.9752955083
 31
0.0
  0
LINE
  5
F8
330
1F
100
AcDbEntity
  8
LAYER1
  6
CENTERX2
100
AcDbLine
 10
43.1136066269
 20
118.9752955083
 30
0.0
 11
55.6928599844
 21
118.9752955083
 31
0.0
  0
LINE
  5
F9
330
1F
100
AcDbEntity
  8
LAYER1
100
AcDbLine
 10
39.5780727209
 20
122.5108294142
 30
0.0
 11
46.6491405328
 21
115.4397616023
 31
0.0
  0
LINE
  5
FA
330
1F
100
AcDbEntity
  8
LAYER1
100
AcDbLine
 10
220.805674976
 20
113.1782250612
 30
0.0
 11
220.805674976
 21
111.1782250612
 31
0.0
  0
LINE
  5
FB
330
1F
100
AcDbEntity
  8
LAYER1
100
AcDbLine
 10
221.6419797497
 20
113.5472545642
 30
0.0
 11
221.6419797497
 21
111.5472545642
 31
0.0
  0
LINE
  5
FC
330
1F
100
AcDbEntity
  8
LAYER1
100
AcDbLine
 10
223.496081716
 20
113.5472545642
 30
0.0
 11
223.496081716
 21
111.5472545642
 31
0.0
  0
LINE
  5
FD
330
1F
100
AcDbEntity
  8
LAYER1
100
AcDbLine
 10
224.3323864897
 20
113.1782250612
 30
0.0
 11
224.3323864897
 21
111.1782250612
 31
0.0
  0
LINE
  5
FE
330
1F
100
AcDbEntity
  8
0
  6
Continuous
 62
     7
370
    15
100
AcDbLine
 10
171.6837195726
 20
21.5267760824
 30
0.0
 11
170.1837195726
 21
19.1281653939
 31
0.0
  0
LINE
  5
FF
330
1F
100
AcDbEntity
  8
0
  6
Continuous
 62
     7
370
    15
100
AcDbLine
 10
168.6837195726
 20
21.5267760824
 30
0.0
 11
170.1837195726
 21
19.1281653939
 31
0.0
  0
LINE
  5
100
330
1F
100
AcDbEntity
  8
0
  6
Continuous
 62
     7
370
    15
100
AcDbLine
 10
158.8830149162
 20
21.5267760824
 30
0.0
 11
157.3830149162
 21
19.1281653939
 31
0.0
  0
LINE
  5
101
330
1F
100
AcDbEntity
  8
0
  6
Continuous
 62
     7
370
    15
100
AcDbLine
 10
155.8830149162
 20
21.5267760824
 30
0.0
 11
157.3830149162
 21
19.1281653939
 31
0.0
  0
LINE
  5
102
330
1F
100
AcDbEntity
  8
0
  6
Continuous
 62
     7
370
    15
100
AcDbLine
 10
146.5190080732
 20
21.1742210547
 30
0.0
 11
145.0190080732
 21
18.8153031302
 31
0.0
  0
LINE
  5
103
330
1F
100
AcDbEntity
  8
0
  6
Continuous
 62
     7
370
    15
100
AcDbLine
 10
143.5190080732
 20
21.1742210547
 30
0.0
 11
145.0190080732
 21
18.8153031302
 31
0.0
  0
LINE
  5
104
330
1F
100
AcDbEntity
  8
0
  6
Continuous
 62
     7
370
    15
100
AcDbLine
 10
184.1612988799
 20
21.9915148182
 30
0.0
 11
182.6612988799
 21
19.3934386068
 31
0.0
  0
LINE
  5
105
330
1F
100
AcDbEntity
  8
0
  6
Continuous
 62
     7
370
    15
100
AcDbLine
 10
140.5190080732
 20
16.2245984807
 30
0.0
 11
143.5190080732
 21
16.2245984807
 31
0.0
  0
LINE
  5
106
330
1F
100
AcDbEntity
  8
0
  6
Continuous
 62
     7
370
    15
100
AcDbLine
 10
143.5190080732
 20
16.2245984807
 30
0.0
 11
142.0190080732
 21
13.6265222693
 31
0.0
  0
LINE
  5
107
330
1F
100
AcDbEntity
  8
0
  6
Continuous
 62
     7
370
    15
100
AcDbLine
 10
140.5190080732
 20
16.2245984807
 30
0.0
 11
142.0190080732
 21
13.6265222693
 31
0.0
  0
LINE
  5
108
330
1F
100
AcDbEntity
  8
0
  6
CENTER
 62
     7
370
    15
100
AcDbLine
 10
143.5190080732
 20
16.2245984807
 30
0.0
 11
146.5190080732
 21
16.2245984807
 31
0.0
  0
LINE
  5
109
330
1F
100
AcDbEntity
  8
0
  6
Continuous
 62
     7
370
     0
100
AcDbLine
 10
257.3173186858
 20
19.8802227647
 30
0.0
 11
253.4839853525
 21
19.8802227647
 31
0.0
  0
LINE
  5
10A
330
1F
100
AcDbEntity
  8
0
  6
Continuous
 62
     7
370
    15
100
AcDbLine
 10
257.3173186858
 20
12.6302227647
 30
0.0
 11
248.3173186858
 21
12.6302227647
 31
0.0
  0
LINE
  5
10B
330
1F
100
AcDbEntity
  8
0
  6
Continuous
 62
     7
370
     0
100
AcDbLine
 10
257.3173186858
 20
12.6302227647
 30
0.0
 11
257.3173186858
 21
19.8802227647
 31
0.0
  0
LINE
  5
10C
330
1F
100
AcDbEntity
  8
0
  6
Continuous
 62
     7
370
     0
100
AcDbLine
 10
248.3173186858
 20
19.8802227647
 30
0.0
 11
243.4839853525
 21
19.8802227647
 31
0.0
  0
LINE
  5
10D
330
1F
100
AcDbEntity
  8
0
  6
Continuous
 62
     7
370
    15
100
AcDbLine
 10
248.3173186858
 20
12.6302227647
 30
0.0
 11
227.6506520191
 21
12.6302227647
 31
0.0
  0
LINE
  5
10E
330
1F
100
AcDbEntity
  8
0
  6
Continuous
 62
     7
370
     0
100
AcDbLine
 10
248.3173186858
 20
12.6302227647
 30
0.0
 11
248.3173186858
 21
19.8802227647
 31
0.0
  0
LINE
  5
10F
330
1F
100
AcDbEntity
  8
0
  6
Continuous
 62
     7
370
     0
100
AcDbLine
 10
227.6506520191
 20
19.8802227647
 30
0.0
 11
231.9839853525
 21
19.8802227647
 31
0.0
  0
LINE
  5
110
330
1F
100
AcDbEntity
  8
0
  6
Continuous
 62
     7
370
    15
100
AcDbLine
 10
227.6506520191
 20
12.6302227647
 30
0.0
 11
218.6506520191
 21
12.6302227647
 31
0.0
  0
LINE
  5
111
330
1F
100
AcDbEntity
  8
0
  6
Continuous
 62
     7
370
     0
100
AcDbLine
 10
227.6506520191
 20
12.6302227647
 30
0.0
 11
227.6506520191
 21
19.8802227647
 31
0.0
  0
LINE
  5
112
330
1F
100
AcDbEntity
  8
0
  6
Continuous
 62
     7
370
    15
100
AcDbLine
 10
218.6506520191
 20
12.6302227647
 30
0.0
 11
197.9839853525
 21
12.6302227647
 31
0.0
  0
LINE
  5
113
330
1F
100
AcDbEntity
  8
0
  6
Continuous
 62
     7
370
     0
100
AcDbLine
 10
218.6506520191
 20
19.8802227647
 30
0.0
 11
221.9839853525
 21
19.8802227647
 31
0.0
  0
LINE
  5
114
330
1F
100
AcDbEntity
  8
0
  6
Continuous
 62
     7
370
     0
100
AcDbLine
 10
218.6506520191
 20
19.8802227647
 30
0.0
 11
218.6506520191
 21
12.6302227647
 31
0.0
  0
LINE
  5
115
330
1F
100
AcDbEntity
  8
0
  6
Continuous
 62
     7
370
    15
100
AcDbLine
 10
197.9839853525
 20
12.6302227647
 30
0.0
 11
188.9839853525
 21
12.6302227647
 31
0.0
  0
LINE
  5
116
330
1F
100
AcDbEntity
  8
0
  6
Continuous
 62
     7
370
     0
100
AcDbLine
 10
197.9839853525
 20
19.8802227647
 30
0.0
 11
200.4839853525
 21
19.8802227647
 31
0.0
  0
LINE
  5
117
330
1F
100
AcDbEntity
  8
0
  6
Continuous
 62
     7
370
     0
100
AcDbLine
 10
197.9839853525
 20
19.8802227647
 30
0.0
 11
197.9839853525
 21
12.6302227647
 31
0.0
  0
LINE
  5
118
330
1F
100
AcDbEntity
  8
0
  6
Continuous
 62
     7
370
     0
100
AcDbLine
 10
263.9839853525
 20
19.8802227647
 30
0.0
 11
257.3173186858
 21
19.8802227647
 31
0.0
  0
LINE
  5
119
330
1F
100
AcDbEntity
  8
0
  6
Continuous
 62
     7
370
     0
100
AcDbLine
 10
263.9839853525
 20
27.1302227647
 30
0.0
 11
255.9839853525
 21
27.1302227647
 31
0.0
  0
LINE
  5
11A
330
1F
100
AcDbEntity
  8
0
  6
Continuous
 62
     7
370
     0
100
AcDbLine
 10
263.9839853525
 20
27.1302227647
 30
0.0
 11
263.9839853525
 21
19.8802227647
 31
0.0
  0
LINE
  5
11B
330
1F
100
AcDbEntity
  8
0
  6
Continuous
 62
     7
370
     0
100
AcDbLine
 10
253.4839853525
 20
19.8802227647
 30
0.0
 11
248.3173186858
 21
19.8802227647
 31
0.0
  0
LINE
  5
11C
330
1F
100
AcDbEntity
  8
0
  6
Continuous
 62
     7
370
     0
100
AcDbLine
 10
253.4839853525
 20
27.1302227647
 30
0.0
 11
255.9839853525
 21
27.1302227647
 31
0.0
  0
LINE
  5
11D
330
1F
100
AcDbEntity
  8
0
  6
Continuous
 62
     7
370
     0
100
AcDbLine
 10
253.4839853525
 20
27.1302227647
 30
0.0
 11
253.4839853525
 21
19.8802227647
 31
0.0
  0
LINE
  5
11E
330
1F
100
AcDbEntity
  8
0
  6
Continuous
 62
     7
370
     0
100
AcDbLine
 10
243.4839853525
 20
27.1302227647
 30
0.0
 11
253.4839853525
 21
27.1302227647
 31
0.0
  0
LINE
  5
11F
330
1F
100
AcDbEntity
  8
0
  6
Continuous
 62
     7
370
     0
100
AcDbLine
 10
243.4839853525
 20
27.1302227647
 30
0.0
 11
243.4839853525
 21
19.8802227647
 31
0.0
  0
LINE
  5
120
330
1F
100
AcDbEntity
  8
0
  6
Continuous
 62
     7
370
     0
100
AcDbLine
 10
231.9839853525
 20
19.8802227647
 30
0.0
 11
243.4839853525
 21
19.8802227647
 31
0.0
  0
LINE
  5
121
330
1F
100
AcDbEntity
  8
0
  6
Continuous
 62
     7
370
     0
100
AcDbLine
 10
231.9839853525
 20
27.1302227647
 30
0.0
 11
243.4839853525
 21
27.1302227647
 31
0.0
  0
LINE
  5
122
330
1F
100
AcDbEntity
  8
0
  6
Continuous
 62
     7
370
     0
100
AcDbLine
 10
231.9839853525
 20
27.1302227647
 30
0.0
 11
231.9839853525
 21
19.8802227647
 31
0.0
  0
LINE
  5
123
330
1F
100
AcDbEntity
  8
0
  6
Continuous
 62
     7
370
     0
100
AcDbLine
 10
221.9839853525
 20
19.8802227647
 30
0.0
 11
227.6506520191
 21
19.8802227647
 31
0.0
  0
LINE
  5
124
330
1F
100
AcDbEntity
  8
0
  6
Continuous
 62
     7
370
     0
100
AcDbLine
 10
221.9839853525
 20
27.1302227647
 30
0.0
 11
231.9839853525
 21
27.1302227647
 31
0.0
  0
LINE
  5
125
330
1F
100
AcDbEntity
  8
0
  6
Continuous
 62
     7
370
     0
100
AcDbLine
 10
221.9839853525
 20
27.1302227647
 30
0.0
 11
221.9839853525
 21
19.8802227647
 31
0.0
  0
LINE
  5
126
330
1F
100
AcDbEntity
  8
0
  6
Continuous
 62
     7
370
     0
100
AcDbLine
 10
210.4839853525
 20
19.8802227647
 30
0.0
 11
218.6506520191
 21
19.8802227647
 31
0.0
  0
LINE
  5
127
330
1F
100
AcDbEntity
  8
0
  6
Continuous
 62
     7
370
     0
100
AcDbLine
 10
210.4839853525
 20
27.1302227647
 30
0.0
 11
221.9839853525
 21
27.1302227647
 31
0.0
  0
LINE
  5
128
330
1F
100
AcDbEntity
  8
0
  6
Continuous
 62
     7
370
     0
100
AcDbLine
 10
210.4839853525
 20
27.1302227647
 30
0.0
 11
210.4839853525
 21
19.8802227647
 31
0.0
  0
LINE
  5
129
330
1F
100
AcDbEntity
  8
0
  6
Continuous
 62
     7
370
     0
100
AcDbLine
 10
200.4839853525
 20
19.8802227647
 30
0.0
 11
210.4839853525
 21
19.8802227647
 31
0.0
  0
LINE
  5
12A
330
1F
100
AcDbEntity
  8
0
  6
Continuous
 62
     7
370
     0
100
AcDbLine
 10
200.4839853525
 20
27.1302227647
 30
0.0
 11
210.4839853525
 21
27.1302227647
 31
0.0
  0
LINE
  5
12B
330
1F
100
AcDbEntity
  8
0
  6
Continuous
 62
     7
370
     0
100
AcDbLine
 10
200.4839853525
 20
27.1302227647
 30
0.0
 11
200.4839853525
 21
19.8802227647
 31
0.0
  0
LINE
  5
12C
330
1F
100
AcDbEntity
  8
0
  6
Continuous
 62
     7
370
     0
100
AcDbLine
 10
240.5839853525
 20
27.1302227647
 30
0.0
 11
240.5839853525
 21
46.9302227647
 31
0.0
  0
LINE
  5
12D
330
1F
100
AcDbEntity
  8
0
  6
Continuous
 62
     7
370
    15
100
AcDbLine
 10
278.0
 20
193.0
 30
0.0
 11
16.3862068966
 21
193.0
 31
0.0
  0
LINE
  5
12E
330
1F
100
AcDbEntity
  8
0
  6
Continuous
 62
     7
370
    15
100
AcDbLine
 10
16.3862068966
 20
193.0
 30
0.0
 11
16.3862068966
 21
12.6302227647
 31
0.0
  0
LINE
  5
12F
330
1F
100
AcDbEntity
  8
0
  6
Continuous
 62
     7
370
     0
100
AcDbLine
 10
16.3862068966
 20
58.0
 30
0.0
 11
35.0
 21
58.0
 31
0.0
  0
LINE
  5
130
330
1F
100
AcDbEntity
  8
0
  6
Continuous
 62
     7
370
    15
100
AcDbLine
 10
16.3862068966
 20
12.6302227647
 30
0.0
 11
151.4839853525
 21
12.6302227647
 31
0.0
  0
LINE
  5
131
330
1F
100
AcDbEntity
  8
0
  6
Continuous
 62
     7
370
     0
100
AcDbLine
 10
138.9839853525
 20
20.1302227647
 30
0.0
 11
138.9839853525
 21
12.6302227647
 31
0.0
  0
LINE
  5
132
330
1F
100
AcDbEntity
  8
0
  6
Continuous
 62
     7
370
     0
100
AcDbLine
 10
188.9839853525
 20
58.0
 30
0.0
 11
188.9839853525
 21
53.6302227647
 31
0.0
  0
LINE
  5
133
330
1F
100
AcDbEntity
  8
0
  6
Continuous
 62
     7
370
    15
100
AcDbLine
 10
277.9839853525
 20
12.6302227647
 30
0.0
 11
278.0
 21
193.0
 31
0.0
  0
LINE
  5
134
330
1F
100
AcDbEntity
  8
0
  6
Continuous
 62
     7
370
     0
100
AcDbLine
 10
138.9839853525
 20
53.6302227647
 30
0.0
 11
158.4839853525
 21
53.6302227647
 31
0.0
  0
LINE
  5
135
330
1F
100
AcDbEntity
  8
0
  6
Continuous
 62
     7
370
     0
100
AcDbLine
 10
138.9839853525
 20
58.0
 30
0.0
 11
138.9839853525
 21
50.1302227647
 31
0.0
  0
LINE
  5
136
330
1F
100
AcDbEntity
  8
0
  6
Continuous
 62
     7
370
     0
100
AcDbLine
 10
124.0526313729
 20
57.7194048085
 30
0.0
 11
124.0526313729
 21
20.5
 31
0.0
  0
LINE
  5
137
330
1F
100
AcDbEntity
  8
0
  6
Continuous
 62
     7
370
     0
100
AcDbLine
 10
50.7680797243
 20
58.0
 30
0.0
 11
50.7632108866
 21
20.5
 31
0.0
  0
LINE
  5
138
330
1F
100
AcDbEntity
  8
0
  6
Continuous
 62
     7
370
     0
100
AcDbLine
 10
55.0
 20
58.0
 30
0.0
 11
277.9880136381
 21
58.0
 31
0.0
  0
LINE
  5
139
330
1F
100
AcDbEntity
  8
0
  6
Continuous
 62
     7
370
     0
100
AcDbLine
 10
188.9839853525
 20
53.6302227647
 30
0.0
 11
188.9839853525
 21
49.6302227647
 31
0.0
  0
LINE
  5
13A
330
1F
100
AcDbEntity
  8
0
  6
Continuous
 62
     7
370
     0
100
AcDbLine
 10
138.9839853525
 20
29.6302227647
 30
0.0
 11
158.4839853525
 21
29.6302227647
 31
0.0
  0
LINE
  5
13B
330
1F
100
AcDbEntity
  8
0
  6
Continuous
 62
     7
370
     0
100
AcDbLine
 10
138.9839853525
 20
29.6302227647
 30
0.0
 11
138.9839853525
 21
27.6302227647
 31
0.0
  0
LINE
  5
13C
330
1F
100
AcDbEntity
  8
0
  6
Continuous
 62
     7
370
     0
100
AcDbLine
 10
188.9839853525
 20
29.6302227647
 30
0.0
 11
188.9839853525
 21
27.1302227647
 31
0.0
  0
LINE
  5
13D
330
1F
100
AcDbEntity
  8
0
  6
Continuous
 62
     7
370
     0
100
AcDbLine
 10
138.9839853525
 20
25.1302227647
 30
0.0
 11
151.4839853525
 21
25.1302227647
 31
0.0
  0
LINE
  5
13E
330
1F
100
AcDbEntity
  8
0
  6
Continuous
 62
     7
370
     0
100
AcDbLine
 10
139.0045766598
 20
25.1301756532
 30
0.0
 11
138.9833894669
 21
20.5
 31
0.0
  0
LINE
  5
13F
330
1F
100
AcDbEntity
  8
0
  6
Continuous
 62
     7
370
     0
100
AcDbLine
 10
188.9839853525
 20
25.1302227647
 30
0.0
 11
188.9839853525
 21
20.6302227647
 31
0.0
  0
LINE
  5
140
330
1F
100
AcDbEntity
  8
0
  6
Continuous
 62
     7
370
     0
100
AcDbLine
 10
188.9839853525
 20
46.9302227647
 30
0.0
 11
188.9839853525
 21
45.6302227647
 31
0.0
  0
LINE
  5
141
330
1F
100
AcDbEntity
  8
0
  6
Continuous
 62
     7
370
     0
100
AcDbLine
 10
138.9839853525
 20
18.1735003624
 30
0.0
 11
188.9839853525
 21
18.1735003624
 31
0.0
  0
LINE
  5
142
330
1F
100
AcDbEntity
  8
0
  6
Continuous
 62
     7
370
     0
100
AcDbLine
 10
138.9839853525
 20
20.6302227647
 30
0.0
 11
138.9839853525
 21
20.1302227647
 31
0.0
  0
LINE
  5
143
330
1F
100
AcDbEntity
  8
0
  6
Continuous
 62
     7
370
     0
100
AcDbLine
 10
188.9839853525
 20
20.6302227647
 30
0.0
 11
188.9839853525
 21
19.8802227647
 31
0.0
  0
LINE
  5
144
330
1F
100
AcDbEntity
  8
0
  6
Continuous
 62
     7
370
     0
100
AcDbLine
 10
188.9839853525
 20
27.1302227647
 30
0.0
 11
188.9839853525
 21
25.1302227647
 31
0.0
  0
LINE
  5
145
330
1F
100
AcDbEntity
  8
0
  6
Continuous
 62
     7
370
     0
100
AcDbLine
 10
151.4839853525
 20
25.1302227647
 30
0.0
 11
151.4839853525
 21
12.6302227647
 31
0.0
  0
LINE
  5
146
330
1F
100
AcDbEntity
  8
0
  6
Continuous
 62
     7
370
     0
100
AcDbLine
 10
151.4839853525
 20
25.1302227647
 30
0.0
 11
163.9839853525
 21
25.1302227647
 31
0.0
  0
LINE
  5
147
330
1F
100
AcDbEntity
  8
0
  6
Continuous
 62
     7
370
    15
100
AcDbLine
 10
151.4839853525
 20
12.6302227647
 30
0.0
 11
163.9839853525
 21
12.6302227647
 31
0.0
  0
LINE
  5
148
330
1F
100
AcDbEntity
  8
0
  6
Continuous
 62
     7
370
     0
100
AcDbLine
 10
163.9839853525
 20
12.6302227647
 30
0.0
 11
163.9839853525
 21
25.1302227647
 31
0.0
  0
LINE
  5
149
330
1F
100
AcDbEntity
  8
0
  6
Continuous
 62
     7
370
    15
100
AcDbLine
 10
163.9839853525
 20
12.6302227647
 30
0.0
 11
176.4839853525
 21
12.6302227647
 31
0.0
  0
LINE
  5
14A
330
1F
100
AcDbEntity
  8
0
  6
Continuous
 62
     7
370
     0
100
AcDbLine
 10
163.9839853525
 20
25.1302227647
 30
0.0
 11
176.4839853525
 21
25.1302227647
 31
0.0
  0
LINE
  5
14B
330
1F
100
AcDbEntity
  8
0
  6
Continuous
 62
     7
370
     0
100
AcDbLine
 10
176.4839853525
 20
25.1302227647
 30
0.0
 11
176.4839853525
 21
12.6302227647
 31
0.0
  0
LINE
  5
14C
330
1F
100
AcDbEntity
  8
0
  6
Continuous
 62
     7
370
     0
100
AcDbLine
 10
176.4839853525
 20
25.1302227647
 30
0.0
 11
188.9839853525
 21
25.1302227647
 31
0.0
  0
LINE
  5
14D
330
1F
100
AcDbEntity
  8
0
  6
Continuous
 62
     7
370
    15
100
AcDbLine
 10
176.4839853525
 20
12.6302227647
 30
0.0
 11
188.9839853525
 21
12.6302227647
 31
0.0
  0
LINE
  5
14E
330
1F
100
AcDbEntity
  8
0
  6
Continuous
 62
     7
370
     0
100
AcDbLine
 10
188.9839853525
 20
19.8802227647
 30
0.0
 11
188.9839853525
 21
12.6302227647
 31
0.0
  0
LINE
  5
14F
330
1F
100
AcDbEntity
  8
0
  6
Continuous
 62
     7
370
     0
100
AcDbLine
 10
188.9839853525
 20
37.0302227647
 30
0.0
 11
277.9839853525
 21
37.0302227647
 31
0.0
  0
LINE
  5
150
330
1F
100
AcDbEntity
  8
0
  6
Continuous
 62
     7
370
     0
100
AcDbLine
 10
188.9839853525
 20
37.0302227647
 30
0.0
 11
188.9839853525
 21
33.6302227647
 31
0.0
  0
LINE
  5
151
330
1F
100
AcDbEntity
  8
0
  6
Continuous
 62
     7
370
     0
100
AcDbLine
 10
277.9839853525
 20
46.9302227647
 30
0.0
 11
255.9839853525
 21
46.9302227647
 31
0.0
  0
LINE
  5
152
330
1F
100
AcDbEntity
  8
0
  6
Continuous
 62
     7
370
     0
100
AcDbLine
 10
277.9839853525
 20
27.1302227647
 30
0.0
 11
263.9839853525
 21
27.1302227647
 31
0.0
  0
LINE
  5
153
330
1F
100
AcDbEntity
  8
0
  6
Continuous
 62
     7
370
     0
100
AcDbLine
 10
277.9839853525
 20
19.8802227647
 30
0.0
 11
263.9839853525
 21
19.8802227647
 31
0.0
  0
LINE
  5
154
330
1F
100
AcDbEntity
  8
0
  6
Continuous
 62
     7
370
    15
100
AcDbLine
 10
277.9839853525
 20
12.6302227647
 30
0.0
 11
257.3173186858
 21
12.6302227647
 31
0.0
  0
LINE
  5
155
330
1F
100
AcDbEntity
  8
0
  6
Continuous
 62
     7
370
     0
100
AcDbLine
 10
204.4839853525
 20
46.9302227647
 30
0.0
 11
204.4839853525
 21
27.1302227647
 31
0.0
  0
LINE
  5
156
330
1F
100
AcDbEntity
  8
0
  6
Continuous
 62
     7
370
     0
100
AcDbLine
 10
204.4839853525
 20
46.9302227647
 30
0.0
 11
188.9839853525
 21
46.9302227647
 31
0.0
  0
LINE
  5
157
330
1F
100
AcDbEntity
  8
0
  6
Continuous
 62
     7
370
     0
100
AcDbLine
 10
188.9839853525
 20
27.1302227647
 30
0.0
 11
200.4839853525
 21
27.1302227647
 31
0.0
  0
LINE
  5
158
330
1F
100
AcDbEntity
  8
0
  6
Continuous
 62
     7
370
     0
100
AcDbLine
 10
188.9839853525
 20
19.8802227647
 30
0.0
 11
197.9839853525
 21
19.8802227647
 31
0.0
  0
LINE
  5
159
330
1F
100
AcDbEntity
  8
0
  6
Continuous
 62
     7
370
     0
100
AcDbLine
 10
240.5839853525
 20
46.9302227647
 30
0.0
 11
204.4839853525
 21
46.9302227647
 31
0.0
  0
LINE
  5
15A
330
1F
100
AcDbEntity
  8
0
  6
Continuous
 62
     7
370
     0
100
AcDbLine
 10
255.9839853525
 20
46.9302227647
 30
0.0
 11
255.9839853525
 21
27.1302227647
 31
0.0
  0
LINE
  5
15B
330
1F
100
AcDbEntity
  8
0
  6
Continuous
 62
     7
370
     0
100
AcDbLine
 10
255.9839853525
 20
46.9302227647
 30
0.0
 11
240.5839853525
 21
46.9302227647
 31
0.0
  0
LINE
  5
15C
330
1F
100
AcDbEntity
  8
0
  6
Continuous
 62
     7
370
     0
100
AcDbLine
 10
158.4839853525
 20
53.6302227647
 30
0.0
 11
158.4839853525
 21
29.6302227647
 31
0.0
  0
LINE
  5
15D
330
1F
100
AcDbEntity
  8
0
  6
Continuous
 62
     7
370
     0
100
AcDbLine
 10
158.4839853525
 20
53.6302227647
 30
0.0
 11
168.6506520191
 21
53.6302227647
 31
0.0
  0
LINE
  5
15E
330
1F
100
AcDbEntity
  8
0
  6
Continuous
 62
     7
370
     0
100
AcDbLine
 10
158.4839853525
 20
29.6302227647
 30
0.0
 11
168.6506520191
 21
29.6302227647
 31
0.0
  0
LINE
  5
15F
330
1F
100
AcDbEntity
  8
0
  6
Continuous
 62
     7
370
     0
100
AcDbLine
 10
168.6506520191
 20
29.6302227647
 30
0.0
 11
168.6506520191
 21
53.6302227647
 31
0.0
  0
LINE
  5
160
330
1F
100
AcDbEntity
  8
0
  6
Continuous
 62
     7
370
     0
100
AcDbLine
 10
168.6506520191
 20
29.6302227647
 30
0.0
 11
178.8173186858
 21
29.6302227647
 31
0.0
  0
LINE
  5
161
330
1F
100
AcDbEntity
  8
0
  6
Continuous
 62
     7
370
     0
100
AcDbLine
 10
168.6506520191
 20
53.6302227647
 30
0.0
 11
178.8173186858
 21
53.6302227647
 31
0.0
  0
LINE
  5
162
330
1F
100
AcDbEntity
  8
0
  6
Continuous
 62
     7
370
     0
100
AcDbLine
 10
178.8173186858
 20
53.6302227647
 30
0.0
 11
178.8173186858
 21
29.6302227647
 31
0.0
  0
LINE
  5
163
330
1F
100
AcDbEntity
  8
0
  6
Continuous
 62
     7
370
     0
100
AcDbLine
 10
178.8173186858
 20
53.6302227647
 30
0.0
 11
188.9839853525
 21
53.6302227647
 31
0.0
  0
LINE
  5
164
330
1F
100
AcDbEntity
  8
0
  6
Continuous
 62
     7
370
     0
100
AcDbLine
 10
178.8173186858
 20
29.6302227647
 30
0.0
 11
188.9839853525
 21
29.6302227647
 31
0.0
  0
LINE
  5
165
330
1F
100
AcDbEntity
  8
0
  6
Continuous
 62
     7
370
     0
100
AcDbLine
 10
138.9839853525
 20
50.1302227647
 30
0.0
 11
138.9839853525
 21
49.6302227647
 31
0.0
  0
LINE
  5
166
330
1F
100
AcDbEntity
  8
0
  6
Continuous
 62
     7
370
     0
100
AcDbLine
 10
138.9839853525
 20
42.6302227647
 30
0.0
 11
138.9839853525
 21
41.6302227647
 31
0.0
  0
LINE
  5
167
330
1F
100
AcDbEntity
  8
0
  6
Continuous
 62
     7
370
     0
100
AcDbLine
 10
138.9839853525
 20
35.1302227647
 30
0.0
 11
138.9839853525
 21
33.6302227647
 31
0.0
  0
LINE
  5
168
330
1F
100
AcDbEntity
  8
0
  6
Continuous
 62
     7
370
     0
100
AcDbLine
 10
138.9839853525
 20
27.6302227647
 30
0.0
 11
138.9839853525
 21
25.1302227647
 31
0.0
  0
LINE
  5
169
330
1F
100
AcDbEntity
  8
0
  6
Continuous
 62
     7
370
     0
100
AcDbLine
 10
188.9839853525
 20
49.6302227647
 30
0.0
 11
138.9839853525
 21
49.6302227647
 31
0.0
  0
LINE
  5
16A
330
1F
100
AcDbEntity
  8
0
  6
Continuous
 62
     7
370
     0
100
AcDbLine
 10
29.4750638265
 20
58.0
 30
0.0
 11
29.4750638265
 21
20.5
 31
0.0
  0
LINE
  5
16B
330
1F
100
AcDbEntity
  8
0
  6
Continuous
 62
     7
370
     0
100
AcDbLine
 10
35.0
 20
58.0
 30
0.0
 11
55.0
 21
58.0
 31
0.0
  0
LINE
  5
16C
330
1F
100
AcDbEntity
  8
0
  6
Continuous
 62
     7
370
     0
100
AcDbLine
 10
16.3862068966
 20
49.9776772435
 30
0.0
 11
138.9845430089
 21
49.9776772435
 31
0.0
  0
LINE
  5
16D
330
1F
100
AcDbEntity
  8
0
  6
Continuous
 62
     7
370
     0
100
AcDbLine
 10
188.9839853525
 20
49.6302227647
 30
0.0
 11
188.9839853525
 21
46.9302227647
 31
0.0
  0
LINE
  5
16E
330
1F
100
AcDbEntity
  8
0
  6
Continuous
 62
     7
370
     0
100
AcDbLine
 10
138.9839853525
 20
49.6302227647
 30
0.0
 11
138.9839853525
 21
45.6302227647
 31
0.0
  0
LINE
  5
16F
330
1F
100
AcDbEntity
  8
0
  6
Continuous
 62
     7
370
     0
100
AcDbLine
 10
138.9839853525
 20
42.6302227647
 30
0.0
 11
16.3856492401
 21
42.6302227647
 31
0.0
  0
LINE
  5
170
330
1F
100
AcDbEntity
  8
0
  6
Continuous
 62
     7
370
     0
100
AcDbLine
 10
188.9839853525
 20
45.6302227647
 30
0.0
 11
138.9839853525
 21
45.6302227647
 31
0.0
  0
LINE
  5
171
330
1F
100
AcDbEntity
  8
0
  6
Continuous
 62
     7
370
     0
100
AcDbLine
 10
188.9839853525
 20
45.6302227647
 30
0.0
 11
188.9839853525
 21
41.6302227647
 31
0.0
  0
LINE
  5
172
330
1F
100
AcDbEntity
  8
0
  6
Continuous
 62
     7
370
     0
100
AcDbLine
 10
16.3862068966
 20
35.5
 30
0.0
 11
138.9871452063
 21
35.5
 31
0.0
  0
LINE
  5
173
330
1F
100
AcDbEntity
  8
0
  6
Continuous
 62
     7
370
     0
100
AcDbLine
 10
138.9839853525
 20
45.6302227647
 30
0.0
 11
138.9839853525
 21
42.6302227647
 31
0.0
  0
LINE
  5
174
330
1F
100
AcDbEntity
  8
0
  6
Continuous
 62
     7
370
     0
100
AcDbLine
 10
138.9839853525
 20
41.6302227647
 30
0.0
 11
188.9839853525
 21
41.6302227647
 31
0.0
  0
LINE
  5
175
330
1F
100
AcDbEntity
  8
0
  6
Continuous
 62
     7
370
     0
100
AcDbLine
 10
16.3862068966
 20
28.0
 30
0.0
 11
138.9856051947
 21
28.0
 31
0.0
  0
LINE
  5
176
330
1F
100
AcDbEntity
  8
0
  6
Continuous
 62
     7
370
     0
100
AcDbLine
 10
138.9839853525
 20
41.6302227647
 30
0.0
 11
138.9839853525
 21
37.6302227647
 31
0.0
  0
LINE
  5
177
330
1F
100
AcDbEntity
  8
0
  6
Continuous
 62
     7
370
     0
100
AcDbLine
 10
188.9839853525
 20
41.6302227647
 30
0.0
 11
188.9839853525
 21
37.6302227647
 31
0.0
  0
LINE
  5
178
330
1F
100
AcDbEntity
  8
0
  6
Continuous
 62
     7
370
     0
100
AcDbLine
 10
188.9839853525
 20
37.6302227647
 30
0.0
 11
138.9839853525
 21
37.6302227647
 31
0.0
  0
LINE
  5
179
330
1F
100
AcDbEntity
  8
0
  6
Continuous
 62
     7
370
     0
100
AcDbLine
 10
188.9839853525
 20
37.6302227647
 30
0.0
 11
188.9839853525
 21
37.0302227647
 31
0.0
  0
LINE
  5
17A
330
1F
100
AcDbEntity
  8
0
  6
Continuous
 62
     7
370
     0
100
AcDbLine
 10
138.9839853525
 20
37.6302227647
 30
0.0
 11
138.9839853525
 21
35.1302227647
 31
0.0
  0
LINE
  5
17B
330
1F
100
AcDbEntity
  8
0
  6
Continuous
 62
     7
370
     0
100
AcDbLine
 10
138.9839853525
 20
33.6302227647
 30
0.0
 11
188.9839853525
 21
33.6302227647
 31
0.0
  0
LINE
  5
17C
330
1F
100
AcDbEntity
  8
0
  6
Continuous
 62
     7
370
     0
100
AcDbLine
 10
138.9839853525
 20
33.6302227647
 30
0.0
 11
138.9839853525
 21
29.6302227647
 31
0.0
  0
LINE
  5
17D
330
1F
100
AcDbEntity
  8
0
  6
Continuous
 62
     7
370
     0
100
AcDbLine
 10
188.9839853525
 20
33.6302227647
 30
0.0
 11
188.9839853525
 21
29.6302227647
 31
0.0
  0
LINE
  5
17E
330
1F
100
AcDbEntity
  8
0
  6
CENTER
 62
     7
370
    15
100
AcDbLine
 10
143.5190080732
 20
16.2245984807
 30
0.0
 11
145.0190080732
 21
13.6265222693
 31
0.0
  0
LINE
  5
17F
330
1F
100
AcDbEntity
  8
0
  6
CENTER
 62
     7
370
    15
100
AcDbLine
 10
146.5190080732
 20
16.2245984807
 30
0.0
 11
145.0190080732
 21
13.6265222693
 31
0.0
  0
LINE
  5
180
330
1F
100
AcDbEntity
  8
0
  6
CENTER
 62
     7
370
    15
100
AcDbLine
 10
146.5190080732
 20
16.2245984807
 30
0.0
 11
149.5190080732
 21
16.2245984807
 31
0.0
  0
LINE
  5
181
330
1F
100
AcDbEntity
  8
0
  6
CENTER
 62
     7
370
    15
100
AcDbLine
 10
146.5190080732
 20
16.2245984807
 30
0.0
 11
148.0190080732
 21
13.6265222693
 31
0.0
  0
LINE
  5
182
330
1F
100
AcDbEntity
  8
0
  6
CENTER
 62
     7
370
    15
100
AcDbLine
 10
149.5190080732
 20
16.2245984807
 30
0.0
 11
148.0190080732
 21
13.6265222693
 31
0.0
  0
LINE
  5
183
330
1F
100
AcDbEntity
  8
0
  6
Continuous
 62
     7
370
    15
100
AcDbLine
 10
154.3830149162
 20
16.251892094
 30
0.0
 11
157.3830149162
 21
16.251892094
 31
0.0
  0
LINE
  5
184
330
1F
100
AcDbEntity
  8
0
  6
Continuous
 62
     7
370
    15
100
AcDbLine
 10
157.3830149162
 20
16.251892094
 30
0.0
 11
155.8830149162
 21
13.6538158827
 31
0.0
  0
LINE
  5
185
330
1F
100
AcDbEntity
  8
0
  6
Continuous
 62
     7
370
    15
100
AcDbLine
 10
154.3830149162
 20
16.251892094
 30
0.0
 11
155.8830149162
 21
13.6538158827
 31
0.0
  0
LINE
  5
186
330
1F
100
AcDbEntity
  8
0
  6
CENTER
 62
     7
370
    15
100
AcDbLine
 10
157.3830149162
 20
16.251892094
 30
0.0
 11
160.3830149162
 21
16.251892094
 31
0.0
  0
LINE
  5
187
330
1F
100
AcDbEntity
  8
0
  6
Continuous
 62
     7
370
     0
100
AcDbLine
 10
32.7408638108
 20
12.6302227647
 30
0.0
 11
32.7408638108
 21
20.5
 31
0.0
  0
LINE
  5
188
330
1F
100
AcDbEntity
  8
0
  6
Continuous
 62
     7
370
     0
100
AcDbLine
 10
50.7632108866
 20
20.5
 30
0.0
 11
50.7632108866
 21
12.6302227647
 31
0.0
  0
LINE
  5
189
330
1F
100
AcDbEntity
  8
0
  6
Continuous
 62
     7
370
     0
100
AcDbLine
 10
87.2144075495
 20
20.5
 30
0.0
 11
87.2144075495
 21
12.6302227647
 31
0.0
  0
LINE
  5
18A
330
1F
100
AcDbEntity
  8
0
  6
Continuous
 62
     7
370
     0
100
AcDbLine
 10
138.9833894669
 20
20.5
 30
0.0
 11
16.3862068966
 21
20.5
 31
0.0
  0
LINE
  5
18B
330
1F
100
AcDbEntity
  8
0
  6
Continuous
 62
     7
370
     0
100
AcDbLine
 10
103.5434074712
 20
20.5
 30
0.0
 11
103.5434074712
 21
12.6302227647
 31
0.0
  0
LINE
  5
18C
330
1F
100
AcDbEntity
  8
0
  6
CENTER
 62
     7
370
    15
100
AcDbLine
 10
160.3830149162
 20
16.251892094
 30
0.0
 11
158.8830149162
 21
13.6538158827
 31
0.0
  0
LINE
  5
18D
330
1F
100
AcDbEntity
  8
0
  6
CENTER
 62
     7
370
    15
100
AcDbLine
 10
157.3830149162
 20
16.251892094
 30
0.0
 11
158.8830149162
 21
13.6538158827
 31
0.0
  0
LINE
  5
18E
330
1F
100
AcDbEntity
  8
0
  6
Continuous
 62
     7
370
    15
100
AcDbLine
 10
168.6837195726
 20
16.088130414
 30
0.0
 11
171.6837195726
 21
16.088130414
 31
0.0
  0
LINE
  5
18F
330
1F
100
AcDbEntity
  8
0
  6
Continuous
 62
     7
370
    15
100
AcDbLine
 10
171.6837195726
 20
16.088130414
 30
0.0
 11
170.1837195726
 21
13.4900542026
 31
0.0
  0
LINE
  5
190
330
1F
100
AcDbEntity
  8
0
  6
Continuous
 62
     7
370
    15
100
AcDbLine
 10
168.6837195726
 20
16.088130414
 30
0.0
 11
170.1837195726
 21
13.4900542026
 31
0.0
  0
LINE
  5
191
330
1F
100
AcDbEntity
  8
0
  6
Continuous
 62
     7
370
    15
100
AcDbLine
 10
181.1612988799
 20
21.9915148182
 30
0.0
 11
182.6612988799
 21
19.3934386068
 31
0.0
  0
CIRCLE
  5
192
330
1F
100
AcDbEntity
  8
LAYER1
100
AcDbCircle
 10
157.5670307329
 20
118.9752955083
 30
0.0
 40
1.0
  0
CIRCLE
  5
193
330
1F
100
AcDbEntity
  8
LAYER1
100
AcDbCircle
 10
152.3170307329
 20
118.9752955083
 30
0.0
 40
1.5
  0
CIRCLE
  5
194
330
1F
100
AcDbEntity
  8
LAYER1
100
AcDbCircle
 10
152.3170307329
 20
118.9752955083
 30
0.0
 40
1.25
  0
CIRCLE
  5
195
330
1F
100
AcDbEntity
  8
LAYER1
100
AcDbCircle
 10
157.5670307329
 20
118.9752955083
 30
0.0
 40
0.8000000000000114
  0
SPLINE
  5
196
330
1F
100
AcDbEntity
  8
0
  6
Continuous
 62
     5
370
    15
100
AcDbSpline
210
0.0
220
0.0
230
1.0
 70
     8
 71
     3
 72
    11
 73
     7
 74
     0
 42
0.00000001
 43
0.00000001
 40
0.0
 40
0.0
 40
0.0
 40
0.0
 40
0.2830912462189042
 40
0.5136186913771149
 40
0.7601132866708651
 40
1.0
 40
1.0
 40
1.0
 40
1.0
 10
180.4759199014129
 20
14.82098538002784
 30
0.0
 10
180.8956298264582
 20
15.3244955611251
 30
0.0
 10
181.6571187998511
 20
16.23802518722401
 30
0.0
 10
182.4367469791955
 20
14.76577874420737
 30
0.0
 10
183.4663738869579
 20
13.5334604671322
 30
0.0
 10
184.0924157386796
 20
14.39571521756938
 30
0.0
 10
184.4011840230556
 20
14.82098538002784
 30
0.0
  0
ELLIPSE
  5
197
330
1F
100
AcDbEntity
  8
LAYER1
100
AcDbEllipse
 10
222.5690307329
 20
111.0763372536
 30
0.0
 11
3.000000000000028
 21
-7.105427357601002E-14
 31
0.0
210
0.0
220
0.0
230
1.0
 40
0.8660254038
 41
6.283185120735627
 42
9.424778059055019
  0
ELLIPSE
  5
198
330
1F
100
AcDbEntity
  8
LAYER1
100
AcDbEllipse
 10
222.5690307329
 20
108.8263372536
 30
0.0
 11
2.500000000000028
 21
-5.684341886080801E-14
 31
0.0
210
0.0
220
0.0
230
1.0
 40
0.8660254038
 41
0.0
 42
6.283185307179586
  0
ELLIPSE
  5
199
330
1F
100
AcDbEntity
  8
LAYER1
100
AcDbEllipse
 10
222.5690307329
 20
109.0763372536
 30
0.0
 11
3.000000000000028
 21
-7.105427357601002E-14
 31
0.0
210
0.0
220
0.0
230
1.0
 40
0.8660254038
 41
0.0
 42
6.283185307179586
  0
DIMENSION
  5
19A
330
1F
100
AcDbEntity
  8
DIMENSION
100
AcDbDimension
  2
*D2
 10
239.5690307329
 20
146.7175683891
 30
0.0
 11
237.5690307329
 21
146.7175683891
 31
0.0
 70
   160
 71
     1
 42
-1.0
  3
SLDDIMSTYLE0
100
AcDbAlignedDimension
 13
235.5690307329
 23
132.9752955083
 33
0.0
 14
239.5690307329
 24
131.0752955083
 34
0.0
100
AcDbRotatedDimension
  0
DIMENSION
  5
1AF
330
1F
100
AcDbEntity
  8
DIMENSION
100
AcDbDimension
  2
*D3
 10
202.2967938636
 20
132.8252955083
 30
0.0
 11
202.2967938636
 21
87.7526164529
 31
0.0
 70
   160
  1
%%c<>
 71
     1
 42
-1.0
  3
SLDDIMSTYLE1
100
AcDbAlignedDimension
 13
203.4452952831
 23
105.1252955083
 33
0.0
 14
203.4452952831
 24
132.8252955083
 34
0.0
 50
90.0
100
AcDbRotatedDimension
  0
DIMENSION
  5
1BF
330
1F
100
AcDbEntity
  8
DIMENSION
100
AcDbDimension
  2
*D4
 10
235.5690307329
 20
155.0361420691
 30
0.0
 11
161.5430307329
 21
155.0361420691
 31
0.0
 70
   160
  1
(<>)
 71
     1
 42
-1.0
  3
SLDDIMSTYLE2
100
AcDbAlignedDimension
 13
87.5170307329
 23
132.3752955083
 33
0.0
 14
235.5690307329
 24
132.9752955083
 34
0.0
100
AcDbRotatedDimension
  0
DIMENSION
  5
1CC
330
1F
100
AcDbEntity
  8
DIMENSION
100
AcDbDimension
  2
*D5
 10
235.5690307329
 20
146.7175683891
 30
0.0
 11
197.9430307329
 21
146.7175683891
 31
0.0
 70
   160
 71
     1
 42
-1.0
  3
SLDDIMSTYLE2
100
AcDbAlignedDimension
 13
160.3170307329
 23
135.4752955083
 33
0.0
 14
235.5690307329
 24
132.9752955083
 34
0.0
100
AcDbRotatedDimension
  0
DIMENSION
  5
1D6
330
1F
100
AcDbEntity
  8
DIMENSION
100
AcDbDimension
  2
*D6
 10
253.0950307329
 20
155.0361420691
 30
0.0
 11
244.3320307329
 21
155.0361420691
 31
0.0
 70
   160
  1
FB=<>
 71
     1
 42
-1.0
  3
SLDDIMSTYLE3
100
AcDbAlignedDimension
 13
235.5690307329
 23
132.9752955083
 33
0.0
 14
253.0950307329
 24
118.9752955083
 34
0.0
100
AcDbRotatedDimension
  0
DIMENSION
  5
1E4
330
1F
100
AcDbEntity
  8
DIMENSION
100
AcDbDimension
  2
*D7
 10
77.2933731364
 20
134.3752955083
 30
0.0
 11
77.2933731364
 21
116.5258221665
 31
0.0
 70
   160
  1
%%c<>
 71
     1
 42
-1.0
  3
SLDDIMSTYLE4
100
AcDbAlignedDimension
 13
89.5170307329
 23
103.5752955083
 33
0.0
 14
89.5170307329
 24
134.3752955083
 34
0.0
 50
90.0
100
AcDbRotatedDimension
  0
MTEXT
  5
1F0
330
1F
100
AcDbEntity
  8
LAYER1
100
AcDbMText
 10
248.458369646
 20
98.4698752694
 30
0.0
 40
3.7041666667
 41
0.0
 71
     1
 72
     1
  1
M25.4X32 山
  7
SLDTEXTSTYLE1
 73
     1
 44
1.0
  0
MTEXT
  5
1F1
330
1F
100
AcDbEntity
  8
LAYER1
100
AcDbMText
 10
66.9056784872
 20
161.7138363905
 30
0.0
 40
3.7041666667
 41
0.0
 71
     1
 72
     1
  1
W.D.=150
  7
SLDTEXTSTYLE1
 73
     1
 44
1.0
  0
MTEXT
  5
1F2
330
1F
100
AcDbEntity
  8
LAYER1
100
AcDbMText
 10
30.9977740841
 20
96.5731250607
 30
0.0
 40
3.7041666667
 41
0.0
 71
     1
 72
     1
  1
(ﾌｨﾙﾀｰﾈｼﾞ)
  7
SLDTEXTSTYLE1
 73
     1
 44
1.0
  0
MTEXT
  5
1F4
330
1F
100
AcDbEntity
  8
LAYER1
100
AcDbMText
 10
32.1760971696
 20
103.6360374157
 30
0.0
 40
3.7041666667
 41
0.0
 71
     1
 72
     1
  1
M 22.5XP 0.5
  7
SLDTEXTSTYLE2
 73
     1
 44
1.0
  0
MTEXT
  5
1F5
330
1F
100
AcDbEntity
  8
LAYER1
100
AcDbMText
 10
276.5885890497
 20
-2.9267514307
 30
0.0
 40
2.6987499595
 41
0.0
 71
     1
 72
     1
  1
2012.6.4
  7
SLDTEXTSTYLE1
 73
     1
 44
1.0
  0
MTEXT
  5
1F6
330
1F
100
AcDbEntity
  8
0
  6
Continuous
 62
     7
370
     0
100
AcDbMText
 10
20.1673184238
 20
25.3534799816
 30
0.0
 40
3.0
 41
0.0
 71
     1
 72
     1
  1
符号
  7
SLDTEXTSTYLE2
 73
     1
 44
1.0
  0
MTEXT
  5
1F7
330
1F
100
AcDbEntity
  8
0
  6
Continuous
 62
     7
370
     0
100
AcDbMText
 10
32.6513867884
 20
25.3534799816
 30
0.0
 40
3.0
 41
0.0
 71
     1
 72
     1
  1
年　月　日
  7
SLDTEXTSTYLE2
 73
     1
 44
1.0
  0
MTEXT
  5
1F9
330
1F
100
AcDbEntity
  8
0
  6
Continuous
 62
     7
370
     0
100
AcDbMText
 10
67.877689901
 20
25.3043950547
 30
0.0
 40
3.0
 41
0.0
 71
     1
 72
     1
  1
変   更   内   容
  7
SLDTEXTSTYLE3
 73
     1
 44
1.0
  0
MTEXT
  5
1FA
330
1F
100
AcDbEntity
  8
0
  6
Continuous
 62
     7
370
     0
100
AcDbMText
 10
127.7765643344
 20
25.3700268834
 30
0.0
 40
3.0
 41
0.0
 71
     1
 72
     1
  1
担 当
  7
SLDTEXTSTYLE2
 73
     1
 44
1.0
  0
MTEXT
  5
1FC
330
1F
100
AcDbEntity
  8
0
  6
Continuous
 62
     7
370
     0
100
AcDbMText
 10
68.4422761572
 20
32.766264895
 30
0.0
 40
3.5
 41
0.0
 71
     1
 72
     1
  1
図  面  登  録
  7
SLDTEXTSTYLE4
 73
     1
 44
1.0
  0
MTEXT
  5
1FD
330
1F
100
AcDbEntity
  8
0
  6
Continuous
 62
     7
370
     0
100
AcDbMText
 10
22.662601761
 20
18.1169123537
 30
0.0
 40
3.5
 41
0.0
 71
     1
 72
     1
  1
原型
  7
SLDTEXTSTYLE2
 73
     1
 44
1.0
  0
MTEXT
  5
1FE
330
1F
100
AcDbEntity
  8
0
  6
Continuous
 62
     7
370
     0
100
AcDbMText
 10
38.291667926
 20
18.1169123537
 30
0.0
 40
3.5
 41
0.0
 71
     1
 72
     1
  1
機種
  7
SLDTEXTSTYLE2
 73
     1
 44
1.0
  0
MTEXT
  5
1FF
330
1F
100
AcDbEntity
  8
0
  6
Continuous
 62
     7
370
     0
100
AcDbMText
 10
92.0909687178
 20
18.1169123537
 30
0.0
 40
3.5
 41
0.0
 71
     1
 72
     1
  1
番号
  7
SLDTEXTSTYLE2
 73
     1
 44
1.0
  0
MTEXT
  5
200
330
1F
100
AcDbEntity
  8
0
  6
Continuous
 62
     7
370
     0
100
AcDbMText
 10
127.7503886693
 20
33.8767908659
 30
0.0
 40
3.5
 41
0.0
 71
     1
 72
     1
  1
桑名
  7
SLDTEXTSTYLE2
 73
     1
 44
1.0
  0
MTEXT
  5
201
330
1F
100
AcDbEntity
  8
0
  6
Continuous
 62
     7
370
     0
100
AcDbMText
 10
31.6354592827
 20
32.766264895
 30
0.0
 40
3.5
 41
0.0
 71
     1
 72
     1
  1
2012/10/10
  7
SLDTEXTSTYLE2
 73
     1
 44
1.0
  0
MTEXT
  5
202
330
1F
100
AcDbEntity
  8
0
  6
Continuous
 62
     7
370
     0
100
AcDbMText
 10
54.3911080947
 20
18.2352828962
 30
0.0
 40
3.7041666667
 41
0.0
 71
     1
 72
     1
  1
KCM-Z0425-150
  7
SLDTEXTSTYLE2
 73
     1
 44
1.0
  0
MTEXT
  5
203
330
1F
100
AcDbEntity
  8
0
  6
Continuous
 62
     7
370
     0
100
AcDbMText
 10
110.6810309645
 20
18.2352828962
 30
0.0
 40
3.7041666667
 41
0.0
 71
     1
 72
     1
  1
TSTM-213
  7
SLDTEXTSTYLE2
 73
     1
 44
1.0
  0
MTEXT
  5
204
330
1F
100
AcDbEntity
  8
0
  6
Continuous
 62
     7
370
     0
100
AcDbMText
 10
209.0857728577
 20
33.3811428071
 30
0.0
 40
3.7041666667
 41
0.0
 71
     1
 72
     1
  1
KCM-Z0425-150
  7
SLDTEXTSTYLE2
 73
     1
 44
1.0
  0
MTEXT
  5
205
330
1F
100
AcDbEntity
  8
0
  6
Continuous
 62
     7
370
     0
100
AcDbMText
 10
209.1664249852
 20
43.1762982973
 30
0.0
 40
3.7041666667
 41
0.0
 71
     1
 72
     1
  1
TSTM-213
  7
SLDTEXTSTYLE2
 73
     1
 44
1.0
  0
MTEXT
  5
206
330
1F
100
AcDbEntity
  8
0
  6
Continuous
 62
     7
370
     0
100
AcDbMText
 10
262.8776662977
 20
18.1266981786
 30
0.0
 40
3.5
 41
0.0
 71
     1
 72
     1
  1
斉藤
  7
SLDTEXTSTYLE2
 73
     1
 44
1.0
  0
MTEXT
  5
207
330
1F
100
AcDbEntity
  8
0
  6
Continuous
 62
     7
370
     0
100
AcDbMText
 10
220.5746746222
 20
54.188555699
 30
0.0
 40
5.2916666667
 41
0.0
 71
     1
 72
     1
  1
ケンコ-・トキナ-
  7
SLDTEXTSTYLE1
 73
     1
 44
1.0
  0
MTEXT
  5
208
330
1F
100
AcDbEntity
  8
0
  6
Continuous
 62
     7
370
     0
100
AcDbMText
 10
233.364351392
 20
18.0248320056
 30
0.0
 40
3.5
 41
0.0
 71
     1
 72
     1
  1
桑名
  7
SLDTEXTSTYLE2
 73
     1
 44
1.0
  0
MTEXT
  5
209
330
1F
100
AcDbEntity
  8
0
  6
Continuous
 62
     7
370
     0
100
AcDbMText
 10
267.3125784495
 20
24.6308227838
 30
0.0
 40
3.5
 41
0.0
 71
     1
 72
     1
  1
1/1
  7
SLDTEXTSTYLE1
 73
     1
 44
1.0
  0
MTEXT
  5
20A
330
1F
100
AcDbEntity
  8
0
  6
Continuous
 62
     7
370
     0
100
AcDbMText
 10
204.096117416
 20
24.4897607919
 30
0.0
 40
3.5
 41
0.0
 71
     1
 72
     1
  1
1
  7
SLDTEXTSTYLE1
 73
     1
 44
1.0
  0
INSERT
  5
210
330
1F
100
AcDbEntity
  8
0
  6
Continuous
 62
     7
370
     0
100
AcDbBlockReference
  2
SW_NOTE_0
 10
142.7793787733
 20
21.7744726175
 30
0.0
  0
MTEXT
  5
211
330
1F
100
AcDbEntity
  8
0
  6
Continuous
 62
     7
370
     0
100
AcDbMText
 10
155.7616450499
 20
24.4379196921
 30
0.0
 40
2.1166666667
 41
0.0
 71
     1
 72
     1
  1
6.3
  7
SLDTEXTSTYLE1
 73
     1
 44
1.0
  0
MTEXT
  5
212
330
1F
100
AcDbEntity
  8
0
  6
Continuous
 62
     7
370
     0
100
AcDbMText
 10
181.1058074648
 20
24.6761296679
 30
0.0
 40
2.1166666667
 41
0.0
 71
     1
 72
     1
  1
100
  7
SLDTEXTSTYLE1
 73
     1
 44
1.0
  0
MTEXT
  5
213
330
1F
100
AcDbEntity
  8
0
  6
Continuous
 62
     7
370
     0
100
AcDbMText
 10
169.1143559015
 20
24.4102542546
 30
0.0
 40
2.1166666667
 41
0.0
 71
     1
 72
     1
  1
25
  7
SLDTEXTSTYLE1
 73
     1
 44
1.0
  0
INSERT
  5
21D
330
1F
100
AcDbEntity
  8
0
  6
Continuous
 62
     7
370
     0
100
AcDbBlockReference
  2
SW_NOTE_1
 10
246.8404028783
 20
25.0580955502
 30
0.0
  0
MTEXT
  5
21E
330
1F
100
AcDbEntity
  8
0
  6
Continuous
 62
     7
370
     0
100
AcDbMText
 10
198.5190480166
 20
52.6382043245
 30
0.0
 40
3.7041666667
 41
0.0
 71
     1
 72
     1
  1
株式会社
  7
SLDTEXTSTYLE1
 73
     1
 44
1.0
  0
MTEXT
  5
21F
330
1F
100
AcDbEntity
  8
0
  6
Continuous
 62
     7
370
     0
100
AcDbMText
 10
179.2491442488
 20
44.1206701955
 30
0.0
 40
1.8520833333
 41
0.0
 71
     1
 72
     1
  1
±１.５
  7
SLDTEXTSTYLE1
 73
     1
 44
1.0
  0
MTEXT
  5
220
330
1F
100
AcDbEntity
  8
0
  6
Continuous
 62
     7
370
     0
100
AcDbMText
 10
159.5566845917
 20
48.2763188206
 30
0.0
 40
1.8520833333
 41
0.0
 71
     1
 72
     1
  1
±０.１
  7
SLDTEXTSTYLE1
 73
     1
 44
1.0
  0
MTEXT
  5
221
330
1F
100
AcDbEntity
  8
0
  6
Continuous
 62
     7
370
     0
100
AcDbMText
 10
169.3995930962
 20
48.2614700443
 30
0.0
 40
1.8520833333
 41
0.0
 71
     1
 72
     1
  1
±０.３
  7
SLDTEXTSTYLE1
 73
     1
 44
1.0
  0
MTEXT
  5
222
330
1F
100
AcDbEntity
  8
0
  6
Continuous
 62
     7
370
     0
100
AcDbMText
 10
179.4887017891
 20
48.2571851859
 30
0.0
 40
1.8520833333
 41
0.0
 71
     1
 72
     1
  1
± １
  7
SLDTEXTSTYLE1
 73
     1
 44
1.0
  0
MTEXT
  5
223
330
1F
100
AcDbEntity
  8
0
  6
Continuous
 62
     7
370
     0
100
AcDbMText
 10
159.529330486
 20
36.4092901269
 30
0.0
 40
1.8520833333
 41
0.0
 71
     1
 72
     1
  1
±０.５
  7
SLDTEXTSTYLE1
 73
     1
 44
1.0
  0
MTEXT
  5
224
330
1F
100
AcDbEntity
  8
0
  6
Continuous
 62
     7
370
     0
100
AcDbMText
 10
159.5454266022
 20
44.3895495302
 30
0.0
 40
1.8520833333
 41
0.0
 71
     1
 72
     1
  1
±０.２
  7
SLDTEXTSTYLE1
 73
     1
 44
1.0
  0
MTEXT
  5
225
330
1F
100
AcDbEntity
  8
0
  6
Continuous
 62
     7
370
     0
100
AcDbMText
 10
159.5775380315
 20
40.3932035656
 30
0.0
 40
1.8520833333
 41
0.0
 71
     1
 72
     1
  1
±０.３
  7
SLDTEXTSTYLE1
 73
     1
 44
1.0
  0
MTEXT
  5
226
330
1F
100
AcDbEntity
  8
0
  6
Continuous
 62
     7
370
     0
100
AcDbMText
 10
169.4729873653
 20
44.373079808
 30
0.0
 40
1.8520833333
 41
0.0
 71
     1
 72
     1
  1
±０.５
  7
SLDTEXTSTYLE1
 73
     1
 44
1.0
  0
MTEXT
  5
227
330
1F
100
AcDbEntity
  8
0
  6
Continuous
 62
     7
370
     0
100
AcDbMText
 10
159.5520703615
 20
32.5985506478
 30
0.0
 40
1.8520833333
 41
0.0
 71
     1
 72
     1
  1
±０.８
  7
SLDTEXTSTYLE1
 73
     1
 44
1.0
  0
MTEXT
  5
228
330
1F
100
AcDbEntity
  8
0
  6
Continuous
 62
     7
370
     0
100
AcDbMText
 10
169.5230806647
 20
40.4013490628
 30
0.0
 40
1.8520833333
 41
0.0
 71
     1
 72
     1
  1
±０.８
  7
SLDTEXTSTYLE1
 73
     1
 44
1.0
  0
MTEXT
  5
229
330
1F
100
AcDbEntity
  8
0
  6
Continuous
 62
     7
370
     0
100
AcDbMText
 10
169.5078210519
 20
36.3781574752
 30
0.0
 40
1.8520833333
 41
0.0
 71
     1
 72
     1
  1
±１.２
  7
SLDTEXTSTYLE1
 73
     1
 44
1.0
  0
MTEXT
  5
22A
330
1F
100
AcDbEntity
  8
0
  6
Continuous
 62
     7
370
     0
100
AcDbMText
 10
168.2763576358
 20
34.1275201232
 30
0.0
 40
1.8520833333
 41
0.0
 71
     1
 72
     1
  1
± ２
  7
SLDTEXTSTYLE1
 73
     1
 44
1.0
  0
MTEXT
  5
22B
330
1F
100
AcDbEntity
  8
0
  6
Continuous
 62
     7
370
     0
100
AcDbMText
 10
179.60170045
 20
40.4174403116
 30
0.0
 40
1.8520833333
 41
0.0
 71
     1
 72
     1
  1
± ２
  7
SLDTEXTSTYLE1
 73
     1
 44
1.0
  0
MTEXT
  5
22C
330
1F
100
AcDbEntity
  8
0
  6
Continuous
 62
     7
370
     0
100
AcDbMText
 10
179.5718577139
 20
36.4130555337
 30
0.0
 40
1.8520833333
 41
0.0
 71
     1
 72
     1
  1
± ３
  7
SLDTEXTSTYLE1
 73
     1
 44
1.0
  0
MTEXT
  5
22D
330
1F
100
AcDbEntity
  8
0
  6
Continuous
 62
     7
370
     0
100
AcDbMText
 10
179.6368453392
 20
32.5881908531
 30
0.0
 40
1.8520833333
 41
0.0
 71
     1
 72
     1
  1
± ４
  7
SLDTEXTSTYLE1
 73
     1
 44
1.0
  0
MTEXT
  5
22E
330
1F
100
AcDbEntity
  8
0
  6
Continuous
 62
     7
370
     0
100
AcDbMText
 10
258.64349467
 20
11.2277442989
 30
0.0
 40
3.5
 41
0.0
 71
     1
 72
     1
  1
三角法
  7
SLDTEXTSTYLE2
 73
     1
 44
1.0
  0
INSERT
  5
234
330
1F
100
AcDbEntity
  8
0
  6
Continuous
 62
     7
370
     0
100
AcDbBlockReference
  2
SW_NOTE_2
 10
212.6624711524
 20
23.5943204688
 30
0.0
  0
MTEXT
  5
236
330
1F
100
AcDbEntity
  8
0
  6
Continuous
 62
     7
370
     0
100
AcDbMText
 10
151.3766780809
 20
48.8834969504
 30
0.0
 40
2.5
 41
0.0
 71
     1
 72
     1
  1
16以下
  7
SLDTEXTSTYLE5
 73
     1
 44
1.0
  0
MTEXT
  5
237
330
1F
100
AcDbEntity
  8
0
  6
Continuous
 62
     7
370
     0
100
AcDbMText
 10
254.8153303542
 20
24.7566987671
 30
0.0
 40
3.0
 41
0.0
 71
     1
 72
     1
  1
尺度
  7
SLDTEXTSTYLE2
 73
     1
 44
1.0
  0
MTEXT
  5
238
330
1F
100
AcDbEntity
  8
0
  6
Continuous
 62
     7
370
     0
100
AcDbMText
 10
242.1891051304
 20
31.9005297674
 30
0.0
 40
3.0
 41
0.0
 71
     1
 72
     1
  1
処　理
  7
SLDTEXTSTYLE2
 73
     1
 44
1.0
  0
MTEXT
  5
239
330
1F
100
AcDbEntity
  8
0
  6
Continuous
 62
     7
370
     0
100
AcDbMText
 10
242.1891051304
 20
35.9005297674
 30
0.0
 40
3.0
 41
0.0
 71
     1
 72
     1
  1
表　面
  7
SLDTEXTSTYLE2
 73
     1
 44
1.0
  0
MTEXT
  5
23A
330
1F
100
AcDbEntity
  8
0
  6
Continuous
 62
     7
370
     0
100
AcDbMText
 10
244.340072503
 20
43.6330790724
 30
0.0
 40
3.0
 41
0.0
 71
     1
 72
     1
  1
材料
  7
SLDTEXTSTYLE2
 73
     1
 44
1.0
  0
MTEXT
  5
23B
330
1F
100
AcDbEntity
  8
0
  6
Continuous
 62
     7
370
     0
100
AcDbMText
 10
248.9839853525
 20
17.9211317963
 30
0.0
 40
3.0
 41
0.0
 71
     1
 72
     1
  1
承認
  7
SLDTEXTSTYLE2
 73
     1
 44
1.0
  0
MTEXT
  5
23C
330
1F
100
AcDbEntity
  8
0
  6
Continuous
 62
     7
370
     0
100
AcDbMText
 10
219.9839853525
 20
17.9211317963
 30
0.0
 40
3.0
 41
0.0
 71
     1
 72
     1
  1
製図
  7
SLDTEXTSTYLE2
 73
     1
 44
1.0
  0
MTEXT
  5
23D
330
1F
100
AcDbEntity
  8
0
  6
Continuous
 62
     7
370
     0
100
AcDbMText
 10
189.9839853525
 20
17.9211317963
 30
0.0
 40
3.0
 41
0.0
 71
     1
 72
     1
  1
設計
  7
SLDTEXTSTYLE2
 73
     1
 44
1.0
  0
MTEXT
  5
23E
330
1F
100
AcDbEntity
  8
0
  6
Continuous
 62
     7
370
     0
100
AcDbMText
 10
191.3480581424
 20
25.1431701381
 30
0.0
 40
3.0
 41
0.0
 71
     1
 72
     1
  1
個数
  7
SLDTEXTSTYLE2
 73
     1
 44
1.0
  0
MTEXT
  5
23F
330
1F
100
AcDbEntity
  8
0
  6
Continuous
 62
     7
370
     0
100
AcDbMText
 10
191.2502868982
 20
33.7470396284
 30
0.0
 40
3.0
 41
0.0
 71
     1
 72
     1
  1
製品名
  7
SLDTEXTSTYLE2
 73
     1
 44
1.0
  0
MTEXT
  5
241
330
1F
100
AcDbEntity
  8
0
  6
Continuous
 62
     7
370
     0
100
AcDbMText
 10
191.1777216762
 20
41.4099285091
 30
0.0
 40
3.0
 41
0.0
 71
     1
 72
     1
  1
番  号
  7
SLDTEXTSTYLE6
 73
     1
 44
1.0
  0
MTEXT
  5
242
330
1F
100
AcDbEntity
  8
0
  6
Continuous
 62
     7
370
     0
100
AcDbMText
 10
191.1777216762
 20
45.6099285091
 30
0.0
 40
3.0
 41
0.0
 71
     1
 72
     1
  1
図　面
  7
SLDTEXTSTYLE2
 73
     1
 44
1.0
  0
MTEXT
  5
244
330
1F
100
AcDbEntity
  8
0
  6
Continuous
 62
     7
370
     0
100
AcDbMText
 10
180.4367772702
 20
52.9109620374
 30
0.0
 40
2.5
 41
0.0
 71
     1
 72
     1
  1
Ｃ　級
  7
SLDTEXTSTYLE7
 73
     1
 44
1.0
  0
MTEXT
  5
245
330
1F
100
AcDbEntity
  8
0
  6
Continuous
 62
     7
370
     0
100
AcDbMText
 10
170.2963366885
 20
52.9073736597
 30
0.0
 40
2.5
 41
0.0
 71
     1
 72
     1
  1
Ｂ　級
  7
SLDTEXTSTYLE7
 73
     1
 44
1.0
  0
MTEXT
  5
246
330
1F
100
AcDbEntity
  8
0
  6
Continuous
 62
     7
370
     0
100
AcDbMText
 10
160.0772880404
 20
52.9073736597
 30
0.0
 40
2.5
 41
0.0
 71
     1
 72
     1
  1
Ａ　級
  7
SLDTEXTSTYLE7
 73
     1
 44
1.0
  0
MTEXT
  5
248
330
1F
100
AcDbEntity
  8
0
  6
Continuous
 62
     7
370
     0
100
AcDbMText
 10
139.6411632667
 20
32.8770434102
 30
0.0
 40
2.5
 41
0.0
 71
     1
 72
     1
  1
500をこえ1000以下
  7
SLDTEXTSTYLE8
 73
     1
 44
1.0
  0
MTEXT
  5
249
330
1F
100
AcDbEntity
  8
0
  6
Continuous
 62
     7
370
     0
100
AcDbMText
 10
142.0626850998
 20
44.9949162535
 30
0.0
 40
2.5
 41
0.0
 71
     1
 72
     1
  1
16をこえ63以下
  7
SLDTEXTSTYLE5
 73
     1
 44
1.0
  0
MTEXT
  5
24A
330
1F
100
AcDbEntity
  8
0
  6
Continuous
 62
     7
370
     0
100
AcDbMText
 10
139.7713760233
 20
36.8526887733
 30
0.0
 40
2.5
 41
0.0
 71
     1
 72
     1
  1
250をこえ500以下
  7
SLDTEXTSTYLE5
 73
     1
 44
1.0
  0
MTEXT
  5
24B
330
1F
100
AcDbEntity
  8
0
  6
Continuous
 62
     7
370
     0
100
AcDbMText
 10
141.0118976199
 20
40.8873150734
 30
0.0
 40
2.5
 41
0.0
 71
     1
 72
     1
  1
63をこえ250以下
  7
SLDTEXTSTYLE5
 73
     1
 44
1.0
  0
MTEXT
  5
24C
330
1F
100
AcDbEntity
  8
0
  6
Continuous
 62
     7
370
     0
100
AcDbMText
 10
141.0118976199
 20
52.9073736597
 30
0.0
 40
2.5
 41
0.0
 71
     1
 72
     1
  1
呼び寸法区分
  7
SLDTEXTSTYLE2
 73
     1
 44
1.0
  0
MTEXT
  5
24D
330
1F
100
AcDbEntity
  8
0
  6
Continuous
 62
     7
370
     0
100
AcDbMText
 10
149.6224151926
 20
56.8895701039
 30
0.0
 40
2.5
 41
0.0
 71
     1
 72
     1
  1
一  般  公  差
  7
SLDTEXTSTYLE4
 73
     1
 44
1.0
  0
MTEXT
  5
24E
330
1F
100
AcDbEntity
  8
0
  6
Continuous
 62
     7
370
     0
100
AcDbMText
 10
153.7626725863
 20
29.2195379145
 30
0.0
 40
3.0
 41
0.0
 71
     1
 72
     1
  1
仕         上
  7
SLDTEXTSTYLE6
 73
     1
 44
1.0
  0
MTEXT
  5
24F
330
1F
100
AcDbEntity
  8
0
  6
Continuous
 62
     7
370
     0
100
AcDbMText
 10
234.5438606795
 20
24.6685316898
 30
0.0
 40
3.0
 41
0.0
 71
     1
 72
     1
  1
仕上
  7
SLDTEXTSTYLE2
 73
     1
 44
1.0
  0
MTEXT
  5
250
330
1F
100
AcDbEntity
  8
0
  6
Continuous
 62
     7
370
     0
100
AcDbMText
 10
244.5429480172
 20
11.2618218356
 30
0.0
 40
3.5
 41
0.0
 71
     1
 72
     1
  1
〔ｍｍ〕
  7
SLDTEXTSTYLE2
 73
     1
 44
1.0
  0
MTEXT
  5
251
330
1F
100
AcDbEntity
  8
0
  6
Continuous
 62
     7
370
     0
100
AcDbMText
 10
272.0115811995
 20
11.2479028114
 30
0.0
 40
3.5
 41
0.0
 71
     1
 72
     1
  1
A4
  7
SLDTEXTSTYLE2
 73
     1
 44
1.0
  0
INSERT
  5
252
330
1F
100
AcDbEntity
  8
DIMENSION
100
AcDbBlockReference
  2
_Open30
 10
87.5170307329
 20
118.8676272739
 30
0.0
 41
6.0
 42
6.0
 50
39.5221045906
  0
LINE
  5
253
330
1F
100
AcDbEntity
  8
DIMENSION
100
AcDbLine
 10
31.7240234629
 20
98.2032714777
 30
0.0
 11
62.4688576927
 21
98.2032714777
 31
0.0
  0
LINE
  5
254
330
1F
100
AcDbEntity
  8
DIMENSION
100
AcDbLine
 10
62.4688576927
 20
98.2032714777
 30
0.0
 11
87.5170307329
 21
118.8676272739
 31
0.0
  0
INSERT
  5
255
330
1F
100
AcDbEntity
  8
DIMENSION
100
AcDbBlockReference
  2
_Open30
 10
237.5949733377
 20
106.2752955083
 30
0.0
 41
6.0
 42
6.0
 50
127.8150769852
  0
LINE
  5
256
330
1F
100
AcDbEntity
  8
DIMENSION
100
AcDbLine
 10
276.5142507883
 20
93.4831588292
 30
0.0
 11
247.5229642725
 21
93.4831588292
 31
0.0
  0
LINE
  5
257
330
1F
100
AcDbEntity
  8
DIMENSION
100
AcDbLine
 10
247.5229642725
 20
93.4831588292
 30
0.0
 11
237.5949733377
 21
106.2752955083
 31
0.0
  0
ENDSEC
  0
SECTION
  2
OBJECTS
  0
DICTIONARY
  5
C
330
0
100
AcDbDictionary
281
     1
  3
ACAD_GROUP
350
D
  3
ACAD_LAYOUT
350
1A
  3
ACAD_MLINESTYLE
350
17
  3
ACAD_PLOTSETTINGS
350
19
  3
ACAD_PLOTSTYLENAME
350
E
  0
DICTIONARY
  5
D
102
{ACAD_REACTORS
330
C
102
}
330
C
100
AcDbDictionary
281
     1
  0
DICTIONARY
  5
1A
102
{ACAD_REACTORS
330
C
102
}
330
C
100
AcDbDictionary
281
     1
  3
Layout1
350
1E
  3
Layout2
350
26
  3
Model
350
22
  0
DICTIONARY
  5
17
102
{ACAD_REACTORS
330
C
102
}
330
C
100
AcDbDictionary
281
     1
  3
Standard
350
18
  0
DICTIONARY
  5
19
102
{ACAD_REACTORS
330
C
102
}
330
C
100
AcDbDictionary
281
     1
  0
ACDBDICTIONARYWDFLT
  5
E
102
{ACAD_REACTORS
330
C
102
}
330
C
100
AcDbDictionary
281
     1
  3
Normal
350
F
100
AcDbDictionaryWithDefault
340
F
  0
LAYOUT
  5
1E
102
{ACAD_REACTORS
330
1A
102
}
330
1A
100
AcDbPlotSettings
  1

  2
none_device
  4

  6

 40
0.0
 41
0.0
 42
0.0
 43
0.0
 44
0.0
 45
0.0
 46
0.0
 47
0.0
 48
0.0
 49
0.0
140
0.0
141
0.0
142
1.0
143
1.0
 70
   688
 72
     0
 73
     0
 74
     5
  7

 75
    16
147
1.0
148
0.0
149
0.0
100
AcDbLayout
  1
Layout1
 70
     1
 71
     1
 10
0.0
 20
0.0
 11
420.0
 21
297.0
 12
0.0
 22
0.0
 32
0.0
 14
1.0000000000E+20
 24
1.0000000000E+20
 34
1.0000000000E+20
 15
-1.0000000000E+20
 25
-1.0000000000E+20
 35
-1.0000000000E+20
146
0.0
 13
0.0
 23
0.0
 33
0.0
 16
1.0
 26
0.0
 36
0.0
 17
0.0
 27
1.0
 37
0.0
 76
     0
330
1B
  0
LAYOUT
  5
26
102
{ACAD_REACTORS
330
1A
102
}
330
1A
100
AcDbPlotSettings
  1

  2
none_device
  4

  6

 40
0.0
 41
0.0
 42
0.0
 43
0.0
 44
0.0
 45
0.0
 46
0.0
 47
0.0
 48
0.0
 49
0.0
140
0.0
141
0.0
142
1.0
143
1.0
 70
   688
 72
     0
 73
     0
 74
     5
  7

 75
    16
147
1.0
148
0.0
149
0.0
100
AcDbLayout
  1
Layout2
 70
     1
 71
     2
 10
0.0
 20
0.0
 11
0.0
 21
0.0
 12
0.0
 22
0.0
 32
0.0
 14
0.0
 24
0.0
 34
0.0
 15
0.0
 25
0.0
 35
0.0
146
0.0
 13
0.0
 23
0.0
 33
0.0
 16
1.0
 26
0.0
 36
0.0
 17
0.0
 27
1.0
 37
0.0
 76
     0
330
23
  0
LAYOUT
  5
22
102
{ACAD_REACTORS
330
1A
102
}
330
1A
100
AcDbPlotSettings
  1

  2
none_device
  4

  6

 40
0.0
 41
0.0
 42
0.0
 43
0.0
 44
0.0
 45
0.0
 46
0.0
 47
0.0
 48
0.0
 49
0.0
140
0.0
141
0.0
142
1.0
143
1.0
 70
  1712
 72
     0
 73
     0
 74
     0
  7

 75
     0
147
1.0
148
0.0
149
0.0
100
AcDbLayout
  1
Model
 70
     1
 71
     0
 10
0.0
 20
0.0
 11
0.0
 21
0.0
 12
0.0
 22
0.0
 32
0.0
 14
0.0
 24
0.0
 34
0.0
 15
297.0
 25
210.0
 35
0.0
146
0.0
 13
0.0
 23
0.0
 33
0.0
 16
1.0
 26
0.0
 36
0.0
 17
0.0
 27
1.0
 37
0.0
 76
     0
330
1F
  0
MLINESTYLE
  5
18
102
{ACAD_REACTORS
330
17
102
}
330
17
100
AcDbMlineStyle
  2
Standard
 70
     0
  3

 62
   256
 51
90.0
 52
90.0
 71
     2
 49
0.5
 62
   256
  6
BYLAYER
 49
-0.5
 62
   256
  6
BYLAYER
  0
ACDBPLACEHOLDER
  5
F
102
{ACAD_REACTORS
330
E
102
}
330
E
  0
ENDSEC
  0
EOF
