  0
SECTION
  2
HEADER
  9
$ACADVER
  1
AC1012
  9
$DWGCODEPAGE
  3
dos932
  9
$INSBASE
 10
0.0
 20
0.0
 30
0.0
  9
$EXTMIN
 10
0.0
 20
0.0
 30
0.0
  9
$EXTMAX
 10
295.0
 20
210.0
 30
0.0
  9
$LIMMIN
 10
0.0
 20
0.0
  9
$LIMMAX
 10
295.0
 20
210.0
  9
$ORTHOMODE
 70
     0
  9
$REGENMODE
 70
     1
  9
$FILLMODE
 70
     1
  9
$QTEXTMODE
 70
     0
  9
$MIRRTEXT
 70
     1
  9
$DRAGMODE
 70
     2
  9
$LTSCALE
 40
1.0
  9
$OSMODE
 70
    37
  9
$ATTMODE
 70
     1
  9
$TEXTSIZE
 40
3.175
  9
$TRACEWID
 40
1.0
  9
$TEXTSTYLE
  7
STANDARD
  9
$CLAYER
  8
0
  9
$CELTYPE
  6
BYLAYER
  9
$CECOLOR
 62
   256
  9
$CELTSCALE
 40
1.0
  9
$DELOBJ
 70
     1
  9
$DISPSILH
 70
     0
  9
$DIMSCALE
 40
1.0
  9
$DIMASZ
 40
1.8
  9
$DIMEXO
 40
1.0
  9
$DIMDLI
 40
3.75
  9
$DIMRND
 40
0.0
  9
$DIMDLE
 40
0.0
  9
$DIMEXE
 40
1.0
  9
$DIMTP
 40
0.0
  9
$DIMTM
 40
0.0
  9
$DIMTXT
 40
3.175
  9
$DIMCEN
 40
2.5
  9
$DIMTSZ
 40
0.0
  9
$DIMTOL
 70
     0
  9
$DIMLIM
 70
     0
  9
$DIMTIH
 70
     1
  9
$DIMTOH
 70
     1
  9
$DIMSE1
 70
     0
  9
$DIMSE2
 70
     0
  9
$DIMTAD
 70
     1
  9
$DIMZIN
 70
     0
  9
$DIMBLK
  1

  9
$DIMASO
 70
     1
  9
$DIMSHO
 70
     1
  9
$DIMPOST
  1

  9
$DIMAPOST
  1

  9
$DIMALT
 70
     0
  9
$DIMALTD
 70
     3
  9
$DIMALTF
 40
0.0393700787
  9
$DIMLFAC
 40
1.0
  9
$DIMTOFL
 70
     1
  9
$DIMTVP
 40
0.0
  9
$DIMTIX
 70
     0
  9
$DIMSOXD
 70
     0
  9
$DIMSAH
 70
     0
  9
$DIMBLK1
  1

  9
$DIMBLK2
  1

  9
$DIMSTYLE
  2
ISO-25
  9
$DIMCLRD
 70
     0
  9
$DIMCLRE
 70
     0
  9
$DIMCLRT
 70
     0
  9
$DIMTFAC
 40
1.0
  9
$DIMGAP
 40
1.524
  9
$DIMJUST
 70
     0
  9
$DIMSD1
 70
     0
  9
$DIMSD2
 70
     0
  9
$DIMTOLJ
 70
     0
  9
$DIMTZIN
 70
     0
  9
$DIMALTZ
 70
     0
  9
$DIMALTTZ
 70
     0
  9
$DIMFIT
 70
     3
  9
$DIMUPT
 70
     0
  9
$DIMUNIT
 70
     2
  9
$DIMDEC
 70
     2
  9
$DIMTDEC
 70
     2
  9
$DIMALTU
 70
     2
  9
$DIMALTTD
 70
     3
  9
$DIMTXSTY
  7
STANDARD
  9
$DIMAUNIT
 70
     0
  9
$LUNITS
 70
     2
  9
$LUPREC
 70
     2
  9
$SKETCHINC
 40
1.0
  9
$FILLETRAD
 40
10.0
  9
$AUNITS
 70
     1
  9
$AUPREC
 70
     3
  9
$MENU
  1
.
  9
$ELEVATION
 40
0.0
  9
$PELEVATION
 40
0.0
  9
$THICKNESS
 40
0.0
  9
$LIMCHECK
 70
     0
  9
$CHAMFERA
 40
0.0
  9
$CHAMFERB
 40
0.0
  9
$CHAMFERC
 40
0.0
  9
$CHAMFERD
 40
0.0
  9
$SKPOLY
 70
     0
  9
$TDCREATE
 40
2460082.451780162
  9
$TDUPDATE
 40
2460082.451783958
  9
$TDINDWG
 40
0.0000000116
  9
$TDUSRTIMER
 40
0.0000000116
  9
$USRTIMER
 70
     1
  9
$ANGBASE
 50
0.0
  9
$ANGDIR
 70
     0
  9
$PDMODE
 70
     0
  9
$PDSIZE
 40
-1.0
  9
$PLINEWID
 40
0.0
  9
$COORDS
 70
     1
  9
$SPLFRAME
 70
     0
  9
$SPLINETYPE
 70
     6
  9
$SPLINESEGS
 70
     8
  9
$ATTDIA
 70
     0
  9
$ATTREQ
 70
     1
  9
$HANDLING
 70
     1
  9
$HANDSEED
  5
55A
  9
$SURFTAB1
 70
     6
  9
$SURFTAB2
 70
     6
  9
$SURFTYPE
 70
     6
  9
$SURFU
 70
     6
  9
$SURFV
 70
     6
  9
$UCSNAME
  2

  9
$UCSORG
 10
0.0
 20
0.0
 30
0.0
  9
$UCSXDIR
 10
1.0
 20
0.0
 30
0.0
  9
$UCSYDIR
 10
0.0
 20
1.0
 30
0.0
  9
$PUCSNAME
  2

  9
$PUCSORG
 10
0.0
 20
0.0
 30
0.0
  9
$PUCSXDIR
 10
1.0
 20
0.0
 30
0.0
  9
$PUCSYDIR
 10
0.0
 20
1.0
 30
0.0
  9
$USERI1
 70
     0
  9
$USERI2
 70
     0
  9
$USERI3
 70
     0
  9
$USERI4
 70
     0
  9
$USERI5
 70
     0
  9
$USERR1
 40
0.0
  9
$USERR2
 40
0.0
  9
$USERR3
 40
0.0
  9
$USERR4
 40
0.0
  9
$USERR5
 40
0.0
  9
$WORLDVIEW
 70
     1
  9
$SHADEDGE
 70
     3
  9
$SHADEDIF
 70
    70
  9
$TILEMODE
 70
     1
  9
$MAXACTVP
 70
    64
  9
$PINSBASE
 10
0.0
 20
0.0
 30
0.0
  9
$PLIMCHECK
 70
     0
  9
$PEXTMIN
 10
1.0000000000E+20
 20
1.0000000000E+20
 30
1.0000000000E+20
  9
$PEXTMAX
 10
-1.0000000000E+20
 20
-1.0000000000E+20
 30
-1.0000000000E+20
  9
$PLIMMIN
 10
0.0
 20
0.0
  9
$PLIMMAX
 10
420.0
 20
297.0
  9
$UNITMODE
 70
     0
  9
$VISRETAIN
 70
     1
  9
$PLINEGEN
 70
     0
  9
$PSLTSCALE
 70
     1
  9
$TREEDEPTH
 70
  3020
  9
$PICKSTYLE
 70
     1
  9
$CMLSTYLE
  2
STANDARD
  9
$CMLJUST
 70
     0
  9
$CMLSCALE
 40
20.0
  9
$SAVEIMAGES
 70
     1
  0
ENDSEC
  0
SECTION
  2
CLASSES
  0
CLASS
  1
ACDBDICTIONARYWDFLT
  2
AcDbDictionaryWithDefault
  3
ObjectDBX Classes
 90
    32768
280
     0
281
     0
  0
CLASS
  1
VISUALSTYLE
  2
AcDbVisualStyle
  3
ObjectDBX Classes
 90
     4095
280
     0
281
     0
  0
CLASS
  1
MATERIAL
  2
AcDbMaterial
  3
ObjectDBX Classes
 90
     1153
280
     0
281
     0
  0
CLASS
  1
SCALE
  2
AcDbScale
  3
ObjectDBX Classes
 90
     1153
280
     0
281
     0
  0
CLASS
  1
TABLESTYLE
  2
AcDbTableStyle
  3
ObjectDBX Classes
 90
     4095
280
     0
281
     0
  0
CLASS
  1
MLEADERSTYLE
  2
AcDbMLeaderStyle
  3
ACDB_MLEADERSTYLE_CLASS
 90
     4095
280
     0
281
     0
  0
CLASS
  1
SUN
  2
AcDbSun
  3
SCENEOE
 90
     1153
280
     0
281
     0
  0
CLASS
  1
XRECORD
  2
AcDbXrecord
  3
ObjectDBX Classes
 90
    32768
280
     0
281
     0
  0
ENDSEC
  0
SECTION
  2
TABLES
  0
TABLE
  2
VPORT
  5
8
330
0
100
AcDbSymbolTable
 70
     1
  0
VPORT
  5
29
330
8
100
AcDbSymbolTableRecord
100
AcDbViewportTableRecord
  2
*ACTIVE
 70
     0
 10
0.0
 20
0.0
 11
1.0
 21
1.0
 12
147.5
 22
105.0
 13
0.0
 23
0.0
 14
10.0
 24
10.0
 15
10.0
 25
10.0
 16
0.0
 26
0.0
 36
1.0
 17
0.0
 27
0.0
 37
0.0
 40
210.0
 41
1.4047619048
 42
50.0
 43
0.0
 44
0.0
 50
0.0
 51
0.0
 71
     0
 72
  2000
 73
     1
 74
     3
 75
     0
 76
     0
 77
     0
 78
     0
  0
ENDTAB
  0
TABLE
  2
LTYPE
  5
5
330
0
100
AcDbSymbolTable
 70
     6
  0
LTYPE
  5
14
330
5
100
AcDbSymbolTableRecord
100
AcDbLinetypeTableRecord
  2
BYBLOCK
 70
     0
  3

 72
    65
 73
     0
 40
0.0
  0
LTYPE
  5
15
330
5
100
AcDbSymbolTableRecord
100
AcDbLinetypeTableRecord
  2
BYLAYER
 70
     0
  3

 72
    65
 73
     0
 40
0.0
  0
LTYPE
  5
16
330
5
100
AcDbSymbolTableRecord
100
AcDbLinetypeTableRecord
  2
CONTINUOUS
 70
     0
  3
Solid line
 72
    65
 73
     0
 40
0.0
  0
LTYPE
  5
6E
330
5
100
AcDbSymbolTableRecord
100
AcDbLinetypeTableRecord
  2
HIDDEN
 70
     0
  3
Hidden __ __ __ __ __ __ __ __ __ __ __ __ __ __
 72
    65
 73
     2
 40
1.905
 49
1.27
 74
     0
 49
-0.635
 74
     0
  0
LTYPE
  5
6F
330
5
100
AcDbSymbolTableRecord
100
AcDbLinetypeTableRecord
  2
PHANTOM
 70
     0
  3
Phantom ______  __  __  ______  __  __  ______
 72
    65
 73
     6
 40
12.7
 49
6.35
 74
     0
 49
-1.27
 74
     0
 49
1.27
 74
     0
 49
-1.27
 74
     0
 49
1.27
 74
     0
 49
-1.27
 74
     0
  0
LTYPE
  5
70
330
5
100
AcDbSymbolTableRecord
100
AcDbLinetypeTableRecord
  2
CENTER
 70
     0
  3
Center ____ _ ____ _ ____ _ ____ _ ____ _ ____
 72
    65
 73
     4
 40
10.16
 49
6.35
 74
     0
 49
-1.27
 74
     0
 49
1.27
 74
     0
 49
-1.27
 74
     0
  0
LTYPE
  5
71
330
5
100
AcDbSymbolTableRecord
100
AcDbLinetypeTableRecord
  2
CENTERX2
 70
     0
  3
Center (2x) ________  __  ________  __  _____
 72
    65
 73
     4
 40
20.32
 49
12.7
 74
     0
 49
-2.54
 74
     0
 49
2.54
 74
     0
 49
-2.54
 74
     0
  0
LTYPE
  5
72
330
5
100
AcDbSymbolTableRecord
100
AcDbLinetypeTableRecord
  2
DOT2
 70
     0
  3
Dot (.5x) ........................................
 72
    65
 73
     2
 40
0.635
 49
0.0
 74
     0
 49
-0.635
 74
     0
  0
ENDTAB
  0
TABLE
  2
LAYER
  5
2
330
0
100
AcDbSymbolTable
 70
     1
  0
LAYER
  5
10
330
2
100
AcDbSymbolTableRecord
100
AcDbLayerTableRecord
  2
0
 70
     0
 62
     7
  6
CONTINUOUS
  0
ENDTAB
  0
TABLE
  2
STYLE
  5
3
330
0
100
AcDbSymbolTable
 70
     2
  0
STYLE
  5
11
330
3
100
AcDbSymbolTableRecord
100
AcDbTextStyleTableRecord
  2
STANDARD
 70
     0
 40
0.0
 41
1.0
 50
0.0
 71
     0
 42
3.175
  3
txt
  4
bigfont
  0
STYLE
  5
73
330
3
100
AcDbSymbolTableRecord
100
AcDbTextStyleTableRecord
  2
SLDTEXTSTYLE0
 70
     0
 40
0.0
 41
0.7
 50
0.0
 71
     0
 42
3.175
  3
TXT
  4
bigfont
  0
ENDTAB
  0
TABLE
  2
VIEW
  5
6
330
0
100
AcDbSymbolTable
 70
     0
  0
ENDTAB
  0
TABLE
  2
UCS
  5
7
330
0
100
AcDbSymbolTable
 70
     0
  0
ENDTAB
  0
TABLE
  2
APPID
  5
9
330
0
100
AcDbSymbolTable
 70
     1
  0
APPID
  5
12
330
9
100
AcDbSymbolTableRecord
100
AcDbRegAppTableRecord
  2
ACAD
 70
     0
  0
ENDTAB
  0
TABLE
  2
DIMSTYLE
  5
A
330
0
100
AcDbSymbolTable
 70
     5
  0
DIMSTYLE
105
27
330
A
100
AcDbSymbolTableRecord
100
AcDbDimStyleTableRecord
  2
ISO-25
 70
     0
  3

  4

  5

  6

  7

 40
1.0
 41
2.5
 42
0.625
 43
3.75
 44
1.25
 45
0.0
 46
0.0
 47
0.0
 48
0.0
140
2.5
141
2.5
142
0.0
143
0.0393700787
144
1.0
145
0.0
146
1.0
147
0.625
 71
     0
 72
     0
 73
     0
 74
     0
 75
     0
 76
     0
 77
     1
 78
     8
170
     0
171
     3
172
     1
173
     0
174
     0
175
     0
176
     0
177
     0
178
     0
270
     2
271
     2
272
     2
273
     2
274
     3
340
11
275
     0
280
     0
281
     0
282
     0
283
     0
284
     8
285
     0
286
     0
287
     3
288
     0
  0
DIMSTYLE
105
4C9
102
{ACAD_REACTORS
330
4C8
330
4E9
330
4F4
330
500
102
}
330
A
100
AcDbSymbolTableRecord
100
AcDbDimStyleTableRecord
  2
SLDDIMSTYLE0
 70
     0
  3

  4

  5

  6
OPEN30
  7
OPEN30
 40
1.0
 41
1.8
 42
0.0625
 43
0.38
 44
0.0
 45
0.000000001
 46
0.0
 47
0.0
 48
0.0
140
2.728515625
141
0.09
142
0.0
143
25.4
144
1.0
145
0.0
146
1.0
147
0.6821289062
 71
     0
 72
     0
 73
     0
 74
     0
 75
     0
 76
     0
 77
     3
 78
    12
170
     0
171
     2
172
     0
173
     1
174
     0
175
     0
176
     0
177
     0
178
     0
270
     2
271
     1
272
     2
273
     2
274
     2
340
73
275
     0
280
     0
281
     0
282
     0
283
     1
284
    12
285
     0
286
     0
287
     3
288
     0
  0
DIMSTYLE
105
4DC
102
{ACAD_REACTORS
330
4DB
330
50A
102
}
330
A
100
AcDbSymbolTableRecord
100
AcDbDimStyleTableRecord
  2
SLDDIMSTYLE1
 70
     0
  3

  4

  5

  6
OPEN30
  7
OPEN30
 40
1.0
 41
1.8
 42
0.0625
 43
0.38
 44
0.0
 45
0.000000001
 46
0.0
 47
0.0
 48
0.0
140
2.728515625
141
0.09
142
0.0
143
25.4
144
1.0
145
0.0
146
1.0
147
0.6821289062
 71
     0
 72
     0
 73
     0
 74
     0
 75
     0
 76
     0
 77
     3
 78
    12
170
     0
171
     2
172
     1
173
     1
174
     0
175
     0
176
     0
177
     0
178
     0
270
     2
271
     2
272
     2
273
     2
274
     2
340
73
275
     0
280
     0
281
     0
282
     0
283
     1
284
    12
285
     0
286
     0
288
     0
  0
DIMSTYLE
105
517
102
{ACAD_REACTORS
330
516
102
}
330
A
100
AcDbSymbolTableRecord
100
AcDbDimStyleTableRecord
  2
SLDDIMSTYLE2
 70
     0
  3

  4

  5

  6
OPEN30
  7
OPEN30
 40
1.0
 41
1.8
 42
0.0625
 43
0.38
 44
0.0
 45
0.000000001
 46
0.0
 47
0.0
 48
0.1
140
2.728515625
141
0.09
142
0.0
143
25.4
144
1.0
145
0.0
146
1.0
147
0.6821289062
 71
     1
 72
     0
 73
     0
 74
     0
 75
     0
 76
     0
 77
     3
 78
    12
170
     0
171
     2
172
     0
173
     1
174
     0
175
     0
176
     0
177
     0
178
     0
270
     2
271
     1
272
     1
273
     2
274
     2
340
73
275
     0
280
     0
281
     0
282
     0
283
     1
284
     8
285
     0
286
     0
287
     3
288
     0
  0
DIMSTYLE
105
525
330
A
100
AcDbSymbolTableRecord
100
AcDbDimStyleTableRecord
  2
SLDDIMSTYLE3
 70
     0
  3

  4

  5

  6
OPEN30
  7
OPEN30
 40
1.0
 41
1.8
 42
0.0625
 43
0.38
 44
0.0
 45
0.000000001
 46
0.0
 47
0.0
 48
0.0
140
0.18
141
0.09
142
0.0
143
25.4
144
1.0
145
0.0
146
1.8
147
0.0
 71
     0
 72
     0
 73
     1
 74
     1
 75
     0
 76
     0
 77
     0
 78
     0
170
     0
171
     2
172
     0
173
     1
174
     0
175
     0
176
     0
177
     0
178
     0
270
     2
271
     0
272
     0
273
     2
274
     2
340
11
275
     0
280
     0
281
     0
282
     0
283
     1
284
     0
285
     0
286
     0
287
     3
288
     0
  0
ENDTAB
  0
TABLE
  2
BLOCK_RECORD
  5
1
330
0
100
AcDbSymbolTable
 70
     9
  0
BLOCK_RECORD
  5
1F
330
1
100
AcDbSymbolTableRecord
100
AcDbBlockTableRecord
  2
*MODEL_SPACE
  0
BLOCK_RECORD
  5
1B
330
1
100
AcDbSymbolTableRecord
100
AcDbBlockTableRecord
  2
*PAPER_SPACE
  0
BLOCK_RECORD
  5
23
330
1
100
AcDbSymbolTableRecord
100
AcDbBlockTableRecord
  2
*PAPER_SPACE0
  0
BLOCK_RECORD
  5
4CA
330
1
100
AcDbSymbolTableRecord
100
AcDbBlockTableRecord
  2
_OPEN30
  0
BLOCK_RECORD
  5
4D0
330
1
100
AcDbSymbolTableRecord
100
AcDbBlockTableRecord
  2
_D
  0
BLOCK_RECORD
  5
4DD
330
1
100
AcDbSymbolTableRecord
100
AcDbBlockTableRecord
  2
_D_1
  0
BLOCK_RECORD
  5
4EA
330
1
100
AcDbSymbolTableRecord
100
AcDbBlockTableRecord
  2
_D_2
  0
BLOCK_RECORD
  5
4F5
330
1
100
AcDbSymbolTableRecord
100
AcDbBlockTableRecord
  2
_D_3
  0
BLOCK_RECORD
  5
501
330
1
100
AcDbSymbolTableRecord
100
AcDbBlockTableRecord
  2
_D_4
  0
BLOCK_RECORD
  5
50B
330
1
100
AcDbSymbolTableRecord
100
AcDbBlockTableRecord
  2
_D_5
  0
BLOCK_RECORD
  5
518
330
1
100
AcDbSymbolTableRecord
100
AcDbBlockTableRecord
  2
_D_6
  0
ENDTAB
  0
ENDSEC
  0
SECTION
  2
BLOCKS
  0
BLOCK
  5
20
330
1F
100
AcDbEntity
  8
0
100
AcDbBlockBegin
  2
*MODEL_SPACE
 70
     0
 10
0.0
 20
0.0
 30
0.0
  3
*MODEL_SPACE
  1

  0
ENDBLK
  5
21
330
1F
100
AcDbEntity
  8
0
100
AcDbBlockEnd
  0
BLOCK
  5
1C
330
1B
100
AcDbEntity
 67
     1
  8
0
100
AcDbBlockBegin
  2
*PAPER_SPACE
 70
     0
 10
0.0
 20
0.0
 30
0.0
  3
*PAPER_SPACE
  1

  0
ENDBLK
  5
1D
330
1B
100
AcDbEntity
 67
     1
  8
0
100
AcDbBlockEnd
  0
BLOCK
  5
24
330
23
100
AcDbEntity
  8
0
100
AcDbBlockBegin
  2
*PAPER_SPACE0
 70
     0
 10
0.0
 20
0.0
 30
0.0
  3
*PAPER_SPACE0
  1

  0
ENDBLK
  5
25
330
23
100
AcDbEntity
  8
0
100
AcDbBlockEnd
  0
BLOCK
  5
4CB
330
4CA
100
AcDbEntity
  8
0
100
AcDbBlockBegin
  2
_OPEN30
 70
     0
 10
0.0
 20
0.0
 30
0.0
  3
_OPEN30
  1

  0
LINE
  5
4CD
330
4CA
100
AcDbEntity
  8
0
  6
BYBLOCK
 62
     0
100
AcDbLine
 10
-1.0
 20
0.267949
 30
0.0
 11
0.0
 21
0.0
 31
0.0
  0
LINE
  5
4CE
330
4CA
100
AcDbEntity
  8
0
  6
BYBLOCK
 62
     0
100
AcDbLine
 10
0.0
 20
0.0
 30
0.0
 11
-1.0
 21
-0.267949
 31
0.0
  0
LINE
  5
4CF
330
4CA
100
AcDbEntity
  8
0
  6
BYBLOCK
 62
     0
100
AcDbLine
 10
0.0
 20
0.0
 30
0.0
 11
-1.0
 21
0.0
 31
0.0
  0
ENDBLK
  5
4CC
330
4CA
100
AcDbEntity
  8
0
100
AcDbBlockEnd
  0
BLOCK
  5
4D1
330
4D0
100
AcDbEntity
  8
0
100
AcDbBlockBegin
  2
_D
 70
     0
 10
0.0
 20
0.0
 30
0.0
  3
_D
  1

  0
INSERT
  5
4D3
330
4D0
100
AcDbEntity
  8
0
  6
CONTINUOUS
 62
     7
100
AcDbBlockReference
  2
_OPEN30
 10
26.9397464168
 20
156.6949384197
 30
0.0
 41
1.8
 42
1.8
 50
180.0
  0
INSERT
  5
4D4
330
4D0
100
AcDbEntity
  8
0
  6
CONTINUOUS
 62
     7
100
AcDbBlockReference
  2
_OPEN30
 10
86.9397464168
 20
156.6949384197
 30
0.0
 41
1.8
 42
1.8
 50
0.0
  0
LINE
  5
4D5
330
4D0
100
AcDbEntity
  8
0
  6
CONTINUOUS
 62
     7
100
AcDbLine
 10
26.9397464168
 20
124.9724868576
 30
0.0
 11
26.9397464168
 21
157.6949384197
 31
0.0
  0
LINE
  5
4D6
330
4D0
100
AcDbEntity
  8
0
  6
CONTINUOUS
 62
     7
100
AcDbLine
 10
86.9397464168
 20
124.9724868576
 30
0.0
 11
86.9397464168
 21
157.6949384197
 31
0.0
  0
LINE
  5
4D7
330
4D0
100
AcDbEntity
  8
0
  6
CONTINUOUS
 62
     7
100
AcDbLine
 10
26.9397464168
 20
156.6949384197
 30
0.0
 11
86.9397464168
 21
156.6949384197
 31
0.0
  0
MTEXT
  5
4D8
330
4D0
100
AcDbEntity
  8
0
  6
CONTINUOUS
 62
     7
100
AcDbMText
 10
49.4158943936
 20
159.7645310041
 30
0.0
 40
2.38125
 41
0.0
 71
     1
 72
     1
  1
W.D.=
  7
SLDTEXTSTYLE0
  0
MTEXT
  5
4D9
330
4D0
100
AcDbEntity
  8
0
  6
CONTINUOUS
 62
     7
100
AcDbMText
 10
57.3524377462
 20
159.7645310041
 30
0.0
 40
2.38125
 41
0.0
 71
     1
 72
     1
  1
94.6
  7
SLDTEXTSTYLE0
  0
MTEXT
  5
4DA
330
4D0
100
AcDbEntity
  8
0
  6
CONTINUOUS
 62
     7
100
AcDbMText
 10
63.7016724283
 20
159.7645310041
 30
0.0
 40
2.38125
 41
0.0
 71
     1
 72
     1
  1
±1
  7
SLDTEXTSTYLE0
  0
ENDBLK
  5
4D2
330
4D0
100
AcDbEntity
  8
0
100
AcDbBlockEnd
  0
BLOCK
  5
4DE
330
4DD
100
AcDbEntity
  8
0
100
AcDbBlockBegin
  2
_D_1
 70
     0
 10
0.0
 20
0.0
 30
0.0
  3
_D_1
  1

  0
INSERT
  5
4E0
330
4DD
100
AcDbEntity
  8
0
  6
CONTINUOUS
 62
     7
100
AcDbBlockReference
  2
_OPEN30
 10
267.1657464168
 20
156.6949384197
 30
0.0
 41
1.8
 42
1.8
 50
180.0
  0
INSERT
  5
4E1
330
4DD
100
AcDbEntity
  8
0
  6
CONTINUOUS
 62
     7
100
AcDbBlockReference
  2
_OPEN30
 10
249.6397464168
 20
156.6949384197
 30
0.0
 41
1.8
 42
1.8
 50
0.0
  0
LINE
  5
4E2
330
4DD
100
AcDbEntity
  8
0
  6
CONTINUOUS
 62
     7
100
AcDbLine
 10
267.1657464168
 20
124.9724868576
 30
0.0
 11
267.1657464168
 21
157.6949384197
 31
0.0
  0
LINE
  5
4E3
330
4DD
100
AcDbEntity
  8
0
  6
CONTINUOUS
 62
     7
100
AcDbLine
 10
249.6397464168
 20
124.9724868576
 30
0.0
 11
249.6397464168
 21
157.6949384197
 31
0.0
  0
LINE
  5
4E4
330
4DD
100
AcDbEntity
  8
0
  6
CONTINUOUS
 62
     7
100
AcDbLine
 10
267.1657464168
 20
156.6949384197
 30
0.0
 11
269.9657464168
 21
156.6949384197
 31
0.0
  0
LINE
  5
4E5
330
4DD
100
AcDbEntity
  8
0
  6
CONTINUOUS
 62
     7
100
AcDbLine
 10
267.1657464168
 20
156.6949384197
 30
0.0
 11
249.6397464168
 21
156.6949384197
 31
0.0
  0
LINE
  5
4E6
330
4DD
100
AcDbEntity
  8
0
  6
CONTINUOUS
 62
     7
100
AcDbLine
 10
249.6397464168
 20
156.6949384197
 30
0.0
 11
246.8397464168
 21
156.6949384197
 31
0.0
  0
MTEXT
  5
4E7
330
4DD
100
AcDbEntity
  8
0
  6
CONTINUOUS
 62
     7
100
AcDbMText
 10
252.1260558708
 20
159.7645310041
 30
0.0
 40
2.38125
 41
0.0
 71
     1
 72
     1
  1
FB=
  7
SLDTEXTSTYLE0
  0
MTEXT
  5
4E8
330
4DD
100
AcDbEntity
  8
0
  6
CONTINUOUS
 62
     7
100
AcDbMText
 10
256.8879818823
 20
159.7645310041
 30
0.0
 40
2.38125
 41
0.0
 71
     1
 72
     1
  1
17.53
  7
SLDTEXTSTYLE0
  0
ENDBLK
  5
4DF
330
4DD
100
AcDbEntity
  8
0
100
AcDbBlockEnd
  0
BLOCK
  5
4EB
330
4EA
100
AcDbEntity
  8
0
100
AcDbBlockBegin
  2
_D_2
 70
     0
 10
0.0
 20
0.0
 30
0.0
  3
_D_2
  1

  0
INSERT
  5
4ED
330
4EA
100
AcDbEntity
  8
0
  6
CONTINUOUS
 62
     7
100
AcDbBlockReference
  2
_OPEN30
 10
76.9397464168
 20
139.3724868576
 30
0.0
 41
1.8
 42
1.8
 50
90.0
  0
INSERT
  5
4EE
330
4EA
100
AcDbEntity
  8
0
  6
CONTINUOUS
 62
     7
100
AcDbBlockReference
  2
_OPEN30
 10
76.9397464168
 20
108.5724868576
 30
0.0
 41
1.8
 42
1.8
 50
270.0
  0
LINE
  5
4EF
330
4EA
100
AcDbEntity
  8
0
  6
CONTINUOUS
 62
     7
100
AcDbLine
 10
87.9397464168
 20
139.3724868576
 30
0.0
 11
75.9397464168
 21
139.3724868576
 31
0.0
  0
LINE
  5
4F0
330
4EA
100
AcDbEntity
  8
0
  6
CONTINUOUS
 62
     7
100
AcDbLine
 10
87.9397464168
 20
108.5724868576
 30
0.0
 11
75.9397464168
 21
108.5724868576
 31
0.0
  0
LINE
  5
4F1
330
4EA
100
AcDbEntity
  8
0
  6
CONTINUOUS
 62
     7
100
AcDbLine
 10
76.9397464168
 20
139.3724868576
 30
0.0
 11
76.9397464168
 21
108.5724868576
 31
0.0
  0
MTEXT
  5
4F2
330
4EA
100
AcDbEntity
  8
0
  6
CONTINUOUS
 62
     7
100
AcDbMText
 10
73.8701538323
 20
119.8007775695
 30
0.0
 40
2.38125
 41
0.0
 71
     1
 72
     1
  1
%%c
  7
SLDTEXTSTYLE0
 11
-7.044195017643634E-15
 21
1.0
 31
0.0
  0
MTEXT
  5
4F3
330
4EA
100
AcDbEntity
  8
0
  6
CONTINUOUS
 62
     7
100
AcDbMText
 10
73.8701538323
 20
122.8169116735
 30
0.0
 40
2.38125
 41
0.0
 71
     1
 72
     1
  1
30.8
  7
SLDTEXTSTYLE0
 11
-7.044195017643634E-15
 21
1.0
 31
0.0
  0
ENDBLK
  5
4EC
330
4EA
100
AcDbEntity
  8
0
100
AcDbBlockEnd
  0
BLOCK
  5
4F6
330
4F5
100
AcDbEntity
  8
0
100
AcDbBlockBegin
  2
_D_3
 70
     0
 10
0.0
 20
0.0
 30
0.0
  3
_D_3
  1

  0
ARC
  5
4F8
330
4F5
100
AcDbEntity
  8
0
  6
CONTINUOUS
 62
     7
100
AcDbCircle
 10
167.9085920815
 20
158.2822470902
 30
0.0
 40
3.54933008855805
100
AcDbArc
 50
153.4349488229
 51
206.5650511771
  0
ARC
  5
4F9
330
4F5
100
AcDbEntity
  8
0
  6
CONTINUOUS
 62
     7
100
AcDbCircle
 10
172.670900752
 20
158.2822470902
 30
0.0
 40
3.549330088558075
100
AcDbArc
 50
333.4349488229
 51
26.5650511771
  0
INSERT
  5
4FA
330
4F5
100
AcDbEntity
  8
0
  6
CONTINUOUS
 62
     7
100
AcDbBlockReference
  2
_OPEN30
 10
86.9397464168
 20
156.6949384197
 30
0.0
 41
1.8
 42
1.8
 50
180.0
  0
INSERT
  5
4FB
330
4F5
100
AcDbEntity
  8
0
  6
CONTINUOUS
 62
     7
100
AcDbBlockReference
  2
_OPEN30
 10
249.6397464168
 20
156.6949384197
 30
0.0
 41
1.8
 42
1.8
 50
0.0
  0
LINE
  5
4FC
330
4F5
100
AcDbEntity
  8
0
  6
CONTINUOUS
 62
     7
100
AcDbLine
 10
86.9397464168
 20
138.3724868576
 30
0.0
 11
86.9397464168
 21
157.6949384197
 31
0.0
  0
LINE
  5
4FD
330
4F5
100
AcDbEntity
  8
0
  6
CONTINUOUS
 62
     7
100
AcDbLine
 10
249.6397464168
 20
138.9724868576
 30
0.0
 11
249.6397464168
 21
157.6949384197
 31
0.0
  0
LINE
  5
4FE
330
4F5
100
AcDbEntity
  8
0
  6
CONTINUOUS
 62
     7
100
AcDbLine
 10
86.9397464168
 20
156.6949384197
 30
0.0
 11
249.6397464168
 21
156.6949384197
 31
0.0
  0
MTEXT
  5
4FF
330
4F5
100
AcDbEntity
  8
0
  6
CONTINUOUS
 62
     7
100
AcDbMText
 10
166.3214747405
 20
159.7645310041
 30
0.0
 40
2.38125
 41
0.0
 71
     1
 72
     1
  1
162.7
  7
SLDTEXTSTYLE0
  0
ENDBLK
  5
4F7
330
4F5
100
AcDbEntity
  8
0
100
AcDbBlockEnd
  0
BLOCK
  5
502
330
501
100
AcDbEntity
  8
0
100
AcDbBlockBegin
  2
_D_4
 70
     0
 10
0.0
 20
0.0
 30
0.0
  3
_D_4
  1

  0
INSERT
  5
504
330
501
100
AcDbEntity
  8
0
  6
CONTINUOUS
 62
     7
100
AcDbBlockReference
  2
_OPEN30
 10
169.9397464168
 20
149.2805953693
 30
0.0
 41
1.8
 42
1.8
 50
180.0
  0
INSERT
  5
505
330
501
100
AcDbEntity
  8
0
  6
CONTINUOUS
 62
     7
100
AcDbBlockReference
  2
_OPEN30
 10
249.6397464168
 20
149.2805953693
 30
0.0
 41
1.8
 42
1.8
 50
0.0
  0
LINE
  5
506
330
501
100
AcDbEntity
  8
0
  6
CONTINUOUS
 62
     7
100
AcDbLine
 10
169.9397464168
 20
141.2724868576
 30
0.0
 11
169.9397464168
 21
150.2805953693
 31
0.0
  0
LINE
  5
507
330
501
100
AcDbEntity
  8
0
  6
CONTINUOUS
 62
     7
100
AcDbLine
 10
249.6397464168
 20
138.9724868576
 30
0.0
 11
249.6397464168
 21
150.2805953693
 31
0.0
  0
LINE
  5
508
330
501
100
AcDbEntity
  8
0
  6
CONTINUOUS
 62
     7
100
AcDbLine
 10
169.9397464168
 20
149.2805953693
 30
0.0
 11
249.6397464168
 21
149.2805953693
 31
0.0
  0
MTEXT
  5
509
330
501
100
AcDbEntity
  8
0
  6
CONTINUOUS
 62
     7
100
AcDbMText
 10
211.5138060327
 20
152.3501879538
 30
0.0
 40
2.38125
 41
0.0
 71
     1
 72
     1
  1
79.7
  7
SLDTEXTSTYLE0
  0
ENDBLK
  5
503
330
501
100
AcDbEntity
  8
0
100
AcDbBlockEnd
  0
BLOCK
  5
50C
330
50B
100
AcDbEntity
  8
0
100
AcDbBlockBegin
  2
_D_5
 70
     0
 10
0.0
 20
0.0
 30
0.0
  3
_D_5
  1

  0
INSERT
  5
50E
330
50B
100
AcDbEntity
  8
0
  6
CONTINUOUS
 62
     7
100
AcDbBlockReference
  2
_OPEN30
 10
249.6397464168
 20
149.2805953693
 30
0.0
 41
1.8
 42
1.8
 50
0.0
  0
INSERT
  5
50F
330
50B
100
AcDbEntity
  8
0
  6
CONTINUOUS
 62
     7
100
AcDbBlockReference
  2
_OPEN30
 10
253.6397464168
 20
149.2805953693
 30
0.0
 41
1.8
 42
1.8
 50
180.0
  0
LINE
  5
510
330
50B
100
AcDbEntity
  8
0
  6
CONTINUOUS
 62
     7
100
AcDbLine
 10
249.6397464168
 20
138.9724868576
 30
0.0
 11
249.6397464168
 21
150.2805953693
 31
0.0
  0
LINE
  5
511
330
50B
100
AcDbEntity
  8
0
  6
CONTINUOUS
 62
     7
100
AcDbLine
 10
253.6397464168
 20
136.8724868576
 30
0.0
 11
253.6397464168
 21
150.2805953693
 31
0.0
  0
LINE
  5
512
330
50B
100
AcDbEntity
  8
0
  6
CONTINUOUS
 62
     7
100
AcDbLine
 10
249.6397464168
 20
149.2805953693
 30
0.0
 11
246.8397464168
 21
149.2805953693
 31
0.0
  0
LINE
  5
513
330
50B
100
AcDbEntity
  8
0
  6
CONTINUOUS
 62
     7
100
AcDbLine
 10
249.6397464168
 20
149.2805953693
 30
0.0
 11
253.6397464168
 21
149.2805953693
 31
0.0
  0
LINE
  5
514
330
50B
100
AcDbEntity
  8
0
  6
CONTINUOUS
 62
     7
100
AcDbLine
 10
253.6397464168
 20
149.2805953693
 30
0.0
 11
256.4397464168
 21
149.2805953693
 31
0.0
  0
MTEXT
  5
515
330
50B
100
AcDbEntity
  8
0
  6
CONTINUOUS
 62
     7
100
AcDbMText
 10
250.7194299814
 20
152.3501879538
 30
0.0
 40
2.38125
 41
0.0
 71
     1
 72
     1
  1
4
  7
SLDTEXTSTYLE0
  0
ENDBLK
  5
50D
330
50B
100
AcDbEntity
  8
0
100
AcDbBlockEnd
  0
BLOCK
  5
519
330
518
100
AcDbEntity
  8
0
100
AcDbBlockBegin
  2
_D_6
 70
     0
 10
0.0
 20
0.0
 30
0.0
  3
_D_6
  1

  0
INSERT
  5
51B
330
518
100
AcDbEntity
  8
0
  6
CONTINUOUS
 62
     7
100
AcDbBlockReference
  2
_OPEN30
 10
217.6542631183
 20
137.8224868576
 30
0.0
 41
1.8
 42
1.8
 50
90.0
  0
INSERT
  5
51C
330
518
100
AcDbEntity
  8
0
  6
CONTINUOUS
 62
     7
100
AcDbBlockReference
  2
_OPEN30
 10
217.6542631183
 20
110.1224868576
 30
0.0
 41
1.8
 42
1.8
 50
270.0
  0
LINE
  5
51D
330
518
100
AcDbEntity
  8
0
  6
CONTINUOUS
 62
     7
100
AcDbLine
 10
217.6542631183
 20
137.8224868576
 30
0.0
 11
217.6542631183
 21
110.1224868576
 31
0.0
  0
LINE
  5
51E
330
518
100
AcDbEntity
  8
0
  6
CONTINUOUS
 62
     7
100
AcDbLine
 10
217.6542631183
 20
110.1224868576
 30
0.0
 11
217.6542631183
 21
91.2872646825
 31
0.0
  0
MTEXT
  5
51F
330
518
100
AcDbEntity
  8
0
  6
CONTINUOUS
 62
     7
100
AcDbMText
 10
214.5846705339
 20
92.8747646825
 30
0.0
 40
2.38125
 41
0.0
 71
     1
 72
     1
  1
%%c
  7
SLDTEXTSTYLE0
 11
-7.044195017643634E-15
 21
1.0
 31
0.0
  0
MTEXT
  5
520
330
518
100
AcDbEntity
  8
0
  6
CONTINUOUS
 62
     7
100
AcDbMText
 10
214.5846705339
 20
95.8908987866
 30
0.0
 40
2.38125
 41
0.0
 71
     1
 72
     1
  1
27.7
  7
SLDTEXTSTYLE0
 11
-7.044195017643634E-15
 21
1.0
 31
0.0
  0
MTEXT
  5
521
330
518
100
AcDbEntity
  8
0
  6
CONTINUOUS
 62
     7
100
AcDbMText
 10
215.4592901049
 20
103.2975138155
 30
0.0
 40
1.5875
 41
0.0
 71
     1
 72
     1
  1
-
  7
SLDTEXTSTYLE0
 11
-7.044195017643634E-15
 21
1.0
 31
0.0
  0
MTEXT
  5
522
330
518
100
AcDbEntity
  8
0
  6
CONTINUOUS
 62
     7
100
AcDbMText
 10
215.4592901049
 20
104.3548941623
 30
0.0
 40
1.5875
 41
0.0
 71
     1
 72
     1
  1
0.1
  7
SLDTEXTSTYLE0
 11
-7.044195017643634E-15
 21
1.0
 31
0.0
  0
MTEXT
  5
523
330
518
100
AcDbEntity
  8
0
  6
CONTINUOUS
 62
     7
100
AcDbMText
 10
213.3445294113
 20
104.3548941623
 30
0.0
 40
1.5875
 41
0.0
 71
     1
 72
     1
  1
0
  7
SLDTEXTSTYLE0
 11
-7.044195017643634E-15
 21
1.0
 31
0.0
  0
ENDBLK
  5
51A
330
518
100
AcDbEntity
  8
0
100
AcDbBlockEnd
  0
ENDSEC
  0
SECTION
  2
ENTITIES
  0
MTEXT
  5
74
330
1F
100
AcDbEntity
  8
0
  6
CONTINUOUS
 62
     7
100
AcDbMText
 10
140.0710982659
 20
73.030629979
 30
0.0
 40
6.35
 41
0.0
 71
     1
 72
     1
  1
KCM-Z4-Ⅱ
  7
SLDTEXTSTYLE0
  0
LINE
  5
75
330
1F
100
AcDbEntity
  8
0
  6
CONTINUOUS
 62
     7
100
AcDbLine
 10
239.5897444856
 20
144.7449383924
 30
0.0
 11
239.1397443187
 21
145.1949385593
 31
0.0
  0
LINE
  5
76
330
1F
100
AcDbEntity
  8
0
  6
CONTINUOUS
 62
     7
100
AcDbLine
 10
234.139749087
 20
145.1949385593
 30
0.0
 11
233.6897489202
 21
144.7449383924
 31
0.0
  0
LINE
  5
77
330
1F
100
AcDbEntity
  8
0
  6
CONTINUOUS
 62
     7
100
AcDbLine
 10
233.6897489202
 20
140.6449379066
 30
0.0
 11
234.139749087
 21
140.1949377398
 31
0.0
  0
LINE
  5
78
330
1F
100
AcDbEntity
  8
0
  6
CONTINUOUS
 62
     7
100
AcDbLine
 10
239.1397443187
 20
140.1949377398
 30
0.0
 11
239.5897444856
 21
140.6449379066
 31
0.0
  0
LINE
  5
79
330
1F
100
AcDbEntity
  8
0
  6
CONTINUOUS
 62
     7
100
AcDbLine
 10
238.1397497427
 20
137.8224866132
 30
0.0
 11
238.1397497427
 21
140.1949377398
 31
0.0
  0
LINE
  5
7A
330
1F
100
AcDbEntity
  8
0
  6
CONTINUOUS
 62
     7
100
AcDbLine
 10
235.139743663
 20
140.1949377398
 30
0.0
 11
235.139743663
 21
137.8204684372
 31
0.0
  0
LINE
  5
7B
330
1F
100
AcDbEntity
  8
0
  6
CONTINUOUS
 62
     7
100
AcDbLine
 10
240.4515084397
 20
138.7842494661
 30
0.0
 11
239.639745332
 21
137.9724872897
 31
0.0
  0
LINE
  5
7C
330
1F
100
AcDbEntity
  8
0
  6
CONTINUOUS
 62
     7
100
AcDbLine
 10
239.639745332
 20
109.9724864254
 30
0.0
 11
240.4515084397
 21
109.160724249
 31
0.0
  0
LINE
  5
7D
330
1F
100
AcDbEntity
  8
0
  6
CONTINUOUS
 62
     7
100
AcDbLine
 10
248.8279875886
 20
109.160724249
 30
0.0
 11
249.6397432458
 21
109.9724864254
 31
0.0
  0
LINE
  5
7E
330
1F
100
AcDbEntity
  8
0
  6
CONTINUOUS
 62
     7
100
AcDbLine
 10
249.6397432458
 20
137.9724872897
 30
0.0
 11
248.8279875886
 21
138.7842494661
 31
0.0
  0
LINE
  5
7F
330
1F
100
AcDbEntity
  8
0
  6
CONTINUOUS
 62
     7
100
AcDbLine
 10
251.4284190309
 20
136.6724867041
 30
0.0
 11
251.1397462856
 21
136.1724866221
 31
0.0
  0
LINE
  5
80
330
1F
100
AcDbEntity
  8
0
  6
CONTINUOUS
 62
     7
100
AcDbLine
 10
251.1397462856
 20
111.772487093
 30
0.0
 11
251.4284190309
 21
111.272487011
 31
0.0
  0
LINE
  5
81
330
1F
100
AcDbEntity
  8
0
  6
CONTINUOUS
 62
     7
100
AcDbLine
 10
252.8397452604
 20
111.272487011
 30
0.0
 11
253.6397439014
 21
112.0724865834
 31
0.0
  0
LINE
  5
82
330
1F
100
AcDbEntity
  8
0
  6
CONTINUOUS
 62
     7
100
AcDbLine
 10
253.6397439014
 20
135.8724871317
 30
0.0
 11
252.8397452604
 21
136.6724867041
 31
0.0
  0
LINE
  5
83
330
1F
100
AcDbEntity
  8
0
  6
CONTINUOUS
 62
     7
100
AcDbLine
 10
251.4284190309
 20
111.272487011
 30
0.0
 11
252.8397452604
 21
111.272487011
 31
0.0
  0
LINE
  5
84
330
1F
100
AcDbEntity
  8
0
  6
CONTINUOUS
 62
     7
100
AcDbLine
 10
252.8397452604
 20
136.6724867041
 30
0.0
 11
251.4284190309
 21
136.6724867041
 31
0.0
  0
LINE
  5
85
330
1F
100
AcDbEntity
  8
0
  6
CONTINUOUS
 62
     7
100
AcDbLine
 10
249.6397432458
 20
111.772487093
 30
0.0
 11
251.1397462856
 21
111.772487093
 31
0.0
  0
LINE
  5
86
330
1F
100
AcDbEntity
  8
0
  6
CONTINUOUS
 62
     7
100
AcDbLine
 10
251.1397462856
 20
136.1724866221
 30
0.0
 11
249.6397432458
 21
136.1724866221
 31
0.0
  0
LINE
  5
87
330
1F
100
AcDbEntity
  8
0
  6
CONTINUOUS
 62
     7
100
AcDbLine
 10
235.1221304905
 20
137.8224866132
 30
0.0
 11
201.189746387
 21
137.8224866132
 31
0.0
  0
LINE
  5
88
330
1F
100
AcDbEntity
  8
0
  6
CONTINUOUS
 62
     7
100
AcDbLine
 10
239.3397477042
 20
137.8224866132
 30
0.0
 11
238.1572660577
 21
137.8224866132
 31
0.0
  0
LINE
  5
89
330
1F
100
AcDbEntity
  8
0
  6
CONTINUOUS
 62
     7
100
AcDbLine
 10
201.189746387
 20
110.1224871019
 30
0.0
 11
239.3397477042
 21
110.1224871019
 31
0.0
  0
LINE
  5
8A
330
1F
100
AcDbEntity
  8
0
  6
CONTINUOUS
 62
     7
100
AcDbLine
 10
201.189746387
 20
137.8224866132
 30
0.0
 11
199.939747579
 21
136.5724868739
 31
0.0
  0
LINE
  5
8B
330
1F
100
AcDbEntity
  8
0
  6
CONTINUOUS
 62
     7
100
AcDbLine
 10
199.939747579
 20
111.3724868412
 30
0.0
 11
201.189746387
 21
110.1224871019
 31
0.0
  0
LINE
  5
8C
330
1F
100
AcDbEntity
  8
0
  6
CONTINUOUS
 62
     7
100
AcDbLine
 10
239.3397477042
 20
110.1224871019
 30
0.0
 11
239.639745332
 21
110.4224865923
 31
0.0
  0
LINE
  5
8D
330
1F
100
AcDbEntity
  8
0
  6
CONTINUOUS
 62
     7
100
AcDbLine
 10
239.639745332
 20
137.5224871228
 30
0.0
 11
239.3397477042
 21
137.8224866132
 31
0.0
  0
LINE
  5
8E
330
1F
100
AcDbEntity
  8
0
  6
CONTINUOUS
 62
     7
100
AcDbLine
 10
198.6897450459
 20
110.1224871019
 30
0.0
 11
199.939747579
 21
111.3724868412
 31
0.0
  0
LINE
  5
8F
330
1F
100
AcDbEntity
  8
0
  6
CONTINUOUS
 62
     7
100
AcDbLine
 10
199.939747579
 20
136.5724868739
 30
0.0
 11
198.6897450459
 21
137.8224866132
 31
0.0
  0
LINE
  5
90
330
1F
100
AcDbEntity
  8
0
  6
CONTINUOUS
 62
     7
100
AcDbLine
 10
198.6897450459
 20
137.8224866132
 30
0.0
 11
195.1897472661
 21
137.8224866132
 31
0.0
  0
LINE
  5
91
330
1F
100
AcDbEntity
  8
0
  6
CONTINUOUS
 62
     7
100
AcDbLine
 10
195.1897472661
 20
110.1224871019
 30
0.0
 11
198.6897450459
 21
110.1224871019
 31
0.0
  0
LINE
  5
92
330
1F
100
AcDbEntity
  8
0
  6
CONTINUOUS
 62
     7
100
AcDbLine
 10
194.6897462528
 20
137.8224866132
 30
0.0
 11
178.1397464272
 21
137.8224866132
 31
0.0
  0
LINE
  5
93
330
1F
100
AcDbEntity
  8
0
  6
CONTINUOUS
 62
     7
100
AcDbLine
 10
178.1397464272
 20
110.1224871019
 30
0.0
 11
194.6897462528
 21
110.1224871019
 31
0.0
  0
LINE
  5
94
330
1F
100
AcDbEntity
  8
0
  6
CONTINUOUS
 62
     7
100
AcDbLine
 10
194.6897462528
 20
110.1224871019
 30
0.0
 11
194.9397467595
 21
110.3724866773
 31
0.0
  0
LINE
  5
95
330
1F
100
AcDbEntity
  8
0
  6
CONTINUOUS
 62
     7
100
AcDbLine
 10
194.9397467595
 20
137.5724870379
 30
0.0
 11
194.6897462528
 21
137.8224866132
 31
0.0
  0
LINE
  5
96
330
1F
100
AcDbEntity
  8
0
  6
CONTINUOUS
 62
     7
100
AcDbLine
 10
195.1897472661
 20
137.8224866132
 30
0.0
 11
194.9397467595
 21
137.5724870379
 31
0.0
  0
LINE
  5
97
330
1F
100
AcDbEntity
  8
0
  6
CONTINUOUS
 62
     7
100
AcDbLine
 10
194.9397467595
 20
110.3724866773
 30
0.0
 11
195.1897472661
 21
110.1224871019
 31
0.0
  0
LINE
  5
98
330
1F
100
AcDbEntity
  8
0
  6
CONTINUOUS
 62
     7
100
AcDbLine
 10
178.1397464272
 20
137.8224866132
 30
0.0
 11
177.9397467669
 21
137.6224869529
 31
0.0
  0
LINE
  5
99
330
1F
100
AcDbEntity
  8
0
  6
CONTINUOUS
 62
     7
100
AcDbLine
 10
177.9397467669
 20
110.3224867622
 30
0.0
 11
178.1397464272
 21
110.1224871019
 31
0.0
  0
LINE
  5
9A
330
1F
100
AcDbEntity
  8
0
  6
CONTINUOUS
 62
     7
100
AcDbLine
 10
170.1397465129
 20
139.2224870289
 30
0.0
 11
169.939746387
 21
139.0224864373
 31
0.0
  0
LINE
  5
9B
330
1F
100
AcDbEntity
  8
0
  6
CONTINUOUS
 62
     7
100
AcDbLine
 10
169.939746387
 20
108.9224872778
 30
0.0
 11
170.1397465129
 21
108.7224866862
 31
0.0
  0
LINE
  5
9C
330
1F
100
AcDbEntity
  8
0
  6
CONTINUOUS
 62
     7
100
AcDbLine
 10
170.1397465129
 20
108.7224866862
 30
0.0
 11
176.939746603
 21
108.7224866862
 31
0.0
  0
LINE
  5
9D
330
1F
100
AcDbEntity
  8
0
  6
CONTINUOUS
 62
     7
100
AcDbLine
 10
176.939746603
 20
139.2224870289
 30
0.0
 11
170.1397465129
 21
139.2224870289
 31
0.0
  0
LINE
  5
9E
330
1F
100
AcDbEntity
  8
0
  6
CONTINUOUS
 62
     7
100
AcDbLine
 10
176.939746603
 20
108.7224866862
 30
0.0
 11
177.9397467669
 21
109.7224868501
 31
0.0
  0
LINE
  5
9F
330
1F
100
AcDbEntity
  8
0
  6
CONTINUOUS
 62
     7
100
AcDbLine
 10
177.9397467669
 20
138.222486865
 30
0.0
 11
176.939746603
 21
139.2224870289
 31
0.0
  0
LINE
  5
A0
330
1F
100
AcDbEntity
  8
0
  6
CONTINUOUS
 62
     7
100
AcDbLine
 10
169.439746305
 20
107.1724874566
 30
0.0
 11
169.939746387
 21
107.6724866072
 31
0.0
  0
LINE
  5
A1
330
1F
100
AcDbEntity
  8
0
  6
CONTINUOUS
 62
     7
100
AcDbLine
 10
169.939746387
 20
140.2724871079
 30
0.0
 11
169.439746305
 21
140.7724862585
 31
0.0
  0
LINE
  5
A2
330
1F
100
AcDbEntity
  8
0
  6
CONTINUOUS
 62
     7
100
AcDbLine
 10
164.9397464405
 20
140.7724862585
 30
0.0
 11
164.4397464168
 21
140.2724871079
 31
0.0
  0
LINE
  5
A3
330
1F
100
AcDbEntity
  8
0
  6
CONTINUOUS
 62
     7
100
AcDbLine
 10
164.4397464168
 20
107.6724866072
 30
0.0
 11
164.9397464405
 21
107.1724874566
 31
0.0
  0
LINE
  5
A4
330
1F
100
AcDbEntity
  8
0
  6
CONTINUOUS
 62
     7
100
AcDbLine
 10
159.6397461888
 20
107.7224874536
 30
0.0
 11
164.2397464218
 21
107.7224874536
 31
0.0
  0
LINE
  5
A5
330
1F
100
AcDbEntity
  8
0
  6
CONTINUOUS
 62
     7
100
AcDbLine
 10
160.4179285985
 20
140.2224862615
 30
0.0
 11
159.6397461888
 21
140.2224862615
 31
0.0
  0
LINE
  5
A6
330
1F
100
AcDbEntity
  8
0
  6
CONTINUOUS
 62
     7
100
AcDbLine
 10
164.2397464218
 20
140.2224862615
 30
0.0
 11
163.4615795972
 21
140.2224862615
 31
0.0
  0
LINE
  5
A7
330
1F
100
AcDbEntity
  8
0
  6
CONTINUOUS
 62
     7
100
AcDbLine
 10
164.2397464218
 20
107.7224874536
 30
0.0
 11
164.4397464168
 21
107.9224871139
 31
0.0
  0
LINE
  5
A8
330
1F
100
AcDbEntity
  8
0
  6
CONTINUOUS
 62
     7
100
AcDbLine
 10
164.4397464168
 20
140.0224866013
 30
0.0
 11
164.2397464218
 21
140.2224862615
 31
0.0
  0
LINE
  5
A9
330
1F
100
AcDbEntity
  8
0
  6
CONTINUOUS
 62
     7
100
AcDbLine
 10
159.6397461888
 20
140.2224862615
 30
0.0
 11
159.4397465285
 21
140.0224866013
 31
0.0
  0
LINE
  5
AA
330
1F
100
AcDbEntity
  8
0
  6
CONTINUOUS
 62
     7
100
AcDbLine
 10
159.4397465285
 20
107.9224871139
 30
0.0
 11
159.6397461888
 21
107.7224874536
 31
0.0
  0
LINE
  5
AB
330
1F
100
AcDbEntity
  8
0
  6
CONTINUOUS
 62
     7
100
AcDbLine
 10
92.7529793751
 20
139.3724867741
 30
0.0
 11
88.9397498738
 21
139.3724867741
 31
0.0
  0
LINE
  5
AC
330
1F
100
AcDbEntity
  8
0
  6
CONTINUOUS
 62
     7
100
AcDbLine
 10
100.5397450697
 20
139.3724867741
 30
0.0
 11
94.7264295589
 21
139.3724867741
 31
0.0
  0
LINE
  5
AD
330
1F
100
AcDbEntity
  8
0
  6
CONTINUOUS
 62
     7
100
AcDbLine
 10
88.9397498738
 20
108.572486941
 30
0.0
 11
100.5397450697
 21
108.572486941
 31
0.0
  0
LINE
  5
AE
330
1F
100
AcDbEntity
  8
0
  6
CONTINUOUS
 62
     7
100
AcDbLine
 10
88.9397498738
 20
139.3724867741
 30
0.0
 11
86.9397458207
 21
137.3724864463
 31
0.0
  0
LINE
  5
AF
330
1F
100
AcDbEntity
  8
0
  6
CONTINUOUS
 62
     7
100
AcDbLine
 10
86.9397458207
 20
110.5724872688
 30
0.0
 11
88.9397498738
 21
108.572486941
 31
0.0
  0
LINE
  5
B0
330
1F
100
AcDbEntity
  8
0
  6
CONTINUOUS
 62
     7
100
AcDbLine
 10
100.5397450697
 20
108.572486941
 30
0.0
 11
100.7397484552
 21
108.7724866013
 31
0.0
  0
LINE
  5
B1
330
1F
100
AcDbEntity
  8
0
  6
CONTINUOUS
 62
     7
100
AcDbLine
 10
100.7397484552
 20
139.1724871139
 30
0.0
 11
100.5397450697
 21
139.3724867741
 31
0.0
  0
LINE
  5
B2
330
1F
100
AcDbEntity
  8
0
  6
CONTINUOUS
 62
     7
100
AcDbLine
 10
151.9897461456
 20
107.2724872867
 30
0.0
 11
152.4397463125
 21
107.7224874536
 31
0.0
  0
LINE
  5
B3
330
1F
100
AcDbEntity
  8
0
  6
CONTINUOUS
 62
     7
100
AcDbLine
 10
152.4397463125
 20
140.2224862615
 30
0.0
 11
151.9897461456
 21
140.6724864284
 31
0.0
  0
LINE
  5
B4
330
1F
100
AcDbEntity
  8
0
  6
CONTINUOUS
 62
     7
100
AcDbLine
 10
140.3897472244
 20
140.6724864284
 30
0.0
 11
139.9397470575
 21
140.2224862615
 31
0.0
  0
LINE
  5
B5
330
1F
100
AcDbEntity
  8
0
  6
CONTINUOUS
 62
     7
100
AcDbLine
 10
139.9397470575
 20
107.7224874536
 30
0.0
 11
140.3897472244
 21
107.2724872867
 31
0.0
  0
LINE
  5
B6
330
1F
100
AcDbEntity
  8
0
  6
CONTINUOUS
 62
     7
100
AcDbLine
 10
158.7397463206
 20
140.2224862615
 30
0.0
 11
152.4397463125
 21
140.2224862615
 31
0.0
  0
LINE
  5
B7
330
1F
100
AcDbEntity
  8
0
  6
CONTINUOUS
 62
     7
100
AcDbLine
 10
152.4397463125
 20
107.7224874536
 30
0.0
 11
158.7397463206
 21
107.7224874536
 31
0.0
  0
LINE
  5
B8
330
1F
100
AcDbEntity
  8
0
  6
CONTINUOUS
 62
     7
100
AcDbLine
 10
158.7397463206
 20
107.7224874536
 30
0.0
 11
158.9397464466
 21
107.9224871139
 31
0.0
  0
LINE
  5
B9
330
1F
100
AcDbEntity
  8
0
  6
CONTINUOUS
 62
     7
100
AcDbLine
 10
158.9397464466
 20
140.0224866013
 30
0.0
 11
158.7397463206
 21
140.2224862615
 31
0.0
  0
LINE
  5
BA
330
1F
100
AcDbEntity
  8
0
  6
CONTINUOUS
 62
     7
100
AcDbLine
 10
139.9397470575
 20
139.4724866042
 30
0.0
 11
101.1397477757
 21
139.4724866042
 31
0.0
  0
LINE
  5
BB
330
1F
100
AcDbEntity
  8
0
  6
CONTINUOUS
 62
     7
100
AcDbLine
 10
101.1397477757
 20
108.4724871109
 30
0.0
 11
139.9397470575
 21
108.4724871109
 31
0.0
  0
LINE
  5
BC
330
1F
100
AcDbEntity
  8
0
  6
CONTINUOUS
 62
     7
100
AcDbLine
 10
101.1397477757
 20
139.4724866042
 30
0.0
 11
100.9397443902
 21
139.272486944
 31
0.0
  0
LINE
  5
BD
330
1F
100
AcDbEntity
  8
0
  6
CONTINUOUS
 62
     7
100
AcDbLine
 10
100.9397443902
 20
108.6724867711
 30
0.0
 11
101.1397477757
 21
108.4724871109
 31
0.0
  0
LINE
  5
BE
330
1F
100
AcDbEntity
  8
0
  6
CONTINUOUS
 62
     7
100
AcDbLine
 10
100.7397484552
 20
110.172487017
 30
0.0
 11
100.9397443902
 21
110.3724866773
 31
0.0
  0
LINE
  5
BF
330
1F
100
AcDbEntity
  8
0
  6
CONTINUOUS
 62
     7
100
AcDbLine
 10
100.9397443902
 20
137.5724870379
 30
0.0
 11
100.7397484552
 21
137.7724866981
 31
0.0
  0
LINE
  5
C0
330
1F
100
AcDbEntity
  8
0
  6
CONTINUOUS
 62
     7
100
AcDbLine
 10
159.2397464026
 20
108.9724871928
 30
0.0
 11
159.4397465285
 21
109.1724868531
 31
0.0
  0
LINE
  5
C1
330
1F
100
AcDbEntity
  8
0
  6
CONTINUOUS
 62
     7
100
AcDbLine
 10
159.4397465285
 20
138.772486862
 30
0.0
 11
159.2397464026
 21
138.9724865223
 31
0.0
  0
LINE
  5
C2
330
1F
100
AcDbEntity
  8
0
  6
CONTINUOUS
 62
     7
100
AcDbLine
 10
159.2397464026
 20
138.9724865223
 30
0.0
 11
158.9397464466
 21
138.9724865223
 31
0.0
  0
LINE
  5
C3
330
1F
100
AcDbEntity
  8
0
  6
CONTINUOUS
 62
     7
100
AcDbLine
 10
158.9397464466
 20
108.9724871928
 30
0.0
 11
159.2397464026
 21
108.9724871928
 31
0.0
  0
LINE
  5
C4
330
1F
100
AcDbEntity
  8
0
  6
CONTINUOUS
 62
     7
100
AcDbLine
 10
236.1274820339
 20
144.7449383924
 30
0.0
 11
236.3782760274
 21
144.694937546
 31
0.0
  0
LINE
  5
C5
330
1F
100
AcDbEntity
  8
0
  6
CONTINUOUS
 62
     7
100
AcDbLine
 10
236.3782760274
 20
144.694937546
 30
0.0
 11
236.3782760274
 21
140.694938753
 31
0.0
  0
LINE
  5
C6
330
1F
100
AcDbEntity
  8
0
  6
CONTINUOUS
 62
     7
100
AcDbLine
 10
236.3782760274
 20
140.694938753
 30
0.0
 11
236.1274820339
 21
140.6449379066
 31
0.0
  0
LINE
  5
C7
330
1F
100
AcDbEntity
  8
0
  6
CONTINUOUS
 62
     7
100
AcDbLine
 10
236.1274820339
 20
144.7449383924
 30
0.0
 11
236.1274820339
 21
140.6449379066
 31
0.0
  0
LINE
  5
C8
330
1F
100
AcDbEntity
  8
0
  6
CONTINUOUS
 62
     7
100
AcDbLine
 10
236.9012099277
 20
144.694937546
 30
0.0
 11
237.1520113718
 21
144.7449383924
 31
0.0
  0
LINE
  5
C9
330
1F
100
AcDbEntity
  8
0
  6
CONTINUOUS
 62
     7
100
AcDbLine
 10
237.1520113718
 20
144.7449383924
 30
0.0
 11
237.1520113718
 21
140.6449379066
 31
0.0
  0
LINE
  5
CA
330
1F
100
AcDbEntity
  8
0
  6
CONTINUOUS
 62
     7
100
AcDbLine
 10
237.1520113718
 20
140.6449379066
 30
0.0
 11
236.9012099277
 21
140.694938753
 31
0.0
  0
LINE
  5
CB
330
1F
100
AcDbEntity
  8
0
  6
CONTINUOUS
 62
     7
100
AcDbLine
 10
236.9012099277
 20
144.694937546
 30
0.0
 11
236.9012099277
 21
140.694938753
 31
0.0
  0
LINE
  5
CC
330
1F
100
AcDbEntity
  8
0
  6
CONTINUOUS
 62
     7
100
AcDbLine
 10
234.139749087
 20
145.1949385593
 30
0.0
 11
239.1397443187
 21
145.1949385593
 31
0.0
  0
LINE
  5
CD
330
1F
100
AcDbEntity
  8
0
  6
CONTINUOUS
 62
     7
100
AcDbLine
 10
235.8632918965
 20
144.694937546
 30
0.0
 11
236.1274820339
 21
144.7449383924
 31
0.0
  0
LINE
  5
CE
330
1F
100
AcDbEntity
  8
0
  6
CONTINUOUS
 62
     7
100
AcDbLine
 10
235.6307890784
 20
144.7449383924
 30
0.0
 11
235.8632918965
 21
144.694937546
 31
0.0
  0
LINE
  5
CF
330
1F
100
AcDbEntity
  8
0
  6
CONTINUOUS
 62
     7
100
AcDbLine
 10
235.3718888533
 20
144.694937546
 30
0.0
 11
235.6307890784
 21
144.7449383924
 31
0.0
  0
LINE
  5
D0
330
1F
100
AcDbEntity
  8
0
  6
CONTINUOUS
 62
     7
100
AcDbLine
 10
235.1647478115
 20
144.7449383924
 30
0.0
 11
235.3718888533
 21
144.694937546
 31
0.0
  0
LINE
  5
D1
330
1F
100
AcDbEntity
  8
0
  6
CONTINUOUS
 62
     7
100
AcDbLine
 10
234.9190202128
 20
144.694937546
 30
0.0
 11
235.1647478115
 21
144.7449383924
 31
0.0
  0
LINE
  5
D2
330
1F
100
AcDbEntity
  8
0
  6
CONTINUOUS
 62
     7
100
AcDbLine
 10
234.7435217869
 20
144.7449383924
 30
0.0
 11
234.9190202128
 21
144.694937546
 31
0.0
  0
LINE
  5
D3
330
1F
100
AcDbEntity
  8
0
  6
CONTINUOUS
 62
     7
100
AcDbLine
 10
234.5184248459
 20
144.694937546
 30
0.0
 11
234.7435217869
 21
144.7449383924
 31
0.0
  0
LINE
  5
D4
330
1F
100
AcDbEntity
  8
0
  6
CONTINUOUS
 62
     7
100
AcDbLine
 10
234.3799185526
 20
144.7449383924
 30
0.0
 11
234.5184248459
 21
144.694937546
 31
0.0
  0
LINE
  5
D5
330
1F
100
AcDbEntity
  8
0
  6
CONTINUOUS
 62
     7
100
AcDbLine
 10
234.1822919023
 20
144.694937546
 30
0.0
 11
234.3799185526
 21
144.7449383924
 31
0.0
  0
LINE
  5
D6
330
1F
100
AcDbEntity
  8
0
  6
CONTINUOUS
 62
     7
100
AcDbLine
 10
234.0849724185
 20
144.7449383924
 30
0.0
 11
234.1822919023
 21
144.694937546
 31
0.0
  0
LINE
  5
D7
330
1F
100
AcDbEntity
  8
0
  6
CONTINUOUS
 62
     7
100
AcDbLine
 10
233.9208212268
 20
144.694937546
 30
0.0
 11
234.0849724185
 21
144.7449383924
 31
0.0
  0
LINE
  5
D8
330
1F
100
AcDbEntity
  8
0
  6
CONTINUOUS
 62
     7
100
AcDbLine
 10
233.8676538836
 20
144.7449383924
 30
0.0
 11
233.9208212268
 21
144.694937546
 31
0.0
  0
LINE
  5
D9
330
1F
100
AcDbEntity
  8
0
  6
CONTINUOUS
 62
     7
100
AcDbLine
 10
233.7419700396
 20
144.694937546
 30
0.0
 11
233.8676538836
 21
144.7449383924
 31
0.0
  0
LINE
  5
DA
330
1F
100
AcDbEntity
  8
0
  6
CONTINUOUS
 62
     7
100
AcDbLine
 10
233.7345641624
 20
144.7449383924
 30
0.0
 11
233.7419700396
 21
144.694937546
 31
0.0
  0
LINE
  5
DB
330
1F
100
AcDbEntity
  8
0
  6
CONTINUOUS
 62
     7
100
AcDbLine
 10
233.6511623632
 20
144.694937546
 30
0.0
 11
233.7345641624
 21
144.7449383924
 31
0.0
  0
LINE
  5
DC
330
1F
100
AcDbEntity
  8
0
  6
CONTINUOUS
 62
     7
100
AcDbLine
 10
233.6897489202
 20
144.7449383924
 30
0.0
 11
233.6511623632
 21
144.694937546
 31
0.0
  0
LINE
  5
DD
330
1F
100
AcDbEntity
  8
0
  6
CONTINUOUS
 62
     7
100
AcDbLine
 10
239.6283310425
 20
144.694937546
 30
0.0
 11
239.5897444856
 21
144.7449383924
 31
0.0
  0
LINE
  5
DE
330
1F
100
AcDbEntity
  8
0
  6
CONTINUOUS
 62
     7
100
AcDbLine
 10
239.5449292433
 20
144.7449383924
 30
0.0
 11
239.6283310425
 21
144.694937546
 31
0.0
  0
LINE
  5
DF
330
1F
100
AcDbEntity
  8
0
  6
CONTINUOUS
 62
     7
100
AcDbLine
 10
239.5375233662
 20
144.694937546
 30
0.0
 11
239.5449292433
 21
144.7449383924
 31
0.0
  0
LINE
  5
E0
330
1F
100
AcDbEntity
  8
0
  6
CONTINUOUS
 62
     7
100
AcDbLine
 10
239.4118395221
 20
144.7449383924
 30
0.0
 11
239.5375233662
 21
144.694937546
 31
0.0
  0
LINE
  5
E1
330
1F
100
AcDbEntity
  8
0
  6
CONTINUOUS
 62
     7
100
AcDbLine
 10
239.3586721789
 20
144.694937546
 30
0.0
 11
239.4118395221
 21
144.7449383924
 31
0.0
  0
LINE
  5
E2
330
1F
100
AcDbEntity
  8
0
  6
CONTINUOUS
 62
     7
100
AcDbLine
 10
239.1945209872
 20
144.7449383924
 30
0.0
 11
239.3586721789
 21
144.694937546
 31
0.0
  0
LINE
  5
E3
330
1F
100
AcDbEntity
  8
0
  6
CONTINUOUS
 62
     7
100
AcDbLine
 10
239.0972015035
 20
144.694937546
 30
0.0
 11
239.1945209872
 21
144.7449383924
 31
0.0
  0
LINE
  5
E4
330
1F
100
AcDbEntity
  8
0
  6
CONTINUOUS
 62
     7
100
AcDbLine
 10
238.8995748531
 20
144.7449383924
 30
0.0
 11
239.0972015035
 21
144.694937546
 31
0.0
  0
LINE
  5
E5
330
1F
100
AcDbEntity
  8
0
  6
CONTINUOUS
 62
     7
100
AcDbLine
 10
238.7610685598
 20
144.694937546
 30
0.0
 11
238.8995748531
 21
144.7449383924
 31
0.0
  0
LINE
  5
E6
330
1F
100
AcDbEntity
  8
0
  6
CONTINUOUS
 62
     7
100
AcDbLine
 10
238.5359716188
 20
144.7449383924
 30
0.0
 11
238.7610685598
 21
144.694937546
 31
0.0
  0
LINE
  5
E7
330
1F
100
AcDbEntity
  8
0
  6
CONTINUOUS
 62
     7
100
AcDbLine
 10
238.3604731929
 20
144.694937546
 30
0.0
 11
238.5359716188
 21
144.7449383924
 31
0.0
  0
LINE
  5
E8
330
1F
100
AcDbEntity
  8
0
  6
CONTINUOUS
 62
     7
100
AcDbLine
 10
238.1147455942
 20
144.7449383924
 30
0.0
 11
238.3604731929
 21
144.694937546
 31
0.0
  0
LINE
  5
E9
330
1F
100
AcDbEntity
  8
0
  6
CONTINUOUS
 62
     7
100
AcDbLine
 10
237.9076045525
 20
144.694937546
 30
0.0
 11
238.1147455942
 21
144.7449383924
 31
0.0
  0
LINE
  5
EA
330
1F
100
AcDbEntity
  8
0
  6
CONTINUOUS
 62
     7
100
AcDbLine
 10
237.6487043273
 20
144.7449383924
 30
0.0
 11
237.9076045525
 21
144.694937546
 31
0.0
  0
LINE
  5
EB
330
1F
100
AcDbEntity
  8
0
  6
CONTINUOUS
 62
     7
100
AcDbLine
 10
237.4162015092
 20
144.694937546
 30
0.0
 11
237.6487043273
 21
144.7449383924
 31
0.0
  0
LINE
  5
EC
330
1F
100
AcDbEntity
  8
0
  6
CONTINUOUS
 62
     7
100
AcDbLine
 10
237.1520113718
 20
144.7449383924
 30
0.0
 11
237.4162015092
 21
144.694937546
 31
0.0
  0
LINE
  5
ED
330
1F
100
AcDbEntity
  8
0
  6
CONTINUOUS
 62
     7
100
AcDbLine
 10
236.6397467029
 20
144.7449383924
 30
0.0
 11
236.9012099277
 21
144.694937546
 31
0.0
  0
LINE
  5
EE
330
1F
100
AcDbEntity
  8
0
  6
CONTINUOUS
 62
     7
100
AcDbLine
 10
236.3782760274
 20
144.694937546
 30
0.0
 11
236.6397467029
 21
144.7449383924
 31
0.0
  0
LINE
  5
EF
330
1F
100
AcDbEntity
  8
0
  6
CONTINUOUS
 62
     7
100
AcDbLine
 10
236.6397467029
 20
144.7449383924
 30
0.0
 11
236.6397467029
 21
140.6449379066
 31
0.0
  0
LINE
  5
F0
330
1F
100
AcDbEntity
  8
0
  6
CONTINUOUS
 62
     7
100
AcDbLine
 10
236.6397467029
 20
140.6449379066
 30
0.0
 11
236.3782760274
 21
140.694938753
 31
0.0
  0
LINE
  5
F1
330
1F
100
AcDbEntity
  8
0
  6
CONTINUOUS
 62
     7
100
AcDbLine
 10
236.9012099277
 20
140.694938753
 30
0.0
 11
236.6397467029
 21
140.6449379066
 31
0.0
  0
LINE
  5
F2
330
1F
100
AcDbEntity
  8
0
  6
CONTINUOUS
 62
     7
100
AcDbLine
 10
236.6397467029
 20
140.1949377398
 30
0.0
 11
234.139749087
 21
140.1949377398
 31
0.0
  0
LINE
  5
F3
330
1F
100
AcDbEntity
  8
0
  6
CONTINUOUS
 62
     7
100
AcDbLine
 10
239.1397443187
 20
140.1949377398
 30
0.0
 11
236.6397467029
 21
140.1949377398
 31
0.0
  0
LINE
  5
F4
330
1F
100
AcDbEntity
  8
0
  6
CONTINUOUS
 62
     7
100
AcDbLine
 10
237.4162015092
 20
140.694938753
 30
0.0
 11
237.1520113718
 21
140.6449379066
 31
0.0
  0
LINE
  5
F5
330
1F
100
AcDbEntity
  8
0
  6
CONTINUOUS
 62
     7
100
AcDbLine
 10
237.6487043273
 20
140.6449379066
 30
0.0
 11
237.4162015092
 21
140.694938753
 31
0.0
  0
LINE
  5
F6
330
1F
100
AcDbEntity
  8
0
  6
CONTINUOUS
 62
     7
100
AcDbLine
 10
237.9076045525
 20
140.694938753
 30
0.0
 11
237.6487043273
 21
140.6449379066
 31
0.0
  0
LINE
  5
F7
330
1F
100
AcDbEntity
  8
0
  6
CONTINUOUS
 62
     7
100
AcDbLine
 10
238.1147455942
 20
140.6449379066
 30
0.0
 11
237.9076045525
 21
140.694938753
 31
0.0
  0
LINE
  5
F8
330
1F
100
AcDbEntity
  8
0
  6
CONTINUOUS
 62
     7
100
AcDbLine
 10
238.3604731929
 20
140.694938753
 30
0.0
 11
238.1147455942
 21
140.6449379066
 31
0.0
  0
LINE
  5
F9
330
1F
100
AcDbEntity
  8
0
  6
CONTINUOUS
 62
     7
100
AcDbLine
 10
238.5359716188
 20
140.6449379066
 30
0.0
 11
238.3604731929
 21
140.694938753
 31
0.0
  0
LINE
  5
FA
330
1F
100
AcDbEntity
  8
0
  6
CONTINUOUS
 62
     7
100
AcDbLine
 10
238.7610685598
 20
140.694938753
 30
0.0
 11
238.5359716188
 21
140.6449379066
 31
0.0
  0
LINE
  5
FB
330
1F
100
AcDbEntity
  8
0
  6
CONTINUOUS
 62
     7
100
AcDbLine
 10
238.8995748531
 20
140.6449379066
 30
0.0
 11
238.7610685598
 21
140.694938753
 31
0.0
  0
LINE
  5
FC
330
1F
100
AcDbEntity
  8
0
  6
CONTINUOUS
 62
     7
100
AcDbLine
 10
239.0972015035
 20
140.694938753
 30
0.0
 11
238.8995748531
 21
140.6449379066
 31
0.0
  0
LINE
  5
FD
330
1F
100
AcDbEntity
  8
0
  6
CONTINUOUS
 62
     7
100
AcDbLine
 10
239.1945209872
 20
140.6449379066
 30
0.0
 11
239.0972015035
 21
140.694938753
 31
0.0
  0
LINE
  5
FE
330
1F
100
AcDbEntity
  8
0
  6
CONTINUOUS
 62
     7
100
AcDbLine
 10
239.3586721789
 20
140.694938753
 30
0.0
 11
239.1945209872
 21
140.6449379066
 31
0.0
  0
LINE
  5
FF
330
1F
100
AcDbEntity
  8
0
  6
CONTINUOUS
 62
     7
100
AcDbLine
 10
239.4118395221
 20
140.6449379066
 30
0.0
 11
239.3586721789
 21
140.694938753
 31
0.0
  0
LINE
  5
100
330
1F
100
AcDbEntity
  8
0
  6
CONTINUOUS
 62
     7
100
AcDbLine
 10
239.5375233662
 20
140.694938753
 30
0.0
 11
239.4118395221
 21
140.6449379066
 31
0.0
  0
LINE
  5
101
330
1F
100
AcDbEntity
  8
0
  6
CONTINUOUS
 62
     7
100
AcDbLine
 10
239.5449292433
 20
140.6449379066
 30
0.0
 11
239.5375233662
 21
140.694938753
 31
0.0
  0
LINE
  5
102
330
1F
100
AcDbEntity
  8
0
  6
CONTINUOUS
 62
     7
100
AcDbLine
 10
239.6283310425
 20
140.694938753
 30
0.0
 11
239.5449292433
 21
140.6449379066
 31
0.0
  0
LINE
  5
103
330
1F
100
AcDbEntity
  8
0
  6
CONTINUOUS
 62
     7
100
AcDbLine
 10
239.5897444856
 20
140.6449379066
 30
0.0
 11
239.6283310425
 21
140.694938753
 31
0.0
  0
LINE
  5
104
330
1F
100
AcDbEntity
  8
0
  6
CONTINUOUS
 62
     7
100
AcDbLine
 10
233.6511623632
 20
140.694938753
 30
0.0
 11
233.6897489202
 21
140.6449379066
 31
0.0
  0
LINE
  5
105
330
1F
100
AcDbEntity
  8
0
  6
CONTINUOUS
 62
     7
100
AcDbLine
 10
233.7345641624
 20
140.6449379066
 30
0.0
 11
233.6511623632
 21
140.694938753
 31
0.0
  0
LINE
  5
106
330
1F
100
AcDbEntity
  8
0
  6
CONTINUOUS
 62
     7
100
AcDbLine
 10
233.7419700396
 20
140.694938753
 30
0.0
 11
233.7345641624
 21
140.6449379066
 31
0.0
  0
LINE
  5
107
330
1F
100
AcDbEntity
  8
0
  6
CONTINUOUS
 62
     7
100
AcDbLine
 10
233.8676538836
 20
140.6449379066
 30
0.0
 11
233.7419700396
 21
140.694938753
 31
0.0
  0
LINE
  5
108
330
1F
100
AcDbEntity
  8
0
  6
CONTINUOUS
 62
     7
100
AcDbLine
 10
233.9208212268
 20
140.694938753
 30
0.0
 11
233.8676538836
 21
140.6449379066
 31
0.0
  0
LINE
  5
109
330
1F
100
AcDbEntity
  8
0
  6
CONTINUOUS
 62
     7
100
AcDbLine
 10
234.0849724185
 20
140.6449379066
 30
0.0
 11
233.9208212268
 21
140.694938753
 31
0.0
  0
LINE
  5
10A
330
1F
100
AcDbEntity
  8
0
  6
CONTINUOUS
 62
     7
100
AcDbLine
 10
234.1822919023
 20
140.694938753
 30
0.0
 11
234.0849724185
 21
140.6449379066
 31
0.0
  0
LINE
  5
10B
330
1F
100
AcDbEntity
  8
0
  6
CONTINUOUS
 62
     7
100
AcDbLine
 10
234.3799185526
 20
140.6449379066
 30
0.0
 11
234.1822919023
 21
140.694938753
 31
0.0
  0
LINE
  5
10C
330
1F
100
AcDbEntity
  8
0
  6
CONTINUOUS
 62
     7
100
AcDbLine
 10
234.5184248459
 20
140.694938753
 30
0.0
 11
234.3799185526
 21
140.6449379066
 31
0.0
  0
LINE
  5
10D
330
1F
100
AcDbEntity
  8
0
  6
CONTINUOUS
 62
     7
100
AcDbLine
 10
234.7435217869
 20
140.6449379066
 30
0.0
 11
234.5184248459
 21
140.694938753
 31
0.0
  0
LINE
  5
10E
330
1F
100
AcDbEntity
  8
0
  6
CONTINUOUS
 62
     7
100
AcDbLine
 10
234.9190202128
 20
140.694938753
 30
0.0
 11
234.7435217869
 21
140.6449379066
 31
0.0
  0
LINE
  5
10F
330
1F
100
AcDbEntity
  8
0
  6
CONTINUOUS
 62
     7
100
AcDbLine
 10
235.1647478115
 20
140.6449379066
 30
0.0
 11
234.9190202128
 21
140.694938753
 31
0.0
  0
LINE
  5
110
330
1F
100
AcDbEntity
  8
0
  6
CONTINUOUS
 62
     7
100
AcDbLine
 10
235.3718888533
 20
140.694938753
 30
0.0
 11
235.1647478115
 21
140.6449379066
 31
0.0
  0
LINE
  5
111
330
1F
100
AcDbEntity
  8
0
  6
CONTINUOUS
 62
     7
100
AcDbLine
 10
235.6307890784
 20
140.6449379066
 30
0.0
 11
235.3718888533
 21
140.694938753
 31
0.0
  0
LINE
  5
112
330
1F
100
AcDbEntity
  8
0
  6
CONTINUOUS
 62
     7
100
AcDbLine
 10
235.8632918965
 20
140.694938753
 30
0.0
 11
235.6307890784
 21
140.6449379066
 31
0.0
  0
LINE
  5
113
330
1F
100
AcDbEntity
  8
0
  6
CONTINUOUS
 62
     7
100
AcDbLine
 10
236.1274820339
 20
140.6449379066
 30
0.0
 11
235.8632918965
 21
140.694938753
 31
0.0
  0
LINE
  5
114
330
1F
100
AcDbEntity
  8
0
  6
CONTINUOUS
 62
     7
100
AcDbLine
 10
235.8632918965
 20
144.694937546
 30
0.0
 11
235.8632918965
 21
140.694938753
 31
0.0
  0
LINE
  5
115
330
1F
100
AcDbEntity
  8
0
  6
CONTINUOUS
 62
     7
100
AcDbLine
 10
237.4162015092
 20
144.694937546
 30
0.0
 11
237.4162015092
 21
140.694938753
 31
0.0
  0
LINE
  5
116
330
1F
100
AcDbEntity
  8
0
  6
CONTINUOUS
 62
     7
100
AcDbLine
 10
235.6307890784
 20
144.7449383924
 30
0.0
 11
235.6307890784
 21
140.6449379066
 31
0.0
  0
LINE
  5
117
330
1F
100
AcDbEntity
  8
0
  6
CONTINUOUS
 62
     7
100
AcDbLine
 10
237.6487043273
 20
144.7449383924
 30
0.0
 11
237.6487043273
 21
140.6449379066
 31
0.0
  0
LINE
  5
118
330
1F
100
AcDbEntity
  8
0
  6
CONTINUOUS
 62
     7
100
AcDbLine
 10
235.3718888533
 20
144.694937546
 30
0.0
 11
235.3718888533
 21
140.694938753
 31
0.0
  0
LINE
  5
119
330
1F
100
AcDbEntity
  8
0
  6
CONTINUOUS
 62
     7
100
AcDbLine
 10
237.9076045525
 20
144.694937546
 30
0.0
 11
237.9076045525
 21
140.694938753
 31
0.0
  0
LINE
  5
11A
330
1F
100
AcDbEntity
  8
0
  6
CONTINUOUS
 62
     7
100
AcDbLine
 10
235.1647478115
 20
144.7449383924
 30
0.0
 11
235.1647478115
 21
140.6449379066
 31
0.0
  0
LINE
  5
11B
330
1F
100
AcDbEntity
  8
0
  6
CONTINUOUS
 62
     7
100
AcDbLine
 10
238.1147455942
 20
144.7449383924
 30
0.0
 11
238.1147455942
 21
140.6449379066
 31
0.0
  0
LINE
  5
11C
330
1F
100
AcDbEntity
  8
0
  6
CONTINUOUS
 62
     7
100
AcDbLine
 10
234.9190202128
 20
144.694937546
 30
0.0
 11
234.9190202128
 21
140.694938753
 31
0.0
  0
LINE
  5
11D
330
1F
100
AcDbEntity
  8
0
  6
CONTINUOUS
 62
     7
100
AcDbLine
 10
238.3604731929
 20
144.694937546
 30
0.0
 11
238.3604731929
 21
140.694938753
 31
0.0
  0
LINE
  5
11E
330
1F
100
AcDbEntity
  8
0
  6
CONTINUOUS
 62
     7
100
AcDbLine
 10
234.7435217869
 20
144.7449383924
 30
0.0
 11
234.7435217869
 21
140.6449379066
 31
0.0
  0
LINE
  5
11F
330
1F
100
AcDbEntity
  8
0
  6
CONTINUOUS
 62
     7
100
AcDbLine
 10
238.5359716188
 20
144.7449383924
 30
0.0
 11
238.5359716188
 21
140.6449379066
 31
0.0
  0
LINE
  5
120
330
1F
100
AcDbEntity
  8
0
  6
CONTINUOUS
 62
     7
100
AcDbLine
 10
238.7610685598
 20
144.694937546
 30
0.0
 11
238.7610685598
 21
140.694938753
 31
0.0
  0
LINE
  5
121
330
1F
100
AcDbEntity
  8
0
  6
CONTINUOUS
 62
     7
100
AcDbLine
 10
234.5184248459
 20
144.694937546
 30
0.0
 11
234.5184248459
 21
140.694938753
 31
0.0
  0
LINE
  5
122
330
1F
100
AcDbEntity
  8
0
  6
CONTINUOUS
 62
     7
100
AcDbLine
 10
234.3799185526
 20
144.7449383924
 30
0.0
 11
234.3799185526
 21
140.6449379066
 31
0.0
  0
LINE
  5
123
330
1F
100
AcDbEntity
  8
0
  6
CONTINUOUS
 62
     7
100
AcDbLine
 10
238.8995748531
 20
144.7449383924
 30
0.0
 11
238.8995748531
 21
140.6449379066
 31
0.0
  0
LINE
  5
124
330
1F
100
AcDbEntity
  8
0
  6
CONTINUOUS
 62
     7
100
AcDbLine
 10
234.1822919023
 20
144.694937546
 30
0.0
 11
234.1822919023
 21
140.694938753
 31
0.0
  0
LINE
  5
125
330
1F
100
AcDbEntity
  8
0
  6
CONTINUOUS
 62
     7
100
AcDbLine
 10
239.0972015035
 20
144.694937546
 30
0.0
 11
239.0972015035
 21
140.694938753
 31
0.0
  0
LINE
  5
126
330
1F
100
AcDbEntity
  8
0
  6
CONTINUOUS
 62
     7
100
AcDbLine
 10
234.0849724185
 20
144.7449383924
 30
0.0
 11
234.0849724185
 21
140.6449379066
 31
0.0
  0
LINE
  5
127
330
1F
100
AcDbEntity
  8
0
  6
CONTINUOUS
 62
     7
100
AcDbLine
 10
239.1945209872
 20
144.7449383924
 30
0.0
 11
239.1945209872
 21
140.6449379066
 31
0.0
  0
LINE
  5
128
330
1F
100
AcDbEntity
  8
0
  6
CONTINUOUS
 62
     7
100
AcDbLine
 10
233.9208212268
 20
144.694937546
 30
0.0
 11
233.9208212268
 21
140.694938753
 31
0.0
  0
LINE
  5
129
330
1F
100
AcDbEntity
  8
0
  6
CONTINUOUS
 62
     7
100
AcDbLine
 10
239.3586721789
 20
144.694937546
 30
0.0
 11
239.3586721789
 21
140.694938753
 31
0.0
  0
LINE
  5
12A
330
1F
100
AcDbEntity
  8
0
  6
CONTINUOUS
 62
     7
100
AcDbLine
 10
233.8676538836
 20
144.7449383924
 30
0.0
 11
233.8676538836
 21
140.6449379066
 31
0.0
  0
LINE
  5
12B
330
1F
100
AcDbEntity
  8
0
  6
CONTINUOUS
 62
     7
100
AcDbLine
 10
239.4118395221
 20
144.7449383924
 30
0.0
 11
239.4118395221
 21
140.6449379066
 31
0.0
  0
LINE
  5
12C
330
1F
100
AcDbEntity
  8
0
  6
CONTINUOUS
 62
     7
100
AcDbLine
 10
233.7419700396
 20
144.694937546
 30
0.0
 11
233.7419700396
 21
140.694938753
 31
0.0
  0
LINE
  5
12D
330
1F
100
AcDbEntity
  8
0
  6
CONTINUOUS
 62
     7
100
AcDbLine
 10
239.5375233662
 20
144.694937546
 30
0.0
 11
239.5375233662
 21
140.694938753
 31
0.0
  0
LINE
  5
12E
330
1F
100
AcDbEntity
  8
0
  6
CONTINUOUS
 62
     7
100
AcDbLine
 10
233.7345641624
 20
144.7449383924
 30
0.0
 11
233.7345641624
 21
140.6449379066
 31
0.0
  0
LINE
  5
12F
330
1F
100
AcDbEntity
  8
0
  6
CONTINUOUS
 62
     7
100
AcDbLine
 10
239.5449292433
 20
144.7449383924
 30
0.0
 11
239.5449292433
 21
140.6449379066
 31
0.0
  0
LINE
  5
130
330
1F
100
AcDbEntity
  8
0
  6
CONTINUOUS
 62
     7
100
AcDbLine
 10
233.6511623632
 20
144.694937546
 30
0.0
 11
233.6511623632
 21
140.694938753
 31
0.0
  0
LINE
  5
131
330
1F
100
AcDbEntity
  8
0
  6
CONTINUOUS
 62
     7
100
AcDbLine
 10
239.6283310425
 20
144.694937546
 30
0.0
 11
239.6283310425
 21
140.694938753
 31
0.0
  0
POLYLINE
  5
132
330
1F
100
AcDbEntity
  8
0
  6
CONTINUOUS
 62
     7
100
AcDb2dPolyline
 66
     1
 10
0.0
 20
0.0
 30
0.0
 70
   128
  0
VERTEX
  5
52F
330
132
100
AcDbEntity
  8
0
  6
CONTINUOUS
 62
     7
100
AcDbVertex
100
AcDb2dVertex
 10
236.6397467029
 20
115.526324291
 30
0.0
  0
VERTEX
  5
530
330
132
100
AcDbEntity
  8
0
  6
CONTINUOUS
 62
     7
100
AcDbVertex
100
AcDb2dVertex
 10
235.965253092
 20
115.4460377658
 30
0.0
  0
VERTEX
  5
531
330
132
100
AcDbEntity
  8
0
  6
CONTINUOUS
 62
     7
100
AcDbVertex
100
AcDb2dVertex
 10
235.3407901299
 20
115.2111330668
 30
0.0
  0
VERTEX
  5
532
330
132
100
AcDbEntity
  8
0
  6
CONTINUOUS
 62
     7
100
AcDbVertex
100
AcDb2dVertex
 10
234.8126557242
 20
114.8390324453
 30
0.0
  0
VERTEX
  5
533
330
132
100
AcDbEntity
  8
0
  6
CONTINUOUS
 62
     7
100
AcDbVertex
100
AcDb2dVertex
 10
234.4200324785
 20
114.3573309893
 30
0.0
  0
VERTEX
  5
534
330
132
100
AcDbEntity
  8
0
  6
CONTINUOUS
 62
     7
100
AcDbVertex
100
AcDb2dVertex
 10
234.1920372617
 20
113.8017560954
 30
0.0
  0
VERTEX
  5
535
330
132
100
AcDbEntity
  8
0
  6
CONTINUOUS
 62
     7
100
AcDbVertex
100
AcDb2dVertex
 10
234.1455754411
 20
113.2135122682
 30
0.0
  0
VERTEX
  5
536
330
132
100
AcDbEntity
  8
0
  6
CONTINUOUS
 62
     7
100
AcDbVertex
100
AcDb2dVertex
 10
234.2840966355
 20
112.636225451
 30
0.0
  0
VERTEX
  5
537
330
132
100
AcDbEntity
  8
0
  6
CONTINUOUS
 62
     7
100
AcDbVertex
100
AcDb2dVertex
 10
234.5973190438
 20
112.1127113367
 30
0.0
  0
VERTEX
  5
538
330
132
100
AcDbEntity
  8
0
  6
CONTINUOUS
 62
     7
100
AcDbVertex
100
AcDb2dVertex
 10
235.0620266568
 20
111.6817967633
 30
0.0
  0
VERTEX
  5
539
330
132
100
AcDbEntity
  8
0
  6
CONTINUOUS
 62
     7
100
AcDbVertex
100
AcDb2dVertex
 10
235.6437456381
 20
111.3754400651
 30
0.0
  0
VERTEX
  5
53A
330
132
100
AcDbEntity
  8
0
  6
CONTINUOUS
 62
     7
100
AcDbVertex
100
AcDb2dVertex
 10
236.2993296754
 20
111.2163627187
 30
0.0
  0
VERTEX
  5
53B
330
132
100
AcDbEntity
  8
0
  6
CONTINUOUS
 62
     7
100
AcDbVertex
100
AcDb2dVertex
 10
236.9801637303
 20
111.2163627187
 30
0.0
  0
VERTEX
  5
53C
330
132
100
AcDbEntity
  8
0
  6
CONTINUOUS
 62
     7
100
AcDbVertex
100
AcDb2dVertex
 10
237.6357477676
 20
111.3754400651
 30
0.0
  0
VERTEX
  5
53D
330
132
100
AcDbEntity
  8
0
  6
CONTINUOUS
 62
     7
100
AcDbVertex
100
AcDb2dVertex
 10
238.2174667489
 20
111.6817967633
 30
0.0
  0
VERTEX
  5
53E
330
132
100
AcDbEntity
  8
0
  6
CONTINUOUS
 62
     7
100
AcDbVertex
100
AcDb2dVertex
 10
238.6821743619
 20
112.1127113367
 30
0.0
  0
VERTEX
  5
53F
330
132
100
AcDbEntity
  8
0
  6
CONTINUOUS
 62
     7
100
AcDbVertex
100
AcDb2dVertex
 10
238.9953967702
 20
112.636225451
 30
0.0
  0
VERTEX
  5
540
330
132
100
AcDbEntity
  8
0
  6
CONTINUOUS
 62
     7
100
AcDbVertex
100
AcDb2dVertex
 10
239.1339179646
 20
113.2135122682
 30
0.0
  0
VERTEX
  5
541
330
132
100
AcDbEntity
  8
0
  6
CONTINUOUS
 62
     7
100
AcDbVertex
100
AcDb2dVertex
 10
239.087456144
 20
113.8017560954
 30
0.0
  0
VERTEX
  5
542
330
132
100
AcDbEntity
  8
0
  6
CONTINUOUS
 62
     7
100
AcDbVertex
100
AcDb2dVertex
 10
238.8594609272
 20
114.3573309893
 30
0.0
  0
VERTEX
  5
543
330
132
100
AcDbEntity
  8
0
  6
CONTINUOUS
 62
     7
100
AcDbVertex
100
AcDb2dVertex
 10
238.4668376815
 20
114.8390324453
 30
0.0
  0
VERTEX
  5
544
330
132
100
AcDbEntity
  8
0
  6
CONTINUOUS
 62
     7
100
AcDbVertex
100
AcDb2dVertex
 10
237.9387032759
 20
115.2111330668
 30
0.0
  0
VERTEX
  5
545
330
132
100
AcDbEntity
  8
0
  6
CONTINUOUS
 62
     7
100
AcDbVertex
100
AcDb2dVertex
 10
237.3142403137
 20
115.4460377658
 30
0.0
  0
VERTEX
  5
546
330
132
100
AcDbEntity
  8
0
  6
CONTINUOUS
 62
     7
100
AcDbVertex
100
AcDb2dVertex
 10
236.6397467029
 20
115.526324291
 30
0.0
  0
SEQEND
  5
558
330
132
100
AcDbEntity
  8
0
  6
CONTINUOUS
 62
     7
  0
LINE
  5
133
330
1F
100
AcDbEntity
  8
0
  6
CONTINUOUS
 62
     7
100
AcDbLine
 10
235.8632918965
 20
111.1017122532
 30
0.0
 11
236.1274820339
 21
111.0702987427
 31
0.0
  0
LINE
  5
134
330
1F
100
AcDbEntity
  8
0
  6
CONTINUOUS
 62
     7
100
AcDbLine
 10
235.6307890784
 20
111.1855582932
 30
0.0
 11
235.8632918965
 21
111.1017122532
 31
0.0
  0
LINE
  5
135
330
1F
100
AcDbEntity
  8
0
  6
CONTINUOUS
 62
     7
100
AcDbLine
 10
235.3718888533
 20
111.2566042359
 30
0.0
 11
235.6307890784
 21
111.1855582932
 31
0.0
  0
LINE
  5
136
330
1F
100
AcDbEntity
  8
0
  6
CONTINUOUS
 62
     7
100
AcDbLine
 10
235.1647478115
 20
111.3737608904
 30
0.0
 11
235.3718888533
 21
111.2566042359
 31
0.0
  0
LINE
  5
137
330
1F
100
AcDbEntity
  8
0
  6
CONTINUOUS
 62
     7
100
AcDbLine
 10
234.9190202128
 20
111.48304135
 30
0.0
 11
235.1647478115
 21
111.3737608904
 31
0.0
  0
LINE
  5
138
330
1F
100
AcDbEntity
  8
0
  6
CONTINUOUS
 62
     7
100
AcDbLine
 10
234.7435217869
 20
111.6291900764
 30
0.0
 11
234.9190202128
 21
111.48304135
 31
0.0
  0
LINE
  5
139
330
1F
100
AcDbEntity
  8
0
  6
CONTINUOUS
 62
     7
100
AcDbLine
 10
234.5184248459
 20
111.7741439159
 30
0.0
 11
234.7435217869
 21
111.6291900764
 31
0.0
  0
LINE
  5
13A
330
1F
100
AcDbEntity
  8
0
  6
CONTINUOUS
 62
     7
100
AcDbLine
 10
234.3799185526
 20
111.9440832774
 30
0.0
 11
234.5184248459
 21
111.7741439159
 31
0.0
  0
LINE
  5
13B
330
1F
100
AcDbEntity
  8
0
  6
CONTINUOUS
 62
     7
100
AcDbLine
 10
234.1822919023
 20
112.1210662315
 30
0.0
 11
234.3799185526
 21
111.9440832774
 31
0.0
  0
LINE
  5
13C
330
1F
100
AcDbEntity
  8
0
  6
CONTINUOUS
 62
     7
100
AcDbLine
 10
234.0849724185
 20
112.3088739479
 30
0.0
 11
234.1822919023
 21
112.1210662315
 31
0.0
  0
LINE
  5
13D
330
1F
100
AcDbEntity
  8
0
  6
CONTINUOUS
 62
     7
100
AcDbLine
 10
233.9208212268
 20
112.5132666568
 30
0.0
 11
234.0849724185
 21
112.3088739479
 31
0.0
  0
LINE
  5
13E
330
1F
100
AcDbEntity
  8
0
  6
CONTINUOUS
 62
     7
100
AcDbLine
 10
233.8676538836
 20
112.7124765555
 30
0.0
 11
233.9208212268
 21
112.5132666568
 31
0.0
  0
LINE
  5
13F
330
1F
100
AcDbEntity
  8
0
  6
CONTINUOUS
 62
     7
100
AcDbLine
 10
233.7419700396
 20
112.9388298506
 30
0.0
 11
233.8676538836
 21
112.7124765555
 31
0.0
  0
LINE
  5
140
330
1F
100
AcDbEntity
  8
0
  6
CONTINUOUS
 62
     7
100
AcDbLine
 10
233.7345641624
 20
113.142629307
 30
0.0
 11
233.7419700396
 21
112.9388298506
 31
0.0
  0
LINE
  5
141
330
1F
100
AcDbEntity
  8
0
  6
CONTINUOUS
 62
     7
100
AcDbLine
 10
233.6511623632
 20
113.3848234678
 30
0.0
 11
233.7345641624
 21
113.142629307
 31
0.0
  0
LINE
  5
142
330
1F
100
AcDbEntity
  8
0
  6
CONTINUOUS
 62
     7
100
AcDbLine
 10
233.6897489202
 20
113.5862610901
 30
0.0
 11
233.6511623632
 21
113.3848234678
 31
0.0
  0
LINE
  5
143
330
1F
100
AcDbEntity
  8
0
  6
CONTINUOUS
 62
     7
100
AcDbLine
 10
233.6511623632
 20
113.8376986275
 30
0.0
 11
233.6897489202
 21
113.5862610901
 31
0.0
  0
LINE
  5
144
330
1F
100
AcDbEntity
  8
0
  6
CONTINUOUS
 62
     7
100
AcDbLine
 10
233.7345641624
 20
114.0298928733
 30
0.0
 11
233.6511623632
 21
113.8376986275
 31
0.0
  0
LINE
  5
145
330
1F
100
AcDbEntity
  8
0
  6
CONTINUOUS
 62
     7
100
AcDbLine
 10
233.7419700396
 20
114.2836922447
 30
0.0
 11
233.7345641624
 21
114.0298928733
 31
0.0
  0
LINE
  5
146
330
1F
100
AcDbEntity
  8
0
  6
CONTINUOUS
 62
     7
100
AcDbLine
 10
233.8676538836
 20
114.4600456248
 30
0.0
 11
233.7419700396
 21
114.2836922447
 31
0.0
  0
LINE
  5
147
330
1F
100
AcDbEntity
  8
0
  6
CONTINUOUS
 62
     7
100
AcDbLine
 10
233.9208212268
 20
114.7092554385
 30
0.0
 11
233.8676538836
 21
114.4600456248
 31
0.0
  0
LINE
  5
148
330
1F
100
AcDbEntity
  8
0
  6
CONTINUOUS
 62
     7
100
AcDbLine
 10
234.0849724185
 20
114.8636482323
 30
0.0
 11
233.9208212268
 21
114.7092554385
 31
0.0
  0
LINE
  5
149
330
1F
100
AcDbEntity
  8
0
  6
CONTINUOUS
 62
     7
100
AcDbLine
 10
234.1822919023
 20
115.1014567951
 30
0.0
 11
234.0849724185
 21
114.8636482323
 31
0.0
  0
LINE
  5
14A
330
1F
100
AcDbEntity
  8
0
  6
CONTINUOUS
 62
     7
100
AcDbLine
 10
234.3799185526
 20
115.2284389029
 30
0.0
 11
234.1822919023
 21
115.1014567951
 31
0.0
  0
LINE
  5
14B
330
1F
100
AcDbEntity
  8
0
  6
CONTINUOUS
 62
     7
100
AcDbLine
 10
234.5184248459
 20
115.4483781795
 30
0.0
 11
234.3799185526
 21
115.2284389029
 31
0.0
  0
LINE
  5
14C
330
1F
100
AcDbEntity
  8
0
  6
CONTINUOUS
 62
     7
100
AcDbLine
 10
234.7435217869
 20
115.5433321039
 30
0.0
 11
234.5184248459
 21
115.4483781795
 31
0.0
  0
LINE
  5
14D
330
1F
100
AcDbEntity
  8
0
  6
CONTINUOUS
 62
     7
100
AcDbLine
 10
234.9190202128
 20
115.7394807453
 30
0.0
 11
234.7435217869
 21
115.5433321039
 31
0.0
  0
LINE
  5
14E
330
1F
100
AcDbEntity
  8
0
  6
CONTINUOUS
 62
     7
100
AcDbLine
 10
235.1647478115
 20
115.7987612898
 30
0.0
 11
234.9190202128
 21
115.7394807453
 31
0.0
  0
LINE
  5
14F
330
1F
100
AcDbEntity
  8
0
  6
CONTINUOUS
 62
     7
100
AcDbLine
 10
235.3718888533
 20
115.9659178595
 30
0.0
 11
235.1647478115
 21
115.7987612898
 31
0.0
  0
LINE
  5
150
330
1F
100
AcDbEntity
  8
0
  6
CONTINUOUS
 62
     7
100
AcDbLine
 10
235.6307890784
 20
115.986963887
 30
0.0
 11
235.3718888533
 21
115.9659178595
 31
0.0
  0
LINE
  5
151
330
1F
100
AcDbEntity
  8
0
  6
CONTINUOUS
 62
     7
100
AcDbLine
 10
235.8632918965
 20
116.1208098421
 30
0.0
 11
235.6307890784
 21
115.986963887
 31
0.0
  0
LINE
  5
152
330
1F
100
AcDbEntity
  8
0
  6
CONTINUOUS
 62
     7
100
AcDbLine
 10
236.1274820339
 20
116.1022234375
 30
0.0
 11
235.8632918965
 21
116.1208098421
 31
0.0
  0
LINE
  5
153
330
1F
100
AcDbEntity
  8
0
  6
CONTINUOUS
 62
     7
100
AcDbLine
 10
236.3782760274
 20
116.1994507203
 30
0.0
 11
236.1274820339
 21
116.1022234375
 31
0.0
  0
LINE
  5
154
330
1F
100
AcDbEntity
  8
0
  6
CONTINUOUS
 62
     7
100
AcDbLine
 10
236.6397467029
 20
116.1410363058
 30
0.0
 11
236.3782760274
 21
116.1994507203
 31
0.0
  0
LINE
  5
155
330
1F
100
AcDbEntity
  8
0
  6
CONTINUOUS
 62
     7
100
AcDbLine
 10
236.9012099277
 20
116.1994507203
 30
0.0
 11
236.6397467029
 21
116.1410363058
 31
0.0
  0
LINE
  5
156
330
1F
100
AcDbEntity
  8
0
  6
CONTINUOUS
 62
     7
100
AcDbLine
 10
237.1520113718
 20
116.1022234375
 30
0.0
 11
236.9012099277
 21
116.1994507203
 31
0.0
  0
LINE
  5
157
330
1F
100
AcDbEntity
  8
0
  6
CONTINUOUS
 62
     7
100
AcDbLine
 10
237.4162015092
 20
116.1208098421
 30
0.0
 11
237.1520113718
 21
116.1022234375
 31
0.0
  0
LINE
  5
158
330
1F
100
AcDbEntity
  8
0
  6
CONTINUOUS
 62
     7
100
AcDbLine
 10
237.6487043273
 20
115.986963887
 30
0.0
 11
237.4162015092
 21
116.1208098421
 31
0.0
  0
LINE
  5
159
330
1F
100
AcDbEntity
  8
0
  6
CONTINUOUS
 62
     7
100
AcDbLine
 10
237.9076045525
 20
115.9659178595
 30
0.0
 11
237.6487043273
 21
115.986963887
 31
0.0
  0
LINE
  5
15A
330
1F
100
AcDbEntity
  8
0
  6
CONTINUOUS
 62
     7
100
AcDbLine
 10
238.1147455942
 20
115.7987612898
 30
0.0
 11
237.9076045525
 21
115.9659178595
 31
0.0
  0
LINE
  5
15B
330
1F
100
AcDbEntity
  8
0
  6
CONTINUOUS
 62
     7
100
AcDbLine
 10
238.3604731929
 20
115.7394807453
 30
0.0
 11
238.1147455942
 21
115.7987612898
 31
0.0
  0
LINE
  5
15C
330
1F
100
AcDbEntity
  8
0
  6
CONTINUOUS
 62
     7
100
AcDbLine
 10
238.5359716188
 20
115.5433321039
 30
0.0
 11
238.3604731929
 21
115.7394807453
 31
0.0
  0
LINE
  5
15D
330
1F
100
AcDbEntity
  8
0
  6
CONTINUOUS
 62
     7
100
AcDbLine
 10
238.7610685598
 20
115.4483781795
 30
0.0
 11
238.5359716188
 21
115.5433321039
 31
0.0
  0
LINE
  5
15E
330
1F
100
AcDbEntity
  8
0
  6
CONTINUOUS
 62
     7
100
AcDbLine
 10
238.8995748531
 20
115.2284389029
 30
0.0
 11
238.7610685598
 21
115.4483781795
 31
0.0
  0
LINE
  5
15F
330
1F
100
AcDbEntity
  8
0
  6
CONTINUOUS
 62
     7
100
AcDbLine
 10
239.0972015035
 20
115.1014567951
 30
0.0
 11
238.8995748531
 21
115.2284389029
 31
0.0
  0
LINE
  5
160
330
1F
100
AcDbEntity
  8
0
  6
CONTINUOUS
 62
     7
100
AcDbLine
 10
239.1945209872
 20
114.8636482323
 30
0.0
 11
239.0972015035
 21
115.1014567951
 31
0.0
  0
LINE
  5
161
330
1F
100
AcDbEntity
  8
0
  6
CONTINUOUS
 62
     7
100
AcDbLine
 10
239.3586721789
 20
114.7092554385
 30
0.0
 11
239.1945209872
 21
114.8636482323
 31
0.0
  0
LINE
  5
162
330
1F
100
AcDbEntity
  8
0
  6
CONTINUOUS
 62
     7
100
AcDbLine
 10
239.4118395221
 20
114.4600456248
 30
0.0
 11
239.3586721789
 21
114.7092554385
 31
0.0
  0
LINE
  5
163
330
1F
100
AcDbEntity
  8
0
  6
CONTINUOUS
 62
     7
100
AcDbLine
 10
239.5375233662
 20
114.2836922447
 30
0.0
 11
239.4118395221
 21
114.4600456248
 31
0.0
  0
LINE
  5
164
330
1F
100
AcDbEntity
  8
0
  6
CONTINUOUS
 62
     7
100
AcDbLine
 10
239.5449292433
 20
114.0298928733
 30
0.0
 11
239.5375233662
 21
114.2836922447
 31
0.0
  0
LINE
  5
165
330
1F
100
AcDbEntity
  8
0
  6
CONTINUOUS
 62
     7
100
AcDbLine
 10
239.6283310425
 20
113.8376986275
 30
0.0
 11
239.5449292433
 21
114.0298928733
 31
0.0
  0
LINE
  5
166
330
1F
100
AcDbEntity
  8
0
  6
CONTINUOUS
 62
     7
100
AcDbLine
 10
239.5897444856
 20
113.5862610901
 30
0.0
 11
239.6283310425
 21
113.8376986275
 31
0.0
  0
LINE
  5
167
330
1F
100
AcDbEntity
  8
0
  6
CONTINUOUS
 62
     7
100
AcDbLine
 10
239.6283310425
 20
113.3848234678
 30
0.0
 11
239.5897444856
 21
113.5862610901
 31
0.0
  0
LINE
  5
168
330
1F
100
AcDbEntity
  8
0
  6
CONTINUOUS
 62
     7
100
AcDbLine
 10
239.5449292433
 20
113.142629307
 30
0.0
 11
239.6283310425
 21
113.3848234678
 31
0.0
  0
LINE
  5
169
330
1F
100
AcDbEntity
  8
0
  6
CONTINUOUS
 62
     7
100
AcDbLine
 10
239.5375233662
 20
112.9388298506
 30
0.0
 11
239.5449292433
 21
113.142629307
 31
0.0
  0
LINE
  5
16A
330
1F
100
AcDbEntity
  8
0
  6
CONTINUOUS
 62
     7
100
AcDbLine
 10
239.4118395221
 20
112.7124765555
 30
0.0
 11
239.5375233662
 21
112.9388298506
 31
0.0
  0
LINE
  5
16B
330
1F
100
AcDbEntity
  8
0
  6
CONTINUOUS
 62
     7
100
AcDbLine
 10
239.3586721789
 20
112.5132666568
 30
0.0
 11
239.4118395221
 21
112.7124765555
 31
0.0
  0
LINE
  5
16C
330
1F
100
AcDbEntity
  8
0
  6
CONTINUOUS
 62
     7
100
AcDbLine
 10
239.1945209872
 20
112.3088739479
 30
0.0
 11
239.3586721789
 21
112.5132666568
 31
0.0
  0
LINE
  5
16D
330
1F
100
AcDbEntity
  8
0
  6
CONTINUOUS
 62
     7
100
AcDbLine
 10
239.0972015035
 20
112.1210662315
 30
0.0
 11
239.1945209872
 21
112.3088739479
 31
0.0
  0
LINE
  5
16E
330
1F
100
AcDbEntity
  8
0
  6
CONTINUOUS
 62
     7
100
AcDbLine
 10
238.8995748531
 20
111.9440832774
 30
0.0
 11
239.0972015035
 21
112.1210662315
 31
0.0
  0
LINE
  5
16F
330
1F
100
AcDbEntity
  8
0
  6
CONTINUOUS
 62
     7
100
AcDbLine
 10
238.7610685598
 20
111.7741439159
 30
0.0
 11
238.8995748531
 21
111.9440832774
 31
0.0
  0
LINE
  5
170
330
1F
100
AcDbEntity
  8
0
  6
CONTINUOUS
 62
     7
100
AcDbLine
 10
238.5359716188
 20
111.6291900764
 30
0.0
 11
238.7610685598
 21
111.7741439159
 31
0.0
  0
LINE
  5
171
330
1F
100
AcDbEntity
  8
0
  6
CONTINUOUS
 62
     7
100
AcDbLine
 10
238.3604731929
 20
111.48304135
 30
0.0
 11
238.5359716188
 21
111.6291900764
 31
0.0
  0
LINE
  5
172
330
1F
100
AcDbEntity
  8
0
  6
CONTINUOUS
 62
     7
100
AcDbLine
 10
238.1147455942
 20
111.3737608904
 30
0.0
 11
238.3604731929
 21
111.48304135
 31
0.0
  0
LINE
  5
173
330
1F
100
AcDbEntity
  8
0
  6
CONTINUOUS
 62
     7
100
AcDbLine
 10
237.9076045525
 20
111.2566042359
 30
0.0
 11
238.1147455942
 21
111.3737608904
 31
0.0
  0
LINE
  5
174
330
1F
100
AcDbEntity
  8
0
  6
CONTINUOUS
 62
     7
100
AcDbLine
 10
237.6487043273
 20
111.1855582932
 30
0.0
 11
237.9076045525
 21
111.2566042359
 31
0.0
  0
LINE
  5
175
330
1F
100
AcDbEntity
  8
0
  6
CONTINUOUS
 62
     7
100
AcDbLine
 10
237.4162015092
 20
111.1017122532
 30
0.0
 11
237.6487043273
 21
111.1855582932
 31
0.0
  0
LINE
  5
176
330
1F
100
AcDbEntity
  8
0
  6
CONTINUOUS
 62
     7
100
AcDbLine
 10
237.1520113718
 20
111.0702987427
 30
0.0
 11
237.4162015092
 21
111.1017122532
 31
0.0
  0
LINE
  5
177
330
1F
100
AcDbEntity
  8
0
  6
CONTINUOUS
 62
     7
100
AcDbLine
 10
236.9012099277
 20
111.023071375
 30
0.0
 11
237.1520113718
 21
111.0702987427
 31
0.0
  0
LINE
  5
178
330
1F
100
AcDbEntity
  8
0
  6
CONTINUOUS
 62
     7
100
AcDbLine
 10
236.6397467029
 20
111.0314858744
 30
0.0
 11
236.9012099277
 21
111.023071375
 31
0.0
  0
LINE
  5
179
330
1F
100
AcDbEntity
  8
0
  6
CONTINUOUS
 62
     7
100
AcDbLine
 10
236.3782760274
 20
111.023071375
 30
0.0
 11
236.6397467029
 21
111.0314858744
 31
0.0
  0
LINE
  5
17A
330
1F
100
AcDbEntity
  8
0
  6
CONTINUOUS
 62
     7
100
AcDbLine
 10
236.1274820339
 20
111.0702987427
 30
0.0
 11
236.3782760274
 21
111.023071375
 31
0.0
  0
LINE
  5
17B
330
1F
100
AcDbEntity
  8
0
  6
CONTINUOUS
 62
     7
100
AcDbLine
 10
236.9012099277
 20
116.1994507203
 30
0.0
 11
236.9012099277
 21
118.1994510482
 31
0.0
  0
LINE
  5
17C
330
1F
100
AcDbEntity
  8
0
  6
CONTINUOUS
 62
     7
100
AcDbLine
 10
236.9012099277
 20
118.1994510482
 30
0.0
 11
237.1520113718
 21
118.1522232147
 31
0.0
  0
LINE
  5
17D
330
1F
100
AcDbEntity
  8
0
  6
CONTINUOUS
 62
     7
100
AcDbLine
 10
237.1520113718
 20
116.1022234375
 30
0.0
 11
237.1520113718
 21
118.1522232147
 31
0.0
  0
LINE
  5
17E
330
1F
100
AcDbEntity
  8
0
  6
CONTINUOUS
 62
     7
100
AcDbLine
 10
236.1274820339
 20
116.1022234375
 30
0.0
 11
236.1274820339
 21
118.1522232147
 31
0.0
  0
LINE
  5
17F
330
1F
100
AcDbEntity
  8
0
  6
CONTINUOUS
 62
     7
100
AcDbLine
 10
236.1274820339
 20
118.1522232147
 30
0.0
 11
236.3782760274
 21
118.1994510482
 31
0.0
  0
LINE
  5
180
330
1F
100
AcDbEntity
  8
0
  6
CONTINUOUS
 62
     7
100
AcDbLine
 10
236.3782760274
 20
116.1994507203
 30
0.0
 11
236.3782760274
 21
118.1994510482
 31
0.0
  0
LINE
  5
181
330
1F
100
AcDbEntity
  8
0
  6
CONTINUOUS
 62
     7
100
AcDbLine
 10
236.6397467029
 20
116.1410363058
 30
0.0
 11
236.6397467029
 21
118.191036083
 31
0.0
  0
LINE
  5
182
330
1F
100
AcDbEntity
  8
0
  6
CONTINUOUS
 62
     7
100
AcDbLine
 10
236.6397467029
 20
118.191036083
 30
0.0
 11
236.9012099277
 21
118.1994510482
 31
0.0
  0
LINE
  5
183
330
1F
100
AcDbEntity
  8
0
  6
CONTINUOUS
 62
     7
100
AcDbLine
 10
236.3782760274
 20
118.1994510482
 30
0.0
 11
236.6397467029
 21
118.191036083
 31
0.0
  0
LINE
  5
184
330
1F
100
AcDbEntity
  8
0
  6
CONTINUOUS
 62
     7
100
AcDbLine
 10
237.1520113718
 20
118.1522232147
 30
0.0
 11
237.4162015092
 21
118.12081017
 31
0.0
  0
LINE
  5
185
330
1F
100
AcDbEntity
  8
0
  6
CONTINUOUS
 62
     7
100
AcDbLine
 10
237.4162015092
 20
116.1208098421
 30
0.0
 11
237.4162015092
 21
118.12081017
 31
0.0
  0
LINE
  5
186
330
1F
100
AcDbEntity
  8
0
  6
CONTINUOUS
 62
     7
100
AcDbLine
 10
235.8632918965
 20
116.1208098421
 30
0.0
 11
235.8632918965
 21
118.12081017
 31
0.0
  0
LINE
  5
187
330
1F
100
AcDbEntity
  8
0
  6
CONTINUOUS
 62
     7
100
AcDbLine
 10
235.8632918965
 20
118.12081017
 30
0.0
 11
236.1274820339
 21
118.1522232147
 31
0.0
  0
LINE
  5
188
330
1F
100
AcDbEntity
  8
0
  6
CONTINUOUS
 62
     7
100
AcDbLine
 10
237.4162015092
 20
118.12081017
 30
0.0
 11
237.6487043273
 21
118.0369641299
 31
0.0
  0
LINE
  5
189
330
1F
100
AcDbEntity
  8
0
  6
CONTINUOUS
 62
     7
100
AcDbLine
 10
237.6487043273
 20
115.986963887
 30
0.0
 11
237.6487043273
 21
118.0369641299
 31
0.0
  0
LINE
  5
18A
330
1F
100
AcDbEntity
  8
0
  6
CONTINUOUS
 62
     7
100
AcDbLine
 10
235.6307890784
 20
115.986963887
 30
0.0
 11
235.6307890784
 21
118.0369641299
 31
0.0
  0
LINE
  5
18B
330
1F
100
AcDbEntity
  8
0
  6
CONTINUOUS
 62
     7
100
AcDbLine
 10
235.6307890784
 20
118.0369641299
 30
0.0
 11
235.8632918965
 21
118.12081017
 31
0.0
  0
LINE
  5
18C
330
1F
100
AcDbEntity
  8
0
  6
CONTINUOUS
 62
     7
100
AcDbLine
 10
237.6487043273
 20
118.0369641299
 30
0.0
 11
237.9076045525
 21
117.9659177216
 31
0.0
  0
LINE
  5
18D
330
1F
100
AcDbEntity
  8
0
  6
CONTINUOUS
 62
     7
100
AcDbLine
 10
237.9076045525
 20
115.9659178595
 30
0.0
 11
237.9076045525
 21
117.9659177216
 31
0.0
  0
LINE
  5
18E
330
1F
100
AcDbEntity
  8
0
  6
CONTINUOUS
 62
     7
100
AcDbLine
 10
235.3718888533
 20
115.9659178595
 30
0.0
 11
235.3718888533
 21
117.9659177216
 31
0.0
  0
LINE
  5
18F
330
1F
100
AcDbEntity
  8
0
  6
CONTINUOUS
 62
     7
100
AcDbLine
 10
235.3718888533
 20
117.9659177216
 30
0.0
 11
235.6307890784
 21
118.0369641299
 31
0.0
  0
LINE
  5
190
330
1F
100
AcDbEntity
  8
0
  6
CONTINUOUS
 62
     7
100
AcDbLine
 10
237.9076045525
 20
117.9659177216
 30
0.0
 11
238.1147455942
 21
117.848761067
 31
0.0
  0
LINE
  5
191
330
1F
100
AcDbEntity
  8
0
  6
CONTINUOUS
 62
     7
100
AcDbLine
 10
238.1147455942
 20
115.7987612898
 30
0.0
 11
238.1147455942
 21
117.848761067
 31
0.0
  0
LINE
  5
192
330
1F
100
AcDbEntity
  8
0
  6
CONTINUOUS
 62
     7
100
AcDbLine
 10
235.1647478115
 20
115.7987612898
 30
0.0
 11
235.1647478115
 21
117.848761067
 31
0.0
  0
LINE
  5
193
330
1F
100
AcDbEntity
  8
0
  6
CONTINUOUS
 62
     7
100
AcDbLine
 10
235.1647478115
 20
117.848761067
 30
0.0
 11
235.3718888533
 21
117.9659177216
 31
0.0
  0
LINE
  5
194
330
1F
100
AcDbEntity
  8
0
  6
CONTINUOUS
 62
     7
100
AcDbLine
 10
238.1147455942
 20
117.848761067
 30
0.0
 11
238.3604731929
 21
117.7394806074
 31
0.0
  0
LINE
  5
195
330
1F
100
AcDbEntity
  8
0
  6
CONTINUOUS
 62
     7
100
AcDbLine
 10
238.3604731929
 20
115.7394807453
 30
0.0
 11
238.3604731929
 21
117.7394806074
 31
0.0
  0
LINE
  5
196
330
1F
100
AcDbEntity
  8
0
  6
CONTINUOUS
 62
     7
100
AcDbLine
 10
234.9190202128
 20
115.7394807453
 30
0.0
 11
234.9190202128
 21
117.7394806074
 31
0.0
  0
LINE
  5
197
330
1F
100
AcDbEntity
  8
0
  6
CONTINUOUS
 62
     7
100
AcDbLine
 10
234.9190202128
 20
117.7394806074
 30
0.0
 11
235.1647478115
 21
117.848761067
 31
0.0
  0
LINE
  5
198
330
1F
100
AcDbEntity
  8
0
  6
CONTINUOUS
 62
     7
100
AcDbLine
 10
238.3604731929
 20
117.7394806074
 30
0.0
 11
238.5359716188
 21
117.5933323468
 31
0.0
  0
LINE
  5
199
330
1F
100
AcDbEntity
  8
0
  6
CONTINUOUS
 62
     7
100
AcDbLine
 10
238.5359716188
 20
115.5433321039
 30
0.0
 11
238.5359716188
 21
117.5933323468
 31
0.0
  0
LINE
  5
19A
330
1F
100
AcDbEntity
  8
0
  6
CONTINUOUS
 62
     7
100
AcDbLine
 10
234.7435217869
 20
115.5433321039
 30
0.0
 11
234.7435217869
 21
117.5933323468
 31
0.0
  0
LINE
  5
19B
330
1F
100
AcDbEntity
  8
0
  6
CONTINUOUS
 62
     7
100
AcDbLine
 10
234.7435217869
 20
117.5933323468
 30
0.0
 11
234.9190202128
 21
117.7394806074
 31
0.0
  0
LINE
  5
19C
330
1F
100
AcDbEntity
  8
0
  6
CONTINUOUS
 62
     7
100
AcDbLine
 10
234.5184248459
 20
115.4483781795
 30
0.0
 11
234.5184248459
 21
117.4483785073
 31
0.0
  0
LINE
  5
19D
330
1F
100
AcDbEntity
  8
0
  6
CONTINUOUS
 62
     7
100
AcDbLine
 10
234.5184248459
 20
117.4483785073
 30
0.0
 11
234.7435217869
 21
117.5933323468
 31
0.0
  0
LINE
  5
19E
330
1F
100
AcDbEntity
  8
0
  6
CONTINUOUS
 62
     7
100
AcDbLine
 10
238.5359716188
 20
117.5933323468
 30
0.0
 11
238.7610685598
 21
117.4483785073
 31
0.0
  0
LINE
  5
19F
330
1F
100
AcDbEntity
  8
0
  6
CONTINUOUS
 62
     7
100
AcDbLine
 10
238.7610685598
 20
115.4483781795
 30
0.0
 11
238.7610685598
 21
117.4483785073
 31
0.0
  0
LINE
  5
1A0
330
1F
100
AcDbEntity
  8
0
  6
CONTINUOUS
 62
     7
100
AcDbLine
 10
234.3799185526
 20
115.2284389029
 30
0.0
 11
234.3799185526
 21
117.2784386801
 31
0.0
  0
LINE
  5
1A1
330
1F
100
AcDbEntity
  8
0
  6
CONTINUOUS
 62
     7
100
AcDbLine
 10
234.3799185526
 20
117.2784386801
 30
0.0
 11
234.5184248459
 21
117.4483785073
 31
0.0
  0
LINE
  5
1A2
330
1F
100
AcDbEntity
  8
0
  6
CONTINUOUS
 62
     7
100
AcDbLine
 10
238.7610685598
 20
117.4483785073
 30
0.0
 11
238.8995748531
 21
117.2784386801
 31
0.0
  0
LINE
  5
1A3
330
1F
100
AcDbEntity
  8
0
  6
CONTINUOUS
 62
     7
100
AcDbLine
 10
238.8995748531
 20
115.2284389029
 30
0.0
 11
238.8995748531
 21
117.2784386801
 31
0.0
  0
LINE
  5
1A4
330
1F
100
AcDbEntity
  8
0
  6
CONTINUOUS
 62
     7
100
AcDbLine
 10
234.1822919023
 20
115.1014567951
 30
0.0
 11
234.1822919023
 21
117.1014561916
 31
0.0
  0
LINE
  5
1A5
330
1F
100
AcDbEntity
  8
0
  6
CONTINUOUS
 62
     7
100
AcDbLine
 10
234.1822919023
 20
117.1014561916
 30
0.0
 11
234.3799185526
 21
117.2784386801
 31
0.0
  0
LINE
  5
1A6
330
1F
100
AcDbEntity
  8
0
  6
CONTINUOUS
 62
     7
100
AcDbLine
 10
238.8995748531
 20
117.2784386801
 30
0.0
 11
239.0972015035
 21
117.1014561916
 31
0.0
  0
LINE
  5
1A7
330
1F
100
AcDbEntity
  8
0
  6
CONTINUOUS
 62
     7
100
AcDbLine
 10
239.0972015035
 20
115.1014567951
 30
0.0
 11
239.0972015035
 21
117.1014561916
 31
0.0
  0
LINE
  5
1A8
330
1F
100
AcDbEntity
  8
0
  6
CONTINUOUS
 62
     7
100
AcDbLine
 10
239.0972015035
 20
117.1014561916
 30
0.0
 11
239.1945209872
 21
116.9136484752
 31
0.0
  0
LINE
  5
1A9
330
1F
100
AcDbEntity
  8
0
  6
CONTINUOUS
 62
     7
100
AcDbLine
 10
239.1945209872
 20
114.8636482323
 30
0.0
 11
239.1945209872
 21
116.9136484752
 31
0.0
  0
LINE
  5
1AA
330
1F
100
AcDbEntity
  8
0
  6
CONTINUOUS
 62
     7
100
AcDbLine
 10
234.0849724185
 20
114.8636482323
 30
0.0
 11
234.0849724185
 21
116.9136484752
 31
0.0
  0
LINE
  5
1AB
330
1F
100
AcDbEntity
  8
0
  6
CONTINUOUS
 62
     7
100
AcDbLine
 10
234.0849724185
 20
116.9136484752
 30
0.0
 11
234.1822919023
 21
117.1014561916
 31
0.0
  0
LINE
  5
1AC
330
1F
100
AcDbEntity
  8
0
  6
CONTINUOUS
 62
     7
100
AcDbLine
 10
239.1945209872
 20
116.9136484752
 30
0.0
 11
239.3586721789
 21
116.7092553007
 31
0.0
  0
LINE
  5
1AD
330
1F
100
AcDbEntity
  8
0
  6
CONTINUOUS
 62
     7
100
AcDbLine
 10
239.3586721789
 20
114.7092554385
 30
0.0
 11
239.3586721789
 21
116.7092553007
 31
0.0
  0
LINE
  5
1AE
330
1F
100
AcDbEntity
  8
0
  6
CONTINUOUS
 62
     7
100
AcDbLine
 10
233.9208212268
 20
114.7092554385
 30
0.0
 11
233.9208212268
 21
116.7092553007
 31
0.0
  0
LINE
  5
1AF
330
1F
100
AcDbEntity
  8
0
  6
CONTINUOUS
 62
     7
100
AcDbLine
 10
233.9208212268
 20
116.7092553007
 30
0.0
 11
234.0849724185
 21
116.9136484752
 31
0.0
  0
LINE
  5
1B0
330
1F
100
AcDbEntity
  8
0
  6
CONTINUOUS
 62
     7
100
AcDbLine
 10
239.3586721789
 20
116.7092553007
 30
0.0
 11
239.4118395221
 21
116.510045402
 31
0.0
  0
LINE
  5
1B1
330
1F
100
AcDbEntity
  8
0
  6
CONTINUOUS
 62
     7
100
AcDbLine
 10
239.4118395221
 20
114.4600456248
 30
0.0
 11
239.4118395221
 21
116.510045402
 31
0.0
  0
LINE
  5
1B2
330
1F
100
AcDbEntity
  8
0
  6
CONTINUOUS
 62
     7
100
AcDbLine
 10
233.8676538836
 20
114.4600456248
 30
0.0
 11
233.8676538836
 21
116.510045402
 31
0.0
  0
LINE
  5
1B3
330
1F
100
AcDbEntity
  8
0
  6
CONTINUOUS
 62
     7
100
AcDbLine
 10
233.8676538836
 20
116.510045402
 30
0.0
 11
233.9208212268
 21
116.7092553007
 31
0.0
  0
LINE
  5
1B4
330
1F
100
AcDbEntity
  8
0
  6
CONTINUOUS
 62
     7
100
AcDbLine
 10
239.4118395221
 20
116.510045402
 30
0.0
 11
239.5375233662
 21
116.2836925725
 31
0.0
  0
LINE
  5
1B5
330
1F
100
AcDbEntity
  8
0
  6
CONTINUOUS
 62
     7
100
AcDbLine
 10
239.5375233662
 20
114.2836922447
 30
0.0
 11
239.5375233662
 21
116.2836925725
 31
0.0
  0
LINE
  5
1B6
330
1F
100
AcDbEntity
  8
0
  6
CONTINUOUS
 62
     7
100
AcDbLine
 10
233.7419700396
 20
114.2836922447
 30
0.0
 11
233.7419700396
 21
116.2836925725
 31
0.0
  0
LINE
  5
1B7
330
1F
100
AcDbEntity
  8
0
  6
CONTINUOUS
 62
     7
100
AcDbLine
 10
233.7419700396
 20
116.2836925725
 30
0.0
 11
233.8676538836
 21
116.510045402
 31
0.0
  0
LINE
  5
1B8
330
1F
100
AcDbEntity
  8
0
  6
CONTINUOUS
 62
     7
100
AcDbLine
 10
239.5375233662
 20
116.2836925725
 30
0.0
 11
239.5449292433
 21
116.0798931161
 31
0.0
  0
LINE
  5
1B9
330
1F
100
AcDbEntity
  8
0
  6
CONTINUOUS
 62
     7
100
AcDbLine
 10
239.5449292433
 20
114.0298928733
 30
0.0
 11
239.5449292433
 21
116.0798931161
 31
0.0
  0
LINE
  5
1BA
330
1F
100
AcDbEntity
  8
0
  6
CONTINUOUS
 62
     7
100
AcDbLine
 10
233.7345641624
 20
114.0298928733
 30
0.0
 11
233.7345641624
 21
116.0798931161
 31
0.0
  0
LINE
  5
1BB
330
1F
100
AcDbEntity
  8
0
  6
CONTINUOUS
 62
     7
100
AcDbLine
 10
233.7345641624
 20
116.0798931161
 30
0.0
 11
233.7419700396
 21
116.2836925725
 31
0.0
  0
LINE
  5
1BC
330
1F
100
AcDbEntity
  8
0
  6
CONTINUOUS
 62
     7
100
AcDbLine
 10
239.5449292433
 20
116.0798931161
 30
0.0
 11
239.6283310425
 21
115.837698024
 31
0.0
  0
LINE
  5
1BD
330
1F
100
AcDbEntity
  8
0
  6
CONTINUOUS
 62
     7
100
AcDbLine
 10
239.6283310425
 20
113.8376986275
 30
0.0
 11
239.6283310425
 21
115.837698024
 31
0.0
  0
LINE
  5
1BE
330
1F
100
AcDbEntity
  8
0
  6
CONTINUOUS
 62
     7
100
AcDbLine
 10
233.6511623632
 20
113.8376986275
 30
0.0
 11
233.6511623632
 21
115.837698024
 31
0.0
  0
LINE
  5
1BF
330
1F
100
AcDbEntity
  8
0
  6
CONTINUOUS
 62
     7
100
AcDbLine
 10
233.6511623632
 20
115.837698024
 30
0.0
 11
233.7345641624
 21
116.0798931161
 31
0.0
  0
LINE
  5
1C0
330
1F
100
AcDbEntity
  8
0
  6
CONTINUOUS
 62
     7
100
AcDbLine
 10
239.6283310425
 20
113.3848234678
 30
0.0
 11
239.6283310425
 21
113.8376986275
 31
0.0
  0
LINE
  5
1C1
330
1F
100
AcDbEntity
  8
0
  6
CONTINUOUS
 62
     7
100
AcDbLine
 10
233.6511623632
 20
113.3848234678
 30
0.0
 11
233.6511623632
 21
113.8376986275
 31
0.0
  0
LINE
  5
1C2
330
1F
100
AcDbEntity
  8
0
  6
CONTINUOUS
 62
     7
100
AcDbLine
 10
240.6397473585
 20
124.3651410697
 30
0.0
 11
240.4515084397
 21
124.7476745995
 31
0.0
  0
LINE
  5
1C3
330
1F
100
AcDbEntity
  8
0
  6
CONTINUOUS
 62
     7
100
AcDbLine
 10
240.4515084397
 20
124.7476745995
 30
0.0
 11
248.8279875886
 21
124.7476745995
 31
0.0
  0
LINE
  5
1C4
330
1F
100
AcDbEntity
  8
0
  6
CONTINUOUS
 62
     7
100
AcDbLine
 10
248.8279875886
 20
124.7476745995
 30
0.0
 11
248.6397486698
 21
124.3651410697
 31
0.0
  0
LINE
  5
1C5
330
1F
100
AcDbEntity
  8
0
  6
CONTINUOUS
 62
     7
100
AcDbLine
 10
240.6397473585
 20
124.3651410697
 30
0.0
 11
248.6397486698
 21
124.3651410697
 31
0.0
  0
LINE
  5
1C6
330
1F
100
AcDbEntity
  8
0
  6
CONTINUOUS
 62
     7
100
AcDbLine
 10
239.639745332
 20
109.9724864254
 30
0.0
 11
239.639745332
 21
137.9724872897
 31
0.0
  0
LINE
  5
1C7
330
1F
100
AcDbEntity
  8
0
  6
CONTINUOUS
 62
     7
100
AcDbLine
 10
240.6397473585
 20
138.967346553
 30
0.0
 11
240.4515084397
 21
138.7842494661
 31
0.0
  0
LINE
  5
1C8
330
1F
100
AcDbEntity
  8
0
  6
CONTINUOUS
 62
     7
100
AcDbLine
 10
240.4515084397
 20
138.7639503593
 30
0.0
 11
240.6397473585
 21
138.967346553
 31
0.0
  0
LINE
  5
1C9
330
1F
100
AcDbEntity
  8
0
  6
CONTINUOUS
 62
     7
100
AcDbLine
 10
240.6397473585
 20
138.9262472878
 30
0.0
 11
240.4515084397
 21
138.7639503593
 31
0.0
  0
LINE
  5
1CA
330
1F
100
AcDbEntity
  8
0
  6
CONTINUOUS
 62
     7
100
AcDbLine
 10
240.4515084397
 20
138.7031089182
 30
0.0
 11
240.6397473585
 21
138.9262472878
 31
0.0
  0
LINE
  5
1CB
330
1F
100
AcDbEntity
  8
0
  6
CONTINUOUS
 62
     7
100
AcDbLine
 10
240.6397473585
 20
138.8441595847
 30
0.0
 11
240.4515084397
 21
138.7031089182
 31
0.0
  0
LINE
  5
1CC
330
1F
100
AcDbEntity
  8
0
  6
CONTINUOUS
 62
     7
100
AcDbLine
 10
240.4515084397
 20
138.6018918494
 30
0.0
 11
240.6397473585
 21
138.8441595847
 31
0.0
  0
LINE
  5
1CD
330
1F
100
AcDbEntity
  8
0
  6
CONTINUOUS
 62
     7
100
AcDbLine
 10
240.6397473585
 20
138.7213106866
 30
0.0
 11
240.4515084397
 21
138.6018918494
 31
0.0
  0
LINE
  5
1CE
330
1F
100
AcDbEntity
  8
0
  6
CONTINUOUS
 62
     7
100
AcDbLine
 10
240.4515084397
 20
138.4605766872
 30
0.0
 11
240.6397473585
 21
138.7213106866
 31
0.0
  0
LINE
  5
1CF
330
1F
100
AcDbEntity
  8
0
  6
CONTINUOUS
 62
     7
100
AcDbLine
 10
240.6397473585
 20
138.5580358694
 30
0.0
 11
240.4515084397
 21
138.4605766872
 31
0.0
  0
LINE
  5
1D0
330
1F
100
AcDbEntity
  8
0
  6
CONTINUOUS
 62
     7
100
AcDbLine
 10
240.4515084397
 20
138.2795508618
 30
0.0
 11
240.6397473585
 21
138.5580358694
 31
0.0
  0
LINE
  5
1D1
330
1F
100
AcDbEntity
  8
0
  6
CONTINUOUS
 62
     7
100
AcDbLine
 10
240.6397473585
 20
138.3547830994
 30
0.0
 11
240.4515084397
 21
138.2795508618
 31
0.0
  0
LINE
  5
1D2
330
1F
100
AcDbEntity
  8
0
  6
CONTINUOUS
 62
     7
100
AcDbLine
 10
240.4515084397
 20
138.0593098367
 30
0.0
 11
240.6397473585
 21
138.3547830994
 31
0.0
  0
LINE
  5
1D3
330
1F
100
AcDbEntity
  8
0
  6
CONTINUOUS
 62
     7
100
AcDbLine
 10
240.6397473585
 20
138.1121093074
 30
0.0
 11
240.4515084397
 21
138.0593098367
 31
0.0
  0
LINE
  5
1D4
330
1F
100
AcDbEntity
  8
0
  6
CONTINUOUS
 62
     7
100
AcDbLine
 10
240.4515084397
 20
137.8004580403
 30
0.0
 11
240.6397473585
 21
138.1121093074
 31
0.0
  0
LINE
  5
1D5
330
1F
100
AcDbEntity
  8
0
  6
CONTINUOUS
 62
     7
100
AcDbLine
 10
240.6397473585
 20
137.8306794579
 30
0.0
 11
240.4515084397
 21
137.8004580403
 31
0.0
  0
LINE
  5
1D6
330
1F
100
AcDbEntity
  8
0
  6
CONTINUOUS
 62
     7
100
AcDbLine
 10
240.4515084397
 20
137.5037051404
 30
0.0
 11
240.6397473585
 21
137.8306794579
 31
0.0
  0
LINE
  5
1D7
330
1F
100
AcDbEntity
  8
0
  6
CONTINUOUS
 62
     7
100
AcDbLine
 10
240.6397473585
 20
137.5112665484
 30
0.0
 11
240.4515084397
 21
137.5037051404
 31
0.0
  0
LINE
  5
1D8
330
1F
100
AcDbEntity
  8
0
  6
CONTINUOUS
 62
     7
100
AcDbLine
 10
240.4515084397
 20
137.1698632503
 30
0.0
 11
240.6397473585
 21
137.5112665484
 31
0.0
  0
LINE
  5
1D9
330
1F
100
AcDbEntity
  8
0
  6
CONTINUOUS
 62
     7
100
AcDbLine
 10
240.6397473585
 20
137.1547432283
 30
0.0
 11
240.4515084397
 21
137.1698632503
 31
0.0
  0
LINE
  5
1DA
330
1F
100
AcDbEntity
  8
0
  6
CONTINUOUS
 62
     7
100
AcDbLine
 10
240.4515084397
 20
136.7998487914
 30
0.0
 11
240.6397473585
 21
137.1547432283
 31
0.0
  0
LINE
  5
1DB
330
1F
100
AcDbEntity
  8
0
  6
CONTINUOUS
 62
     7
100
AcDbLine
 10
240.6397473585
 20
136.762089249
 30
0.0
 11
240.4515084397
 21
136.7998487914
 31
0.0
  0
LINE
  5
1DC
330
1F
100
AcDbEntity
  8
0
  6
CONTINUOUS
 62
     7
100
AcDbLine
 10
240.4515084397
 20
136.394675974
 30
0.0
 11
240.6397473585
 21
136.762089249
 31
0.0
  0
LINE
  5
1DD
330
1F
100
AcDbEntity
  8
0
  6
CONTINUOUS
 62
     7
100
AcDbLine
 10
240.6397473585
 20
136.3343793566
 30
0.0
 11
240.4515084397
 21
136.394675974
 31
0.0
  0
LINE
  5
1DE
330
1F
100
AcDbEntity
  8
0
  6
CONTINUOUS
 62
     7
100
AcDbLine
 10
240.4515084397
 20
135.9554540033
 30
0.0
 11
240.6397473585
 21
136.3343793566
 31
0.0
  0
LINE
  5
1DF
330
1F
100
AcDbEntity
  8
0
  6
CONTINUOUS
 62
     7
100
AcDbLine
 10
240.6397473585
 20
135.8727870176
 30
0.0
 11
240.4515084397
 21
135.9554540033
 31
0.0
  0
LINE
  5
1E0
330
1F
100
AcDbEntity
  8
0
  6
CONTINUOUS
 62
     7
100
AcDbLine
 10
240.4515084397
 20
135.4833880106
 30
0.0
 11
240.6397473585
 21
135.8727870176
 31
0.0
  0
LINE
  5
1E1
330
1F
100
AcDbEntity
  8
0
  6
CONTINUOUS
 62
     7
100
AcDbLine
 10
240.6397473585
 20
135.3785760368
 30
0.0
 11
240.4515084397
 21
135.4833880106
 31
0.0
  0
LINE
  5
1E2
330
1F
100
AcDbEntity
  8
0
  6
CONTINUOUS
 62
     7
100
AcDbLine
 10
240.4515084397
 20
134.9797716031
 30
0.0
 11
240.6397473585
 21
135.3785760368
 31
0.0
  0
LINE
  5
1E3
330
1F
100
AcDbEntity
  8
0
  6
CONTINUOUS
 62
     7
100
AcDbLine
 10
240.6397473585
 20
134.8531024198
 30
0.0
 11
240.4515084397
 21
134.9797716031
 31
0.0
  0
LINE
  5
1E4
330
1F
100
AcDbEntity
  8
0
  6
CONTINUOUS
 62
     7
100
AcDbLine
 10
240.4515084397
 20
134.4459840695
 30
0.0
 11
240.6397473585
 21
134.8531024198
 31
0.0
  0
LINE
  5
1E5
330
1F
100
AcDbEntity
  8
0
  6
CONTINUOUS
 62
     7
100
AcDbLine
 10
240.6397473585
 20
134.2978050599
 30
0.0
 11
240.4515084397
 21
134.4459840695
 31
0.0
  0
LINE
  5
1E6
330
1F
100
AcDbEntity
  8
0
  6
CONTINUOUS
 62
     7
100
AcDbLine
 10
240.4515084397
 20
133.8834903801
 30
0.0
 11
240.6397473585
 21
134.2978050599
 31
0.0
  0
LINE
  5
1E7
330
1F
100
AcDbEntity
  8
0
  6
CONTINUOUS
 62
     7
100
AcDbLine
 10
240.6397473585
 20
133.714207601
 30
0.0
 11
240.4515084397
 21
133.8834903801
 31
0.0
  0
LINE
  5
1E8
330
1F
100
AcDbEntity
  8
0
  6
CONTINUOUS
 62
     7
100
AcDbLine
 10
240.4515084397
 20
133.2938309426
 30
0.0
 11
240.6397473585
 21
133.714207601
 31
0.0
  0
LINE
  5
1E9
330
1F
100
AcDbEntity
  8
0
  6
CONTINUOUS
 62
     7
100
AcDbLine
 10
240.6397473585
 20
133.1039081926
 30
0.0
 11
240.4515084397
 21
133.2938309426
 31
0.0
  0
LINE
  5
1EA
330
1F
100
AcDbEntity
  8
0
  6
CONTINUOUS
 62
     7
100
AcDbLine
 10
240.4515084397
 20
132.6786225329
 30
0.0
 11
240.6397473585
 21
133.1039081926
 31
0.0
  0
LINE
  5
1EB
330
1F
100
AcDbEntity
  8
0
  6
CONTINUOUS
 62
     7
100
AcDbLine
 10
240.6397473585
 20
132.4685804213
 30
0.0
 11
240.4515084397
 21
132.6786225329
 31
0.0
  0
LINE
  5
1EC
330
1F
100
AcDbEntity
  8
0
  6
CONTINUOUS
 62
     7
100
AcDbLine
 10
240.4515084397
 20
132.0395508448
 30
0.0
 11
240.6397473585
 21
132.4685804213
 31
0.0
  0
LINE
  5
1ED
330
1F
100
AcDbEntity
  8
0
  6
CONTINUOUS
 62
     7
100
AcDbLine
 10
240.6397473585
 20
131.809964929
 30
0.0
 11
240.4515084397
 21
132.0395508448
 31
0.0
  0
LINE
  5
1EE
330
1F
100
AcDbEntity
  8
0
  6
CONTINUOUS
 62
     7
100
AcDbLine
 10
240.4515084397
 20
131.3783681619
 30
0.0
 11
240.6397473585
 21
131.809964929
 31
0.0
  0
LINE
  5
1EF
330
1F
100
AcDbEntity
  8
0
  6
CONTINUOUS
 62
     7
100
AcDbLine
 10
240.6397473585
 20
131.1298684815
 30
0.0
 11
240.4515084397
 21
131.3783681619
 31
0.0
  0
LINE
  5
1F0
330
1F
100
AcDbEntity
  8
0
  6
CONTINUOUS
 62
     7
100
AcDbLine
 10
240.4515084397
 20
130.6968863721
 30
0.0
 11
240.6397473585
 21
131.1298684815
 31
0.0
  0
LINE
  5
1F1
330
1F
100
AcDbEntity
  8
0
  6
CONTINUOUS
 62
     7
100
AcDbLine
 10
240.6397473585
 20
130.4301532584
 30
0.0
 11
240.4515084397
 21
130.6968863721
 31
0.0
  0
LINE
  5
1F2
330
1F
100
AcDbEntity
  8
0
  6
CONTINUOUS
 62
     7
100
AcDbLine
 10
240.4515084397
 20
129.9969732428
 30
0.0
 11
240.6397473585
 21
130.4301532584
 31
0.0
  0
LINE
  5
1F3
330
1F
100
AcDbEntity
  8
0
  6
CONTINUOUS
 62
     7
100
AcDbLine
 10
240.6397473585
 20
129.7127382497
 30
0.0
 11
240.4515084397
 21
129.9969732428
 31
0.0
  0
LINE
  5
1F4
330
1F
100
AcDbEntity
  8
0
  6
CONTINUOUS
 62
     7
100
AcDbLine
 10
240.4515084397
 20
129.2805477644
 30
0.0
 11
240.6397473585
 21
129.7127382497
 31
0.0
  0
LINE
  5
1F5
330
1F
100
AcDbEntity
  8
0
  6
CONTINUOUS
 62
     7
100
AcDbLine
 10
240.6397473585
 20
128.9795899431
 30
0.0
 11
240.4515084397
 21
129.2805477644
 31
0.0
  0
LINE
  5
1F6
330
1F
100
AcDbEntity
  8
0
  6
CONTINUOUS
 62
     7
100
AcDbLine
 10
240.4515084397
 20
128.5495731647
 30
0.0
 11
240.6397473585
 21
128.9795899431
 31
0.0
  0
LINE
  5
1F7
330
1F
100
AcDbEntity
  8
0
  6
CONTINUOUS
 62
     7
100
AcDbLine
 10
240.6397473585
 20
128.2327172013
 30
0.0
 11
240.4515084397
 21
128.5495731647
 31
0.0
  0
LINE
  5
1F8
330
1F
100
AcDbEntity
  8
0
  6
CONTINUOUS
 62
     7
100
AcDbLine
 10
240.4515084397
 20
127.8060529514
 30
0.0
 11
240.6397473585
 21
128.2327172013
 31
0.0
  0
LINE
  5
1F9
330
1F
100
AcDbEntity
  8
0
  6
CONTINUOUS
 62
     7
100
AcDbLine
 10
240.6397473585
 20
127.4741673043
 30
0.0
 11
240.4515084397
 21
127.8060529514
 31
0.0
  0
LINE
  5
1FA
330
1F
100
AcDbEntity
  8
0
  6
CONTINUOUS
 62
     7
100
AcDbLine
 10
240.4515084397
 20
127.052025324
 30
0.0
 11
240.6397473585
 21
127.4741673043
 31
0.0
  0
LINE
  5
1FB
330
1F
100
AcDbEntity
  8
0
  6
CONTINUOUS
 62
     7
100
AcDbLine
 10
240.6397473585
 20
126.7060196626
 30
0.0
 11
240.4515084397
 21
127.052025324
 31
0.0
  0
LINE
  5
1FC
330
1F
100
AcDbEntity
  8
0
  6
CONTINUOUS
 62
     7
100
AcDbLine
 10
240.4515084397
 20
126.2895568872
 30
0.0
 11
240.6397473585
 21
126.7060196626
 31
0.0
  0
LINE
  5
1FD
330
1F
100
AcDbEntity
  8
0
  6
CONTINUOUS
 62
     7
100
AcDbLine
 10
240.6397473585
 20
125.9303797635
 30
0.0
 11
240.4515084397
 21
126.2895568872
 31
0.0
  0
LINE
  5
1FE
330
1F
100
AcDbEntity
  8
0
  6
CONTINUOUS
 62
     7
100
AcDbLine
 10
240.4515084397
 20
125.5207376454
 30
0.0
 11
240.6397473585
 21
125.9303797635
 31
0.0
  0
LINE
  5
1FF
330
1F
100
AcDbEntity
  8
0
  6
CONTINUOUS
 62
     7
100
AcDbLine
 10
240.6397473585
 20
125.1493733509
 30
0.0
 11
240.4515084397
 21
125.5207376454
 31
0.0
  0
LINE
  5
200
330
1F
100
AcDbEntity
  8
0
  6
CONTINUOUS
 62
     7
100
AcDbLine
 10
240.4515084397
 20
124.7476745995
 30
0.0
 11
240.6397473585
 21
125.1493733509
 31
0.0
  0
LINE
  5
201
330
1F
100
AcDbEntity
  8
0
  6
CONTINUOUS
 62
     7
100
AcDbLine
 10
240.4515084397
 20
123.9724868576
 30
0.0
 11
240.6397473585
 21
124.3651410697
 31
0.0
  0
LINE
  5
202
330
1F
100
AcDbEntity
  8
0
  6
CONTINUOUS
 62
     7
100
AcDbLine
 10
240.6397473585
 20
123.5798326454
 30
0.0
 11
240.4515084397
 21
123.9724868576
 31
0.0
  0
LINE
  5
203
330
1F
100
AcDbEntity
  8
0
  6
CONTINUOUS
 62
     7
100
AcDbLine
 10
240.4515084397
 20
123.1972991156
 30
0.0
 11
240.6397473585
 21
123.5798326454
 31
0.0
  0
LINE
  5
204
330
1F
100
AcDbEntity
  8
0
  6
CONTINUOUS
 62
     7
100
AcDbLine
 10
240.6397473585
 20
122.7956003642
 30
0.0
 11
240.4515084397
 21
123.1972991156
 31
0.0
  0
LINE
  5
205
330
1F
100
AcDbEntity
  8
0
  6
CONTINUOUS
 62
     7
100
AcDbLine
 10
240.4515084397
 20
122.4242360697
 30
0.0
 11
240.6397473585
 21
122.7956003642
 31
0.0
  0
LINE
  5
206
330
1F
100
AcDbEntity
  8
0
  6
CONTINUOUS
 62
     7
100
AcDbLine
 10
240.6397473585
 20
122.0145939516
 30
0.0
 11
240.4515084397
 21
122.4242360697
 31
0.0
  0
LINE
  5
207
330
1F
100
AcDbEntity
  8
0
  6
CONTINUOUS
 62
     7
100
AcDbLine
 10
240.4515084397
 20
121.6554168279
 30
0.0
 11
240.6397473585
 21
122.0145939516
 31
0.0
  0
LINE
  5
208
330
1F
100
AcDbEntity
  8
0
  6
CONTINUOUS
 62
     7
100
AcDbLine
 10
240.6397473585
 20
121.2389540526
 30
0.0
 11
240.4515084397
 21
121.6554168279
 31
0.0
  0
LINE
  5
209
330
1F
100
AcDbEntity
  8
0
  6
CONTINUOUS
 62
     7
100
AcDbLine
 10
240.4515084397
 20
120.8929483911
 30
0.0
 11
240.6397473585
 21
121.2389540526
 31
0.0
  0
LINE
  5
20A
330
1F
100
AcDbEntity
  8
0
  6
CONTINUOUS
 62
     7
100
AcDbLine
 10
240.6397473585
 20
120.4708064108
 30
0.0
 11
240.4515084397
 21
120.8929483911
 31
0.0
  0
LINE
  5
20B
330
1F
100
AcDbEntity
  8
0
  6
CONTINUOUS
 62
     7
100
AcDbLine
 10
240.4515084397
 20
120.1389207637
 30
0.0
 11
240.6397473585
 21
120.4708064108
 31
0.0
  0
LINE
  5
20C
330
1F
100
AcDbEntity
  8
0
  6
CONTINUOUS
 62
     7
100
AcDbLine
 10
240.6397473585
 20
119.7122565138
 30
0.0
 11
240.4515084397
 21
120.1389207637
 31
0.0
  0
LINE
  5
20D
330
1F
100
AcDbEntity
  8
0
  6
CONTINUOUS
 62
     7
100
AcDbLine
 10
240.4515084397
 20
119.3954005504
 30
0.0
 11
240.6397473585
 21
119.7122565138
 31
0.0
  0
LINE
  5
20E
330
1F
100
AcDbEntity
  8
0
  6
CONTINUOUS
 62
     7
100
AcDbLine
 10
240.6397473585
 20
118.965383772
 30
0.0
 11
240.4515084397
 21
119.3954005504
 31
0.0
  0
LINE
  5
20F
330
1F
100
AcDbEntity
  8
0
  6
CONTINUOUS
 62
     7
100
AcDbLine
 10
240.4515084397
 20
118.6644259507
 30
0.0
 11
240.6397473585
 21
118.965383772
 31
0.0
  0
LINE
  5
210
330
1F
100
AcDbEntity
  8
0
  6
CONTINUOUS
 62
     7
100
AcDbLine
 10
240.6397473585
 20
118.2322354654
 30
0.0
 11
240.4515084397
 21
118.6644259507
 31
0.0
  0
LINE
  5
211
330
1F
100
AcDbEntity
  8
0
  6
CONTINUOUS
 62
     7
100
AcDbLine
 10
240.4515084397
 20
117.9480004723
 30
0.0
 11
240.6397473585
 21
118.2322354654
 31
0.0
  0
LINE
  5
212
330
1F
100
AcDbEntity
  8
0
  6
CONTINUOUS
 62
     7
100
AcDbLine
 10
240.6397473585
 20
117.5148204567
 30
0.0
 11
240.4515084397
 21
117.9480004723
 31
0.0
  0
LINE
  5
213
330
1F
100
AcDbEntity
  8
0
  6
CONTINUOUS
 62
     7
100
AcDbLine
 10
240.4515084397
 20
117.2480873431
 30
0.0
 11
240.6397473585
 21
117.5148204567
 31
0.0
  0
LINE
  5
214
330
1F
100
AcDbEntity
  8
0
  6
CONTINUOUS
 62
     7
100
AcDbLine
 10
240.6397473585
 20
116.8151052336
 30
0.0
 11
240.4515084397
 21
117.2480873431
 31
0.0
  0
LINE
  5
215
330
1F
100
AcDbEntity
  8
0
  6
CONTINUOUS
 62
     7
100
AcDbLine
 10
240.4515084397
 20
116.5666055533
 30
0.0
 11
240.6397473585
 21
116.8151052336
 31
0.0
  0
LINE
  5
216
330
1F
100
AcDbEntity
  8
0
  6
CONTINUOUS
 62
     7
100
AcDbLine
 10
240.6397473585
 20
116.1350087861
 30
0.0
 11
240.4515084397
 21
116.5666055533
 31
0.0
  0
LINE
  5
217
330
1F
100
AcDbEntity
  8
0
  6
CONTINUOUS
 62
     7
100
AcDbLine
 10
240.4515084397
 20
115.9054228703
 30
0.0
 11
240.6397473585
 21
116.1350087861
 31
0.0
  0
LINE
  5
218
330
1F
100
AcDbEntity
  8
0
  6
CONTINUOUS
 62
     7
100
AcDbLine
 10
240.6397473585
 20
115.4763932938
 30
0.0
 11
240.4515084397
 21
115.9054228703
 31
0.0
  0
LINE
  5
219
330
1F
100
AcDbEntity
  8
0
  6
CONTINUOUS
 62
     7
100
AcDbLine
 10
240.4515084397
 20
115.2663511822
 30
0.0
 11
240.6397473585
 21
115.4763932938
 31
0.0
  0
LINE
  5
21A
330
1F
100
AcDbEntity
  8
0
  6
CONTINUOUS
 62
     7
100
AcDbLine
 10
240.6397473585
 20
114.8410655225
 30
0.0
 11
240.4515084397
 21
115.2663511822
 31
0.0
  0
LINE
  5
21B
330
1F
100
AcDbEntity
  8
0
  6
CONTINUOUS
 62
     7
100
AcDbLine
 10
240.4515084397
 20
114.6511427725
 30
0.0
 11
240.6397473585
 21
114.8410655225
 31
0.0
  0
LINE
  5
21C
330
1F
100
AcDbEntity
  8
0
  6
CONTINUOUS
 62
     7
100
AcDbLine
 10
240.6397473585
 20
114.2307661141
 30
0.0
 11
240.4515084397
 21
114.6511427725
 31
0.0
  0
LINE
  5
21D
330
1F
100
AcDbEntity
  8
0
  6
CONTINUOUS
 62
     7
100
AcDbLine
 10
240.4515084397
 20
114.061483335
 30
0.0
 11
240.6397473585
 21
114.2307661141
 31
0.0
  0
LINE
  5
21E
330
1F
100
AcDbEntity
  8
0
  6
CONTINUOUS
 62
     7
100
AcDbLine
 10
240.6397473585
 20
113.6471686552
 30
0.0
 11
240.4515084397
 21
114.061483335
 31
0.0
  0
LINE
  5
21F
330
1F
100
AcDbEntity
  8
0
  6
CONTINUOUS
 62
     7
100
AcDbLine
 10
240.4515084397
 20
113.4989896456
 30
0.0
 11
240.6397473585
 21
113.6471686552
 31
0.0
  0
LINE
  5
220
330
1F
100
AcDbEntity
  8
0
  6
CONTINUOUS
 62
     7
100
AcDbLine
 10
240.6397473585
 20
113.0918712954
 30
0.0
 11
240.4515084397
 21
113.4989896456
 31
0.0
  0
LINE
  5
221
330
1F
100
AcDbEntity
  8
0
  6
CONTINUOUS
 62
     7
100
AcDbLine
 10
240.4515084397
 20
112.965202112
 30
0.0
 11
240.6397473585
 21
113.0918712954
 31
0.0
  0
LINE
  5
222
330
1F
100
AcDbEntity
  8
0
  6
CONTINUOUS
 62
     7
100
AcDbLine
 10
240.6397473585
 20
112.5663976783
 30
0.0
 11
240.4515084397
 21
112.965202112
 31
0.0
  0
LINE
  5
223
330
1F
100
AcDbEntity
  8
0
  6
CONTINUOUS
 62
     7
100
AcDbLine
 10
240.4515084397
 20
112.4615857045
 30
0.0
 11
240.6397473585
 21
112.5663976783
 31
0.0
  0
LINE
  5
224
330
1F
100
AcDbEntity
  8
0
  6
CONTINUOUS
 62
     7
100
AcDbLine
 10
240.6397473585
 20
112.0721866975
 30
0.0
 11
240.4515084397
 21
112.4615857045
 31
0.0
  0
LINE
  5
225
330
1F
100
AcDbEntity
  8
0
  6
CONTINUOUS
 62
     7
100
AcDbLine
 10
240.4515084397
 20
111.9895197118
 30
0.0
 11
240.6397473585
 21
112.0721866975
 31
0.0
  0
LINE
  5
226
330
1F
100
AcDbEntity
  8
0
  6
CONTINUOUS
 62
     7
100
AcDbLine
 10
240.6397473585
 20
111.6105943585
 30
0.0
 11
240.4515084397
 21
111.9895197118
 31
0.0
  0
LINE
  5
227
330
1F
100
AcDbEntity
  8
0
  6
CONTINUOUS
 62
     7
100
AcDbLine
 10
240.4515084397
 20
111.5502977411
 30
0.0
 11
240.6397473585
 21
111.6105943585
 31
0.0
  0
LINE
  5
228
330
1F
100
AcDbEntity
  8
0
  6
CONTINUOUS
 62
     7
100
AcDbLine
 10
240.6397473585
 20
111.1828844661
 30
0.0
 11
240.4515084397
 21
111.5502977411
 31
0.0
  0
LINE
  5
229
330
1F
100
AcDbEntity
  8
0
  6
CONTINUOUS
 62
     7
100
AcDbLine
 10
240.4515084397
 20
111.1451249237
 30
0.0
 11
240.6397473585
 21
111.1828844661
 31
0.0
  0
LINE
  5
22A
330
1F
100
AcDbEntity
  8
0
  6
CONTINUOUS
 62
     7
100
AcDbLine
 10
240.6397473585
 20
110.7902304868
 30
0.0
 11
240.4515084397
 21
111.1451249237
 31
0.0
  0
LINE
  5
22B
330
1F
100
AcDbEntity
  8
0
  6
CONTINUOUS
 62
     7
100
AcDbLine
 10
240.4515084397
 20
110.7751104648
 30
0.0
 11
240.6397473585
 21
110.7902304868
 31
0.0
  0
LINE
  5
22C
330
1F
100
AcDbEntity
  8
0
  6
CONTINUOUS
 62
     7
100
AcDbLine
 10
240.6397473585
 20
110.4337071667
 30
0.0
 11
240.4515084397
 21
110.7751104648
 31
0.0
  0
LINE
  5
22D
330
1F
100
AcDbEntity
  8
0
  6
CONTINUOUS
 62
     7
100
AcDbLine
 10
240.4515084397
 20
110.4412685747
 30
0.0
 11
240.6397473585
 21
110.4337071667
 31
0.0
  0
LINE
  5
22E
330
1F
100
AcDbEntity
  8
0
  6
CONTINUOUS
 62
     7
100
AcDbLine
 10
240.6397473585
 20
110.1142942572
 30
0.0
 11
240.4515084397
 21
110.4412685747
 31
0.0
  0
LINE
  5
22F
330
1F
100
AcDbEntity
  8
0
  6
CONTINUOUS
 62
     7
100
AcDbLine
 10
240.4515084397
 20
110.1445156748
 30
0.0
 11
240.6397473585
 21
110.1142942572
 31
0.0
  0
LINE
  5
230
330
1F
100
AcDbEntity
  8
0
  6
CONTINUOUS
 62
     7
100
AcDbLine
 10
240.6397473585
 20
109.8328644077
 30
0.0
 11
240.4515084397
 21
110.1445156748
 31
0.0
  0
LINE
  5
231
330
1F
100
AcDbEntity
  8
0
  6
CONTINUOUS
 62
     7
100
AcDbLine
 10
240.4515084397
 20
109.8856638784
 30
0.0
 11
240.6397473585
 21
109.8328644077
 31
0.0
  0
LINE
  5
232
330
1F
100
AcDbEntity
  8
0
  6
CONTINUOUS
 62
     7
100
AcDbLine
 10
240.6397473585
 20
109.5901906157
 30
0.0
 11
240.4515084397
 21
109.8856638784
 31
0.0
  0
LINE
  5
233
330
1F
100
AcDbEntity
  8
0
  6
CONTINUOUS
 62
     7
100
AcDbLine
 10
240.4515084397
 20
109.6654228533
 30
0.0
 11
240.6397473585
 21
109.5901906157
 31
0.0
  0
LINE
  5
234
330
1F
100
AcDbEntity
  8
0
  6
CONTINUOUS
 62
     7
100
AcDbLine
 10
240.6397473585
 20
109.3869378457
 30
0.0
 11
240.4515084397
 21
109.6654228533
 31
0.0
  0
LINE
  5
235
330
1F
100
AcDbEntity
  8
0
  6
CONTINUOUS
 62
     7
100
AcDbLine
 10
240.4515084397
 20
109.4843970279
 30
0.0
 11
240.6397473585
 21
109.3869378457
 31
0.0
  0
LINE
  5
236
330
1F
100
AcDbEntity
  8
0
  6
CONTINUOUS
 62
     7
100
AcDbLine
 10
240.6397473585
 20
109.2236630286
 30
0.0
 11
240.4515084397
 21
109.4843970279
 31
0.0
  0
LINE
  5
237
330
1F
100
AcDbEntity
  8
0
  6
CONTINUOUS
 62
     7
100
AcDbLine
 10
240.4515084397
 20
109.3430818657
 30
0.0
 11
240.6397473585
 21
109.2236630286
 31
0.0
  0
LINE
  5
238
330
1F
100
AcDbEntity
  8
0
  6
CONTINUOUS
 62
     7
100
AcDbLine
 10
240.6397473585
 20
109.1008141304
 30
0.0
 11
240.4515084397
 21
109.3430818657
 31
0.0
  0
LINE
  5
239
330
1F
100
AcDbEntity
  8
0
  6
CONTINUOUS
 62
     7
100
AcDbLine
 10
240.4515084397
 20
109.241864797
 30
0.0
 11
240.6397473585
 21
109.1008141304
 31
0.0
  0
LINE
  5
23A
330
1F
100
AcDbEntity
  8
0
  6
CONTINUOUS
 62
     7
100
AcDbLine
 10
240.6397473585
 20
109.0187264273
 30
0.0
 11
240.4515084397
 21
109.241864797
 31
0.0
  0
LINE
  5
23B
330
1F
100
AcDbEntity
  8
0
  6
CONTINUOUS
 62
     7
100
AcDbLine
 10
240.4515084397
 20
109.1810233558
 30
0.0
 11
240.6397473585
 21
109.0187264273
 31
0.0
  0
LINE
  5
23C
330
1F
100
AcDbEntity
  8
0
  6
CONTINUOUS
 62
     7
100
AcDbLine
 10
240.6397473585
 20
108.9776271621
 30
0.0
 11
240.4515084397
 21
109.1810233558
 31
0.0
  0
LINE
  5
23D
330
1F
100
AcDbEntity
  8
0
  6
CONTINUOUS
 62
     7
100
AcDbLine
 10
240.4515084397
 20
109.160724249
 30
0.0
 11
240.6397473585
 21
108.9776271621
 31
0.0
  0
LINE
  5
23E
330
1F
100
AcDbEntity
  8
0
  6
CONTINUOUS
 62
     7
100
AcDbLine
 10
248.6397486698
 20
124.3651410697
 30
0.0
 11
248.8279875886
 21
123.9724868576
 31
0.0
  0
LINE
  5
23F
330
1F
100
AcDbEntity
  8
0
  6
CONTINUOUS
 62
     7
100
AcDbLine
 10
240.4515084397
 20
123.9724868576
 30
0.0
 11
248.8279875886
 21
123.9724868576
 31
0.0
  0
LINE
  5
240
330
1F
100
AcDbEntity
  8
0
  6
CONTINUOUS
 62
     7
100
AcDbLine
 10
249.6397432458
 20
123.9724868576
 30
0.0
 11
249.6397432458
 21
109.9724864254
 31
0.0
  0
LINE
  5
241
330
1F
100
AcDbEntity
  8
0
  6
CONTINUOUS
 62
     7
100
AcDbLine
 10
249.6397432458
 20
137.9724872897
 30
0.0
 11
249.6397432458
 21
123.9724868576
 31
0.0
  0
LINE
  5
242
330
1F
100
AcDbEntity
  8
0
  6
CONTINUOUS
 62
     7
100
AcDbLine
 10
248.6397486698
 20
108.9776271621
 30
0.0
 11
248.8279875886
 21
109.160724249
 31
0.0
  0
LINE
  5
243
330
1F
100
AcDbEntity
  8
0
  6
CONTINUOUS
 62
     7
100
AcDbLine
 10
248.8279875886
 20
109.1810233558
 30
0.0
 11
248.6397486698
 21
108.9776271621
 31
0.0
  0
LINE
  5
244
330
1F
100
AcDbEntity
  8
0
  6
CONTINUOUS
 62
     7
100
AcDbLine
 10
248.6397486698
 20
109.0187264273
 30
0.0
 11
248.8279875886
 21
109.1810233558
 31
0.0
  0
LINE
  5
245
330
1F
100
AcDbEntity
  8
0
  6
CONTINUOUS
 62
     7
100
AcDbLine
 10
248.8279875886
 20
109.241864797
 30
0.0
 11
248.6397486698
 21
109.0187264273
 31
0.0
  0
LINE
  5
246
330
1F
100
AcDbEntity
  8
0
  6
CONTINUOUS
 62
     7
100
AcDbLine
 10
248.6397486698
 20
109.1008141304
 30
0.0
 11
248.8279875886
 21
109.241864797
 31
0.0
  0
LINE
  5
247
330
1F
100
AcDbEntity
  8
0
  6
CONTINUOUS
 62
     7
100
AcDbLine
 10
248.8279875886
 20
109.3430818657
 30
0.0
 11
248.6397486698
 21
109.1008141304
 31
0.0
  0
LINE
  5
248
330
1F
100
AcDbEntity
  8
0
  6
CONTINUOUS
 62
     7
100
AcDbLine
 10
248.6397486698
 20
109.2236630286
 30
0.0
 11
248.8279875886
 21
109.3430818657
 31
0.0
  0
LINE
  5
249
330
1F
100
AcDbEntity
  8
0
  6
CONTINUOUS
 62
     7
100
AcDbLine
 10
248.8279875886
 20
109.4843970279
 30
0.0
 11
248.6397486698
 21
109.2236630286
 31
0.0
  0
LINE
  5
24A
330
1F
100
AcDbEntity
  8
0
  6
CONTINUOUS
 62
     7
100
AcDbLine
 10
248.6397486698
 20
109.3869378457
 30
0.0
 11
248.8279875886
 21
109.4843970279
 31
0.0
  0
LINE
  5
24B
330
1F
100
AcDbEntity
  8
0
  6
CONTINUOUS
 62
     7
100
AcDbLine
 10
248.8279875886
 20
109.6654228533
 30
0.0
 11
248.6397486698
 21
109.3869378457
 31
0.0
  0
LINE
  5
24C
330
1F
100
AcDbEntity
  8
0
  6
CONTINUOUS
 62
     7
100
AcDbLine
 10
248.6397486698
 20
109.5901906157
 30
0.0
 11
248.8279875886
 21
109.6654228533
 31
0.0
  0
LINE
  5
24D
330
1F
100
AcDbEntity
  8
0
  6
CONTINUOUS
 62
     7
100
AcDbLine
 10
248.8279875886
 20
109.8856638784
 30
0.0
 11
248.6397486698
 21
109.5901906157
 31
0.0
  0
LINE
  5
24E
330
1F
100
AcDbEntity
  8
0
  6
CONTINUOUS
 62
     7
100
AcDbLine
 10
248.6397486698
 20
109.8328644077
 30
0.0
 11
248.8279875886
 21
109.8856638784
 31
0.0
  0
LINE
  5
24F
330
1F
100
AcDbEntity
  8
0
  6
CONTINUOUS
 62
     7
100
AcDbLine
 10
248.8279875886
 20
110.1445156748
 30
0.0
 11
248.6397486698
 21
109.8328644077
 31
0.0
  0
LINE
  5
250
330
1F
100
AcDbEntity
  8
0
  6
CONTINUOUS
 62
     7
100
AcDbLine
 10
248.6397486698
 20
110.1142942572
 30
0.0
 11
248.8279875886
 21
110.1445156748
 31
0.0
  0
LINE
  5
251
330
1F
100
AcDbEntity
  8
0
  6
CONTINUOUS
 62
     7
100
AcDbLine
 10
248.8279875886
 20
110.4412685747
 30
0.0
 11
248.6397486698
 21
110.1142942572
 31
0.0
  0
LINE
  5
252
330
1F
100
AcDbEntity
  8
0
  6
CONTINUOUS
 62
     7
100
AcDbLine
 10
248.6397486698
 20
110.4337071667
 30
0.0
 11
248.8279875886
 21
110.4412685747
 31
0.0
  0
LINE
  5
253
330
1F
100
AcDbEntity
  8
0
  6
CONTINUOUS
 62
     7
100
AcDbLine
 10
248.8279875886
 20
110.7751104648
 30
0.0
 11
248.6397486698
 21
110.4337071667
 31
0.0
  0
LINE
  5
254
330
1F
100
AcDbEntity
  8
0
  6
CONTINUOUS
 62
     7
100
AcDbLine
 10
248.6397486698
 20
110.7902304868
 30
0.0
 11
248.8279875886
 21
110.7751104648
 31
0.0
  0
LINE
  5
255
330
1F
100
AcDbEntity
  8
0
  6
CONTINUOUS
 62
     7
100
AcDbLine
 10
248.8279875886
 20
111.1451249237
 30
0.0
 11
248.6397486698
 21
110.7902304868
 31
0.0
  0
LINE
  5
256
330
1F
100
AcDbEntity
  8
0
  6
CONTINUOUS
 62
     7
100
AcDbLine
 10
248.6397486698
 20
111.1828844661
 30
0.0
 11
248.8279875886
 21
111.1451249237
 31
0.0
  0
LINE
  5
257
330
1F
100
AcDbEntity
  8
0
  6
CONTINUOUS
 62
     7
100
AcDbLine
 10
248.8279875886
 20
111.5502977411
 30
0.0
 11
248.6397486698
 21
111.1828844661
 31
0.0
  0
LINE
  5
258
330
1F
100
AcDbEntity
  8
0
  6
CONTINUOUS
 62
     7
100
AcDbLine
 10
248.6397486698
 20
111.6105943585
 30
0.0
 11
248.8279875886
 21
111.5502977411
 31
0.0
  0
LINE
  5
259
330
1F
100
AcDbEntity
  8
0
  6
CONTINUOUS
 62
     7
100
AcDbLine
 10
248.8279875886
 20
111.9895197118
 30
0.0
 11
248.6397486698
 21
111.6105943585
 31
0.0
  0
LINE
  5
25A
330
1F
100
AcDbEntity
  8
0
  6
CONTINUOUS
 62
     7
100
AcDbLine
 10
248.6397486698
 20
112.0721866975
 30
0.0
 11
248.8279875886
 21
111.9895197118
 31
0.0
  0
LINE
  5
25B
330
1F
100
AcDbEntity
  8
0
  6
CONTINUOUS
 62
     7
100
AcDbLine
 10
248.8279875886
 20
112.4615857045
 30
0.0
 11
248.6397486698
 21
112.0721866975
 31
0.0
  0
LINE
  5
25C
330
1F
100
AcDbEntity
  8
0
  6
CONTINUOUS
 62
     7
100
AcDbLine
 10
248.6397486698
 20
112.5663976783
 30
0.0
 11
248.8279875886
 21
112.4615857045
 31
0.0
  0
LINE
  5
25D
330
1F
100
AcDbEntity
  8
0
  6
CONTINUOUS
 62
     7
100
AcDbLine
 10
248.8279875886
 20
112.965202112
 30
0.0
 11
248.6397486698
 21
112.5663976783
 31
0.0
  0
LINE
  5
25E
330
1F
100
AcDbEntity
  8
0
  6
CONTINUOUS
 62
     7
100
AcDbLine
 10
248.6397486698
 20
113.0918712954
 30
0.0
 11
248.8279875886
 21
112.965202112
 31
0.0
  0
LINE
  5
25F
330
1F
100
AcDbEntity
  8
0
  6
CONTINUOUS
 62
     7
100
AcDbLine
 10
248.8279875886
 20
113.4989896456
 30
0.0
 11
248.6397486698
 21
113.0918712954
 31
0.0
  0
LINE
  5
260
330
1F
100
AcDbEntity
  8
0
  6
CONTINUOUS
 62
     7
100
AcDbLine
 10
248.6397486698
 20
113.6471686552
 30
0.0
 11
248.8279875886
 21
113.4989896456
 31
0.0
  0
LINE
  5
261
330
1F
100
AcDbEntity
  8
0
  6
CONTINUOUS
 62
     7
100
AcDbLine
 10
248.8279875886
 20
114.061483335
 30
0.0
 11
248.6397486698
 21
113.6471686552
 31
0.0
  0
LINE
  5
262
330
1F
100
AcDbEntity
  8
0
  6
CONTINUOUS
 62
     7
100
AcDbLine
 10
248.6397486698
 20
114.2307661141
 30
0.0
 11
248.8279875886
 21
114.061483335
 31
0.0
  0
LINE
  5
263
330
1F
100
AcDbEntity
  8
0
  6
CONTINUOUS
 62
     7
100
AcDbLine
 10
248.8279875886
 20
114.6511427725
 30
0.0
 11
248.6397486698
 21
114.2307661141
 31
0.0
  0
LINE
  5
264
330
1F
100
AcDbEntity
  8
0
  6
CONTINUOUS
 62
     7
100
AcDbLine
 10
248.6397486698
 20
114.8410655225
 30
0.0
 11
248.8279875886
 21
114.6511427725
 31
0.0
  0
LINE
  5
265
330
1F
100
AcDbEntity
  8
0
  6
CONTINUOUS
 62
     7
100
AcDbLine
 10
248.8279875886
 20
115.2663511822
 30
0.0
 11
248.6397486698
 21
114.8410655225
 31
0.0
  0
LINE
  5
266
330
1F
100
AcDbEntity
  8
0
  6
CONTINUOUS
 62
     7
100
AcDbLine
 10
248.6397486698
 20
115.4763932938
 30
0.0
 11
248.8279875886
 21
115.2663511822
 31
0.0
  0
LINE
  5
267
330
1F
100
AcDbEntity
  8
0
  6
CONTINUOUS
 62
     7
100
AcDbLine
 10
248.8279875886
 20
115.9054228703
 30
0.0
 11
248.6397486698
 21
115.4763932938
 31
0.0
  0
LINE
  5
268
330
1F
100
AcDbEntity
  8
0
  6
CONTINUOUS
 62
     7
100
AcDbLine
 10
248.6397486698
 20
116.1350087861
 30
0.0
 11
248.8279875886
 21
115.9054228703
 31
0.0
  0
LINE
  5
269
330
1F
100
AcDbEntity
  8
0
  6
CONTINUOUS
 62
     7
100
AcDbLine
 10
248.8279875886
 20
116.5666055533
 30
0.0
 11
248.6397486698
 21
116.1350087861
 31
0.0
  0
LINE
  5
26A
330
1F
100
AcDbEntity
  8
0
  6
CONTINUOUS
 62
     7
100
AcDbLine
 10
248.6397486698
 20
116.8151052336
 30
0.0
 11
248.8279875886
 21
116.5666055533
 31
0.0
  0
LINE
  5
26B
330
1F
100
AcDbEntity
  8
0
  6
CONTINUOUS
 62
     7
100
AcDbLine
 10
248.8279875886
 20
117.2480873431
 30
0.0
 11
248.6397486698
 21
116.8151052336
 31
0.0
  0
LINE
  5
26C
330
1F
100
AcDbEntity
  8
0
  6
CONTINUOUS
 62
     7
100
AcDbLine
 10
248.6397486698
 20
117.5148204567
 30
0.0
 11
248.8279875886
 21
117.2480873431
 31
0.0
  0
LINE
  5
26D
330
1F
100
AcDbEntity
  8
0
  6
CONTINUOUS
 62
     7
100
AcDbLine
 10
248.8279875886
 20
117.9480004723
 30
0.0
 11
248.6397486698
 21
117.5148204567
 31
0.0
  0
LINE
  5
26E
330
1F
100
AcDbEntity
  8
0
  6
CONTINUOUS
 62
     7
100
AcDbLine
 10
248.6397486698
 20
118.2322354654
 30
0.0
 11
248.8279875886
 21
117.9480004723
 31
0.0
  0
LINE
  5
26F
330
1F
100
AcDbEntity
  8
0
  6
CONTINUOUS
 62
     7
100
AcDbLine
 10
248.8279875886
 20
118.6644259507
 30
0.0
 11
248.6397486698
 21
118.2322354654
 31
0.0
  0
LINE
  5
270
330
1F
100
AcDbEntity
  8
0
  6
CONTINUOUS
 62
     7
100
AcDbLine
 10
248.6397486698
 20
118.965383772
 30
0.0
 11
248.8279875886
 21
118.6644259507
 31
0.0
  0
LINE
  5
271
330
1F
100
AcDbEntity
  8
0
  6
CONTINUOUS
 62
     7
100
AcDbLine
 10
248.8279875886
 20
119.3954005504
 30
0.0
 11
248.6397486698
 21
118.965383772
 31
0.0
  0
LINE
  5
272
330
1F
100
AcDbEntity
  8
0
  6
CONTINUOUS
 62
     7
100
AcDbLine
 10
248.6397486698
 20
119.7122565138
 30
0.0
 11
248.8279875886
 21
119.3954005504
 31
0.0
  0
LINE
  5
273
330
1F
100
AcDbEntity
  8
0
  6
CONTINUOUS
 62
     7
100
AcDbLine
 10
248.8279875886
 20
120.1389207637
 30
0.0
 11
248.6397486698
 21
119.7122565138
 31
0.0
  0
LINE
  5
274
330
1F
100
AcDbEntity
  8
0
  6
CONTINUOUS
 62
     7
100
AcDbLine
 10
248.6397486698
 20
120.4708064108
 30
0.0
 11
248.8279875886
 21
120.1389207637
 31
0.0
  0
LINE
  5
275
330
1F
100
AcDbEntity
  8
0
  6
CONTINUOUS
 62
     7
100
AcDbLine
 10
248.8279875886
 20
120.8929483911
 30
0.0
 11
248.6397486698
 21
120.4708064108
 31
0.0
  0
LINE
  5
276
330
1F
100
AcDbEntity
  8
0
  6
CONTINUOUS
 62
     7
100
AcDbLine
 10
248.6397486698
 20
121.2389540526
 30
0.0
 11
248.8279875886
 21
120.8929483911
 31
0.0
  0
LINE
  5
277
330
1F
100
AcDbEntity
  8
0
  6
CONTINUOUS
 62
     7
100
AcDbLine
 10
248.8279875886
 20
121.6554168279
 30
0.0
 11
248.6397486698
 21
121.2389540526
 31
0.0
  0
LINE
  5
278
330
1F
100
AcDbEntity
  8
0
  6
CONTINUOUS
 62
     7
100
AcDbLine
 10
248.6397486698
 20
122.0145939516
 30
0.0
 11
248.8279875886
 21
121.6554168279
 31
0.0
  0
LINE
  5
279
330
1F
100
AcDbEntity
  8
0
  6
CONTINUOUS
 62
     7
100
AcDbLine
 10
248.8279875886
 20
122.4242360697
 30
0.0
 11
248.6397486698
 21
122.0145939516
 31
0.0
  0
LINE
  5
27A
330
1F
100
AcDbEntity
  8
0
  6
CONTINUOUS
 62
     7
100
AcDbLine
 10
248.6397486698
 20
122.7956003642
 30
0.0
 11
248.8279875886
 21
122.4242360697
 31
0.0
  0
LINE
  5
27B
330
1F
100
AcDbEntity
  8
0
  6
CONTINUOUS
 62
     7
100
AcDbLine
 10
248.8279875886
 20
123.1972991156
 30
0.0
 11
248.6397486698
 21
122.7956003642
 31
0.0
  0
LINE
  5
27C
330
1F
100
AcDbEntity
  8
0
  6
CONTINUOUS
 62
     7
100
AcDbLine
 10
248.6397486698
 20
123.5798326454
 30
0.0
 11
248.8279875886
 21
123.1972991156
 31
0.0
  0
LINE
  5
27D
330
1F
100
AcDbEntity
  8
0
  6
CONTINUOUS
 62
     7
100
AcDbLine
 10
248.8279875886
 20
123.9724868576
 30
0.0
 11
248.6397486698
 21
123.5798326454
 31
0.0
  0
LINE
  5
27E
330
1F
100
AcDbEntity
  8
0
  6
CONTINUOUS
 62
     7
100
AcDbLine
 10
248.6397486698
 20
125.1493733509
 30
0.0
 11
248.8279875886
 21
124.7476745995
 31
0.0
  0
LINE
  5
27F
330
1F
100
AcDbEntity
  8
0
  6
CONTINUOUS
 62
     7
100
AcDbLine
 10
248.8279875886
 20
125.5207376454
 30
0.0
 11
248.6397486698
 21
125.1493733509
 31
0.0
  0
LINE
  5
280
330
1F
100
AcDbEntity
  8
0
  6
CONTINUOUS
 62
     7
100
AcDbLine
 10
248.6397486698
 20
125.9303797635
 30
0.0
 11
248.8279875886
 21
125.5207376454
 31
0.0
  0
LINE
  5
281
330
1F
100
AcDbEntity
  8
0
  6
CONTINUOUS
 62
     7
100
AcDbLine
 10
248.8279875886
 20
126.2895568872
 30
0.0
 11
248.6397486698
 21
125.9303797635
 31
0.0
  0
LINE
  5
282
330
1F
100
AcDbEntity
  8
0
  6
CONTINUOUS
 62
     7
100
AcDbLine
 10
248.6397486698
 20
126.7060196626
 30
0.0
 11
248.8279875886
 21
126.2895568872
 31
0.0
  0
LINE
  5
283
330
1F
100
AcDbEntity
  8
0
  6
CONTINUOUS
 62
     7
100
AcDbLine
 10
248.8279875886
 20
127.052025324
 30
0.0
 11
248.6397486698
 21
126.7060196626
 31
0.0
  0
LINE
  5
284
330
1F
100
AcDbEntity
  8
0
  6
CONTINUOUS
 62
     7
100
AcDbLine
 10
248.6397486698
 20
127.4741673043
 30
0.0
 11
248.8279875886
 21
127.052025324
 31
0.0
  0
LINE
  5
285
330
1F
100
AcDbEntity
  8
0
  6
CONTINUOUS
 62
     7
100
AcDbLine
 10
248.8279875886
 20
127.8060529514
 30
0.0
 11
248.6397486698
 21
127.4741673043
 31
0.0
  0
LINE
  5
286
330
1F
100
AcDbEntity
  8
0
  6
CONTINUOUS
 62
     7
100
AcDbLine
 10
248.6397486698
 20
128.2327172013
 30
0.0
 11
248.8279875886
 21
127.8060529514
 31
0.0
  0
LINE
  5
287
330
1F
100
AcDbEntity
  8
0
  6
CONTINUOUS
 62
     7
100
AcDbLine
 10
248.8279875886
 20
128.5495731647
 30
0.0
 11
248.6397486698
 21
128.2327172013
 31
0.0
  0
LINE
  5
288
330
1F
100
AcDbEntity
  8
0
  6
CONTINUOUS
 62
     7
100
AcDbLine
 10
248.6397486698
 20
128.9795899431
 30
0.0
 11
248.8279875886
 21
128.5495731647
 31
0.0
  0
LINE
  5
289
330
1F
100
AcDbEntity
  8
0
  6
CONTINUOUS
 62
     7
100
AcDbLine
 10
248.8279875886
 20
129.2805477644
 30
0.0
 11
248.6397486698
 21
128.9795899431
 31
0.0
  0
LINE
  5
28A
330
1F
100
AcDbEntity
  8
0
  6
CONTINUOUS
 62
     7
100
AcDbLine
 10
248.6397486698
 20
129.7127382497
 30
0.0
 11
248.8279875886
 21
129.2805477644
 31
0.0
  0
LINE
  5
28B
330
1F
100
AcDbEntity
  8
0
  6
CONTINUOUS
 62
     7
100
AcDbLine
 10
248.8279875886
 20
129.9969732428
 30
0.0
 11
248.6397486698
 21
129.7127382497
 31
0.0
  0
LINE
  5
28C
330
1F
100
AcDbEntity
  8
0
  6
CONTINUOUS
 62
     7
100
AcDbLine
 10
248.6397486698
 20
130.4301532584
 30
0.0
 11
248.8279875886
 21
129.9969732428
 31
0.0
  0
LINE
  5
28D
330
1F
100
AcDbEntity
  8
0
  6
CONTINUOUS
 62
     7
100
AcDbLine
 10
248.8279875886
 20
130.6968863721
 30
0.0
 11
248.6397486698
 21
130.4301532584
 31
0.0
  0
LINE
  5
28E
330
1F
100
AcDbEntity
  8
0
  6
CONTINUOUS
 62
     7
100
AcDbLine
 10
248.6397486698
 20
131.1298684815
 30
0.0
 11
248.8279875886
 21
130.6968863721
 31
0.0
  0
LINE
  5
28F
330
1F
100
AcDbEntity
  8
0
  6
CONTINUOUS
 62
     7
100
AcDbLine
 10
248.8279875886
 20
131.3783681619
 30
0.0
 11
248.6397486698
 21
131.1298684815
 31
0.0
  0
LINE
  5
290
330
1F
100
AcDbEntity
  8
0
  6
CONTINUOUS
 62
     7
100
AcDbLine
 10
248.6397486698
 20
131.809964929
 30
0.0
 11
248.8279875886
 21
131.3783681619
 31
0.0
  0
LINE
  5
291
330
1F
100
AcDbEntity
  8
0
  6
CONTINUOUS
 62
     7
100
AcDbLine
 10
248.8279875886
 20
132.0395508448
 30
0.0
 11
248.6397486698
 21
131.809964929
 31
0.0
  0
LINE
  5
292
330
1F
100
AcDbEntity
  8
0
  6
CONTINUOUS
 62
     7
100
AcDbLine
 10
248.6397486698
 20
132.4685804213
 30
0.0
 11
248.8279875886
 21
132.0395508448
 31
0.0
  0
LINE
  5
293
330
1F
100
AcDbEntity
  8
0
  6
CONTINUOUS
 62
     7
100
AcDbLine
 10
248.8279875886
 20
132.6786225329
 30
0.0
 11
248.6397486698
 21
132.4685804213
 31
0.0
  0
LINE
  5
294
330
1F
100
AcDbEntity
  8
0
  6
CONTINUOUS
 62
     7
100
AcDbLine
 10
248.6397486698
 20
133.1039081926
 30
0.0
 11
248.8279875886
 21
132.6786225329
 31
0.0
  0
LINE
  5
295
330
1F
100
AcDbEntity
  8
0
  6
CONTINUOUS
 62
     7
100
AcDbLine
 10
248.8279875886
 20
133.2938309426
 30
0.0
 11
248.6397486698
 21
133.1039081926
 31
0.0
  0
LINE
  5
296
330
1F
100
AcDbEntity
  8
0
  6
CONTINUOUS
 62
     7
100
AcDbLine
 10
248.6397486698
 20
133.714207601
 30
0.0
 11
248.8279875886
 21
133.2938309426
 31
0.0
  0
LINE
  5
297
330
1F
100
AcDbEntity
  8
0
  6
CONTINUOUS
 62
     7
100
AcDbLine
 10
248.8279875886
 20
133.8834903801
 30
0.0
 11
248.6397486698
 21
133.714207601
 31
0.0
  0
LINE
  5
298
330
1F
100
AcDbEntity
  8
0
  6
CONTINUOUS
 62
     7
100
AcDbLine
 10
248.6397486698
 20
134.2978050599
 30
0.0
 11
248.8279875886
 21
133.8834903801
 31
0.0
  0
LINE
  5
299
330
1F
100
AcDbEntity
  8
0
  6
CONTINUOUS
 62
     7
100
AcDbLine
 10
248.8279875886
 20
134.4459840695
 30
0.0
 11
248.6397486698
 21
134.2978050599
 31
0.0
  0
LINE
  5
29A
330
1F
100
AcDbEntity
  8
0
  6
CONTINUOUS
 62
     7
100
AcDbLine
 10
248.6397486698
 20
134.8531024198
 30
0.0
 11
248.8279875886
 21
134.4459840695
 31
0.0
  0
LINE
  5
29B
330
1F
100
AcDbEntity
  8
0
  6
CONTINUOUS
 62
     7
100
AcDbLine
 10
248.8279875886
 20
134.9797716031
 30
0.0
 11
248.6397486698
 21
134.8531024198
 31
0.0
  0
LINE
  5
29C
330
1F
100
AcDbEntity
  8
0
  6
CONTINUOUS
 62
     7
100
AcDbLine
 10
248.6397486698
 20
135.3785760368
 30
0.0
 11
248.8279875886
 21
134.9797716031
 31
0.0
  0
LINE
  5
29D
330
1F
100
AcDbEntity
  8
0
  6
CONTINUOUS
 62
     7
100
AcDbLine
 10
248.8279875886
 20
135.4833880106
 30
0.0
 11
248.6397486698
 21
135.3785760368
 31
0.0
  0
LINE
  5
29E
330
1F
100
AcDbEntity
  8
0
  6
CONTINUOUS
 62
     7
100
AcDbLine
 10
248.6397486698
 20
135.8727870176
 30
0.0
 11
248.8279875886
 21
135.4833880106
 31
0.0
  0
LINE
  5
29F
330
1F
100
AcDbEntity
  8
0
  6
CONTINUOUS
 62
     7
100
AcDbLine
 10
248.8279875886
 20
135.9554540033
 30
0.0
 11
248.6397486698
 21
135.8727870176
 31
0.0
  0
LINE
  5
2A0
330
1F
100
AcDbEntity
  8
0
  6
CONTINUOUS
 62
     7
100
AcDbLine
 10
248.6397486698
 20
136.3343793566
 30
0.0
 11
248.8279875886
 21
135.9554540033
 31
0.0
  0
LINE
  5
2A1
330
1F
100
AcDbEntity
  8
0
  6
CONTINUOUS
 62
     7
100
AcDbLine
 10
248.8279875886
 20
136.394675974
 30
0.0
 11
248.6397486698
 21
136.3343793566
 31
0.0
  0
LINE
  5
2A2
330
1F
100
AcDbEntity
  8
0
  6
CONTINUOUS
 62
     7
100
AcDbLine
 10
248.6397486698
 20
136.762089249
 30
0.0
 11
248.8279875886
 21
136.394675974
 31
0.0
  0
LINE
  5
2A3
330
1F
100
AcDbEntity
  8
0
  6
CONTINUOUS
 62
     7
100
AcDbLine
 10
248.8279875886
 20
136.7998487914
 30
0.0
 11
248.6397486698
 21
136.762089249
 31
0.0
  0
LINE
  5
2A4
330
1F
100
AcDbEntity
  8
0
  6
CONTINUOUS
 62
     7
100
AcDbLine
 10
248.6397486698
 20
137.1547432283
 30
0.0
 11
248.8279875886
 21
136.7998487914
 31
0.0
  0
LINE
  5
2A5
330
1F
100
AcDbEntity
  8
0
  6
CONTINUOUS
 62
     7
100
AcDbLine
 10
248.8279875886
 20
137.1698632503
 30
0.0
 11
248.6397486698
 21
137.1547432283
 31
0.0
  0
LINE
  5
2A6
330
1F
100
AcDbEntity
  8
0
  6
CONTINUOUS
 62
     7
100
AcDbLine
 10
248.6397486698
 20
137.5112665484
 30
0.0
 11
248.8279875886
 21
137.1698632503
 31
0.0
  0
LINE
  5
2A7
330
1F
100
AcDbEntity
  8
0
  6
CONTINUOUS
 62
     7
100
AcDbLine
 10
248.8279875886
 20
137.5037051404
 30
0.0
 11
248.6397486698
 21
137.5112665484
 31
0.0
  0
LINE
  5
2A8
330
1F
100
AcDbEntity
  8
0
  6
CONTINUOUS
 62
     7
100
AcDbLine
 10
248.6397486698
 20
137.8306794579
 30
0.0
 11
248.8279875886
 21
137.5037051404
 31
0.0
  0
LINE
  5
2A9
330
1F
100
AcDbEntity
  8
0
  6
CONTINUOUS
 62
     7
100
AcDbLine
 10
248.8279875886
 20
137.8004580403
 30
0.0
 11
248.6397486698
 21
137.8306794579
 31
0.0
  0
LINE
  5
2AA
330
1F
100
AcDbEntity
  8
0
  6
CONTINUOUS
 62
     7
100
AcDbLine
 10
248.6397486698
 20
138.1121093074
 30
0.0
 11
248.8279875886
 21
137.8004580403
 31
0.0
  0
LINE
  5
2AB
330
1F
100
AcDbEntity
  8
0
  6
CONTINUOUS
 62
     7
100
AcDbLine
 10
248.8279875886
 20
138.0593098367
 30
0.0
 11
248.6397486698
 21
138.1121093074
 31
0.0
  0
LINE
  5
2AC
330
1F
100
AcDbEntity
  8
0
  6
CONTINUOUS
 62
     7
100
AcDbLine
 10
248.6397486698
 20
138.3547830994
 30
0.0
 11
248.8279875886
 21
138.0593098367
 31
0.0
  0
LINE
  5
2AD
330
1F
100
AcDbEntity
  8
0
  6
CONTINUOUS
 62
     7
100
AcDbLine
 10
248.8279875886
 20
138.2795508618
 30
0.0
 11
248.6397486698
 21
138.3547830994
 31
0.0
  0
LINE
  5
2AE
330
1F
100
AcDbEntity
  8
0
  6
CONTINUOUS
 62
     7
100
AcDbLine
 10
248.6397486698
 20
138.5580358694
 30
0.0
 11
248.8279875886
 21
138.2795508618
 31
0.0
  0
LINE
  5
2AF
330
1F
100
AcDbEntity
  8
0
  6
CONTINUOUS
 62
     7
100
AcDbLine
 10
248.8279875886
 20
138.4605766872
 30
0.0
 11
248.6397486698
 21
138.5580358694
 31
0.0
  0
LINE
  5
2B0
330
1F
100
AcDbEntity
  8
0
  6
CONTINUOUS
 62
     7
100
AcDbLine
 10
248.6397486698
 20
138.7213106866
 30
0.0
 11
248.8279875886
 21
138.4605766872
 31
0.0
  0
LINE
  5
2B1
330
1F
100
AcDbEntity
  8
0
  6
CONTINUOUS
 62
     7
100
AcDbLine
 10
248.8279875886
 20
138.6018918494
 30
0.0
 11
248.6397486698
 21
138.7213106866
 31
0.0
  0
LINE
  5
2B2
330
1F
100
AcDbEntity
  8
0
  6
CONTINUOUS
 62
     7
100
AcDbLine
 10
248.6397486698
 20
138.8441595847
 30
0.0
 11
248.8279875886
 21
138.6018918494
 31
0.0
  0
LINE
  5
2B3
330
1F
100
AcDbEntity
  8
0
  6
CONTINUOUS
 62
     7
100
AcDbLine
 10
248.8279875886
 20
138.7031089182
 30
0.0
 11
248.6397486698
 21
138.8441595847
 31
0.0
  0
LINE
  5
2B4
330
1F
100
AcDbEntity
  8
0
  6
CONTINUOUS
 62
     7
100
AcDbLine
 10
248.6397486698
 20
138.9262472878
 30
0.0
 11
248.8279875886
 21
138.7031089182
 31
0.0
  0
LINE
  5
2B5
330
1F
100
AcDbEntity
  8
0
  6
CONTINUOUS
 62
     7
100
AcDbLine
 10
248.8279875886
 20
138.7639503593
 30
0.0
 11
248.6397486698
 21
138.9262472878
 31
0.0
  0
LINE
  5
2B6
330
1F
100
AcDbEntity
  8
0
  6
CONTINUOUS
 62
     7
100
AcDbLine
 10
248.6397486698
 20
138.967346553
 30
0.0
 11
248.8279875886
 21
138.7639503593
 31
0.0
  0
LINE
  5
2B7
330
1F
100
AcDbEntity
  8
0
  6
CONTINUOUS
 62
     7
100
AcDbLine
 10
248.8279875886
 20
138.7842494661
 30
0.0
 11
248.6397486698
 21
138.967346553
 31
0.0
  0
LINE
  5
2B8
330
1F
100
AcDbEntity
  8
0
  6
CONTINUOUS
 62
     7
100
AcDbLine
 10
240.6397473585
 20
123.5798326454
 30
0.0
 11
248.6397486698
 21
123.5798326454
 31
0.0
  0
LINE
  5
2B9
330
1F
100
AcDbEntity
  8
0
  6
CONTINUOUS
 62
     7
100
AcDbLine
 10
240.4515084397
 20
123.1972991156
 30
0.0
 11
248.8279875886
 21
123.1972991156
 31
0.0
  0
LINE
  5
2BA
330
1F
100
AcDbEntity
  8
0
  6
CONTINUOUS
 62
     7
100
AcDbLine
 10
240.6397473585
 20
125.1493733509
 30
0.0
 11
248.6397486698
 21
125.1493733509
 31
0.0
  0
LINE
  5
2BB
330
1F
100
AcDbEntity
  8
0
  6
CONTINUOUS
 62
     7
100
AcDbLine
 10
240.4515084397
 20
125.5207376454
 30
0.0
 11
248.8279875886
 21
125.5207376454
 31
0.0
  0
LINE
  5
2BC
330
1F
100
AcDbEntity
  8
0
  6
CONTINUOUS
 62
     7
100
AcDbLine
 10
240.6397473585
 20
122.7956003642
 30
0.0
 11
248.6397486698
 21
122.7956003642
 31
0.0
  0
LINE
  5
2BD
330
1F
100
AcDbEntity
  8
0
  6
CONTINUOUS
 62
     7
100
AcDbLine
 10
240.4515084397
 20
122.4242360697
 30
0.0
 11
248.8279875886
 21
122.4242360697
 31
0.0
  0
LINE
  5
2BE
330
1F
100
AcDbEntity
  8
0
  6
CONTINUOUS
 62
     7
100
AcDbLine
 10
240.6397473585
 20
125.9303797635
 30
0.0
 11
248.6397486698
 21
125.9303797635
 31
0.0
  0
LINE
  5
2BF
330
1F
100
AcDbEntity
  8
0
  6
CONTINUOUS
 62
     7
100
AcDbLine
 10
240.4515084397
 20
126.2895568872
 30
0.0
 11
248.8279875886
 21
126.2895568872
 31
0.0
  0
LINE
  5
2C0
330
1F
100
AcDbEntity
  8
0
  6
CONTINUOUS
 62
     7
100
AcDbLine
 10
240.6397473585
 20
122.0145939516
 30
0.0
 11
248.6397486698
 21
122.0145939516
 31
0.0
  0
LINE
  5
2C1
330
1F
100
AcDbEntity
  8
0
  6
CONTINUOUS
 62
     7
100
AcDbLine
 10
240.4515084397
 20
121.6554168279
 30
0.0
 11
248.8279875886
 21
121.6554168279
 31
0.0
  0
LINE
  5
2C2
330
1F
100
AcDbEntity
  8
0
  6
CONTINUOUS
 62
     7
100
AcDbLine
 10
240.6397473585
 20
126.7060196626
 30
0.0
 11
248.6397486698
 21
126.7060196626
 31
0.0
  0
LINE
  5
2C3
330
1F
100
AcDbEntity
  8
0
  6
CONTINUOUS
 62
     7
100
AcDbLine
 10
240.4515084397
 20
127.052025324
 30
0.0
 11
248.8279875886
 21
127.052025324
 31
0.0
  0
LINE
  5
2C4
330
1F
100
AcDbEntity
  8
0
  6
CONTINUOUS
 62
     7
100
AcDbLine
 10
240.6397473585
 20
121.2389540526
 30
0.0
 11
248.6397486698
 21
121.2389540526
 31
0.0
  0
LINE
  5
2C5
330
1F
100
AcDbEntity
  8
0
  6
CONTINUOUS
 62
     7
100
AcDbLine
 10
240.4515084397
 20
120.8929483911
 30
0.0
 11
248.8279875886
 21
120.8929483911
 31
0.0
  0
LINE
  5
2C6
330
1F
100
AcDbEntity
  8
0
  6
CONTINUOUS
 62
     7
100
AcDbLine
 10
240.6397473585
 20
127.4741673043
 30
0.0
 11
248.6397486698
 21
127.4741673043
 31
0.0
  0
LINE
  5
2C7
330
1F
100
AcDbEntity
  8
0
  6
CONTINUOUS
 62
     7
100
AcDbLine
 10
240.4515084397
 20
127.8060529514
 30
0.0
 11
248.8279875886
 21
127.8060529514
 31
0.0
  0
LINE
  5
2C8
330
1F
100
AcDbEntity
  8
0
  6
CONTINUOUS
 62
     7
100
AcDbLine
 10
240.6397473585
 20
120.4708064108
 30
0.0
 11
248.6397486698
 21
120.4708064108
 31
0.0
  0
LINE
  5
2C9
330
1F
100
AcDbEntity
  8
0
  6
CONTINUOUS
 62
     7
100
AcDbLine
 10
240.4515084397
 20
120.1389207637
 30
0.0
 11
248.8279875886
 21
120.1389207637
 31
0.0
  0
LINE
  5
2CA
330
1F
100
AcDbEntity
  8
0
  6
CONTINUOUS
 62
     7
100
AcDbLine
 10
240.4515084397
 20
128.5495731647
 30
0.0
 11
248.8279875886
 21
128.5495731647
 31
0.0
  0
LINE
  5
2CB
330
1F
100
AcDbEntity
  8
0
  6
CONTINUOUS
 62
     7
100
AcDbLine
 10
240.6397473585
 20
128.2327172013
 30
0.0
 11
248.6397486698
 21
128.2327172013
 31
0.0
  0
LINE
  5
2CC
330
1F
100
AcDbEntity
  8
0
  6
CONTINUOUS
 62
     7
100
AcDbLine
 10
240.6397473585
 20
119.7122565138
 30
0.0
 11
248.6397486698
 21
119.7122565138
 31
0.0
  0
LINE
  5
2CD
330
1F
100
AcDbEntity
  8
0
  6
CONTINUOUS
 62
     7
100
AcDbLine
 10
240.4515084397
 20
119.3954005504
 30
0.0
 11
248.8279875886
 21
119.3954005504
 31
0.0
  0
LINE
  5
2CE
330
1F
100
AcDbEntity
  8
0
  6
CONTINUOUS
 62
     7
100
AcDbLine
 10
240.4515084397
 20
129.2805477644
 30
0.0
 11
248.8279875886
 21
129.2805477644
 31
0.0
  0
LINE
  5
2CF
330
1F
100
AcDbEntity
  8
0
  6
CONTINUOUS
 62
     7
100
AcDbLine
 10
240.6397473585
 20
128.9795899431
 30
0.0
 11
248.6397486698
 21
128.9795899431
 31
0.0
  0
LINE
  5
2D0
330
1F
100
AcDbEntity
  8
0
  6
CONTINUOUS
 62
     7
100
AcDbLine
 10
240.6397473585
 20
118.965383772
 30
0.0
 11
248.6397486698
 21
118.965383772
 31
0.0
  0
LINE
  5
2D1
330
1F
100
AcDbEntity
  8
0
  6
CONTINUOUS
 62
     7
100
AcDbLine
 10
240.4515084397
 20
118.6644259507
 30
0.0
 11
248.8279875886
 21
118.6644259507
 31
0.0
  0
LINE
  5
2D2
330
1F
100
AcDbEntity
  8
0
  6
CONTINUOUS
 62
     7
100
AcDbLine
 10
240.4515084397
 20
129.9969732428
 30
0.0
 11
248.8279875886
 21
129.9969732428
 31
0.0
  0
LINE
  5
2D3
330
1F
100
AcDbEntity
  8
0
  6
CONTINUOUS
 62
     7
100
AcDbLine
 10
240.6397473585
 20
129.7127382497
 30
0.0
 11
248.6397486698
 21
129.7127382497
 31
0.0
  0
LINE
  5
2D4
330
1F
100
AcDbEntity
  8
0
  6
CONTINUOUS
 62
     7
100
AcDbLine
 10
240.6397473585
 20
118.2322354654
 30
0.0
 11
248.6397486698
 21
118.2322354654
 31
0.0
  0
LINE
  5
2D5
330
1F
100
AcDbEntity
  8
0
  6
CONTINUOUS
 62
     7
100
AcDbLine
 10
240.4515084397
 20
117.9480004723
 30
0.0
 11
248.8279875886
 21
117.9480004723
 31
0.0
  0
LINE
  5
2D6
330
1F
100
AcDbEntity
  8
0
  6
CONTINUOUS
 62
     7
100
AcDbLine
 10
240.6397473585
 20
130.4301532584
 30
0.0
 11
248.6397486698
 21
130.4301532584
 31
0.0
  0
LINE
  5
2D7
330
1F
100
AcDbEntity
  8
0
  6
CONTINUOUS
 62
     7
100
AcDbLine
 10
240.6397473585
 20
117.5148204567
 30
0.0
 11
248.6397486698
 21
117.5148204567
 31
0.0
  0
LINE
  5
2D8
330
1F
100
AcDbEntity
  8
0
  6
CONTINUOUS
 62
     7
100
AcDbLine
 10
240.4515084397
 20
130.6968863721
 30
0.0
 11
248.8279875886
 21
130.6968863721
 31
0.0
  0
LINE
  5
2D9
330
1F
100
AcDbEntity
  8
0
  6
CONTINUOUS
 62
     7
100
AcDbLine
 10
240.4515084397
 20
117.2480873431
 30
0.0
 11
248.8279875886
 21
117.2480873431
 31
0.0
  0
LINE
  5
2DA
330
1F
100
AcDbEntity
  8
0
  6
CONTINUOUS
 62
     7
100
AcDbLine
 10
240.6397473585
 20
131.1298684815
 30
0.0
 11
248.6397486698
 21
131.1298684815
 31
0.0
  0
LINE
  5
2DB
330
1F
100
AcDbEntity
  8
0
  6
CONTINUOUS
 62
     7
100
AcDbLine
 10
240.6397473585
 20
116.8151052336
 30
0.0
 11
248.6397486698
 21
116.8151052336
 31
0.0
  0
LINE
  5
2DC
330
1F
100
AcDbEntity
  8
0
  6
CONTINUOUS
 62
     7
100
AcDbLine
 10
240.4515084397
 20
131.3783681619
 30
0.0
 11
248.8279875886
 21
131.3783681619
 31
0.0
  0
LINE
  5
2DD
330
1F
100
AcDbEntity
  8
0
  6
CONTINUOUS
 62
     7
100
AcDbLine
 10
240.4515084397
 20
116.5666055533
 30
0.0
 11
248.8279875886
 21
116.5666055533
 31
0.0
  0
LINE
  5
2DE
330
1F
100
AcDbEntity
  8
0
  6
CONTINUOUS
 62
     7
100
AcDbLine
 10
240.6397473585
 20
131.809964929
 30
0.0
 11
248.6397486698
 21
131.809964929
 31
0.0
  0
LINE
  5
2DF
330
1F
100
AcDbEntity
  8
0
  6
CONTINUOUS
 62
     7
100
AcDbLine
 10
240.6397473585
 20
116.1350087861
 30
0.0
 11
248.6397486698
 21
116.1350087861
 31
0.0
  0
LINE
  5
2E0
330
1F
100
AcDbEntity
  8
0
  6
CONTINUOUS
 62
     7
100
AcDbLine
 10
240.4515084397
 20
132.0395508448
 30
0.0
 11
248.8279875886
 21
132.0395508448
 31
0.0
  0
LINE
  5
2E1
330
1F
100
AcDbEntity
  8
0
  6
CONTINUOUS
 62
     7
100
AcDbLine
 10
240.4515084397
 20
115.9054228703
 30
0.0
 11
248.8279875886
 21
115.9054228703
 31
0.0
  0
LINE
  5
2E2
330
1F
100
AcDbEntity
  8
0
  6
CONTINUOUS
 62
     7
100
AcDbLine
 10
251.1397462856
 20
111.772487093
 30
0.0
 11
251.1397462856
 21
136.1724866221
 31
0.0
  0
LINE
  5
2E3
330
1F
100
AcDbEntity
  8
0
  6
CONTINUOUS
 62
     7
100
AcDbLine
 10
251.4284190309
 20
111.272487011
 30
0.0
 11
251.4284190309
 21
136.6724867041
 31
0.0
  0
LINE
  5
2E4
330
1F
100
AcDbEntity
  8
0
  6
CONTINUOUS
 62
     7
100
AcDbLine
 10
252.8397452604
 20
123.9724868576
 30
0.0
 11
252.8397452604
 21
136.6724867041
 31
0.0
  0
LINE
  5
2E5
330
1F
100
AcDbEntity
  8
0
  6
CONTINUOUS
 62
     7
100
AcDbLine
 10
252.8397452604
 20
111.272487011
 30
0.0
 11
252.8397452604
 21
123.9724868576
 31
0.0
  0
LINE
  5
2E6
330
1F
100
AcDbEntity
  8
0
  6
CONTINUOUS
 62
     7
100
AcDbLine
 10
253.6397439014
 20
123.9724868576
 30
0.0
 11
253.6397439014
 21
112.0724865834
 31
0.0
  0
LINE
  5
2E7
330
1F
100
AcDbEntity
  8
0
  6
CONTINUOUS
 62
     7
100
AcDbLine
 10
253.6397439014
 20
135.8724871317
 30
0.0
 11
253.6397439014
 21
123.9724868576
 31
0.0
  0
LINE
  5
2E8
330
1F
100
AcDbEntity
  8
0
  6
CONTINUOUS
 62
     7
100
AcDbLine
 10
240.6397473585
 20
132.4685804213
 30
0.0
 11
248.6397486698
 21
132.4685804213
 31
0.0
  0
LINE
  5
2E9
330
1F
100
AcDbEntity
  8
0
  6
CONTINUOUS
 62
     7
100
AcDbLine
 10
240.6397473585
 20
115.4763932938
 30
0.0
 11
248.6397486698
 21
115.4763932938
 31
0.0
  0
LINE
  5
2EA
330
1F
100
AcDbEntity
  8
0
  6
CONTINUOUS
 62
     7
100
AcDbLine
 10
240.4515084397
 20
132.6786225329
 30
0.0
 11
248.8279875886
 21
132.6786225329
 31
0.0
  0
LINE
  5
2EB
330
1F
100
AcDbEntity
  8
0
  6
CONTINUOUS
 62
     7
100
AcDbLine
 10
240.4515084397
 20
115.2663511822
 30
0.0
 11
248.8279875886
 21
115.2663511822
 31
0.0
  0
LINE
  5
2EC
330
1F
100
AcDbEntity
  8
0
  6
CONTINUOUS
 62
     7
100
AcDbLine
 10
240.6397473585
 20
133.1039081926
 30
0.0
 11
248.6397486698
 21
133.1039081926
 31
0.0
  0
LINE
  5
2ED
330
1F
100
AcDbEntity
  8
0
  6
CONTINUOUS
 62
     7
100
AcDbLine
 10
240.6397473585
 20
114.8410655225
 30
0.0
 11
248.6397486698
 21
114.8410655225
 31
0.0
  0
LINE
  5
2EE
330
1F
100
AcDbEntity
  8
0
  6
CONTINUOUS
 62
     7
100
AcDbLine
 10
240.4515084397
 20
133.2938309426
 30
0.0
 11
248.8279875886
 21
133.2938309426
 31
0.0
  0
LINE
  5
2EF
330
1F
100
AcDbEntity
  8
0
  6
CONTINUOUS
 62
     7
100
AcDbLine
 10
240.4515084397
 20
114.6511427725
 30
0.0
 11
248.8279875886
 21
114.6511427725
 31
0.0
  0
LINE
  5
2F0
330
1F
100
AcDbEntity
  8
0
  6
CONTINUOUS
 62
     7
100
AcDbLine
 10
240.6397473585
 20
133.714207601
 30
0.0
 11
248.6397486698
 21
133.714207601
 31
0.0
  0
LINE
  5
2F1
330
1F
100
AcDbEntity
  8
0
  6
CONTINUOUS
 62
     7
100
AcDbLine
 10
240.6397473585
 20
114.2307661141
 30
0.0
 11
248.6397486698
 21
114.2307661141
 31
0.0
  0
LINE
  5
2F2
330
1F
100
AcDbEntity
  8
0
  6
CONTINUOUS
 62
     7
100
AcDbLine
 10
240.4515084397
 20
133.8834903801
 30
0.0
 11
248.8279875886
 21
133.8834903801
 31
0.0
  0
LINE
  5
2F3
330
1F
100
AcDbEntity
  8
0
  6
CONTINUOUS
 62
     7
100
AcDbLine
 10
240.4515084397
 20
114.061483335
 30
0.0
 11
248.8279875886
 21
114.061483335
 31
0.0
  0
LINE
  5
2F4
330
1F
100
AcDbEntity
  8
0
  6
CONTINUOUS
 62
     7
100
AcDbLine
 10
240.6397473585
 20
134.2978050599
 30
0.0
 11
248.6397486698
 21
134.2978050599
 31
0.0
  0
LINE
  5
2F5
330
1F
100
AcDbEntity
  8
0
  6
CONTINUOUS
 62
     7
100
AcDbLine
 10
240.6397473585
 20
113.6471686552
 30
0.0
 11
248.6397486698
 21
113.6471686552
 31
0.0
  0
LINE
  5
2F6
330
1F
100
AcDbEntity
  8
0
  6
CONTINUOUS
 62
     7
100
AcDbLine
 10
240.4515084397
 20
134.4459840695
 30
0.0
 11
248.8279875886
 21
134.4459840695
 31
0.0
  0
LINE
  5
2F7
330
1F
100
AcDbEntity
  8
0
  6
CONTINUOUS
 62
     7
100
AcDbLine
 10
240.4515084397
 20
113.4989896456
 30
0.0
 11
248.8279875886
 21
113.4989896456
 31
0.0
  0
LINE
  5
2F8
330
1F
100
AcDbEntity
  8
0
  6
CONTINUOUS
 62
     7
100
AcDbLine
 10
240.6397473585
 20
134.8531024198
 30
0.0
 11
248.6397486698
 21
134.8531024198
 31
0.0
  0
LINE
  5
2F9
330
1F
100
AcDbEntity
  8
0
  6
CONTINUOUS
 62
     7
100
AcDbLine
 10
240.6397473585
 20
113.0918712954
 30
0.0
 11
248.6397486698
 21
113.0918712954
 31
0.0
  0
LINE
  5
2FA
330
1F
100
AcDbEntity
  8
0
  6
CONTINUOUS
 62
     7
100
AcDbLine
 10
240.4515084397
 20
134.9797716031
 30
0.0
 11
248.8279875886
 21
134.9797716031
 31
0.0
  0
LINE
  5
2FB
330
1F
100
AcDbEntity
  8
0
  6
CONTINUOUS
 62
     7
100
AcDbLine
 10
240.4515084397
 20
112.965202112
 30
0.0
 11
248.8279875886
 21
112.965202112
 31
0.0
  0
LINE
  5
2FC
330
1F
100
AcDbEntity
  8
0
  6
CONTINUOUS
 62
     7
100
AcDbLine
 10
240.6397473585
 20
135.3785760368
 30
0.0
 11
248.6397486698
 21
135.3785760368
 31
0.0
  0
LINE
  5
2FD
330
1F
100
AcDbEntity
  8
0
  6
CONTINUOUS
 62
     7
100
AcDbLine
 10
240.6397473585
 20
112.5663976783
 30
0.0
 11
248.6397486698
 21
112.5663976783
 31
0.0
  0
LINE
  5
2FE
330
1F
100
AcDbEntity
  8
0
  6
CONTINUOUS
 62
     7
100
AcDbLine
 10
240.4515084397
 20
135.4833880106
 30
0.0
 11
248.8279875886
 21
135.4833880106
 31
0.0
  0
LINE
  5
2FF
330
1F
100
AcDbEntity
  8
0
  6
CONTINUOUS
 62
     7
100
AcDbLine
 10
240.4515084397
 20
112.4615857045
 30
0.0
 11
248.8279875886
 21
112.4615857045
 31
0.0
  0
LINE
  5
300
330
1F
100
AcDbEntity
  8
0
  6
CONTINUOUS
 62
     7
100
AcDbLine
 10
240.6397473585
 20
135.8727870176
 30
0.0
 11
248.6397486698
 21
135.8727870176
 31
0.0
  0
LINE
  5
301
330
1F
100
AcDbEntity
  8
0
  6
CONTINUOUS
 62
     7
100
AcDbLine
 10
240.6397473585
 20
112.0721866975
 30
0.0
 11
248.6397486698
 21
112.0721866975
 31
0.0
  0
LINE
  5
302
330
1F
100
AcDbEntity
  8
0
  6
CONTINUOUS
 62
     7
100
AcDbLine
 10
240.4515084397
 20
135.9554540033
 30
0.0
 11
248.8279875886
 21
135.9554540033
 31
0.0
  0
LINE
  5
303
330
1F
100
AcDbEntity
  8
0
  6
CONTINUOUS
 62
     7
100
AcDbLine
 10
240.4515084397
 20
111.9895197118
 30
0.0
 11
248.8279875886
 21
111.9895197118
 31
0.0
  0
LINE
  5
304
330
1F
100
AcDbEntity
  8
0
  6
CONTINUOUS
 62
     7
100
AcDbLine
 10
240.6397473585
 20
136.3343793566
 30
0.0
 11
248.6397486698
 21
136.3343793566
 31
0.0
  0
LINE
  5
305
330
1F
100
AcDbEntity
  8
0
  6
CONTINUOUS
 62
     7
100
AcDbLine
 10
240.6397473585
 20
111.6105943585
 30
0.0
 11
248.6397486698
 21
111.6105943585
 31
0.0
  0
LINE
  5
306
330
1F
100
AcDbEntity
  8
0
  6
CONTINUOUS
 62
     7
100
AcDbLine
 10
240.4515084397
 20
136.394675974
 30
0.0
 11
248.8279875886
 21
136.394675974
 31
0.0
  0
LINE
  5
307
330
1F
100
AcDbEntity
  8
0
  6
CONTINUOUS
 62
     7
100
AcDbLine
 10
240.4515084397
 20
111.5502977411
 30
0.0
 11
248.8279875886
 21
111.5502977411
 31
0.0
  0
LINE
  5
308
330
1F
100
AcDbEntity
  8
0
  6
CONTINUOUS
 62
     7
100
AcDbLine
 10
240.6397473585
 20
136.762089249
 30
0.0
 11
248.6397486698
 21
136.762089249
 31
0.0
  0
LINE
  5
309
330
1F
100
AcDbEntity
  8
0
  6
CONTINUOUS
 62
     7
100
AcDbLine
 10
240.6397473585
 20
111.1828844661
 30
0.0
 11
248.6397486698
 21
111.1828844661
 31
0.0
  0
LINE
  5
30A
330
1F
100
AcDbEntity
  8
0
  6
CONTINUOUS
 62
     7
100
AcDbLine
 10
240.4515084397
 20
136.7998487914
 30
0.0
 11
248.8279875886
 21
136.7998487914
 31
0.0
  0
LINE
  5
30B
330
1F
100
AcDbEntity
  8
0
  6
CONTINUOUS
 62
     7
100
AcDbLine
 10
240.4515084397
 20
111.1451249237
 30
0.0
 11
248.8279875886
 21
111.1451249237
 31
0.0
  0
LINE
  5
30C
330
1F
100
AcDbEntity
  8
0
  6
CONTINUOUS
 62
     7
100
AcDbLine
 10
240.6397473585
 20
137.1547432283
 30
0.0
 11
248.6397486698
 21
137.1547432283
 31
0.0
  0
LINE
  5
30D
330
1F
100
AcDbEntity
  8
0
  6
CONTINUOUS
 62
     7
100
AcDbLine
 10
240.6397473585
 20
110.7902304868
 30
0.0
 11
248.6397486698
 21
110.7902304868
 31
0.0
  0
LINE
  5
30E
330
1F
100
AcDbEntity
  8
0
  6
CONTINUOUS
 62
     7
100
AcDbLine
 10
240.4515084397
 20
137.1698632503
 30
0.0
 11
248.8279875886
 21
137.1698632503
 31
0.0
  0
LINE
  5
30F
330
1F
100
AcDbEntity
  8
0
  6
CONTINUOUS
 62
     7
100
AcDbLine
 10
240.4515084397
 20
110.7751104648
 30
0.0
 11
248.8279875886
 21
110.7751104648
 31
0.0
  0
LINE
  5
310
330
1F
100
AcDbEntity
  8
0
  6
CONTINUOUS
 62
     7
100
AcDbLine
 10
240.6397473585
 20
137.5112665484
 30
0.0
 11
248.6397486698
 21
137.5112665484
 31
0.0
  0
LINE
  5
311
330
1F
100
AcDbEntity
  8
0
  6
CONTINUOUS
 62
     7
100
AcDbLine
 10
240.6397473585
 20
110.4337071667
 30
0.0
 11
248.6397486698
 21
110.4337071667
 31
0.0
  0
LINE
  5
312
330
1F
100
AcDbEntity
  8
0
  6
CONTINUOUS
 62
     7
100
AcDbLine
 10
240.6397473585
 20
137.8306794579
 30
0.0
 11
248.6397486698
 21
137.8306794579
 31
0.0
  0
LINE
  5
313
330
1F
100
AcDbEntity
  8
0
  6
CONTINUOUS
 62
     7
100
AcDbLine
 10
240.6397473585
 20
110.1142942572
 30
0.0
 11
248.6397486698
 21
110.1142942572
 31
0.0
  0
LINE
  5
314
330
1F
100
AcDbEntity
  8
0
  6
CONTINUOUS
 62
     7
100
AcDbLine
 10
240.6397473585
 20
138.1121093074
 30
0.0
 11
248.6397486698
 21
138.1121093074
 31
0.0
  0
LINE
  5
315
330
1F
100
AcDbEntity
  8
0
  6
CONTINUOUS
 62
     7
100
AcDbLine
 10
240.6397473585
 20
109.8328644077
 30
0.0
 11
248.6397486698
 21
109.8328644077
 31
0.0
  0
LINE
  5
316
330
1F
100
AcDbEntity
  8
0
  6
CONTINUOUS
 62
     7
100
AcDbLine
 10
240.6397473585
 20
138.3547830994
 30
0.0
 11
248.6397486698
 21
138.3547830994
 31
0.0
  0
LINE
  5
317
330
1F
100
AcDbEntity
  8
0
  6
CONTINUOUS
 62
     7
100
AcDbLine
 10
240.6397473585
 20
109.5901906157
 30
0.0
 11
248.6397486698
 21
109.5901906157
 31
0.0
  0
LINE
  5
318
330
1F
100
AcDbEntity
  8
0
  6
CONTINUOUS
 62
     7
100
AcDbLine
 10
240.6397473585
 20
138.5580358694
 30
0.0
 11
248.6397486698
 21
138.5580358694
 31
0.0
  0
LINE
  5
319
330
1F
100
AcDbEntity
  8
0
  6
CONTINUOUS
 62
     7
100
AcDbLine
 10
240.6397473585
 20
109.3869378457
 30
0.0
 11
248.6397486698
 21
109.3869378457
 31
0.0
  0
LINE
  5
31A
330
1F
100
AcDbEntity
  8
0
  6
CONTINUOUS
 62
     7
100
AcDbLine
 10
240.6397473585
 20
138.7213106866
 30
0.0
 11
248.6397486698
 21
138.7213106866
 31
0.0
  0
LINE
  5
31B
330
1F
100
AcDbEntity
  8
0
  6
CONTINUOUS
 62
     7
100
AcDbLine
 10
240.6397473585
 20
109.2236630286
 30
0.0
 11
248.6397486698
 21
109.2236630286
 31
0.0
  0
LINE
  5
31C
330
1F
100
AcDbEntity
  8
0
  6
CONTINUOUS
 62
     7
100
AcDbLine
 10
240.6397473585
 20
138.8441595847
 30
0.0
 11
248.6397486698
 21
138.8441595847
 31
0.0
  0
LINE
  5
31D
330
1F
100
AcDbEntity
  8
0
  6
CONTINUOUS
 62
     7
100
AcDbLine
 10
240.6397473585
 20
109.1008141304
 30
0.0
 11
248.6397486698
 21
109.1008141304
 31
0.0
  0
LINE
  5
31E
330
1F
100
AcDbEntity
  8
0
  6
CONTINUOUS
 62
     7
100
AcDbLine
 10
240.6397473585
 20
138.9262472878
 30
0.0
 11
248.6397486698
 21
138.9262472878
 31
0.0
  0
LINE
  5
31F
330
1F
100
AcDbEntity
  8
0
  6
CONTINUOUS
 62
     7
100
AcDbLine
 10
240.6397473585
 20
109.0187264273
 30
0.0
 11
248.6397486698
 21
109.0187264273
 31
0.0
  0
LINE
  5
320
330
1F
100
AcDbEntity
  8
0
  6
CONTINUOUS
 62
     7
100
AcDbLine
 10
240.6397473585
 20
138.967346553
 30
0.0
 11
248.6397486698
 21
138.967346553
 31
0.0
  0
LINE
  5
321
330
1F
100
AcDbEntity
  8
0
  6
CONTINUOUS
 62
     7
100
AcDbLine
 10
240.6397473585
 20
108.9776271621
 30
0.0
 11
248.6397486698
 21
108.9776271621
 31
0.0
  0
LINE
  5
322
330
1F
100
AcDbEntity
  8
0
  6
CONTINUOUS
 62
     7
100
AcDbLine
 10
239.3397477042
 20
110.1224871019
 30
0.0
 11
239.3397477042
 21
112.4171895573
 31
0.0
  0
LINE
  5
323
330
1F
100
AcDbEntity
  8
0
  6
CONTINUOUS
 62
     7
100
AcDbLine
 10
239.3397477042
 20
116.6868453512
 30
0.0
 11
239.3397477042
 21
137.8224866132
 31
0.0
  0
LINE
  5
324
330
1F
100
AcDbEntity
  8
0
  6
CONTINUOUS
 62
     7
100
AcDbLine
 10
201.189746387
 20
137.8224866132
 30
0.0
 11
201.189746387
 21
110.1224871019
 31
0.0
  0
SPLINE
  5
325
330
1F
100
AcDbEntity
  8
0
  6
CONTINUOUS
 62
     7
100
AcDbSpline
210
0.0
220
0.0
230
1.0
 70
     8
 71
     3
 72
    18
 73
    14
 74
     0
 42
0.000000001
 43
0.00000001
 40
0.0
 40
0.0
 40
0.0
 40
0.0
 40
0.1255208564663568
 40
0.2509641962504365
 40
0.3753941910813662
 40
0.4363119330682156
 40
0.4996563971492518
 40
0.5630938061745907
 40
0.624143631667117
 40
0.7489716378441652
 40
0.8741917262581446
 40
0.9999385511346852
 40
1.0
 40
1.0
 40
1.0
 40
1.0
 10
238.1572660576812
 20
137.8224689180501
 30
0.0
 10
238.1370514154088
 20
137.8197482215454
 30
0.0
 10
238.0966346146223
 20
137.8143085087298
 30
0.0
 10
237.737575201683
 20
137.7794298660561
 30
0.0
 10
237.3259941687978
 20
137.7506635940379
 30
0.0
 10
236.9419600541276
 20
137.7380106256089
 30
0.0
 10
236.6413245697301
 20
137.7349923377249
 30
0.0
 10
236.3401344645949
 20
137.7379836805507
 30
0.0
 10
235.9561640026118
 20
137.7505123186461
 30
0.0
 10
235.5350032714869
 20
137.780178347404
 30
0.0
 10
235.2109614711913
 20
137.8112360383668
 30
0.0
 10
235.0814159243818
 20
137.8262982540152
 30
0.0
 10
235.1221106138789
 20
137.8224828887924
 30
0.0
 10
235.1221304904929
 20
137.8224810252435
 30
0.0
  0
SPLINE
  5
326
330
1F
100
AcDbEntity
  8
0
  6
CONTINUOUS
 62
     7
100
AcDbSpline
210
0.0
220
0.0
230
1.0
 70
     8
 71
     3
 72
    10
 73
     6
 74
     0
 42
0.000000001
 43
0.00000001
 40
0.0
 40
0.0
 40
0.0
 40
0.0
 40
0.2571883235050181
 40
0.5046148414678687
 40
1.0
 40
1.0
 40
1.0
 40
1.0
 10
236.6397467028609
 20
118.4290136808999
 30
0.0
 10
236.740998858236
 20
118.4240879403035
 30
0.0
 10
236.9396600557452
 20
118.4144234198607
 30
0.0
 10
237.3232028821464
 20
118.3097560732538
 30
0.0
 10
237.5506576693883
 20
118.1372730491523
 30
0.0
 10
237.7023485075942
 20
118.0222431796141
 30
0.0
  0
SPLINE
  5
327
330
1F
100
AcDbEntity
  8
0
  6
CONTINUOUS
 62
     7
100
AcDbSpline
210
0.0
220
0.0
230
1.0
 70
     8
 71
     3
 72
    10
 73
     6
 74
     0
 42
0.000000001
 43
0.00000001
 40
0.0
 40
0.0
 40
0.0
 40
0.0
 40
0.4945764752902417
 40
0.7423872425558817
 40
1.0
 40
1.0
 40
1.0
 40
1.0
 10
235.577822900962
 20
118.0224299097903
 30
0.0
 10
235.7291039192552
 20
118.1372938836212
 30
0.0
 10
235.9561852780193
 20
118.3097112003794
 30
0.0
 10
236.3395188274299
 20
118.4143848627427
 30
0.0
 10
236.5383851651985
 20
118.4240747674147
 30
0.0
 10
236.6397467028609
 20
118.4290136808999
 30
0.0
  0
LINE
  5
328
330
1F
100
AcDbEntity
  8
0
  6
CONTINUOUS
 62
     7
100
AcDbLine
 10
199.939747579
 20
136.5724868739
 30
0.0
 11
199.939747579
 21
111.3724868412
 31
0.0
  0
LINE
  5
329
330
1F
100
AcDbEntity
  8
0
  6
CONTINUOUS
 62
     7
100
AcDbLine
 10
198.6897450459
 20
137.8224866132
 30
0.0
 11
198.6897450459
 21
110.1224871019
 31
0.0
  0
LINE
  5
32A
330
1F
100
AcDbEntity
  8
0
  6
CONTINUOUS
 62
     7
100
AcDbLine
 10
195.1897472661
 20
137.8224866132
 30
0.0
 11
195.1897472661
 21
110.1224871019
 31
0.0
  0
LINE
  5
32B
330
1F
100
AcDbEntity
  8
0
  6
CONTINUOUS
 62
     7
100
AcDbLine
 10
194.6897462528
 20
137.8224866132
 30
0.0
 11
194.6897462528
 21
110.1224871019
 31
0.0
  0
LINE
  5
32C
330
1F
100
AcDbEntity
  8
0
  6
CONTINUOUS
 62
     7
100
AcDbLine
 10
178.1397464272
 20
123.9724868576
 30
0.0
 11
178.1397464272
 21
110.1224871019
 31
0.0
  0
LINE
  5
32D
330
1F
100
AcDbEntity
  8
0
  6
CONTINUOUS
 62
     7
100
AcDbLine
 10
178.1397464272
 20
137.8224866132
 30
0.0
 11
178.1397464272
 21
123.9724868576
 31
0.0
  0
LINE
  5
32E
330
1F
100
AcDbEntity
  8
0
  6
CONTINUOUS
 62
     7
100
AcDbLine
 10
194.9397467595
 20
137.5724870379
 30
0.0
 11
194.9397467595
 21
110.3724866773
 31
0.0
  0
LINE
  5
32F
330
1F
100
AcDbEntity
  8
0
  6
CONTINUOUS
 62
     7
100
AcDbLine
 10
170.1397465129
 20
123.9724868576
 30
0.0
 11
170.1397465129
 21
108.7224866862
 31
0.0
  0
LINE
  5
330
330
1F
100
AcDbEntity
  8
0
  6
CONTINUOUS
 62
     7
100
AcDbLine
 10
170.1397465129
 20
139.2224870289
 30
0.0
 11
170.1397465129
 21
123.9724868576
 31
0.0
  0
LINE
  5
331
330
1F
100
AcDbEntity
  8
0
  6
CONTINUOUS
 62
     7
100
AcDbLine
 10
176.939746603
 20
108.7224866862
 30
0.0
 11
176.939746603
 21
139.2224870289
 31
0.0
  0
LINE
  5
332
330
1F
100
AcDbEntity
  8
0
  6
CONTINUOUS
 62
     7
100
AcDbLine
 10
177.9397467669
 20
138.222486865
 30
0.0
 11
177.9397467669
 21
109.7224868501
 31
0.0
  0
LINE
  5
333
330
1F
100
AcDbEntity
  8
0
  6
CONTINUOUS
 62
     7
100
AcDbLine
 10
165.1397463918
 20
124.8621981142
 30
0.0
 11
164.9397464405
 21
125.7285650719
 31
0.0
  0
LINE
  5
334
330
1F
100
AcDbEntity
  8
0
  6
CONTINUOUS
 62
     7
100
AcDbLine
 10
169.439746305
 20
125.7285650719
 30
0.0
 11
164.9397464405
 21
125.7285650719
 31
0.0
  0
LINE
  5
335
330
1F
100
AcDbEntity
  8
0
  6
CONTINUOUS
 62
     7
100
AcDbLine
 10
169.439746305
 20
125.7285650719
 30
0.0
 11
169.2397466447
 21
124.8621981142
 31
0.0
  0
LINE
  5
336
330
1F
100
AcDbEntity
  8
0
  6
CONTINUOUS
 62
     7
100
AcDbLine
 10
169.2397466447
 20
124.8621981142
 30
0.0
 11
167.6281008456
 21
124.8621981142
 31
0.0
  0
SPLINE
  5
337
330
1F
100
AcDbEntity
  8
0
  6
CONTINUOUS
 62
     7
100
AcDbSpline
210
0.0
220
0.0
230
1.0
 70
     8
 71
     3
 72
    11
 73
     7
 74
     0
 42
0.000000001
 43
0.00000001
 40
0.0
 40
0.0
 40
0.0
 40
0.0
 40
0.4420389857953366
 40
0.5491035373168162
 40
0.9636629519286108
 40
1.0
 40
1.0
 40
1.0
 40
1.0
 10
167.6250835933051
 20
124.8621981141627
 30
0.0
 10
167.5004779249071
 20
124.9005896266939
 30
0.0
 10
167.3456919999417
 20
124.9482797988536
 30
0.0
 10
167.062869875376
 20
124.9493542077588
 30
0.0
 10
166.8992079818438
 20
124.9173106754521
 30
0.0
 10
166.7766139931698
 20
124.8706584230519
 30
0.0
 10
166.7667343333623
 20
124.8668987902351
 30
0.0
  0
LINE
  5
338
330
1F
100
AcDbEntity
  8
0
  6
CONTINUOUS
 62
     7
100
AcDbLine
 10
166.7515812494
 20
124.8621981142
 30
0.0
 11
165.1397463918
 21
124.8621981142
 31
0.0
  0
LINE
  5
339
330
1F
100
AcDbEntity
  8
0
  6
CONTINUOUS
 62
     7
100
AcDbLine
 10
164.9397464405
 20
123.9724868576
 30
0.0
 11
165.1397463918
 21
124.8621981142
 31
0.0
  0
SPLINE
  5
33A
330
1F
100
AcDbEntity
  8
0
  6
CONTINUOUS
 62
     7
100
AcDbSpline
210
0.0
220
0.0
230
1.0
 70
     8
 71
     3
 72
    10
 73
     6
 74
     0
 42
0.000000001
 43
0.00000001
 40
0.0
 40
0.0
 40
0.0
 40
0.0
 40
0.3125552257916061
 40
0.6339216169358116
 40
1.0
 40
1.0
 40
1.0
 40
1.0
 10
166.7547323793433
 20
124.8621119668245
 30
0.0
 10
166.6840760853506
 20
124.7979658761567
 30
0.0
 10
166.540771643644
 20
124.667865368596
 30
0.0
 10
166.404799704654
 20
124.3870432851468
 30
0.0
 10
166.3987108494935
 20
124.1788599008448
 30
0.0
 10
166.395468409758
 20
124.0679979966375
 30
0.0
  0
LINE
  5
33B
330
1F
100
AcDbEntity
  8
0
  6
CONTINUOUS
 62
     7
100
AcDbLine
 10
166.3951289427
 20
124.0651323025
 30
0.0
 11
166.3897463639
 21
123.9724868576
 31
0.0
  0
LINE
  5
33C
330
1F
100
AcDbEntity
  8
0
  6
CONTINUOUS
 62
     7
100
AcDbLine
 10
166.3897463639
 20
123.9724868576
 30
0.0
 11
164.9397464405
 21
123.9724868576
 31
0.0
  0
SPLINE
  5
33D
330
1F
100
AcDbEntity
  8
0
  6
CONTINUOUS
 62
     7
100
AcDbSpline
210
0.0
220
0.0
230
1.0
 70
     8
 71
     3
 72
    19
 73
    15
 74
     0
 42
0.000000001
 43
0.00000001
 40
0.0
 40
0.0
 40
0.0
 40
0.0
 40
0.0722638042996428
 40
0.1455005217398344
 40
0.2299448796264269
 40
0.3143132529313103
 40
0.3875162191459733
 40
0.4999913137814719
 40
0.612497200367607
 40
0.6857519340314484
 40
0.7701957812306394
 40
0.8545920297127177
 40
0.9278217593520617
 40
1.0
 40
1.0
 40
1.0
 40
1.0
 10
167.9841904022059
 20
124.0666070299925
 30
0.0
 10
167.9742207742522
 20
124.1217781085671
 30
0.0
 10
167.9541472937197
 20
124.2328630534486
 30
0.0
 10
167.8767796629693
 20
124.3950281318277
 30
0.0
 10
167.7611574285731
 20
124.5440184920586
 30
0.0
 10
167.6119968091324
 20
124.6601832245226
 30
0.0
 10
167.4214311517904
 20
124.7485363950192
 30
0.0
 10
167.1897226197441
 20
124.7869989866025
 30
0.0
 10
166.9579730905634
 20
124.7485187949201
 30
0.0
 10
166.7673087393278
 20
124.660081739631
 30
0.0
 10
166.6181369562174
 20
124.5438239097025
 30
0.0
 10
166.5025645339564
 20
124.3947775690674
 30
0.0
 10
166.4252957453578
 20
124.2326878153468
 30
0.0
 10
166.4052486008421
 20
124.1216721685032
 30
0.0
 10
166.3952975120655
 20
124.0665657389331
 30
0.0
  0
SPLINE
  5
33E
330
1F
100
AcDbEntity
  8
0
  6
CONTINUOUS
 62
     7
100
AcDbSpline
210
0.0
220
0.0
230
1.0
 70
     8
 71
     3
 72
    10
 73
     6
 74
     0
 42
0.000000001
 43
0.00000001
 40
0.0
 40
0.0
 40
0.0
 40
0.0
 40
0.31384619771468
 40
0.6437575599686385
 40
1.0
 40
1.0
 40
1.0
 40
1.0
 10
167.9840190388522
 20
124.0680436241677
 30
0.0
 10
167.9827253724999
 20
124.1628092468487
 30
0.0
 10
167.9800718195798
 20
124.3571913565262
 30
0.0
 10
167.8583708512818
 20
124.6446058086208
 30
0.0
 10
167.7048657825498
 20
124.7877943643039
 30
0.0
 10
167.6251678779981
 20
124.8621360647961
 30
0.0
  0
LINE
  5
33F
330
1F
100
AcDbEntity
  8
0
  6
CONTINUOUS
 62
     7
100
AcDbLine
 10
169.439746305
 20
123.9724868576
 30
0.0
 11
169.2397466447
 21
123.082775601
 31
0.0
  0
LINE
  5
340
330
1F
100
AcDbEntity
  8
0
  6
CONTINUOUS
 62
     7
100
AcDbLine
 10
169.2397466447
 20
123.082775601
 30
0.0
 11
167.6289176155
 21
123.082775601
 31
0.0
  0
SPLINE
  5
341
330
1F
100
AcDbEntity
  8
0
  6
CONTINUOUS
 62
     7
100
AcDbSpline
210
0.0
220
0.0
230
1.0
 70
     8
 71
     3
 72
    10
 73
     6
 74
     0
 42
0.000000001
 43
0.00000001
 40
0.0
 40
0.0
 40
0.0
 40
0.0
 40
0.3116471266015073
 40
0.632040588794539
 40
1.0
 40
1.0
 40
1.0
 40
1.0
 10
167.6259217836223
 20
123.082853773842
 30
0.0
 10
167.6963229888862
 20
123.1468173109965
 30
0.0
 10
167.8391011999741
 20
123.2765395135573
 30
0.0
 10
167.9748818790183
 20
123.5572832385144
 30
0.0
 10
167.980847548964
 20
123.7656788308701
 30
0.0
 10
167.9840365011505
 20
123.8770768106337
 30
0.0
  0
LINE
  5
342
330
1F
100
AcDbEntity
  8
0
  6
CONTINUOUS
 62
     7
100
AcDbLine
 10
167.9843617656
 20
123.8798244596
 30
0.0
 11
167.9897464399
 21
123.9724868576
 31
0.0
  0
LINE
  5
343
330
1F
100
AcDbEntity
  8
0
  6
CONTINUOUS
 62
     7
100
AcDbLine
 10
169.439746305
 20
123.9724868576
 30
0.0
 11
167.9897464399
 21
123.9724868576
 31
0.0
  0
SPLINE
  5
344
330
1F
100
AcDbEntity
  8
0
  6
CONTINUOUS
 62
     7
100
AcDbSpline
210
0.0
220
0.0
230
1.0
 70
     8
 71
     3
 72
    19
 73
    15
 74
     0
 42
0.000000001
 43
0.00000001
 40
0.0
 40
0.0
 40
0.0
 40
0.0
 40
0.0721591402278907
 40
0.145424005584831
 40
0.2299148338977786
 40
0.3143298925598856
 40
0.3876124212162312
 40
0.5003424113906879
 40
0.6128466062162047
 40
0.6860689542783772
 40
0.7704596653529638
 40
0.8547201637092956
 40
0.927873025897364
 40
1.0
 40
1.0
 40
1.0
 40
1.0
 10
166.3953056611381
 20
123.878338454408
 30
0.0
 10
166.4052582918936
 20
123.8232472086444
 30
0.0
 10
166.4253160617894
 20
123.7122205305785
 30
0.0
 10
166.5026363177145
 20
123.5500575446887
 30
0.0
 10
166.6183013046436
 20
123.4009765532087
 30
0.0
 10
166.7675731801039
 20
123.2847300905608
 30
0.0
 10
166.9584288764277
 20
123.1962891965461
 30
0.0
 10
167.1904459665269
 20
123.1579414024617
 30
0.0
 10
167.4223247047235
 20
123.1966993972465
 30
0.0
 10
167.612836844157
 20
123.2853022948716
 30
0.0
 10
167.7617660526132
 20
123.4015868418437
 30
0.0
 10
167.8771164368964
 20
123.5505363925385
 30
0.0
 10
167.9542430825232
 20
123.7124621984741
 30
0.0
 10
167.9742617571621
 20
123.8233819115199
 30
0.0
 10
167.9842004139236
 20
123.8784501403574
 30
0.0
  0
SPLINE
  5
345
330
1F
100
AcDbEntity
  8
0
  6
CONTINUOUS
 62
     7
100
AcDbSpline
210
0.0
220
0.0
230
1.0
 70
     8
 71
     3
 72
    10
 73
     6
 74
     0
 42
0.000000001
 43
0.00000001
 40
0.0
 40
0.0
 40
0.0
 40
0.0
 40
0.4422751622416087
 40
0.877332963147183
 40
1.0
 40
1.0
 40
1.0
 40
1.0
 10
166.7547836020849
 20
123.0827756009534
 30
0.0
 10
166.8795513258836
 20
123.0452332473657
 30
0.0
 10
167.127050724834
 20
122.970761183075
 30
0.0
 10
167.4277716351475
 20
123.0112606544697
 30
0.0
 10
167.580549866565
 20
123.0660984831256
 30
0.0
 10
167.6141521945856
 20
123.0781596170276
 30
0.0
  0
SPLINE
  5
346
330
1F
100
AcDbEntity
  8
0
  6
CONTINUOUS
 62
     7
100
AcDbSpline
210
0.0
220
0.0
230
1.0
 70
     8
 71
     3
 72
    10
 73
     6
 74
     0
 42
0.000000001
 43
0.00000001
 40
0.0
 40
0.0
 40
0.0
 40
0.0
 40
0.3137622932708706
 40
0.6434936794542074
 40
1.0
 40
1.0
 40
1.0
 40
1.0
 10
166.3954798184595
 20
123.8768799959802
 30
0.0
 10
166.3967964201695
 20
123.7821260690581
 30
0.0
 10
166.3994966327091
 20
123.5877956654833
 30
0.0
 10
166.5212932902376
 20
123.3003744961678
 30
0.0
 10
166.6749033872993
 20
123.1572090229582
 30
0.0
 10
166.754705138158
 20
123.082833342953
 30
0.0
  0
LINE
  5
347
330
1F
100
AcDbEntity
  8
0
  6
CONTINUOUS
 62
     7
100
AcDbLine
 10
164.9397464405
 20
122.2164086432
 30
0.0
 11
165.1397463918
 21
123.082775601
 31
0.0
  0
LINE
  5
348
330
1F
100
AcDbEntity
  8
0
  6
CONTINUOUS
 62
     7
100
AcDbLine
 10
166.751617571
 20
123.082775601
 30
0.0
 11
165.1397463918
 21
123.082775601
 31
0.0
  0
LINE
  5
349
330
1F
100
AcDbEntity
  8
0
  6
CONTINUOUS
 62
     7
100
AcDbLine
 10
169.2397466447
 20
123.082775601
 30
0.0
 11
169.439746305
 21
122.2164086432
 31
0.0
  0
LINE
  5
34A
330
1F
100
AcDbEntity
  8
0
  6
CONTINUOUS
 62
     7
100
AcDbLine
 10
169.439746305
 20
122.2164086432
 30
0.0
 11
164.9397464405
 21
122.2164086432
 31
0.0
  0
LINE
  5
34B
330
1F
100
AcDbEntity
  8
0
  6
CONTINUOUS
 62
     7
100
AcDbLine
 10
165.1397463918
 20
123.082775601
 30
0.0
 11
164.9397464405
 21
123.9724868576
 31
0.0
  0
LINE
  5
34C
330
1F
100
AcDbEntity
  8
0
  6
CONTINUOUS
 62
     7
100
AcDbLine
 10
166.3897463639
 20
123.9724868576
 30
0.0
 11
166.395134065
 21
123.8797982807
 31
0.0
  0
LINE
  5
34D
330
1F
100
AcDbEntity
  8
0
  6
CONTINUOUS
 62
     7
100
AcDbLine
 10
169.2397466447
 20
124.8621981142
 30
0.0
 11
169.439746305
 21
123.9724868576
 31
0.0
  0
LINE
  5
34E
330
1F
100
AcDbEntity
  8
0
  6
CONTINUOUS
 62
     7
100
AcDbLine
 10
167.9897464399
 20
123.9724868576
 30
0.0
 11
167.9843594373
 21
124.0651691771
 31
0.0
  0
LINE
  5
34F
330
1F
100
AcDbEntity
  8
0
  6
CONTINUOUS
 62
     7
100
AcDbLine
 10
169.439746305
 20
127.4654033261
 30
0.0
 11
169.2397466447
 21
126.6318726486
 31
0.0
  0
LINE
  5
350
330
1F
100
AcDbEntity
  8
0
  6
CONTINUOUS
 62
     7
100
AcDbLine
 10
169.2397466447
 20
128.3724104653
 30
0.0
 11
169.439746305
 21
127.4654033261
 31
0.0
  0
LINE
  5
351
330
1F
100
AcDbEntity
  8
0
  6
CONTINUOUS
 62
     7
100
AcDbLine
 10
169.439746305
 20
129.1639722551
 30
0.0
 11
169.2397466447
 21
128.3724104653
 31
0.0
  0
LINE
  5
352
330
1F
100
AcDbEntity
  8
0
  6
CONTINUOUS
 62
     7
100
AcDbLine
 10
169.2397466447
 20
130.0647418613
 30
0.0
 11
169.439746305
 21
129.1639722551
 31
0.0
  0
LINE
  5
353
330
1F
100
AcDbEntity
  8
0
  6
CONTINUOUS
 62
     7
100
AcDbLine
 10
169.439746305
 20
130.8056625205
 30
0.0
 11
169.2397466447
 21
130.0647418613
 31
0.0
  0
LINE
  5
354
330
1F
100
AcDbEntity
  8
0
  6
CONTINUOUS
 62
     7
100
AcDbLine
 10
169.2397466447
 20
131.6903253684
 30
0.0
 11
169.439746305
 21
130.8056625205
 31
0.0
  0
LINE
  5
355
330
1F
100
AcDbEntity
  8
0
  6
CONTINUOUS
 62
     7
100
AcDbLine
 10
169.439746305
 20
132.372486558
 30
0.0
 11
169.2397466447
 21
131.6903253684
 31
0.0
  0
LINE
  5
356
330
1F
100
AcDbEntity
  8
0
  6
CONTINUOUS
 62
     7
100
AcDbLine
 10
169.2397466447
 20
133.2313503737
 30
0.0
 11
169.439746305
 21
132.372486558
 31
0.0
  0
LINE
  5
357
330
1F
100
AcDbEntity
  8
0
  6
CONTINUOUS
 62
     7
100
AcDbLine
 10
169.439746305
 20
133.8472786958
 30
0.0
 11
169.2397466447
 21
133.2313503737
 31
0.0
  0
LINE
  5
358
330
1F
100
AcDbEntity
  8
0
  6
CONTINUOUS
 62
     7
100
AcDbLine
 10
169.2397466447
 20
134.6709338615
 30
0.0
 11
169.439746305
 21
133.8472786958
 31
0.0
  0
LINE
  5
359
330
1F
100
AcDbEntity
  8
0
  6
CONTINUOUS
 62
     7
100
AcDbLine
 10
169.439746305
 20
135.2138809527
 30
0.0
 11
169.2397466447
 21
134.6709338615
 31
0.0
  0
LINE
  5
35A
330
1F
100
AcDbEntity
  8
0
  6
CONTINUOUS
 62
     7
100
AcDbLine
 10
169.2397466447
 20
135.9933020214
 30
0.0
 11
169.439746305
 21
135.2138809527
 31
0.0
  0
LINE
  5
35B
330
1F
100
AcDbEntity
  8
0
  6
CONTINUOUS
 62
     7
100
AcDbLine
 10
169.439746305
 20
136.4573195244
 30
0.0
 11
169.2397466447
 21
135.9933020214
 31
0.0
  0
LINE
  5
35C
330
1F
100
AcDbEntity
  8
0
  6
CONTINUOUS
 62
     7
100
AcDbLine
 10
169.2397466447
 20
137.1839681307
 30
0.0
 11
169.439746305
 21
136.4573195244
 31
0.0
  0
LINE
  5
35D
330
1F
100
AcDbEntity
  8
0
  6
CONTINUOUS
 62
     7
100
AcDbLine
 10
169.439746305
 20
137.5639719556
 30
0.0
 11
169.2397466447
 21
137.1839681307
 31
0.0
  0
LINE
  5
35E
330
1F
100
AcDbEntity
  8
0
  6
CONTINUOUS
 62
     7
100
AcDbLine
 10
169.2397466447
 20
138.2298862229
 30
0.0
 11
169.439746305
 21
137.5639719556
 31
0.0
  0
LINE
  5
35F
330
1F
100
AcDbEntity
  8
0
  6
CONTINUOUS
 62
     7
100
AcDbLine
 10
169.439746305
 20
138.5217133577
 30
0.0
 11
169.2397466447
 21
138.2298862229
 31
0.0
  0
LINE
  5
360
330
1F
100
AcDbEntity
  8
0
  6
CONTINUOUS
 62
     7
100
AcDbLine
 10
169.2397466447
 20
139.1195973048
 30
0.0
 11
169.439746305
 21
138.5217133577
 31
0.0
  0
LINE
  5
361
330
1F
100
AcDbEntity
  8
0
  6
CONTINUOUS
 62
     7
100
AcDbLine
 10
169.439746305
 20
139.3200505192
 30
0.0
 11
169.2397466447
 21
139.1195973048
 31
0.0
  0
LINE
  5
362
330
1F
100
AcDbEntity
  8
0
  6
CONTINUOUS
 62
     7
100
AcDbLine
 10
169.2397466447
 20
139.8433541546
 30
0.0
 11
169.439746305
 21
139.3200505192
 31
0.0
  0
LINE
  5
363
330
1F
100
AcDbEntity
  8
0
  6
CONTINUOUS
 62
     7
100
AcDbLine
 10
169.439746305
 20
139.9502364586
 30
0.0
 11
169.2397466447
 21
139.8433541546
 31
0.0
  0
LINE
  5
364
330
1F
100
AcDbEntity
  8
0
  6
CONTINUOUS
 62
     7
100
AcDbLine
 10
169.2397466447
 20
140.3932256291
 30
0.0
 11
169.439746305
 21
139.9502364586
 31
0.0
  0
LINE
  5
365
330
1F
100
AcDbEntity
  8
0
  6
CONTINUOUS
 62
     7
100
AcDbLine
 10
169.439746305
 20
140.4053663502
 30
0.0
 11
169.2397466447
 21
140.3932256291
 31
0.0
  0
LINE
  5
366
330
1F
100
AcDbEntity
  8
0
  6
CONTINUOUS
 62
     7
100
AcDbLine
 10
169.2397466447
 20
140.7631879339
 30
0.0
 11
169.439746305
 21
140.4053663502
 31
0.0
  0
LINE
  5
367
330
1F
100
AcDbEntity
  8
0
  6
CONTINUOUS
 62
     7
100
AcDbLine
 10
169.439746305
 20
140.6804548244
 30
0.0
 11
169.2397466447
 21
140.7631879339
 31
0.0
  0
LINE
  5
368
330
1F
100
AcDbEntity
  8
0
  6
CONTINUOUS
 62
     7
100
AcDbLine
 10
169.2397466447
 20
140.9491898159
 30
0.0
 11
169.439746305
 21
140.6804548244
 31
0.0
  0
LINE
  5
369
330
1F
100
AcDbEntity
  8
0
  6
CONTINUOUS
 62
     7
100
AcDbLine
 10
169.439746305
 20
140.7724862585
 30
0.0
 11
169.2397466447
 21
140.9491898159
 31
0.0
  0
LINE
  5
36A
330
1F
100
AcDbEntity
  8
0
  6
CONTINUOUS
 62
     7
100
AcDbLine
 10
169.2397466447
 20
106.9957838992
 30
0.0
 11
169.439746305
 21
107.1724874566
 31
0.0
  0
LINE
  5
36B
330
1F
100
AcDbEntity
  8
0
  6
CONTINUOUS
 62
     7
100
AcDbLine
 10
169.439746305
 20
107.2645188908
 30
0.0
 11
169.2397466447
 21
106.9957838992
 31
0.0
  0
LINE
  5
36C
330
1F
100
AcDbEntity
  8
0
  6
CONTINUOUS
 62
     7
100
AcDbLine
 10
169.2397466447
 20
107.1817857812
 30
0.0
 11
169.439746305
 21
107.2645188908
 31
0.0
  0
LINE
  5
36D
330
1F
100
AcDbEntity
  8
0
  6
CONTINUOUS
 62
     7
100
AcDbLine
 10
169.439746305
 20
107.5396073649
 30
0.0
 11
169.2397466447
 21
107.1817857812
 31
0.0
  0
LINE
  5
36E
330
1F
100
AcDbEntity
  8
0
  6
CONTINUOUS
 62
     7
100
AcDbLine
 10
169.2397466447
 20
107.551748086
 30
0.0
 11
169.439746305
 21
107.5396073649
 31
0.0
  0
LINE
  5
36F
330
1F
100
AcDbEntity
  8
0
  6
CONTINUOUS
 62
     7
100
AcDbLine
 10
169.439746305
 20
107.9947372566
 30
0.0
 11
169.2397466447
 21
107.551748086
 31
0.0
  0
LINE
  5
370
330
1F
100
AcDbEntity
  8
0
  6
CONTINUOUS
 62
     7
100
AcDbLine
 10
169.2397466447
 20
108.1016195605
 30
0.0
 11
169.439746305
 21
107.9947372566
 31
0.0
  0
LINE
  5
371
330
1F
100
AcDbEntity
  8
0
  6
CONTINUOUS
 62
     7
100
AcDbLine
 10
169.439746305
 20
108.6249231959
 30
0.0
 11
169.2397466447
 21
108.1016195605
 31
0.0
  0
LINE
  5
372
330
1F
100
AcDbEntity
  8
0
  6
CONTINUOUS
 62
     7
100
AcDbLine
 10
169.2397466447
 20
108.8253764103
 30
0.0
 11
169.439746305
 21
108.6249231959
 31
0.0
  0
LINE
  5
373
330
1F
100
AcDbEntity
  8
0
  6
CONTINUOUS
 62
     7
100
AcDbLine
 10
169.439746305
 20
109.4232603575
 30
0.0
 11
169.2397466447
 21
108.8253764103
 31
0.0
  0
LINE
  5
374
330
1F
100
AcDbEntity
  8
0
  6
CONTINUOUS
 62
     7
100
AcDbLine
 10
169.2397466447
 20
109.7150874923
 30
0.0
 11
169.439746305
 21
109.4232603575
 31
0.0
  0
LINE
  5
375
330
1F
100
AcDbEntity
  8
0
  6
CONTINUOUS
 62
     7
100
AcDbLine
 10
169.439746305
 20
110.3810017596
 30
0.0
 11
169.2397466447
 21
109.7150874923
 31
0.0
  0
LINE
  5
376
330
1F
100
AcDbEntity
  8
0
  6
CONTINUOUS
 62
     7
100
AcDbLine
 10
169.2397466447
 20
110.7610055844
 30
0.0
 11
169.439746305
 21
110.3810017596
 31
0.0
  0
LINE
  5
377
330
1F
100
AcDbEntity
  8
0
  6
CONTINUOUS
 62
     7
100
AcDbLine
 10
169.439746305
 20
111.4876541907
 30
0.0
 11
169.2397466447
 21
110.7610055844
 31
0.0
  0
LINE
  5
378
330
1F
100
AcDbEntity
  8
0
  6
CONTINUOUS
 62
     7
100
AcDbLine
 10
169.2397466447
 20
111.9516716937
 30
0.0
 11
169.439746305
 21
111.4876541907
 31
0.0
  0
LINE
  5
379
330
1F
100
AcDbEntity
  8
0
  6
CONTINUOUS
 62
     7
100
AcDbLine
 10
169.439746305
 20
112.7310927624
 30
0.0
 11
169.2397466447
 21
111.9516716937
 31
0.0
  0
LINE
  5
37A
330
1F
100
AcDbEntity
  8
0
  6
CONTINUOUS
 62
     7
100
AcDbLine
 10
169.2397466447
 20
113.2740398536
 30
0.0
 11
169.439746305
 21
112.7310927624
 31
0.0
  0
LINE
  5
37B
330
1F
100
AcDbEntity
  8
0
  6
CONTINUOUS
 62
     7
100
AcDbLine
 10
169.439746305
 20
114.0976950193
 30
0.0
 11
169.2397466447
 21
113.2740398536
 31
0.0
  0
LINE
  5
37C
330
1F
100
AcDbEntity
  8
0
  6
CONTINUOUS
 62
     7
100
AcDbLine
 10
169.2397466447
 20
114.7136233414
 30
0.0
 11
169.439746305
 21
114.0976950193
 31
0.0
  0
LINE
  5
37D
330
1F
100
AcDbEntity
  8
0
  6
CONTINUOUS
 62
     7
100
AcDbLine
 10
169.439746305
 20
115.5724871571
 30
0.0
 11
169.2397466447
 21
114.7136233414
 31
0.0
  0
LINE
  5
37E
330
1F
100
AcDbEntity
  8
0
  6
CONTINUOUS
 62
     7
100
AcDbLine
 10
169.2397466447
 20
116.2546483467
 30
0.0
 11
169.439746305
 21
115.5724871571
 31
0.0
  0
LINE
  5
37F
330
1F
100
AcDbEntity
  8
0
  6
CONTINUOUS
 62
     7
100
AcDbLine
 10
169.439746305
 20
117.1393111947
 30
0.0
 11
169.2397466447
 21
116.2546483467
 31
0.0
  0
LINE
  5
380
330
1F
100
AcDbEntity
  8
0
  6
CONTINUOUS
 62
     7
100
AcDbLine
 10
169.2397466447
 20
117.8802318538
 30
0.0
 11
169.439746305
 21
117.1393111947
 31
0.0
  0
LINE
  5
381
330
1F
100
AcDbEntity
  8
0
  6
CONTINUOUS
 62
     7
100
AcDbLine
 10
169.439746305
 20
118.78100146
 30
0.0
 11
169.2397466447
 21
117.8802318538
 31
0.0
  0
LINE
  5
382
330
1F
100
AcDbEntity
  8
0
  6
CONTINUOUS
 62
     7
100
AcDbLine
 10
169.2397466447
 20
119.5725632499
 30
0.0
 11
169.439746305
 21
118.78100146
 31
0.0
  0
LINE
  5
383
330
1F
100
AcDbEntity
  8
0
  6
CONTINUOUS
 62
     7
100
AcDbLine
 10
169.439746305
 20
120.479570389
 30
0.0
 11
169.2397466447
 21
119.5725632499
 31
0.0
  0
LINE
  5
384
330
1F
100
AcDbEntity
  8
0
  6
CONTINUOUS
 62
     7
100
AcDbLine
 10
169.2397466447
 20
121.3131010665
 30
0.0
 11
169.439746305
 21
120.479570389
 31
0.0
  0
LINE
  5
385
330
1F
100
AcDbEntity
  8
0
  6
CONTINUOUS
 62
     7
100
AcDbLine
 10
169.439746305
 20
122.2164086432
 30
0.0
 11
169.2397466447
 21
121.3131010665
 31
0.0
  0
LINE
  5
386
330
1F
100
AcDbEntity
  8
0
  6
CONTINUOUS
 62
     7
100
AcDbLine
 10
169.2397466447
 20
126.6318726486
 30
0.0
 11
169.439746305
 21
125.7285650719
 31
0.0
  0
LINE
  5
387
330
1F
100
AcDbEntity
  8
0
  6
CONTINUOUS
 62
     7
100
AcDbLine
 10
169.939746387
 20
140.2724871079
 30
0.0
 11
169.939746387
 21
107.6724866072
 31
0.0
  0
LINE
  5
388
330
1F
100
AcDbEntity
  8
0
  6
CONTINUOUS
 62
     7
100
AcDbLine
 10
165.1397463918
 20
121.3131010665
 30
0.0
 11
164.9397464405
 21
122.2164086432
 31
0.0
  0
LINE
  5
389
330
1F
100
AcDbEntity
  8
0
  6
CONTINUOUS
 62
     7
100
AcDbLine
 10
164.9397464405
 20
120.479570389
 30
0.0
 11
165.1397463918
 21
121.3131010665
 31
0.0
  0
LINE
  5
38A
330
1F
100
AcDbEntity
  8
0
  6
CONTINUOUS
 62
     7
100
AcDbLine
 10
165.1397463918
 20
119.5725632499
 30
0.0
 11
164.9397464405
 21
120.479570389
 31
0.0
  0
LINE
  5
38B
330
1F
100
AcDbEntity
  8
0
  6
CONTINUOUS
 62
     7
100
AcDbLine
 10
164.9397464405
 20
118.78100146
 30
0.0
 11
165.1397463918
 21
119.5725632499
 31
0.0
  0
LINE
  5
38C
330
1F
100
AcDbEntity
  8
0
  6
CONTINUOUS
 62
     7
100
AcDbLine
 10
165.1397463918
 20
117.8802318538
 30
0.0
 11
164.9397464405
 21
118.78100146
 31
0.0
  0
LINE
  5
38D
330
1F
100
AcDbEntity
  8
0
  6
CONTINUOUS
 62
     7
100
AcDbLine
 10
164.9397464405
 20
117.1393111947
 30
0.0
 11
165.1397463918
 21
117.8802318538
 31
0.0
  0
LINE
  5
38E
330
1F
100
AcDbEntity
  8
0
  6
CONTINUOUS
 62
     7
100
AcDbLine
 10
165.1397463918
 20
116.2546483467
 30
0.0
 11
164.9397464405
 21
117.1393111947
 31
0.0
  0
LINE
  5
38F
330
1F
100
AcDbEntity
  8
0
  6
CONTINUOUS
 62
     7
100
AcDbLine
 10
164.9397464405
 20
115.5724871571
 30
0.0
 11
165.1397463918
 21
116.2546483467
 31
0.0
  0
LINE
  5
390
330
1F
100
AcDbEntity
  8
0
  6
CONTINUOUS
 62
     7
100
AcDbLine
 10
165.1397463918
 20
114.7136233414
 30
0.0
 11
164.9397464405
 21
115.5724871571
 31
0.0
  0
LINE
  5
391
330
1F
100
AcDbEntity
  8
0
  6
CONTINUOUS
 62
     7
100
AcDbLine
 10
164.9397464405
 20
114.0976950193
 30
0.0
 11
165.1397463918
 21
114.7136233414
 31
0.0
  0
LINE
  5
392
330
1F
100
AcDbEntity
  8
0
  6
CONTINUOUS
 62
     7
100
AcDbLine
 10
165.1397463918
 20
113.2740398536
 30
0.0
 11
164.9397464405
 21
114.0976950193
 31
0.0
  0
LINE
  5
393
330
1F
100
AcDbEntity
  8
0
  6
CONTINUOUS
 62
     7
100
AcDbLine
 10
164.9397464405
 20
112.7310927624
 30
0.0
 11
165.1397463918
 21
113.2740398536
 31
0.0
  0
LINE
  5
394
330
1F
100
AcDbEntity
  8
0
  6
CONTINUOUS
 62
     7
100
AcDbLine
 10
165.1397463918
 20
111.9516716937
 30
0.0
 11
164.9397464405
 21
112.7310927624
 31
0.0
  0
LINE
  5
395
330
1F
100
AcDbEntity
  8
0
  6
CONTINUOUS
 62
     7
100
AcDbLine
 10
164.9397464405
 20
111.4876541907
 30
0.0
 11
165.1397463918
 21
111.9516716937
 31
0.0
  0
LINE
  5
396
330
1F
100
AcDbEntity
  8
0
  6
CONTINUOUS
 62
     7
100
AcDbLine
 10
165.1397463918
 20
110.7610055844
 30
0.0
 11
164.9397464405
 21
111.4876541907
 31
0.0
  0
LINE
  5
397
330
1F
100
AcDbEntity
  8
0
  6
CONTINUOUS
 62
     7
100
AcDbLine
 10
164.9397464405
 20
110.3810017596
 30
0.0
 11
165.1397463918
 21
110.7610055844
 31
0.0
  0
LINE
  5
398
330
1F
100
AcDbEntity
  8
0
  6
CONTINUOUS
 62
     7
100
AcDbLine
 10
165.1397463918
 20
109.7150874923
 30
0.0
 11
164.9397464405
 21
110.3810017596
 31
0.0
  0
LINE
  5
399
330
1F
100
AcDbEntity
  8
0
  6
CONTINUOUS
 62
     7
100
AcDbLine
 10
164.9397464405
 20
109.4232603575
 30
0.0
 11
165.1397463918
 21
109.7150874923
 31
0.0
  0
LINE
  5
39A
330
1F
100
AcDbEntity
  8
0
  6
CONTINUOUS
 62
     7
100
AcDbLine
 10
165.1397463918
 20
108.8253764103
 30
0.0
 11
164.9397464405
 21
109.4232603575
 31
0.0
  0
LINE
  5
39B
330
1F
100
AcDbEntity
  8
0
  6
CONTINUOUS
 62
     7
100
AcDbLine
 10
164.9397464405
 20
108.6249231959
 30
0.0
 11
165.1397463918
 21
108.8253764103
 31
0.0
  0
LINE
  5
39C
330
1F
100
AcDbEntity
  8
0
  6
CONTINUOUS
 62
     7
100
AcDbLine
 10
165.1397463918
 20
108.1016195605
 30
0.0
 11
164.9397464405
 21
108.6249231959
 31
0.0
  0
LINE
  5
39D
330
1F
100
AcDbEntity
  8
0
  6
CONTINUOUS
 62
     7
100
AcDbLine
 10
164.9397464405
 20
107.9947372566
 30
0.0
 11
165.1397463918
 21
108.1016195605
 31
0.0
  0
LINE
  5
39E
330
1F
100
AcDbEntity
  8
0
  6
CONTINUOUS
 62
     7
100
AcDbLine
 10
165.1397463918
 20
107.551748086
 30
0.0
 11
164.9397464405
 21
107.9947372566
 31
0.0
  0
LINE
  5
39F
330
1F
100
AcDbEntity
  8
0
  6
CONTINUOUS
 62
     7
100
AcDbLine
 10
164.9397464405
 20
107.5396073649
 30
0.0
 11
165.1397463918
 21
107.551748086
 31
0.0
  0
LINE
  5
3A0
330
1F
100
AcDbEntity
  8
0
  6
CONTINUOUS
 62
     7
100
AcDbLine
 10
165.1397463918
 20
107.1817857812
 30
0.0
 11
164.9397464405
 21
107.5396073649
 31
0.0
  0
LINE
  5
3A1
330
1F
100
AcDbEntity
  8
0
  6
CONTINUOUS
 62
     7
100
AcDbLine
 10
164.9397464405
 20
107.2645188908
 30
0.0
 11
165.1397463918
 21
107.1817857812
 31
0.0
  0
LINE
  5
3A2
330
1F
100
AcDbEntity
  8
0
  6
CONTINUOUS
 62
     7
100
AcDbLine
 10
165.1397463918
 20
106.9957838992
 30
0.0
 11
164.9397464405
 21
107.2645188908
 31
0.0
  0
LINE
  5
3A3
330
1F
100
AcDbEntity
  8
0
  6
CONTINUOUS
 62
     7
100
AcDbLine
 10
164.9397464405
 20
107.1724874566
 30
0.0
 11
165.1397463918
 21
106.9957838992
 31
0.0
  0
LINE
  5
3A4
330
1F
100
AcDbEntity
  8
0
  6
CONTINUOUS
 62
     7
100
AcDbLine
 10
165.1397463918
 20
140.9491898159
 30
0.0
 11
164.9397464405
 21
140.7724862585
 31
0.0
  0
LINE
  5
3A5
330
1F
100
AcDbEntity
  8
0
  6
CONTINUOUS
 62
     7
100
AcDbLine
 10
164.9397464405
 20
140.6804548244
 30
0.0
 11
165.1397463918
 21
140.9491898159
 31
0.0
  0
LINE
  5
3A6
330
1F
100
AcDbEntity
  8
0
  6
CONTINUOUS
 62
     7
100
AcDbLine
 10
165.1397463918
 20
140.7631879339
 30
0.0
 11
164.9397464405
 21
140.6804548244
 31
0.0
  0
LINE
  5
3A7
330
1F
100
AcDbEntity
  8
0
  6
CONTINUOUS
 62
     7
100
AcDbLine
 10
164.9397464405
 20
140.4053663502
 30
0.0
 11
165.1397463918
 21
140.7631879339
 31
0.0
  0
LINE
  5
3A8
330
1F
100
AcDbEntity
  8
0
  6
CONTINUOUS
 62
     7
100
AcDbLine
 10
165.1397463918
 20
140.3932256291
 30
0.0
 11
164.9397464405
 21
140.4053663502
 31
0.0
  0
LINE
  5
3A9
330
1F
100
AcDbEntity
  8
0
  6
CONTINUOUS
 62
     7
100
AcDbLine
 10
164.9397464405
 20
139.9502364586
 30
0.0
 11
165.1397463918
 21
140.3932256291
 31
0.0
  0
LINE
  5
3AA
330
1F
100
AcDbEntity
  8
0
  6
CONTINUOUS
 62
     7
100
AcDbLine
 10
165.1397463918
 20
139.8433541546
 30
0.0
 11
164.9397464405
 21
139.9502364586
 31
0.0
  0
LINE
  5
3AB
330
1F
100
AcDbEntity
  8
0
  6
CONTINUOUS
 62
     7
100
AcDbLine
 10
164.9397464405
 20
139.3200505192
 30
0.0
 11
165.1397463918
 21
139.8433541546
 31
0.0
  0
LINE
  5
3AC
330
1F
100
AcDbEntity
  8
0
  6
CONTINUOUS
 62
     7
100
AcDbLine
 10
165.1397463918
 20
139.1195973048
 30
0.0
 11
164.9397464405
 21
139.3200505192
 31
0.0
  0
LINE
  5
3AD
330
1F
100
AcDbEntity
  8
0
  6
CONTINUOUS
 62
     7
100
AcDbLine
 10
164.9397464405
 20
138.5217133577
 30
0.0
 11
165.1397463918
 21
139.1195973048
 31
0.0
  0
LINE
  5
3AE
330
1F
100
AcDbEntity
  8
0
  6
CONTINUOUS
 62
     7
100
AcDbLine
 10
165.1397463918
 20
138.2298862229
 30
0.0
 11
164.9397464405
 21
138.5217133577
 31
0.0
  0
LINE
  5
3AF
330
1F
100
AcDbEntity
  8
0
  6
CONTINUOUS
 62
     7
100
AcDbLine
 10
164.9397464405
 20
137.5639719556
 30
0.0
 11
165.1397463918
 21
138.2298862229
 31
0.0
  0
LINE
  5
3B0
330
1F
100
AcDbEntity
  8
0
  6
CONTINUOUS
 62
     7
100
AcDbLine
 10
165.1397463918
 20
137.1839681307
 30
0.0
 11
164.9397464405
 21
137.5639719556
 31
0.0
  0
LINE
  5
3B1
330
1F
100
AcDbEntity
  8
0
  6
CONTINUOUS
 62
     7
100
AcDbLine
 10
164.9397464405
 20
136.4573195244
 30
0.0
 11
165.1397463918
 21
137.1839681307
 31
0.0
  0
LINE
  5
3B2
330
1F
100
AcDbEntity
  8
0
  6
CONTINUOUS
 62
     7
100
AcDbLine
 10
165.1397463918
 20
135.9933020214
 30
0.0
 11
164.9397464405
 21
136.4573195244
 31
0.0
  0
LINE
  5
3B3
330
1F
100
AcDbEntity
  8
0
  6
CONTINUOUS
 62
     7
100
AcDbLine
 10
164.9397464405
 20
135.2138809527
 30
0.0
 11
165.1397463918
 21
135.9933020214
 31
0.0
  0
LINE
  5
3B4
330
1F
100
AcDbEntity
  8
0
  6
CONTINUOUS
 62
     7
100
AcDbLine
 10
165.1397463918
 20
134.6709338615
 30
0.0
 11
164.9397464405
 21
135.2138809527
 31
0.0
  0
LINE
  5
3B5
330
1F
100
AcDbEntity
  8
0
  6
CONTINUOUS
 62
     7
100
AcDbLine
 10
164.9397464405
 20
133.8472786958
 30
0.0
 11
165.1397463918
 21
134.6709338615
 31
0.0
  0
LINE
  5
3B6
330
1F
100
AcDbEntity
  8
0
  6
CONTINUOUS
 62
     7
100
AcDbLine
 10
165.1397463918
 20
133.2313503737
 30
0.0
 11
164.9397464405
 21
133.8472786958
 31
0.0
  0
LINE
  5
3B7
330
1F
100
AcDbEntity
  8
0
  6
CONTINUOUS
 62
     7
100
AcDbLine
 10
164.9397464405
 20
132.372486558
 30
0.0
 11
165.1397463918
 21
133.2313503737
 31
0.0
  0
LINE
  5
3B8
330
1F
100
AcDbEntity
  8
0
  6
CONTINUOUS
 62
     7
100
AcDbLine
 10
165.1397463918
 20
131.6903253684
 30
0.0
 11
164.9397464405
 21
132.372486558
 31
0.0
  0
LINE
  5
3B9
330
1F
100
AcDbEntity
  8
0
  6
CONTINUOUS
 62
     7
100
AcDbLine
 10
164.9397464405
 20
130.8056625205
 30
0.0
 11
165.1397463918
 21
131.6903253684
 31
0.0
  0
LINE
  5
3BA
330
1F
100
AcDbEntity
  8
0
  6
CONTINUOUS
 62
     7
100
AcDbLine
 10
165.1397463918
 20
130.0647418613
 30
0.0
 11
164.9397464405
 21
130.8056625205
 31
0.0
  0
LINE
  5
3BB
330
1F
100
AcDbEntity
  8
0
  6
CONTINUOUS
 62
     7
100
AcDbLine
 10
164.9397464405
 20
129.1639722551
 30
0.0
 11
165.1397463918
 21
130.0647418613
 31
0.0
  0
LINE
  5
3BC
330
1F
100
AcDbEntity
  8
0
  6
CONTINUOUS
 62
     7
100
AcDbLine
 10
165.1397463918
 20
128.3724104653
 30
0.0
 11
164.9397464405
 21
129.1639722551
 31
0.0
  0
LINE
  5
3BD
330
1F
100
AcDbEntity
  8
0
  6
CONTINUOUS
 62
     7
100
AcDbLine
 10
164.9397464405
 20
127.4654033261
 30
0.0
 11
165.1397463918
 21
128.3724104653
 31
0.0
  0
LINE
  5
3BE
330
1F
100
AcDbEntity
  8
0
  6
CONTINUOUS
 62
     7
100
AcDbLine
 10
165.1397463918
 20
126.6318726486
 30
0.0
 11
164.9397464405
 21
127.4654033261
 31
0.0
  0
LINE
  5
3BF
330
1F
100
AcDbEntity
  8
0
  6
CONTINUOUS
 62
     7
100
AcDbLine
 10
164.9397464405
 20
125.7285650719
 30
0.0
 11
165.1397463918
 21
126.6318726486
 31
0.0
  0
LINE
  5
3C0
330
1F
100
AcDbEntity
  8
0
  6
CONTINUOUS
 62
     7
100
AcDbLine
 10
164.4397464168
 20
107.6724866072
 30
0.0
 11
164.4397464168
 21
140.2724871079
 31
0.0
  0
LINE
  5
3C1
330
1F
100
AcDbEntity
  8
0
  6
CONTINUOUS
 62
     7
100
AcDbLine
 10
169.439746305
 20
127.4654033261
 30
0.0
 11
164.9397464405
 21
127.4654033261
 31
0.0
  0
LINE
  5
3C2
330
1F
100
AcDbEntity
  8
0
  6
CONTINUOUS
 62
     7
100
AcDbLine
 10
169.2397466447
 20
126.6318726486
 30
0.0
 11
165.1397463918
 21
126.6318726486
 31
0.0
  0
LINE
  5
3C3
330
1F
100
AcDbEntity
  8
0
  6
CONTINUOUS
 62
     7
100
AcDbLine
 10
169.2397466447
 20
121.3131010665
 30
0.0
 11
165.1397463918
 21
121.3131010665
 31
0.0
  0
LINE
  5
3C4
330
1F
100
AcDbEntity
  8
0
  6
CONTINUOUS
 62
     7
100
AcDbLine
 10
169.439746305
 20
120.479570389
 30
0.0
 11
164.9397464405
 21
120.479570389
 31
0.0
  0
LINE
  5
3C5
330
1F
100
AcDbEntity
  8
0
  6
CONTINUOUS
 62
     7
100
AcDbLine
 10
169.2397466447
 20
128.3724104653
 30
0.0
 11
165.1397463918
 21
128.3724104653
 31
0.0
  0
LINE
  5
3C6
330
1F
100
AcDbEntity
  8
0
  6
CONTINUOUS
 62
     7
100
AcDbLine
 10
169.2397466447
 20
119.5725632499
 30
0.0
 11
165.1397463918
 21
119.5725632499
 31
0.0
  0
LINE
  5
3C7
330
1F
100
AcDbEntity
  8
0
  6
CONTINUOUS
 62
     7
100
AcDbLine
 10
169.439746305
 20
129.1639722551
 30
0.0
 11
164.9397464405
 21
129.1639722551
 31
0.0
  0
LINE
  5
3C8
330
1F
100
AcDbEntity
  8
0
  6
CONTINUOUS
 62
     7
100
AcDbLine
 10
169.439746305
 20
118.78100146
 30
0.0
 11
164.9397464405
 21
118.78100146
 31
0.0
  0
LINE
  5
3C9
330
1F
100
AcDbEntity
  8
0
  6
CONTINUOUS
 62
     7
100
AcDbLine
 10
169.2397466447
 20
130.0647418613
 30
0.0
 11
165.1397463918
 21
130.0647418613
 31
0.0
  0
LINE
  5
3CA
330
1F
100
AcDbEntity
  8
0
  6
CONTINUOUS
 62
     7
100
AcDbLine
 10
169.2397466447
 20
117.8802318538
 30
0.0
 11
165.1397463918
 21
117.8802318538
 31
0.0
  0
LINE
  5
3CB
330
1F
100
AcDbEntity
  8
0
  6
CONTINUOUS
 62
     7
100
AcDbLine
 10
169.439746305
 20
130.8056625205
 30
0.0
 11
164.9397464405
 21
130.8056625205
 31
0.0
  0
LINE
  5
3CC
330
1F
100
AcDbEntity
  8
0
  6
CONTINUOUS
 62
     7
100
AcDbLine
 10
169.439746305
 20
117.1393111947
 30
0.0
 11
164.9397464405
 21
117.1393111947
 31
0.0
  0
LINE
  5
3CD
330
1F
100
AcDbEntity
  8
0
  6
CONTINUOUS
 62
     7
100
AcDbLine
 10
169.2397466447
 20
131.6903253684
 30
0.0
 11
165.1397463918
 21
131.6903253684
 31
0.0
  0
LINE
  5
3CE
330
1F
100
AcDbEntity
  8
0
  6
CONTINUOUS
 62
     7
100
AcDbLine
 10
169.2397466447
 20
116.2546483467
 30
0.0
 11
165.1397463918
 21
116.2546483467
 31
0.0
  0
LINE
  5
3CF
330
1F
100
AcDbEntity
  8
0
  6
CONTINUOUS
 62
     7
100
AcDbLine
 10
169.439746305
 20
132.372486558
 30
0.0
 11
164.9397464405
 21
132.372486558
 31
0.0
  0
LINE
  5
3D0
330
1F
100
AcDbEntity
  8
0
  6
CONTINUOUS
 62
     7
100
AcDbLine
 10
169.439746305
 20
115.5724871571
 30
0.0
 11
164.9397464405
 21
115.5724871571
 31
0.0
  0
LINE
  5
3D1
330
1F
100
AcDbEntity
  8
0
  6
CONTINUOUS
 62
     7
100
AcDbLine
 10
169.2397466447
 20
133.2313503737
 30
0.0
 11
165.1397463918
 21
133.2313503737
 31
0.0
  0
LINE
  5
3D2
330
1F
100
AcDbEntity
  8
0
  6
CONTINUOUS
 62
     7
100
AcDbLine
 10
169.2397466447
 20
114.7136233414
 30
0.0
 11
165.1397463918
 21
114.7136233414
 31
0.0
  0
LINE
  5
3D3
330
1F
100
AcDbEntity
  8
0
  6
CONTINUOUS
 62
     7
100
AcDbLine
 10
169.439746305
 20
133.8472786958
 30
0.0
 11
164.9397464405
 21
133.8472786958
 31
0.0
  0
LINE
  5
3D4
330
1F
100
AcDbEntity
  8
0
  6
CONTINUOUS
 62
     7
100
AcDbLine
 10
169.439746305
 20
114.0976950193
 30
0.0
 11
164.9397464405
 21
114.0976950193
 31
0.0
  0
LINE
  5
3D5
330
1F
100
AcDbEntity
  8
0
  6
CONTINUOUS
 62
     7
100
AcDbLine
 10
169.2397466447
 20
134.6709338615
 30
0.0
 11
165.1397463918
 21
134.6709338615
 31
0.0
  0
LINE
  5
3D6
330
1F
100
AcDbEntity
  8
0
  6
CONTINUOUS
 62
     7
100
AcDbLine
 10
169.2397466447
 20
113.2740398536
 30
0.0
 11
165.1397463918
 21
113.2740398536
 31
0.0
  0
LINE
  5
3D7
330
1F
100
AcDbEntity
  8
0
  6
CONTINUOUS
 62
     7
100
AcDbLine
 10
169.439746305
 20
135.2138809527
 30
0.0
 11
164.9397464405
 21
135.2138809527
 31
0.0
  0
LINE
  5
3D8
330
1F
100
AcDbEntity
  8
0
  6
CONTINUOUS
 62
     7
100
AcDbLine
 10
169.439746305
 20
112.7310927624
 30
0.0
 11
164.9397464405
 21
112.7310927624
 31
0.0
  0
LINE
  5
3D9
330
1F
100
AcDbEntity
  8
0
  6
CONTINUOUS
 62
     7
100
AcDbLine
 10
169.2397466447
 20
135.9933020214
 30
0.0
 11
165.1397463918
 21
135.9933020214
 31
0.0
  0
LINE
  5
3DA
330
1F
100
AcDbEntity
  8
0
  6
CONTINUOUS
 62
     7
100
AcDbLine
 10
169.2397466447
 20
111.9516716937
 30
0.0
 11
165.1397463918
 21
111.9516716937
 31
0.0
  0
LINE
  5
3DB
330
1F
100
AcDbEntity
  8
0
  6
CONTINUOUS
 62
     7
100
AcDbLine
 10
169.439746305
 20
136.4573195244
 30
0.0
 11
164.9397464405
 21
136.4573195244
 31
0.0
  0
LINE
  5
3DC
330
1F
100
AcDbEntity
  8
0
  6
CONTINUOUS
 62
     7
100
AcDbLine
 10
169.439746305
 20
111.4876541907
 30
0.0
 11
164.9397464405
 21
111.4876541907
 31
0.0
  0
LINE
  5
3DD
330
1F
100
AcDbEntity
  8
0
  6
CONTINUOUS
 62
     7
100
AcDbLine
 10
169.2397466447
 20
137.1839681307
 30
0.0
 11
165.1397463918
 21
137.1839681307
 31
0.0
  0
LINE
  5
3DE
330
1F
100
AcDbEntity
  8
0
  6
CONTINUOUS
 62
     7
100
AcDbLine
 10
169.2397466447
 20
110.7610055844
 30
0.0
 11
165.1397463918
 21
110.7610055844
 31
0.0
  0
LINE
  5
3DF
330
1F
100
AcDbEntity
  8
0
  6
CONTINUOUS
 62
     7
100
AcDbLine
 10
169.439746305
 20
137.5639719556
 30
0.0
 11
164.9397464405
 21
137.5639719556
 31
0.0
  0
LINE
  5
3E0
330
1F
100
AcDbEntity
  8
0
  6
CONTINUOUS
 62
     7
100
AcDbLine
 10
169.439746305
 20
110.3810017596
 30
0.0
 11
164.9397464405
 21
110.3810017596
 31
0.0
  0
LINE
  5
3E1
330
1F
100
AcDbEntity
  8
0
  6
CONTINUOUS
 62
     7
100
AcDbLine
 10
169.2397466447
 20
138.2298862229
 30
0.0
 11
165.1397463918
 21
138.2298862229
 31
0.0
  0
LINE
  5
3E2
330
1F
100
AcDbEntity
  8
0
  6
CONTINUOUS
 62
     7
100
AcDbLine
 10
169.2397466447
 20
109.7150874923
 30
0.0
 11
165.1397463918
 21
109.7150874923
 31
0.0
  0
LINE
  5
3E3
330
1F
100
AcDbEntity
  8
0
  6
CONTINUOUS
 62
     7
100
AcDbLine
 10
169.439746305
 20
138.5217133577
 30
0.0
 11
164.9397464405
 21
138.5217133577
 31
0.0
  0
LINE
  5
3E4
330
1F
100
AcDbEntity
  8
0
  6
CONTINUOUS
 62
     7
100
AcDbLine
 10
169.439746305
 20
109.4232603575
 30
0.0
 11
164.9397464405
 21
109.4232603575
 31
0.0
  0
LINE
  5
3E5
330
1F
100
AcDbEntity
  8
0
  6
CONTINUOUS
 62
     7
100
AcDbLine
 10
169.2397466447
 20
139.1195973048
 30
0.0
 11
165.1397463918
 21
139.1195973048
 31
0.0
  0
LINE
  5
3E6
330
1F
100
AcDbEntity
  8
0
  6
CONTINUOUS
 62
     7
100
AcDbLine
 10
169.2397466447
 20
108.8253764103
 30
0.0
 11
165.1397463918
 21
108.8253764103
 31
0.0
  0
LINE
  5
3E7
330
1F
100
AcDbEntity
  8
0
  6
CONTINUOUS
 62
     7
100
AcDbLine
 10
169.439746305
 20
139.3200505192
 30
0.0
 11
164.9397464405
 21
139.3200505192
 31
0.0
  0
LINE
  5
3E8
330
1F
100
AcDbEntity
  8
0
  6
CONTINUOUS
 62
     7
100
AcDbLine
 10
169.439746305
 20
108.6249231959
 30
0.0
 11
164.9397464405
 21
108.6249231959
 31
0.0
  0
LINE
  5
3E9
330
1F
100
AcDbEntity
  8
0
  6
CONTINUOUS
 62
     7
100
AcDbLine
 10
169.2397466447
 20
139.8433541546
 30
0.0
 11
165.1397463918
 21
139.8433541546
 31
0.0
  0
LINE
  5
3EA
330
1F
100
AcDbEntity
  8
0
  6
CONTINUOUS
 62
     7
100
AcDbLine
 10
169.2397466447
 20
108.1016195605
 30
0.0
 11
165.1397463918
 21
108.1016195605
 31
0.0
  0
LINE
  5
3EB
330
1F
100
AcDbEntity
  8
0
  6
CONTINUOUS
 62
     7
100
AcDbLine
 10
169.439746305
 20
139.9502364586
 30
0.0
 11
164.9397464405
 21
139.9502364586
 31
0.0
  0
LINE
  5
3EC
330
1F
100
AcDbEntity
  8
0
  6
CONTINUOUS
 62
     7
100
AcDbLine
 10
169.439746305
 20
107.9947372566
 30
0.0
 11
164.9397464405
 21
107.9947372566
 31
0.0
  0
LINE
  5
3ED
330
1F
100
AcDbEntity
  8
0
  6
CONTINUOUS
 62
     7
100
AcDbLine
 10
169.2397466447
 20
140.3932256291
 30
0.0
 11
165.1397463918
 21
140.3932256291
 31
0.0
  0
LINE
  5
3EE
330
1F
100
AcDbEntity
  8
0
  6
CONTINUOUS
 62
     7
100
AcDbLine
 10
169.2397466447
 20
107.551748086
 30
0.0
 11
165.1397463918
 21
107.551748086
 31
0.0
  0
LINE
  5
3EF
330
1F
100
AcDbEntity
  8
0
  6
CONTINUOUS
 62
     7
100
AcDbLine
 10
169.439746305
 20
140.4053663502
 30
0.0
 11
164.9397464405
 21
140.4053663502
 31
0.0
  0
LINE
  5
3F0
330
1F
100
AcDbEntity
  8
0
  6
CONTINUOUS
 62
     7
100
AcDbLine
 10
169.439746305
 20
107.5396073649
 30
0.0
 11
164.9397464405
 21
107.5396073649
 31
0.0
  0
LINE
  5
3F1
330
1F
100
AcDbEntity
  8
0
  6
CONTINUOUS
 62
     7
100
AcDbLine
 10
169.2397466447
 20
140.7631879339
 30
0.0
 11
165.1397463918
 21
140.7631879339
 31
0.0
  0
LINE
  5
3F2
330
1F
100
AcDbEntity
  8
0
  6
CONTINUOUS
 62
     7
100
AcDbLine
 10
169.2397466447
 20
107.1817857812
 30
0.0
 11
165.1397463918
 21
107.1817857812
 31
0.0
  0
LINE
  5
3F3
330
1F
100
AcDbEntity
  8
0
  6
CONTINUOUS
 62
     7
100
AcDbLine
 10
169.2397466447
 20
140.9491898159
 30
0.0
 11
165.1397463918
 21
140.9491898159
 31
0.0
  0
LINE
  5
3F4
330
1F
100
AcDbEntity
  8
0
  6
CONTINUOUS
 62
     7
100
AcDbLine
 10
169.2397466447
 20
106.9957838992
 30
0.0
 11
165.1397463918
 21
106.9957838992
 31
0.0
  0
POLYLINE
  5
3F5
330
1F
100
AcDbEntity
  8
0
  6
CONTINUOUS
 62
     7
100
AcDb2dPolyline
 66
     1
 10
0.0
 20
0.0
 30
0.0
 70
   128
  0
VERTEX
  5
547
330
3F5
100
AcDbEntity
  8
0
  6
CONTINUOUS
 62
     7
100
AcDbVertex
100
AcDb2dVertex
 10
161.9397464726
 20
116.8867174203
 30
0.0
  0
VERTEX
  5
548
330
3F5
100
AcDbEntity
  8
0
  6
CONTINUOUS
 62
     7
100
AcDbVertex
100
AcDb2dVertex
 10
161.4805262123
 20
116.8076104152
 30
0.0
  0
VERTEX
  5
549
330
3F5
100
AcDbEntity
  8
0
  6
CONTINUOUS
 62
     7
100
AcDbVertex
100
AcDb2dVertex
 10
161.0912182421
 20
116.5823337289
 30
0.0
  0
VERTEX
  5
54A
330
3F5
100
AcDbEntity
  8
0
  6
CONTINUOUS
 62
     7
100
AcDbVertex
100
AcDb2dVertex
 10
160.8310909994
 20
116.2451833154
 30
0.0
  0
VERTEX
  5
54B
330
3F5
100
AcDbEntity
  8
0
  6
CONTINUOUS
 62
     7
100
AcDbVertex
100
AcDb2dVertex
 10
160.7397464156
 20
115.8474871556
 30
0.0
  0
VERTEX
  5
54C
330
3F5
100
AcDbEntity
  8
0
  6
CONTINUOUS
 62
     7
100
AcDbVertex
100
AcDb2dVertex
 10
160.8310909994
 20
115.4497909958
 30
0.0
  0
VERTEX
  5
54D
330
3F5
100
AcDbEntity
  8
0
  6
CONTINUOUS
 62
     7
100
AcDbVertex
100
AcDb2dVertex
 10
161.0912182421
 20
115.1126401166
 30
0.0
  0
VERTEX
  5
54E
330
3F5
100
AcDbEntity
  8
0
  6
CONTINUOUS
 62
     7
100
AcDbVertex
100
AcDb2dVertex
 10
161.4805262123
 20
114.8873634303
 30
0.0
  0
VERTEX
  5
54F
330
3F5
100
AcDbEntity
  8
0
  6
CONTINUOUS
 62
     7
100
AcDbVertex
100
AcDb2dVertex
 10
161.9397464726
 20
114.8082559595
 30
0.0
  0
VERTEX
  5
550
330
3F5
100
AcDbEntity
  8
0
  6
CONTINUOUS
 62
     7
100
AcDbVertex
100
AcDb2dVertex
 10
162.3989665002
 20
114.8873634303
 30
0.0
  0
VERTEX
  5
551
330
3F5
100
AcDbEntity
  8
0
  6
CONTINUOUS
 62
     7
100
AcDbVertex
100
AcDb2dVertex
 10
162.7882745868
 20
115.1126401166
 30
0.0
  0
VERTEX
  5
552
330
3F5
100
AcDbEntity
  8
0
  6
CONTINUOUS
 62
     7
100
AcDbVertex
100
AcDb2dVertex
 10
163.0484018294
 20
115.4497909958
 30
0.0
  0
VERTEX
  5
553
330
3F5
100
AcDbEntity
  8
0
  6
CONTINUOUS
 62
     7
100
AcDbVertex
100
AcDb2dVertex
 10
163.1397464132
 20
115.8474871556
 30
0.0
  0
VERTEX
  5
554
330
3F5
100
AcDbEntity
  8
0
  6
CONTINUOUS
 62
     7
100
AcDbVertex
100
AcDb2dVertex
 10
163.0484018294
 20
116.2451833154
 30
0.0
  0
VERTEX
  5
555
330
3F5
100
AcDbEntity
  8
0
  6
CONTINUOUS
 62
     7
100
AcDbVertex
100
AcDb2dVertex
 10
162.7882745868
 20
116.5823337289
 30
0.0
  0
VERTEX
  5
556
330
3F5
100
AcDbEntity
  8
0
  6
CONTINUOUS
 62
     7
100
AcDbVertex
100
AcDb2dVertex
 10
162.3989665002
 20
116.8076104152
 30
0.0
  0
VERTEX
  5
557
330
3F5
100
AcDbEntity
  8
0
  6
CONTINUOUS
 62
     7
100
AcDbVertex
100
AcDb2dVertex
 10
161.9397464726
 20
116.8867174203
 30
0.0
  0
SEQEND
  5
559
330
3F5
100
AcDbEntity
  8
0
  6
CONTINUOUS
 62
     7
  0
LINE
  5
3F6
330
1F
100
AcDbEntity
  8
0
  6
CONTINUOUS
 62
     7
100
AcDbLine
 10
161.1897463497
 20
115.4724863956
 30
0.0
 11
161.1897463497
 21
116.2224869842
 31
0.0
  0
LINE
  5
3F7
330
1F
100
AcDbEntity
  8
0
  6
CONTINUOUS
 62
     7
100
AcDbLine
 10
161.9397464726
 20
115.097486567
 30
0.0
 11
161.1897463497
 21
115.4724863956
 31
0.0
  0
LINE
  5
3F8
330
1F
100
AcDbEntity
  8
0
  6
CONTINUOUS
 62
     7
100
AcDbLine
 10
162.6897463627
 20
115.4724863956
 30
0.0
 11
161.9397464726
 21
115.097486567
 31
0.0
  0
LINE
  5
3F9
330
1F
100
AcDbEntity
  8
0
  6
CONTINUOUS
 62
     7
100
AcDbLine
 10
162.6897463627
 20
116.2224869842
 30
0.0
 11
162.6897463627
 21
115.4724863956
 31
0.0
  0
LINE
  5
3FA
330
1F
100
AcDbEntity
  8
0
  6
CONTINUOUS
 62
     7
100
AcDbLine
 10
161.9397464726
 20
116.5974868129
 30
0.0
 11
162.6897463627
 21
116.2224869842
 31
0.0
  0
LINE
  5
3FB
330
1F
100
AcDbEntity
  8
0
  6
CONTINUOUS
 62
     7
100
AcDbLine
 10
161.1897463497
 20
116.2224869842
 30
0.0
 11
161.9397464726
 21
116.5974868129
 31
0.0
  0
LINE
  5
3FC
330
1F
100
AcDbEntity
  8
0
  6
CONTINUOUS
 62
     7
100
AcDbLine
 10
161.9397464726
 20
116.0974867309
 30
0.0
 11
161.4397463907
 21
116.3474867719
 31
0.0
  0
LINE
  5
3FD
330
1F
100
AcDbEntity
  8
0
  6
CONTINUOUS
 62
     7
100
AcDbLine
 10
161.9397464726
 20
116.0974867309
 30
0.0
 11
161.9397464726
 21
115.097486567
 31
0.0
  0
LINE
  5
3FE
330
1F
100
AcDbEntity
  8
0
  6
CONTINUOUS
 62
     7
100
AcDbLine
 10
162.4397463218
 20
116.3474867719
 30
0.0
 11
161.9397464726
 21
116.0974867309
 31
0.0
  0
LINE
  5
3FF
330
1F
100
AcDbEntity
  8
0
  6
CONTINUOUS
 62
     7
100
AcDbLine
 10
160.7397464156
 20
140.2224862615
 30
0.0
 11
163.1397464132
 21
140.2224862615
 31
0.0
  0
LINE
  5
400
330
1F
100
AcDbEntity
  8
0
  6
CONTINUOUS
 62
     7
100
AcDbLine
 10
164.2397464218
 20
107.7224874536
 30
0.0
 11
164.2397464218
 21
140.2224862615
 31
0.0
  0
LINE
  5
401
330
1F
100
AcDbEntity
  8
0
  6
CONTINUOUS
 62
     7
100
AcDbLine
 10
159.6397461888
 20
140.2224862615
 30
0.0
 11
159.6397461888
 21
107.7224874536
 31
0.0
  0
SPLINE
  5
402
330
1F
100
AcDbEntity
  8
0
  6
CONTINUOUS
 62
     7
100
AcDbSpline
210
0.0
220
0.0
230
1.0
 70
     8
 71
     3
 72
    16
 73
    12
 74
     0
 42
0.000000001
 43
0.00000001
 40
0.0
 40
0.0
 40
0.0
 40
0.0
 40
0.1256303300258212
 40
0.2509479595182475
 40
0.3756414870095251
 40
0.499668746942009
 40
0.5631049711561297
 40
0.6241659912182201
 40
0.7490135690992825
 40
0.8742200900241776
 40
1.0
 40
1.0
 40
1.0
 40
1.0
 10
163.4615795972086
 20
140.2224769482858
 30
0.0
 10
163.4412552173491
 20
140.2201445870364
 30
0.0
 10
163.4006570460861
 20
140.2154856699079
 30
0.0
 10
163.0401075894146
 20
140.1857560257181
 30
0.0
 10
162.5440153123764
 20
140.1561412008191
 30
0.0
 10
162.0361051925174
 20
140.1469868931033
 30
0.0
 10
161.6385805720218
 20
140.1504475300519
 30
0.0
 10
161.2528934028173
 20
140.1612007950677
 30
0.0
 10
160.8397026678369
 20
140.1856917828144
 30
0.0
 10
160.4788779454759
 20
140.2154802116153
 30
0.0
 10
160.4382759664509
 20
140.220139912538
 30
0.0
 10
160.4179285984746
 20
140.2224750856407
 30
0.0
  0
SPLINE
  5
403
330
1F
100
AcDbEntity
  8
0
  6
CONTINUOUS
 62
     7
100
AcDbSpline
210
0.0
220
0.0
230
1.0
 70
    11
 71
     3
 72
    25
 73
    21
 74
     0
 42
0.000000001
 43
0.00000001
 40
0.0
 40
0.0
 40
0.0
 40
0.0
 40
0.0619355260676113
 40
0.1242779447371751
 40
0.186877951259736
 40
0.249752440423877
 40
0.3126581465452829
 40
0.3753158699346665
 40
0.4376564411534853
 40
0.4996701089169019
 40
0.5313881417963483
 40
0.561917806866714
 40
0.6243376873099592
 40
0.6869476183999909
 40
0.7499126158830499
 40
0.8127296879321667
 40
0.875379341767546
 40
0.9377625929162111
 40
0.9682841269053798
 40
1.0
 40
1.0
 40
1.0
 40
1.0
 10
161.939746472638
 20
117.2233909966893
 30
0.0
 10
162.1401250464517
 20
117.2041400417104
 30
0.0
 10
162.5421986042956
 20
117.1655116603771
 30
0.0
 10
163.0420177225187
 20
116.8312331711124
 30
0.0
 10
163.3912530575261
 20
116.3805410530569
 30
0.0
 10
163.4969177897145
 20
115.8459202277704
 30
0.0
 10
163.3914560472197
 20
115.3243600506322
 30
0.0
 10
163.0425918652477
 20
114.8983793820395
 30
0.0
 10
162.5433293227155
 20
114.6045618654614
 30
0.0
 10
162.0362272231679
 20
114.5306841310671
 30
0.0
 10
161.6385010626485
 20
114.5595935745819
 30
0.0
 10
161.2532098931402
 20
114.6540028281237
 30
0.0
 10
160.8371055623407
 20
114.8979635535737
 30
0.0
 10
160.4881781629308
 20
115.3240899732582
 30
0.0
 10
160.3825607209034
 20
115.8457646922999
 30
0.0
 10
160.4881562082561
 20
116.3795458474322
 30
0.0
 10
160.837332402473
 20
116.8340050750878
 30
0.0
 10
161.2534038777267
 20
117.1011697682754
 30
0.0
 10
161.6383821817959
 20
117.2095533170307
 30
0.0
 10
161.8380147227145
 20
117.218719801696
 30
0.0
 10
161.939746472638
 20
117.2233909966893
 30
0.0
  0
LINE
  5
404
330
1F
100
AcDbEntity
  8
0
  6
CONTINUOUS
 62
     7
100
AcDbLine
 10
159.4397465285
 20
107.9224871139
 30
0.0
 11
159.4397465285
 21
140.0224866013
 31
0.0
  0
LINE
  5
405
330
1F
100
AcDbEntity
  8
0
  6
CONTINUOUS
 62
     7
100
AcDbLine
 10
100.5397450697
 20
108.572486941
 30
0.0
 11
100.5397450697
 21
139.3724867741
 31
0.0
  0
LINE
  5
406
330
1F
100
AcDbEntity
  8
0
  6
CONTINUOUS
 62
     7
100
AcDbLine
 10
88.9397498738
 20
139.3724867741
 30
0.0
 11
88.9397498738
 21
108.572486941
 31
0.0
  0
LINE
  5
407
330
1F
100
AcDbEntity
  8
0
  6
CONTINUOUS
 62
     7
100
AcDbLine
 10
93.7397491705
 20
139.340089787
 30
0.0
 11
93.90322981
 21
139.3411198298
 31
0.0
  0
SPLINE
  5
408
330
1F
100
AcDbEntity
  8
0
  6
CONTINUOUS
 62
     7
100
AcDbSpline
210
0.0
220
0.0
230
1.0
 70
     8
 71
     3
 72
    21
 73
    17
 74
     0
 42
0.000000001
 43
0.00000001
 40
0.0
 40
0.0
 40
0.0
 40
0.0
 40
0.0953334041608699
 40
0.1933731916084649
 40
0.2910163997033469
 40
0.3379151630070759
 40
0.3860779377601093
 40
0.4341425876500032
 40
0.4810307259953113
 40
0.5789428126144217
 40
0.6770335075306407
 40
0.7725467835287031
 40
0.7725904961341229
 40
0.8679444895886883
 40
0.9661108909015781
 40
1.0
 40
1.0
 40
1.0
 40
1.0
 10
94.72642955894386
 20
139.3724811861761
 30
0.0
 10
94.71242829064585
 20
139.3714904045767
 30
0.0
 10
94.68402827743759
 20
139.3694807144608
 30
0.0
 10
94.44603612855192
 20
139.3566790592292
 30
0.0
 10
94.1800342201949
 20
139.3457786722071
 30
0.0
 10
93.93231550442619
 20
139.3408768386076
 30
0.0
 10
93.74095959064579
 20
139.3396983264025
 30
0.0
 10
93.54949173776858
 20
139.3408487771644
 30
0.0
 10
93.30175369586605
 20
139.3457278522317
 30
0.0
 10
93.03313989505115
 20
139.3567765756197
 30
0.0
 10
92.80249345259153
 20
139.3689848720599
 30
0.0
 10
92.75297965833676
 20
139.3724867846035
 30
0.0
 10
92.75297908167354
 20
139.3724867643458
 30
0.0
 10
92.80621581090759
 20
139.3691266171411
 30
0.0
 10
92.9726028259441
 20
139.359149936568
 30
0.0
 10
93.12140742185377
 20
139.3538607402117
 30
0.0
 10
93.15959481115257
 20
139.352503385628
 30
0.0
  0
LINE
  5
409
330
1F
100
AcDbEntity
  8
0
  6
CONTINUOUS
 62
     7
100
AcDbLine
 10
93.5489547026
 20
139.3412828112
 30
0.0
 11
93.7397491705
 21
139.340089787
 31
0.0
  0
LINE
  5
40A
330
1F
100
AcDbEntity
  8
0
  6
CONTINUOUS
 62
     7
100
AcDbLine
 10
86.9397458207
 20
137.3724864463
 30
0.0
 11
86.9397458207
 21
110.5724872688
 31
0.0
  0
LINE
  5
40B
330
1F
100
AcDbEntity
  8
0
  6
CONTINUOUS
 62
     7
100
AcDbLine
 10
100.7397484552
 20
139.1724871139
 30
0.0
 11
100.7397484552
 21
108.7724866013
 31
0.0
  0
LINE
  5
40C
330
1F
100
AcDbEntity
  8
0
  6
CONTINUOUS
 62
     7
100
AcDbLine
 10
151.9897461456
 20
107.2724872867
 30
0.0
 11
151.6897466552
 21
106.9957838992
 31
0.0
  0
LINE
  5
40D
330
1F
100
AcDbEntity
  8
0
  6
CONTINUOUS
 62
     7
100
AcDbLine
 10
151.6897466552
 20
106.9957838992
 30
0.0
 11
151.9897461456
 21
107.3639711032
 31
0.0
  0
LINE
  5
40E
330
1F
100
AcDbEntity
  8
0
  6
CONTINUOUS
 62
     7
100
AcDbLine
 10
151.9897461456
 20
107.3639711032
 30
0.0
 11
151.6897466552
 21
107.1817857812
 31
0.0
  0
LINE
  5
40F
330
1F
100
AcDbEntity
  8
0
  6
CONTINUOUS
 62
     7
100
AcDbLine
 10
151.6897466552
 20
107.1817857812
 30
0.0
 11
151.9897461456
 21
107.6374223123
 31
0.0
  0
LINE
  5
410
330
1F
100
AcDbEntity
  8
0
  6
CONTINUOUS
 62
     7
100
AcDbLine
 10
151.9897461456
 20
107.6374223123
 30
0.0
 11
151.6897466552
 21
107.551748086
 31
0.0
  0
LINE
  5
411
330
1F
100
AcDbEntity
  8
0
  6
CONTINUOUS
 62
     7
100
AcDbLine
 10
151.6897466552
 20
107.551748086
 30
0.0
 11
151.9897461456
 21
108.0898439179
 31
0.0
  0
LINE
  5
412
330
1F
100
AcDbEntity
  8
0
  6
CONTINUOUS
 62
     7
100
AcDbLine
 10
151.9897461456
 20
108.0898439179
 30
0.0
 11
151.6897466552
 21
108.1016195605
 31
0.0
  0
LINE
  5
413
330
1F
100
AcDbEntity
  8
0
  6
CONTINUOUS
 62
     7
100
AcDbLine
 10
151.6897466552
 20
108.1016195605
 30
0.0
 11
151.9897461456
 21
108.7162775586
 31
0.0
  0
LINE
  5
414
330
1F
100
AcDbEntity
  8
0
  6
CONTINUOUS
 62
     7
100
AcDbLine
 10
151.9897461456
 20
108.7162775586
 30
0.0
 11
151.6897466552
 21
108.8253764103
 31
0.0
  0
LINE
  5
415
330
1F
100
AcDbEntity
  8
0
  6
CONTINUOUS
 62
     7
100
AcDbLine
 10
151.6897466552
 20
108.8253764103
 30
0.0
 11
151.9897461456
 21
109.509862181
 31
0.0
  0
LINE
  5
416
330
1F
100
AcDbEntity
  8
0
  6
CONTINUOUS
 62
     7
100
AcDbLine
 10
151.9897461456
 20
109.509862181
 30
0.0
 11
151.6897466552
 21
109.7150874923
 31
0.0
  0
LINE
  5
417
330
1F
100
AcDbEntity
  8
0
  6
CONTINUOUS
 62
     7
100
AcDbLine
 10
151.6897466552
 20
109.7150874923
 30
0.0
 11
151.9897461456
 21
110.4619029576
 31
0.0
  0
LINE
  5
418
330
1F
100
AcDbEntity
  8
0
  6
CONTINUOUS
 62
     7
100
AcDbLine
 10
151.9897461456
 20
110.4619029576
 30
0.0
 11
151.6897466552
 21
110.7610055844
 31
0.0
  0
LINE
  5
419
330
1F
100
AcDbEntity
  8
0
  6
CONTINUOUS
 62
     7
100
AcDbLine
 10
151.6897466552
 20
110.7610055844
 30
0.0
 11
151.9897461456
 21
111.5619681443
 31
0.0
  0
LINE
  5
41A
330
1F
100
AcDbEntity
  8
0
  6
CONTINUOUS
 62
     7
100
AcDbLine
 10
151.9897461456
 20
111.5619681443
 30
0.0
 11
151.6897466552
 21
111.9516716937
 31
0.0
  0
LINE
  5
41B
330
1F
100
AcDbEntity
  8
0
  6
CONTINUOUS
 62
     7
100
AcDbLine
 10
151.6897466552
 20
111.9516716937
 30
0.0
 11
151.9897461456
 21
112.7980054955
 31
0.0
  0
LINE
  5
41C
330
1F
100
AcDbEntity
  8
0
  6
CONTINUOUS
 62
     7
100
AcDbLine
 10
151.9897461456
 20
112.7980054955
 30
0.0
 11
151.6897466552
 21
113.2740398536
 31
0.0
  0
LINE
  5
41D
330
1F
100
AcDbEntity
  8
0
  6
CONTINUOUS
 62
     7
100
AcDbLine
 10
151.6897466552
 20
113.2740398536
 30
0.0
 11
151.9897461456
 21
114.156473581
 31
0.0
  0
LINE
  5
41E
330
1F
100
AcDbEntity
  8
0
  6
CONTINUOUS
 62
     7
100
AcDbLine
 10
151.9897461456
 20
114.156473581
 30
0.0
 11
151.6897466552
 21
114.7136233414
 31
0.0
  0
LINE
  5
41F
330
1F
100
AcDbEntity
  8
0
  6
CONTINUOUS
 62
     7
100
AcDbLine
 10
151.6897466552
 20
114.7136233414
 30
0.0
 11
151.9897461456
 21
115.6224870721
 31
0.0
  0
LINE
  5
420
330
1F
100
AcDbEntity
  8
0
  6
CONTINUOUS
 62
     7
100
AcDbLine
 10
151.9897461456
 20
115.6224870721
 30
0.0
 11
151.6897466552
 21
116.2546483467
 31
0.0
  0
LINE
  5
421
330
1F
100
AcDbEntity
  8
0
  6
CONTINUOUS
 62
     7
100
AcDbLine
 10
151.6897466552
 20
116.2546483467
 30
0.0
 11
151.9897461456
 21
117.1799848455
 31
0.0
  0
LINE
  5
422
330
1F
100
AcDbEntity
  8
0
  6
CONTINUOUS
 62
     7
100
AcDbLine
 10
151.9897461456
 20
117.1799848455
 30
0.0
 11
151.6897466552
 21
117.8802318538
 31
0.0
  0
LINE
  5
423
330
1F
100
AcDbEntity
  8
0
  6
CONTINUOUS
 62
     7
100
AcDbLine
 10
151.6897466552
 20
117.8802318538
 30
0.0
 11
151.9897461456
 21
118.8119032087
 31
0.0
  0
LINE
  5
424
330
1F
100
AcDbEntity
  8
0
  6
CONTINUOUS
 62
     7
100
AcDbLine
 10
151.9897461456
 20
118.8119032087
 30
0.0
 11
151.6897466552
 21
119.5725632499
 31
0.0
  0
LINE
  5
425
330
1F
100
AcDbEntity
  8
0
  6
CONTINUOUS
 62
     7
100
AcDbLine
 10
151.6897466552
 20
119.5725632499
 30
0.0
 11
151.9897461456
 21
120.5003616998
 31
0.0
  0
LINE
  5
426
330
1F
100
AcDbEntity
  8
0
  6
CONTINUOUS
 62
     7
100
AcDbLine
 10
151.9897461456
 20
120.5003616998
 30
0.0
 11
151.6897466552
 21
121.3131010665
 31
0.0
  0
LINE
  5
427
330
1F
100
AcDbEntity
  8
0
  6
CONTINUOUS
 62
     7
100
AcDbLine
 10
151.6897466552
 20
121.3131010665
 30
0.0
 11
151.9897461456
 21
122.2268615749
 31
0.0
  0
LINE
  5
428
330
1F
100
AcDbEntity
  8
0
  6
CONTINUOUS
 62
     7
100
AcDbLine
 10
151.9897461456
 20
122.2268615749
 30
0.0
 11
151.6897466552
 21
123.082775601
 31
0.0
  0
LINE
  5
429
330
1F
100
AcDbEntity
  8
0
  6
CONTINUOUS
 62
     7
100
AcDbLine
 10
151.6897466552
 20
123.082775601
 30
0.0
 11
151.9897461456
 21
123.9724868576
 31
0.0
  0
LINE
  5
42A
330
1F
100
AcDbEntity
  8
0
  6
CONTINUOUS
 62
     7
100
AcDbLine
 10
151.9897461456
 20
123.9724868576
 30
0.0
 11
151.6897466552
 21
124.8621981142
 31
0.0
  0
LINE
  5
42B
330
1F
100
AcDbEntity
  8
0
  6
CONTINUOUS
 62
     7
100
AcDbLine
 10
151.6897466552
 20
124.8621981142
 30
0.0
 11
151.9897461456
 21
125.7181121402
 31
0.0
  0
LINE
  5
42C
330
1F
100
AcDbEntity
  8
0
  6
CONTINUOUS
 62
     7
100
AcDbLine
 10
151.9897461456
 20
125.7181121402
 30
0.0
 11
151.6897466552
 21
126.6318726486
 31
0.0
  0
LINE
  5
42D
330
1F
100
AcDbEntity
  8
0
  6
CONTINUOUS
 62
     7
100
AcDbLine
 10
151.6897466552
 20
126.6318726486
 30
0.0
 11
151.9897461456
 21
127.4446120153
 31
0.0
  0
LINE
  5
42E
330
1F
100
AcDbEntity
  8
0
  6
CONTINUOUS
 62
     7
100
AcDbLine
 10
151.9897461456
 20
127.4446120153
 30
0.0
 11
151.6897466552
 21
128.3724104653
 31
0.0
  0
LINE
  5
42F
330
1F
100
AcDbEntity
  8
0
  6
CONTINUOUS
 62
     7
100
AcDbLine
 10
151.6897466552
 20
128.3724104653
 30
0.0
 11
151.9897461456
 21
129.1330705064
 31
0.0
  0
LINE
  5
430
330
1F
100
AcDbEntity
  8
0
  6
CONTINUOUS
 62
     7
100
AcDbLine
 10
151.9897461456
 20
129.1330705064
 30
0.0
 11
151.6897466552
 21
130.0647418613
 31
0.0
  0
LINE
  5
431
330
1F
100
AcDbEntity
  8
0
  6
CONTINUOUS
 62
     7
100
AcDbLine
 10
151.6897466552
 20
130.0647418613
 30
0.0
 11
151.9897461456
 21
130.7649888697
 31
0.0
  0
LINE
  5
432
330
1F
100
AcDbEntity
  8
0
  6
CONTINUOUS
 62
     7
100
AcDbLine
 10
151.9897461456
 20
130.7649888697
 30
0.0
 11
151.6897466552
 21
131.6903253684
 31
0.0
  0
LINE
  5
433
330
1F
100
AcDbEntity
  8
0
  6
CONTINUOUS
 62
     7
100
AcDbLine
 10
151.6897466552
 20
131.6903253684
 30
0.0
 11
151.9897461456
 21
132.322486643
 31
0.0
  0
LINE
  5
434
330
1F
100
AcDbEntity
  8
0
  6
CONTINUOUS
 62
     7
100
AcDbLine
 10
151.9897461456
 20
132.322486643
 30
0.0
 11
151.6897466552
 21
133.2313503737
 31
0.0
  0
LINE
  5
435
330
1F
100
AcDbEntity
  8
0
  6
CONTINUOUS
 62
     7
100
AcDbLine
 10
151.6897466552
 20
133.2313503737
 30
0.0
 11
151.9897461456
 21
133.7885001341
 31
0.0
  0
LINE
  5
436
330
1F
100
AcDbEntity
  8
0
  6
CONTINUOUS
 62
     7
100
AcDbLine
 10
151.9897461456
 20
133.7885001341
 30
0.0
 11
151.6897466552
 21
134.6709338615
 31
0.0
  0
LINE
  5
437
330
1F
100
AcDbEntity
  8
0
  6
CONTINUOUS
 62
     7
100
AcDbLine
 10
151.6897466552
 20
134.6709338615
 30
0.0
 11
151.9897461456
 21
135.1469682197
 31
0.0
  0
LINE
  5
438
330
1F
100
AcDbEntity
  8
0
  6
CONTINUOUS
 62
     7
100
AcDbLine
 10
151.9897461456
 20
135.1469682197
 30
0.0
 11
151.6897466552
 21
135.9933020214
 31
0.0
  0
LINE
  5
439
330
1F
100
AcDbEntity
  8
0
  6
CONTINUOUS
 62
     7
100
AcDbLine
 10
151.6897466552
 20
135.9933020214
 30
0.0
 11
151.9897461456
 21
136.3830055709
 31
0.0
  0
LINE
  5
43A
330
1F
100
AcDbEntity
  8
0
  6
CONTINUOUS
 62
     7
100
AcDbLine
 10
151.9897461456
 20
136.3830055709
 30
0.0
 11
151.6897466552
 21
137.1839681307
 31
0.0
  0
LINE
  5
43B
330
1F
100
AcDbEntity
  8
0
  6
CONTINUOUS
 62
     7
100
AcDbLine
 10
151.6897466552
 20
137.1839681307
 30
0.0
 11
151.9897461456
 21
137.4830707575
 31
0.0
  0
LINE
  5
43C
330
1F
100
AcDbEntity
  8
0
  6
CONTINUOUS
 62
     7
100
AcDbLine
 10
151.9897461456
 20
137.4830707575
 30
0.0
 11
151.6897466552
 21
138.2298862229
 31
0.0
  0
LINE
  5
43D
330
1F
100
AcDbEntity
  8
0
  6
CONTINUOUS
 62
     7
100
AcDbLine
 10
151.6897466552
 20
138.2298862229
 30
0.0
 11
151.9897461456
 21
138.4351115341
 31
0.0
  0
LINE
  5
43E
330
1F
100
AcDbEntity
  8
0
  6
CONTINUOUS
 62
     7
100
AcDbLine
 10
151.9897461456
 20
138.4351115341
 30
0.0
 11
151.6897466552
 21
139.1195973048
 31
0.0
  0
LINE
  5
43F
330
1F
100
AcDbEntity
  8
0
  6
CONTINUOUS
 62
     7
100
AcDbLine
 10
151.6897466552
 20
139.1195973048
 30
0.0
 11
151.9897461456
 21
139.2286961565
 31
0.0
  0
LINE
  5
440
330
1F
100
AcDbEntity
  8
0
  6
CONTINUOUS
 62
     7
100
AcDbLine
 10
151.9897461456
 20
139.2286961565
 30
0.0
 11
151.6897466552
 21
139.8433541546
 31
0.0
  0
LINE
  5
441
330
1F
100
AcDbEntity
  8
0
  6
CONTINUOUS
 62
     7
100
AcDbLine
 10
151.6897466552
 20
139.8433541546
 30
0.0
 11
151.9897461456
 21
139.8551297972
 31
0.0
  0
LINE
  5
442
330
1F
100
AcDbEntity
  8
0
  6
CONTINUOUS
 62
     7
100
AcDbLine
 10
151.9897461456
 20
139.8551297972
 30
0.0
 11
151.6897466552
 21
140.3932256291
 31
0.0
  0
LINE
  5
443
330
1F
100
AcDbEntity
  8
0
  6
CONTINUOUS
 62
     7
100
AcDbLine
 10
151.6897466552
 20
140.3932256291
 30
0.0
 11
151.9897461456
 21
140.3075514028
 31
0.0
  0
LINE
  5
444
330
1F
100
AcDbEntity
  8
0
  6
CONTINUOUS
 62
     7
100
AcDbLine
 10
151.9897461456
 20
140.3075514028
 30
0.0
 11
151.6897466552
 21
140.7631879339
 31
0.0
  0
LINE
  5
445
330
1F
100
AcDbEntity
  8
0
  6
CONTINUOUS
 62
     7
100
AcDbLine
 10
151.6897466552
 20
140.7631879339
 30
0.0
 11
151.9897461456
 21
140.5810026119
 31
0.0
  0
LINE
  5
446
330
1F
100
AcDbEntity
  8
0
  6
CONTINUOUS
 62
     7
100
AcDbLine
 10
151.9897461456
 20
140.5810026119
 30
0.0
 11
151.6897466552
 21
140.9491898159
 31
0.0
  0
LINE
  5
447
330
1F
100
AcDbEntity
  8
0
  6
CONTINUOUS
 62
     7
100
AcDbLine
 10
151.6897466552
 20
140.9491898159
 30
0.0
 11
151.9897461456
 21
140.6724864284
 31
0.0
  0
LINE
  5
448
330
1F
100
AcDbEntity
  8
0
  6
CONTINUOUS
 62
     7
100
AcDbLine
 10
152.4397463125
 20
140.2224862615
 30
0.0
 11
152.4397463125
 21
107.7224874536
 31
0.0
  0
LINE
  5
449
330
1F
100
AcDbEntity
  8
0
  6
CONTINUOUS
 62
     7
100
AcDbLine
 10
139.9397470575
 20
107.7224874536
 30
0.0
 11
139.9397470575
 21
140.2224862615
 31
0.0
  0
LINE
  5
44A
330
1F
100
AcDbEntity
  8
0
  6
CONTINUOUS
 62
     7
100
AcDbLine
 10
140.6897467148
 20
140.9491898159
 30
0.0
 11
140.3897472244
 21
140.6724864284
 31
0.0
  0
LINE
  5
44B
330
1F
100
AcDbEntity
  8
0
  6
CONTINUOUS
 62
     7
100
AcDbLine
 10
140.3897472244
 20
140.5810026119
 30
0.0
 11
140.6897467148
 21
140.9491898159
 31
0.0
  0
LINE
  5
44C
330
1F
100
AcDbEntity
  8
0
  6
CONTINUOUS
 62
     7
100
AcDbLine
 10
140.6897467148
 20
140.7631879339
 30
0.0
 11
140.3897472244
 21
140.5810026119
 31
0.0
  0
LINE
  5
44D
330
1F
100
AcDbEntity
  8
0
  6
CONTINUOUS
 62
     7
100
AcDbLine
 10
140.3897472244
 20
140.3075514028
 30
0.0
 11
140.6897467148
 21
140.7631879339
 31
0.0
  0
LINE
  5
44E
330
1F
100
AcDbEntity
  8
0
  6
CONTINUOUS
 62
     7
100
AcDbLine
 10
140.6897467148
 20
140.3932256291
 30
0.0
 11
140.3897472244
 21
140.3075514028
 31
0.0
  0
LINE
  5
44F
330
1F
100
AcDbEntity
  8
0
  6
CONTINUOUS
 62
     7
100
AcDbLine
 10
140.3897472244
 20
139.8551297972
 30
0.0
 11
140.6897467148
 21
140.3932256291
 31
0.0
  0
LINE
  5
450
330
1F
100
AcDbEntity
  8
0
  6
CONTINUOUS
 62
     7
100
AcDbLine
 10
140.6897467148
 20
139.8433541546
 30
0.0
 11
140.3897472244
 21
139.8551297972
 31
0.0
  0
LINE
  5
451
330
1F
100
AcDbEntity
  8
0
  6
CONTINUOUS
 62
     7
100
AcDbLine
 10
140.3897472244
 20
139.2286961565
 30
0.0
 11
140.6897467148
 21
139.8433541546
 31
0.0
  0
LINE
  5
452
330
1F
100
AcDbEntity
  8
0
  6
CONTINUOUS
 62
     7
100
AcDbLine
 10
140.6897467148
 20
139.1195973048
 30
0.0
 11
140.3897472244
 21
139.2286961565
 31
0.0
  0
LINE
  5
453
330
1F
100
AcDbEntity
  8
0
  6
CONTINUOUS
 62
     7
100
AcDbLine
 10
140.3897472244
 20
138.4351115341
 30
0.0
 11
140.6897467148
 21
139.1195973048
 31
0.0
  0
LINE
  5
454
330
1F
100
AcDbEntity
  8
0
  6
CONTINUOUS
 62
     7
100
AcDbLine
 10
140.6897467148
 20
138.2298862229
 30
0.0
 11
140.3897472244
 21
138.4351115341
 31
0.0
  0
LINE
  5
455
330
1F
100
AcDbEntity
  8
0
  6
CONTINUOUS
 62
     7
100
AcDbLine
 10
140.3897472244
 20
137.4830707575
 30
0.0
 11
140.6897467148
 21
138.2298862229
 31
0.0
  0
LINE
  5
456
330
1F
100
AcDbEntity
  8
0
  6
CONTINUOUS
 62
     7
100
AcDbLine
 10
140.6897467148
 20
137.1839681307
 30
0.0
 11
140.3897472244
 21
137.4830707575
 31
0.0
  0
LINE
  5
457
330
1F
100
AcDbEntity
  8
0
  6
CONTINUOUS
 62
     7
100
AcDbLine
 10
140.3897472244
 20
136.3830055709
 30
0.0
 11
140.6897467148
 21
137.1839681307
 31
0.0
  0
LINE
  5
458
330
1F
100
AcDbEntity
  8
0
  6
CONTINUOUS
 62
     7
100
AcDbLine
 10
140.6897467148
 20
135.9933020214
 30
0.0
 11
140.3897472244
 21
136.3830055709
 31
0.0
  0
LINE
  5
459
330
1F
100
AcDbEntity
  8
0
  6
CONTINUOUS
 62
     7
100
AcDbLine
 10
140.3897472244
 20
135.1469682197
 30
0.0
 11
140.6897467148
 21
135.9933020214
 31
0.0
  0
LINE
  5
45A
330
1F
100
AcDbEntity
  8
0
  6
CONTINUOUS
 62
     7
100
AcDbLine
 10
140.6897467148
 20
134.6709338615
 30
0.0
 11
140.3897472244
 21
135.1469682197
 31
0.0
  0
LINE
  5
45B
330
1F
100
AcDbEntity
  8
0
  6
CONTINUOUS
 62
     7
100
AcDbLine
 10
140.3897472244
 20
133.7885001341
 30
0.0
 11
140.6897467148
 21
134.6709338615
 31
0.0
  0
LINE
  5
45C
330
1F
100
AcDbEntity
  8
0
  6
CONTINUOUS
 62
     7
100
AcDbLine
 10
140.6897467148
 20
133.2313503737
 30
0.0
 11
140.3897472244
 21
133.7885001341
 31
0.0
  0
LINE
  5
45D
330
1F
100
AcDbEntity
  8
0
  6
CONTINUOUS
 62
     7
100
AcDbLine
 10
140.3897472244
 20
132.322486643
 30
0.0
 11
140.6897467148
 21
133.2313503737
 31
0.0
  0
LINE
  5
45E
330
1F
100
AcDbEntity
  8
0
  6
CONTINUOUS
 62
     7
100
AcDbLine
 10
140.6897467148
 20
131.6903253684
 30
0.0
 11
140.3897472244
 21
132.322486643
 31
0.0
  0
LINE
  5
45F
330
1F
100
AcDbEntity
  8
0
  6
CONTINUOUS
 62
     7
100
AcDbLine
 10
140.3897472244
 20
130.7649888697
 30
0.0
 11
140.6897467148
 21
131.6903253684
 31
0.0
  0
LINE
  5
460
330
1F
100
AcDbEntity
  8
0
  6
CONTINUOUS
 62
     7
100
AcDbLine
 10
140.6897467148
 20
130.0647418613
 30
0.0
 11
140.3897472244
 21
130.7649888697
 31
0.0
  0
LINE
  5
461
330
1F
100
AcDbEntity
  8
0
  6
CONTINUOUS
 62
     7
100
AcDbLine
 10
140.3897472244
 20
129.1330705064
 30
0.0
 11
140.6897467148
 21
130.0647418613
 31
0.0
  0
LINE
  5
462
330
1F
100
AcDbEntity
  8
0
  6
CONTINUOUS
 62
     7
100
AcDbLine
 10
140.6897467148
 20
128.3724104653
 30
0.0
 11
140.3897472244
 21
129.1330705064
 31
0.0
  0
LINE
  5
463
330
1F
100
AcDbEntity
  8
0
  6
CONTINUOUS
 62
     7
100
AcDbLine
 10
140.3897472244
 20
127.4446120153
 30
0.0
 11
140.6897467148
 21
128.3724104653
 31
0.0
  0
LINE
  5
464
330
1F
100
AcDbEntity
  8
0
  6
CONTINUOUS
 62
     7
100
AcDbLine
 10
140.6897467148
 20
126.6318726486
 30
0.0
 11
140.3897472244
 21
127.4446120153
 31
0.0
  0
LINE
  5
465
330
1F
100
AcDbEntity
  8
0
  6
CONTINUOUS
 62
     7
100
AcDbLine
 10
140.3897472244
 20
125.7181121402
 30
0.0
 11
140.6897467148
 21
126.6318726486
 31
0.0
  0
LINE
  5
466
330
1F
100
AcDbEntity
  8
0
  6
CONTINUOUS
 62
     7
100
AcDbLine
 10
140.6897467148
 20
124.8621981142
 30
0.0
 11
140.3897472244
 21
125.7181121402
 31
0.0
  0
LINE
  5
467
330
1F
100
AcDbEntity
  8
0
  6
CONTINUOUS
 62
     7
100
AcDbLine
 10
140.3897472244
 20
123.9724868576
 30
0.0
 11
140.6897467148
 21
124.8621981142
 31
0.0
  0
LINE
  5
468
330
1F
100
AcDbEntity
  8
0
  6
CONTINUOUS
 62
     7
100
AcDbLine
 10
140.6897467148
 20
123.082775601
 30
0.0
 11
140.3897472244
 21
123.9724868576
 31
0.0
  0
LINE
  5
469
330
1F
100
AcDbEntity
  8
0
  6
CONTINUOUS
 62
     7
100
AcDbLine
 10
140.3897472244
 20
122.2268615749
 30
0.0
 11
140.6897467148
 21
123.082775601
 31
0.0
  0
LINE
  5
46A
330
1F
100
AcDbEntity
  8
0
  6
CONTINUOUS
 62
     7
100
AcDbLine
 10
140.6897467148
 20
121.3131010665
 30
0.0
 11
140.3897472244
 21
122.2268615749
 31
0.0
  0
LINE
  5
46B
330
1F
100
AcDbEntity
  8
0
  6
CONTINUOUS
 62
     7
100
AcDbLine
 10
140.3897472244
 20
120.5003616998
 30
0.0
 11
140.6897467148
 21
121.3131010665
 31
0.0
  0
LINE
  5
46C
330
1F
100
AcDbEntity
  8
0
  6
CONTINUOUS
 62
     7
100
AcDbLine
 10
140.6897467148
 20
119.5725632499
 30
0.0
 11
140.3897472244
 21
120.5003616998
 31
0.0
  0
LINE
  5
46D
330
1F
100
AcDbEntity
  8
0
  6
CONTINUOUS
 62
     7
100
AcDbLine
 10
140.3897472244
 20
118.8119032087
 30
0.0
 11
140.6897467148
 21
119.5725632499
 31
0.0
  0
LINE
  5
46E
330
1F
100
AcDbEntity
  8
0
  6
CONTINUOUS
 62
     7
100
AcDbLine
 10
140.6897467148
 20
117.8802318538
 30
0.0
 11
140.3897472244
 21
118.8119032087
 31
0.0
  0
LINE
  5
46F
330
1F
100
AcDbEntity
  8
0
  6
CONTINUOUS
 62
     7
100
AcDbLine
 10
140.3897472244
 20
117.1799848455
 30
0.0
 11
140.6897467148
 21
117.8802318538
 31
0.0
  0
LINE
  5
470
330
1F
100
AcDbEntity
  8
0
  6
CONTINUOUS
 62
     7
100
AcDbLine
 10
140.6897467148
 20
116.2546483467
 30
0.0
 11
140.3897472244
 21
117.1799848455
 31
0.0
  0
LINE
  5
471
330
1F
100
AcDbEntity
  8
0
  6
CONTINUOUS
 62
     7
100
AcDbLine
 10
140.3897472244
 20
115.6224870721
 30
0.0
 11
140.6897467148
 21
116.2546483467
 31
0.0
  0
LINE
  5
472
330
1F
100
AcDbEntity
  8
0
  6
CONTINUOUS
 62
     7
100
AcDbLine
 10
140.6897467148
 20
114.7136233414
 30
0.0
 11
140.3897472244
 21
115.6224870721
 31
0.0
  0
LINE
  5
473
330
1F
100
AcDbEntity
  8
0
  6
CONTINUOUS
 62
     7
100
AcDbLine
 10
140.3897472244
 20
114.156473581
 30
0.0
 11
140.6897467148
 21
114.7136233414
 31
0.0
  0
LINE
  5
474
330
1F
100
AcDbEntity
  8
0
  6
CONTINUOUS
 62
     7
100
AcDbLine
 10
140.6897467148
 20
113.2740398536
 30
0.0
 11
140.3897472244
 21
114.156473581
 31
0.0
  0
LINE
  5
475
330
1F
100
AcDbEntity
  8
0
  6
CONTINUOUS
 62
     7
100
AcDbLine
 10
140.3897472244
 20
112.7980054955
 30
0.0
 11
140.6897467148
 21
113.2740398536
 31
0.0
  0
LINE
  5
476
330
1F
100
AcDbEntity
  8
0
  6
CONTINUOUS
 62
     7
100
AcDbLine
 10
140.6897467148
 20
111.9516716937
 30
0.0
 11
140.3897472244
 21
112.7980054955
 31
0.0
  0
LINE
  5
477
330
1F
100
AcDbEntity
  8
0
  6
CONTINUOUS
 62
     7
100
AcDbLine
 10
140.3897472244
 20
111.5619681443
 30
0.0
 11
140.6897467148
 21
111.9516716937
 31
0.0
  0
LINE
  5
478
330
1F
100
AcDbEntity
  8
0
  6
CONTINUOUS
 62
     7
100
AcDbLine
 10
140.6897467148
 20
110.7610055844
 30
0.0
 11
140.3897472244
 21
111.5619681443
 31
0.0
  0
LINE
  5
479
330
1F
100
AcDbEntity
  8
0
  6
CONTINUOUS
 62
     7
100
AcDbLine
 10
140.3897472244
 20
110.4619029576
 30
0.0
 11
140.6897467148
 21
110.7610055844
 31
0.0
  0
LINE
  5
47A
330
1F
100
AcDbEntity
  8
0
  6
CONTINUOUS
 62
     7
100
AcDbLine
 10
140.6897467148
 20
109.7150874923
 30
0.0
 11
140.3897472244
 21
110.4619029576
 31
0.0
  0
LINE
  5
47B
330
1F
100
AcDbEntity
  8
0
  6
CONTINUOUS
 62
     7
100
AcDbLine
 10
140.3897472244
 20
109.509862181
 30
0.0
 11
140.6897467148
 21
109.7150874923
 31
0.0
  0
LINE
  5
47C
330
1F
100
AcDbEntity
  8
0
  6
CONTINUOUS
 62
     7
100
AcDbLine
 10
140.6897467148
 20
108.8253764103
 30
0.0
 11
140.3897472244
 21
109.509862181
 31
0.0
  0
LINE
  5
47D
330
1F
100
AcDbEntity
  8
0
  6
CONTINUOUS
 62
     7
100
AcDbLine
 10
140.3897472244
 20
108.7162775586
 30
0.0
 11
140.6897467148
 21
108.8253764103
 31
0.0
  0
LINE
  5
47E
330
1F
100
AcDbEntity
  8
0
  6
CONTINUOUS
 62
     7
100
AcDbLine
 10
140.6897467148
 20
108.1016195605
 30
0.0
 11
140.3897472244
 21
108.7162775586
 31
0.0
  0
LINE
  5
47F
330
1F
100
AcDbEntity
  8
0
  6
CONTINUOUS
 62
     7
100
AcDbLine
 10
140.3897472244
 20
108.0898439179
 30
0.0
 11
140.6897467148
 21
108.1016195605
 31
0.0
  0
LINE
  5
480
330
1F
100
AcDbEntity
  8
0
  6
CONTINUOUS
 62
     7
100
AcDbLine
 10
140.6897467148
 20
107.551748086
 30
0.0
 11
140.3897472244
 21
108.0898439179
 31
0.0
  0
LINE
  5
481
330
1F
100
AcDbEntity
  8
0
  6
CONTINUOUS
 62
     7
100
AcDbLine
 10
140.3897472244
 20
107.6374223123
 30
0.0
 11
140.6897467148
 21
107.551748086
 31
0.0
  0
LINE
  5
482
330
1F
100
AcDbEntity
  8
0
  6
CONTINUOUS
 62
     7
100
AcDbLine
 10
140.6897467148
 20
107.1817857812
 30
0.0
 11
140.3897472244
 21
107.6374223123
 31
0.0
  0
LINE
  5
483
330
1F
100
AcDbEntity
  8
0
  6
CONTINUOUS
 62
     7
100
AcDbLine
 10
140.3897472244
 20
107.3639711032
 30
0.0
 11
140.6897467148
 21
107.1817857812
 31
0.0
  0
LINE
  5
484
330
1F
100
AcDbEntity
  8
0
  6
CONTINUOUS
 62
     7
100
AcDbLine
 10
140.6897467148
 20
106.9957838992
 30
0.0
 11
140.3897472244
 21
107.3639711032
 31
0.0
  0
LINE
  5
485
330
1F
100
AcDbEntity
  8
0
  6
CONTINUOUS
 62
     7
100
AcDbLine
 10
140.3897472244
 20
107.2724872867
 30
0.0
 11
140.6897467148
 21
106.9957838992
 31
0.0
  0
LINE
  5
486
330
1F
100
AcDbEntity
  8
0
  6
CONTINUOUS
 62
     7
100
AcDbLine
 10
140.6897467148
 20
124.8621981142
 30
0.0
 11
151.6897466552
 21
124.8621981142
 31
0.0
  0
LINE
  5
487
330
1F
100
AcDbEntity
  8
0
  6
CONTINUOUS
 62
     7
100
AcDbLine
 10
140.3897472244
 20
125.7181121402
 30
0.0
 11
151.9897461456
 21
125.7181121402
 31
0.0
  0
LINE
  5
488
330
1F
100
AcDbEntity
  8
0
  6
CONTINUOUS
 62
     7
100
AcDbLine
 10
140.3897472244
 20
123.9724868576
 30
0.0
 11
151.9897461456
 21
123.9724868576
 31
0.0
  0
LINE
  5
489
330
1F
100
AcDbEntity
  8
0
  6
CONTINUOUS
 62
     7
100
AcDbLine
 10
140.3897472244
 20
122.2268615749
 30
0.0
 11
151.9897461456
 21
122.2268615749
 31
0.0
  0
LINE
  5
48A
330
1F
100
AcDbEntity
  8
0
  6
CONTINUOUS
 62
     7
100
AcDbLine
 10
140.6897467148
 20
123.082775601
 30
0.0
 11
151.6897466552
 21
123.082775601
 31
0.0
  0
LINE
  5
48B
330
1F
100
AcDbEntity
  8
0
  6
CONTINUOUS
 62
     7
100
AcDbLine
 10
140.6897467148
 20
126.6318726486
 30
0.0
 11
151.6897466552
 21
126.6318726486
 31
0.0
  0
LINE
  5
48C
330
1F
100
AcDbEntity
  8
0
  6
CONTINUOUS
 62
     7
100
AcDbLine
 10
140.3897472244
 20
127.4446120153
 30
0.0
 11
151.9897461456
 21
127.4446120153
 31
0.0
  0
LINE
  5
48D
330
1F
100
AcDbEntity
  8
0
  6
CONTINUOUS
 62
     7
100
AcDbLine
 10
140.6897467148
 20
121.3131010665
 30
0.0
 11
151.6897466552
 21
121.3131010665
 31
0.0
  0
LINE
  5
48E
330
1F
100
AcDbEntity
  8
0
  6
CONTINUOUS
 62
     7
100
AcDbLine
 10
140.3897472244
 20
120.5003616998
 30
0.0
 11
151.9897461456
 21
120.5003616998
 31
0.0
  0
LINE
  5
48F
330
1F
100
AcDbEntity
  8
0
  6
CONTINUOUS
 62
     7
100
AcDbLine
 10
140.6897467148
 20
128.3724104653
 30
0.0
 11
151.6897466552
 21
128.3724104653
 31
0.0
  0
LINE
  5
490
330
1F
100
AcDbEntity
  8
0
  6
CONTINUOUS
 62
     7
100
AcDbLine
 10
140.3897472244
 20
129.1330705064
 30
0.0
 11
151.9897461456
 21
129.1330705064
 31
0.0
  0
LINE
  5
491
330
1F
100
AcDbEntity
  8
0
  6
CONTINUOUS
 62
     7
100
AcDbLine
 10
140.6897467148
 20
119.5725632499
 30
0.0
 11
151.6897466552
 21
119.5725632499
 31
0.0
  0
LINE
  5
492
330
1F
100
AcDbEntity
  8
0
  6
CONTINUOUS
 62
     7
100
AcDbLine
 10
140.3897472244
 20
118.8119032087
 30
0.0
 11
151.9897461456
 21
118.8119032087
 31
0.0
  0
LINE
  5
493
330
1F
100
AcDbEntity
  8
0
  6
CONTINUOUS
 62
     7
100
AcDbLine
 10
158.7397463206
 20
123.9724868576
 30
0.0
 11
158.7397463206
 21
140.2224862615
 31
0.0
  0
LINE
  5
494
330
1F
100
AcDbEntity
  8
0
  6
CONTINUOUS
 62
     7
100
AcDbLine
 10
158.7397463206
 20
107.7224874536
 30
0.0
 11
158.7397463206
 21
123.9724868576
 31
0.0
  0
LINE
  5
495
330
1F
100
AcDbEntity
  8
0
  6
CONTINUOUS
 62
     7
100
AcDbLine
 10
158.9397464466
 20
123.9724868576
 30
0.0
 11
158.9397464466
 21
107.9224871139
 31
0.0
  0
LINE
  5
496
330
1F
100
AcDbEntity
  8
0
  6
CONTINUOUS
 62
     7
100
AcDbLine
 10
158.9397464466
 20
140.0224866013
 30
0.0
 11
158.9397464466
 21
123.9724868576
 31
0.0
  0
LINE
  5
497
330
1F
100
AcDbEntity
  8
0
  6
CONTINUOUS
 62
     7
100
AcDbLine
 10
140.6897467148
 20
130.0647418613
 30
0.0
 11
151.6897466552
 21
130.0647418613
 31
0.0
  0
LINE
  5
498
330
1F
100
AcDbEntity
  8
0
  6
CONTINUOUS
 62
     7
100
AcDbLine
 10
140.6897467148
 20
117.8802318538
 30
0.0
 11
151.6897466552
 21
117.8802318538
 31
0.0
  0
LINE
  5
499
330
1F
100
AcDbEntity
  8
0
  6
CONTINUOUS
 62
     7
100
AcDbLine
 10
140.3897472244
 20
130.7649888697
 30
0.0
 11
151.9897461456
 21
130.7649888697
 31
0.0
  0
LINE
  5
49A
330
1F
100
AcDbEntity
  8
0
  6
CONTINUOUS
 62
     7
100
AcDbLine
 10
140.3897472244
 20
117.1799848455
 30
0.0
 11
151.9897461456
 21
117.1799848455
 31
0.0
  0
LINE
  5
49B
330
1F
100
AcDbEntity
  8
0
  6
CONTINUOUS
 62
     7
100
AcDbLine
 10
101.1397477757
 20
139.4724866042
 30
0.0
 11
101.1397477757
 21
108.4724871109
 31
0.0
  0
LINE
  5
49C
330
1F
100
AcDbEntity
  8
0
  6
CONTINUOUS
 62
     7
100
AcDbLine
 10
100.9397443902
 20
108.6724867711
 30
0.0
 11
100.9397443902
 21
139.272486944
 31
0.0
  0
LINE
  5
49D
330
1F
100
AcDbEntity
  8
0
  6
CONTINUOUS
 62
     7
100
AcDbLine
 10
140.6897467148
 20
131.6903253684
 30
0.0
 11
151.6897466552
 21
131.6903253684
 31
0.0
  0
LINE
  5
49E
330
1F
100
AcDbEntity
  8
0
  6
CONTINUOUS
 62
     7
100
AcDbLine
 10
140.6897467148
 20
116.2546483467
 30
0.0
 11
151.6897466552
 21
116.2546483467
 31
0.0
  0
LINE
  5
49F
330
1F
100
AcDbEntity
  8
0
  6
CONTINUOUS
 62
     7
100
AcDbLine
 10
140.3897472244
 20
132.322486643
 30
0.0
 11
151.9897461456
 21
132.322486643
 31
0.0
  0
LINE
  5
4A0
330
1F
100
AcDbEntity
  8
0
  6
CONTINUOUS
 62
     7
100
AcDbLine
 10
140.3897472244
 20
115.6224870721
 30
0.0
 11
151.9897461456
 21
115.6224870721
 31
0.0
  0
LINE
  5
4A1
330
1F
100
AcDbEntity
  8
0
  6
CONTINUOUS
 62
     7
100
AcDbLine
 10
140.6897467148
 20
133.2313503737
 30
0.0
 11
151.6897466552
 21
133.2313503737
 31
0.0
  0
LINE
  5
4A2
330
1F
100
AcDbEntity
  8
0
  6
CONTINUOUS
 62
     7
100
AcDbLine
 10
140.6897467148
 20
114.7136233414
 30
0.0
 11
151.6897466552
 21
114.7136233414
 31
0.0
  0
LINE
  5
4A3
330
1F
100
AcDbEntity
  8
0
  6
CONTINUOUS
 62
     7
100
AcDbLine
 10
140.3897472244
 20
133.7885001341
 30
0.0
 11
151.9897461456
 21
133.7885001341
 31
0.0
  0
LINE
  5
4A4
330
1F
100
AcDbEntity
  8
0
  6
CONTINUOUS
 62
     7
100
AcDbLine
 10
140.3897472244
 20
114.156473581
 30
0.0
 11
151.9897461456
 21
114.156473581
 31
0.0
  0
LINE
  5
4A5
330
1F
100
AcDbEntity
  8
0
  6
CONTINUOUS
 62
     7
100
AcDbLine
 10
140.6897467148
 20
134.6709338615
 30
0.0
 11
151.6897466552
 21
134.6709338615
 31
0.0
  0
LINE
  5
4A6
330
1F
100
AcDbEntity
  8
0
  6
CONTINUOUS
 62
     7
100
AcDbLine
 10
140.6897467148
 20
113.2740398536
 30
0.0
 11
151.6897466552
 21
113.2740398536
 31
0.0
  0
LINE
  5
4A7
330
1F
100
AcDbEntity
  8
0
  6
CONTINUOUS
 62
     7
100
AcDbLine
 10
140.3897472244
 20
135.1469682197
 30
0.0
 11
151.9897461456
 21
135.1469682197
 31
0.0
  0
LINE
  5
4A8
330
1F
100
AcDbEntity
  8
0
  6
CONTINUOUS
 62
     7
100
AcDbLine
 10
140.3897472244
 20
112.7980054955
 30
0.0
 11
151.9897461456
 21
112.7980054955
 31
0.0
  0
LINE
  5
4A9
330
1F
100
AcDbEntity
  8
0
  6
CONTINUOUS
 62
     7
100
AcDbLine
 10
140.6897467148
 20
135.9933020214
 30
0.0
 11
151.6897466552
 21
135.9933020214
 31
0.0
  0
LINE
  5
4AA
330
1F
100
AcDbEntity
  8
0
  6
CONTINUOUS
 62
     7
100
AcDbLine
 10
140.6897467148
 20
111.9516716937
 30
0.0
 11
151.6897466552
 21
111.9516716937
 31
0.0
  0
LINE
  5
4AB
330
1F
100
AcDbEntity
  8
0
  6
CONTINUOUS
 62
     7
100
AcDbLine
 10
140.3897472244
 20
136.3830055709
 30
0.0
 11
151.9897461456
 21
136.3830055709
 31
0.0
  0
LINE
  5
4AC
330
1F
100
AcDbEntity
  8
0
  6
CONTINUOUS
 62
     7
100
AcDbLine
 10
140.3897472244
 20
111.5619681443
 30
0.0
 11
151.9897461456
 21
111.5619681443
 31
0.0
  0
LINE
  5
4AD
330
1F
100
AcDbEntity
  8
0
  6
CONTINUOUS
 62
     7
100
AcDbLine
 10
140.6897467148
 20
137.1839681307
 30
0.0
 11
151.6897466552
 21
137.1839681307
 31
0.0
  0
LINE
  5
4AE
330
1F
100
AcDbEntity
  8
0
  6
CONTINUOUS
 62
     7
100
AcDbLine
 10
140.6897467148
 20
110.7610055844
 30
0.0
 11
151.6897466552
 21
110.7610055844
 31
0.0
  0
LINE
  5
4AF
330
1F
100
AcDbEntity
  8
0
  6
CONTINUOUS
 62
     7
100
AcDbLine
 10
140.3897472244
 20
137.4830707575
 30
0.0
 11
151.9897461456
 21
137.4830707575
 31
0.0
  0
LINE
  5
4B0
330
1F
100
AcDbEntity
  8
0
  6
CONTINUOUS
 62
     7
100
AcDbLine
 10
140.3897472244
 20
110.4619029576
 30
0.0
 11
151.9897461456
 21
110.4619029576
 31
0.0
  0
LINE
  5
4B1
330
1F
100
AcDbEntity
  8
0
  6
CONTINUOUS
 62
     7
100
AcDbLine
 10
140.6897467148
 20
138.2298862229
 30
0.0
 11
151.6897466552
 21
138.2298862229
 31
0.0
  0
LINE
  5
4B2
330
1F
100
AcDbEntity
  8
0
  6
CONTINUOUS
 62
     7
100
AcDbLine
 10
140.6897467148
 20
109.7150874923
 30
0.0
 11
151.6897466552
 21
109.7150874923
 31
0.0
  0
LINE
  5
4B3
330
1F
100
AcDbEntity
  8
0
  6
CONTINUOUS
 62
     7
100
AcDbLine
 10
140.3897472244
 20
138.4351115341
 30
0.0
 11
151.9897461456
 21
138.4351115341
 31
0.0
  0
LINE
  5
4B4
330
1F
100
AcDbEntity
  8
0
  6
CONTINUOUS
 62
     7
100
AcDbLine
 10
140.3897472244
 20
109.509862181
 30
0.0
 11
151.9897461456
 21
109.509862181
 31
0.0
  0
LINE
  5
4B5
330
1F
100
AcDbEntity
  8
0
  6
CONTINUOUS
 62
     7
100
AcDbLine
 10
140.6897467148
 20
139.1195973048
 30
0.0
 11
151.6897466552
 21
139.1195973048
 31
0.0
  0
LINE
  5
4B6
330
1F
100
AcDbEntity
  8
0
  6
CONTINUOUS
 62
     7
100
AcDbLine
 10
140.6897467148
 20
108.8253764103
 30
0.0
 11
151.6897466552
 21
108.8253764103
 31
0.0
  0
LINE
  5
4B7
330
1F
100
AcDbEntity
  8
0
  6
CONTINUOUS
 62
     7
100
AcDbLine
 10
140.3897472244
 20
139.2286961565
 30
0.0
 11
151.9897461456
 21
139.2286961565
 31
0.0
  0
LINE
  5
4B8
330
1F
100
AcDbEntity
  8
0
  6
CONTINUOUS
 62
     7
100
AcDbLine
 10
140.3897472244
 20
108.7162775586
 30
0.0
 11
151.9897461456
 21
108.7162775586
 31
0.0
  0
LINE
  5
4B9
330
1F
100
AcDbEntity
  8
0
  6
CONTINUOUS
 62
     7
100
AcDbLine
 10
140.6897467148
 20
139.8433541546
 30
0.0
 11
151.6897466552
 21
139.8433541546
 31
0.0
  0
LINE
  5
4BA
330
1F
100
AcDbEntity
  8
0
  6
CONTINUOUS
 62
     7
100
AcDbLine
 10
140.6897467148
 20
108.1016195605
 30
0.0
 11
151.6897466552
 21
108.1016195605
 31
0.0
  0
LINE
  5
4BB
330
1F
100
AcDbEntity
  8
0
  6
CONTINUOUS
 62
     7
100
AcDbLine
 10
140.3897472244
 20
139.8551297972
 30
0.0
 11
151.9897461456
 21
139.8551297972
 31
0.0
  0
LINE
  5
4BC
330
1F
100
AcDbEntity
  8
0
  6
CONTINUOUS
 62
     7
100
AcDbLine
 10
140.3897472244
 20
108.0898439179
 30
0.0
 11
151.9897461456
 21
108.0898439179
 31
0.0
  0
LINE
  5
4BD
330
1F
100
AcDbEntity
  8
0
  6
CONTINUOUS
 62
     7
100
AcDbLine
 10
140.6897467148
 20
140.3932256291
 30
0.0
 11
151.6897466552
 21
140.3932256291
 31
0.0
  0
LINE
  5
4BE
330
1F
100
AcDbEntity
  8
0
  6
CONTINUOUS
 62
     7
100
AcDbLine
 10
140.6897467148
 20
107.551748086
 30
0.0
 11
151.6897466552
 21
107.551748086
 31
0.0
  0
LINE
  5
4BF
330
1F
100
AcDbEntity
  8
0
  6
CONTINUOUS
 62
     7
100
AcDbLine
 10
140.6897467148
 20
140.7631879339
 30
0.0
 11
151.6897466552
 21
140.7631879339
 31
0.0
  0
LINE
  5
4C0
330
1F
100
AcDbEntity
  8
0
  6
CONTINUOUS
 62
     7
100
AcDbLine
 10
140.6897467148
 20
107.1817857812
 30
0.0
 11
151.6897466552
 21
107.1817857812
 31
0.0
  0
LINE
  5
4C1
330
1F
100
AcDbEntity
  8
0
  6
CONTINUOUS
 62
     7
100
AcDbLine
 10
140.6897467148
 20
140.9491898159
 30
0.0
 11
151.6897466552
 21
140.9491898159
 31
0.0
  0
LINE
  5
4C2
330
1F
100
AcDbEntity
  8
0
  6
CONTINUOUS
 62
     7
100
AcDbLine
 10
140.6897467148
 20
106.9957838992
 30
0.0
 11
151.6897466552
 21
106.9957838992
 31
0.0
  0
LINE
  5
4C3
330
1F
100
AcDbEntity
  8
0
  6
CONTINUOUS
 62
     7
100
AcDbLine
 10
159.2397464026
 20
108.9724871928
 30
0.0
 11
159.2397464026
 21
138.9724865223
 31
0.0
  0
LINE
  5
4C4
330
1F
100
AcDbEntity
  8
0
  6
CONTINUOUS
 62
     7
100
AcDbLine
 10
26.9397464168
 20
137.3724868576
 30
0.0
 11
26.9397464168
 21
110.5724868576
 31
0.0
  0
LINE
  5
4C5
330
1F
100
AcDbEntity
  8
0
  6
CONTINUOUS
 62
     7
100
AcDbLine
 10
267.1657464168
 20
120.3668800424
 30
0.0
 11
267.1657464168
 21
127.4840622185
 31
0.0
  0
LINE
  5
4C6
330
1F
100
AcDbEntity
  8
0
  6
CONTINUOUS
 62
     7
100
AcDbLine
 10
252.8397464168
 20
136.2724868576
 30
0.0
 11
251.4284215514
 21
136.2724868576
 31
0.0
  0
LINE
  5
4C7
330
1F
100
AcDbEntity
  8
0
  6
CONTINUOUS
 62
     7
100
AcDbLine
 10
251.4284215514
 20
111.6724868576
 30
0.0
 11
252.8397464168
 21
111.6724868576
 31
0.0
  0
DIMENSION
  5
4C8
330
1F
100
AcDbEntity
  8
0
  6
CONTINUOUS
 62
     7
100
AcDbDimension
  2
_D
 10
86.9397464168
 20
156.6949384197
 30
0.0
 11
58.9397464168
 21
156.6949384197
 31
0.0
 70
   160
  1
W.D.=<>±1
  3
SLDDIMSTYLE0
100
AcDbAlignedDimension
 13
26.9397464168
 23
123.9724868576
 33
0.0
 14
86.9397464168
 24
123.9724868576
 34
0.0
100
AcDbRotatedDimension
  0
DIMENSION
  5
4DB
330
1F
100
AcDbEntity
  8
0
  6
CONTINUOUS
 62
     7
100
AcDbDimension
  2
_D_1
 10
249.6397464168
 20
156.6949384197
 30
0.0
 11
258.4752905528
 21
156.6949384197
 31
0.0
 70
   160
  1
FB=<>
  3
SLDDIMSTYLE1
100
AcDbAlignedDimension
 13
267.1657464168
 23
123.9724868576
 33
0.0
 14
249.6397464168
 24
123.9724868576
 34
0.0
100
AcDbRotatedDimension
  0
DIMENSION
  5
4E9
330
1F
100
AcDbEntity
  8
0
  6
CONTINUOUS
 62
     7
100
AcDbDimension
  2
_D_2
 10
76.9397464168
 20
108.5724868576
 30
0.0
 11
76.9397464168
 21
124.4834619625
 31
0.0
 70
   160
  1
%%c<>
  3
SLDDIMSTYLE0
100
AcDbAlignedDimension
 13
88.9397464168
 23
139.3724868576
 33
0.0
 14
88.9397464168
 24
108.5724868576
 34
0.0
 50
90.0
100
AcDbRotatedDimension
  0
DIMENSION
  5
4F4
330
1F
100
AcDbEntity
  8
0
  6
CONTINUOUS
 62
     7
100
AcDbDimension
  2
_D_3
 10
249.6397464168
 20
156.6949384197
 30
0.0
 11
170.2897464168
 21
156.6949384197
 31
0.0
 70
   160
  1
(<>)
  3
SLDDIMSTYLE0
100
AcDbAlignedDimension
 13
86.9397464168
 23
137.3724868576
 33
0.0
 14
249.6397464168
 24
137.9724868576
 34
0.0
100
AcDbRotatedDimension
  0
DIMENSION
  5
500
330
1F
100
AcDbEntity
  8
0
  6
CONTINUOUS
 62
     7
100
AcDbDimension
  2
_D_4
 10
249.6397464168
 20
149.2805953693
 30
0.0
 11
214.6884233738
 21
149.2805953693
 31
0.0
 70
   160
  1
<>
  3
SLDDIMSTYLE0
100
AcDbAlignedDimension
 13
169.9397464168
 23
140.2724868576
 33
0.0
 14
249.6397464168
 24
137.9724868576
 34
0.0
100
AcDbRotatedDimension
  0
DIMENSION
  5
50A
330
1F
100
AcDbEntity
  8
0
  6
CONTINUOUS
 62
     7
100
AcDbDimension
  2
_D_5
 10
253.6397464168
 20
149.2805953693
 30
0.0
 11
251.5130843166
 21
149.2805953693
 31
0.0
 70
   160
  1
<>
  3
SLDDIMSTYLE1
100
AcDbAlignedDimension
 13
249.6397464168
 23
137.9724868576
 33
0.0
 14
253.6397464168
 24
135.8724868576
 34
0.0
100
AcDbRotatedDimension
  0
DIMENSION
  5
516
330
1F
100
AcDbEntity
  8
0
  6
CONTINUOUS
 62
     7
100
AcDbDimension
  2
_D_6
 10
217.6542631183
 20
110.1224868576
 30
0.0
 11
217.6542631183
 21
100.2021380929
 31
0.0
 70
   160
  1
%%c<>
  3
SLDDIMSTYLE2
100
AcDbAlignedDimension
 13
201.1897464168
 23
137.8224868576
 33
0.0
 14
201.1897464168
 24
110.1224868576
 34
0.0
 50
90.0
100
AcDbRotatedDimension
  0
MTEXT
  5
524
330
1F
100
AcDbEntity
  8
0
  6
CONTINUOUS
 62
     7
100
AcDbMText
 10
261.4389262694
 20
106.1661503589
 30
0.0
 40
2.38125
 41
0.0
 71
     1
 72
     1
  1
M25.4X32山
  7
SLDTEXTSTYLE0
  0
LEADER
  5
526
330
1F
100
AcDbEntity
  8
0
  6
CONTINUOUS
 62
     7
100
AcDbLeader
  3
SLDDIMSTYLE3
 76
     3
 10
252.1611244365
 20
111.2724868576
 30
0.0
 10
260.887283237
 20
103.0057803468
 30
0.0
 10
277.225433526
 20
103.0057803468
 30
0.0
1001
ACAD
1000
DSTYLE
1002
{
1070
     6
1000
OPEN30
1002
}
  0
MTEXT
  5
527
330
1F
100
AcDbEntity
  8
0
  6
CONTINUOUS
 62
     7
100
AcDbMText
 10
56.1006851039
 20
113.7559192639
 30
0.0
 40
2.38125
 41
0.0
 71
     1
 72
     1
  1
M22.5XP0.5
  7
SLDTEXTSTYLE0
  0
LEADER
  5
528
330
1F
100
AcDbEntity
  8
0
  6
CONTINUOUS
 62
     7
100
AcDbLeader
  3
SLDDIMSTYLE3
 76
     3
 10
86.9397464168
 20
123.9535919937
 30
0.0
 10
72.4075144509
 20
110.6358381503
 30
0.0
 10
56.0693641618
 20
110.6358381503
 30
0.0
1001
ACAD
1000
DSTYLE
1002
{
1070
     6
1000
OPEN30
1002
}
  0
MTEXT
  5
529
330
1F
100
AcDbEntity
  8
0
  6
CONTINUOUS
 62
     7
100
AcDbMText
 10
54.5131843081
 20
109.7085979884
 30
0.0
 40
2.38125
 41
0.0
 71
     1
 72
     1
  1
(ﾌｨﾙﾀｰ用ﾈｼﾞ)
  7
SLDTEXTSTYLE0
  0
MTEXT
  5
52A
330
1F
100
AcDbEntity
  8
0
  6
CONTINUOUS
 62
     7
100
AcDbMText
 10
261.5946741563
 20
102.8263487063
 30
0.0
 40
2.38125
 41
0.0
 71
     1
 72
     1
  1
(Cﾏｳﾝﾄﾈｼﾞ)
  7
SLDTEXTSTYLE0
  0
MTEXT
  5
52B
330
1F
100
AcDbEntity
  8
0
  6
CONTINUOUS
 62
     7
100
AcDbMText
 10
272.9837209302
 20
7.9945926228
 30
0.0
 40
2.38125
 41
0.0
 71
     1
 72
     1
  1
2023.5.17
  7
SLDTEXTSTYLE0
  0
LINE
  5
52C
330
1F
100
AcDbEntity
  8
0
  6
CENTERX2
 62
     7
100
AcDbLine
 10
273.8548401946
 20
123.9724868576
 30
0.0
 11
21.8107979603
 21
123.9724868576
 31
0.0
  0
LINE
  5
52D
330
1F
100
AcDbEntity
  8
0
  6
CENTERX2
 62
     7
100
AcDbLine
 10
236.6397464168
 20
132.1949384197
 30
0.0
 11
236.6397464168
 21
147.1949384197
 31
0.0
  0
LINE
  5
52E
330
1F
100
AcDbEntity
  8
0
  6
CENTERX2
 62
     7
100
AcDbLine
 10
236.6397464168
 20
120.8612610765
 30
0.0
 11
236.6397464168
 21
111.3612610765
 31
0.0
  0
ENDSEC
  0
SECTION
  2
OBJECTS
  0
DICTIONARY
  5
C
330
0
100
AcDbDictionary
  3
ACAD_GROUP
350
D
  3
ACAD_MLINESTYLE
350
17
  3
ACAD_SCALELIST
350
47
1001
ACAD
1000
TREAT_AS_HARD
1070
     0
  0
DICTIONARY
  5
D
102
{ACAD_REACTORS
330
C
102
}
330
C
100
AcDbDictionary
1001
ACAD
1000
TREAT_AS_HARD
1070
     0
  0
DICTIONARY
  5
17
102
{ACAD_REACTORS
330
C
102
}
330
C
100
AcDbDictionary
  3
STANDARD
350
18
1001
ACAD
1000
TREAT_AS_HARD
1070
     0
  0
DICTIONARY
  5
47
102
{ACAD_REACTORS
330
C
102
}
330
C
100
AcDbDictionary
1001
ACAD
1000
TREAT_AS_HARD
1070
     0
  0
MLINESTYLE
  5
18
102
{ACAD_REACTORS
330
17
102
}
330
17
100
AcDbMlineStyle
  2
Standard
 70
     0
  3

 62
   256
 51
90.0
 52
90.0
 71
     2
 49
0.5
 62
   256
  6
BYLAYER
 49
-0.5
 62
   256
  6
BYLAYER
  0
ENDSEC
  0
EOF
